osu file format v14

[General]
AudioFilename: opto.mp3
AudioLeadIn: 0
PreviewTime: 90111
Countdown: 0
SampleSet: Soft
StackLeniency: 0.9
Mode: 0
LetterboxInBreaks: 0
WidescreenStoryboard: 0

[Editor]
Bookmarks: 732,15628,38800,48732,61973,78525,91766,105007,118249,123214,146387,156549,183978,194263,206263,226835,240549,261121
DistanceSpacing: 1.1
BeatDivisor: 4
GridSize: 32
TimelineZoom: 2.1

[Metadata]
Title:ebullient future (Japanese TV-EDIT ver.) & ever forever OG mix.
TitleUnicode:ebullient future (Japanese TV-EDIT ver.) & ever forever OG mix.
Artist:Various Artists
ArtistUnicode:Various Artists
Creator:Shad0w1and
Version:Yuukyuu no Tsubasa
Source:ef - a tale of melodies.
Tags:eternal feather 悠久の翼 minori ELISA 羽山ミズキ 後藤麻衣 雨宮優子 中島裕美子 宮村みやこ 田口弘子 新藤景 岡田純子 新藤千尋 やなせなつみ Mizuki Hayama Mai Goto Yuko Amamiya Yumiko Nakajima Miyako Miyamura Hiroko Taguchi Kei Shindou Junko Okada Chihiro Shindou Natsumi Yanase
BeatmapID:959918
BeatmapSetID:447034

[Difficulty]
HPDrainRate:5.5
CircleSize:4.2
OverallDifficulty:8.9
ApproachRate:9.7
SliderMultiplier:2.5
SliderTickRate:1

[Events]
//Background and Video events
0,0,"BG.png",0,0
//Break Periods
//Storyboard Layer 0 (Background)
//Storyboard Layer 1 (Fail)
//Storyboard Layer 2 (Pass)
//Storyboard Layer 3 (Foreground)
//Storyboard Sound Samples

[TimingPoints]
72,428.571428571429,4,2,1,70,1,0
286,-100,4,2,1,90,0,0
732,413.793103448276,4,2,1,100,1,0
732,-90.9090909090909,4,2,1,100,0,1
12318,-100,4,2,1,80,0,0
13559,-111.111111111111,4,2,1,70,0,0
13973,-125,4,2,1,60,0,0
15628,-200,4,3,1,40,0,0
28869,-133.333333333333,4,3,1,50,0,0
35490,-133.333333333333,4,3,1,50,0,0
38800,-100,4,2,1,60,0,0
40456,-100,4,2,1,65,0,0
42111,-100,4,2,1,70,0,0
43766,-100,4,2,1,75,0,0
45421,-100,4,2,1,80,0,0
47076,-100,4,2,1,85,0,0
48732,-90.9090909090909,4,2,1,100,0,1
75214,-90.9090909090909,4,2,1,90,0,0
78525,-133.333333333333,4,3,1,60,0,0
91766,-105.263157894737,4,2,1,90,0,0
105007,-90.9090909090909,4,2,1,90,0,1
122800,-90.9090909090909,4,2,1,90,0,0
123214,-90.9090909090909,4,2,1,90,0,1
146387,-90.9090909090909,4,2,1,100,0,1
148042,423.280423280423,4,2,1,100,1,1
148042,-90.9090909090909,4,2,1,100,0,1
153121,428.571428571429,4,2,1,100,1,0
156549,-117.647058823529,4,2,1,70,0,0
170263,-117.647058823529,4,2,1,50,0,0
170371,-117.647058823529,4,2,1,70,0,0
180549,-117.647058823529,4,2,1,50,0,0
180656,-117.647058823529,4,2,1,70,0,0
182906,-117.647058823529,4,2,1,60,0,0
183549,-117.647058823529,4,2,1,70,0,0
183978,-133.333333333333,4,2,1,60,0,0
190835,-133.333333333333,4,2,1,50,0,0
191049,-133.333333333333,4,2,1,60,0,0
194263,-100,4,2,1,70,0,0
201121,-111.111111111111,4,2,1,70,0,0
201978,-105.263157894737,4,2,1,75,0,0
202835,-100,4,2,1,80,0,0
203692,-95.2380952380952,4,2,1,85,0,0
204121,-95.2380952380952,4,2,1,95,0,0
204549,-95.2380952380952,4,2,1,100,0,0
206263,-90.9090909090909,4,2,1,95,0,1
237121,-90.9090909090909,4,2,1,95,0,0
238835,-90.9090909090909,4,2,1,75,0,0
239156,-90.9090909090909,4,2,1,85,0,0
239478,-90.9090909090909,4,2,1,95,0,0
240549,-100,4,2,1,100,0,0
240978,-100,4,2,1,70,0,0
250888,-100,4,2,1,40,0,0
252549,-100,4,2,1,70,0,0
252603,-100,4,2,1,40,0,0
254263,-100,4,2,1,70,0,0
254317,-100,4,2,1,40,0,0
255978,-100,4,2,1,30,0,0
257692,-100,4,2,1,20,0,0
259406,-100,4,2,1,10,0,0

[Colours]
Combo1 : 208,208,208
Combo2 : 112,241,131
Combo3 : 113,176,255
Combo4 : 208,98,98
Combo5 : 255,255,128

[HitObjects]
98,91,72,5,2,0:0:0:0:
31,279,286,1,8,0:0:0:0:
31,279,732,6,0,P|101:265|185:239,1,137.500004196167,6|0,0:1|0:0,0:0:0:0:
360,346,1145,2,0,P|270:338|201:345,1,137.500004196167,8|0,0:0|0:0,0:0:0:0:
426,254,1559,6,0,P|436:229|444:146,1,68.7500020980836,2|0,0:0|0:0,0:0:0:0:
315,112,1766,2,0,P|319:152|339:220,1,68.7500020980836,2|0,0:0|0:0,0:0:0:0:
475,15,1973,1,8,0:0:0:0:
475,15,2180,2,0,P|442:59|423:98,1,68.7500020980836
325,179,2387,6,0,P|387:168|477:171,1,137.500004196167,2|0,0:0|0:0,0:0:0:0:
125,65,2800,2,0,P|191:77|286:79,1,137.500004196167,8|0,0:0|0:0,0:0:0:0:
56,208,3214,6,0,P|43:175|41:134,1,68.7500020980836,2|0,0:0|0:0,0:0:0:0:
169,258,3421,2,0,P|151:293|140:328,1,68.7500020980836,2|0,0:0|0:0,0:0:0:0:
280,216,3628,2,0,P|268:143|259:55,1,137.500004196167,8|0,0:0|0:0,0:0:0:0:
473,157,4042,6,0,P|459:218|379:267,1,137.500004196167,2|0,0:0|0:0,0:0:0:0:
376,46,4456,2,0,L|528:59,1,137.500004196167,8|0,0:0|0:0,0:0:0:0:
365,160,4869,6,0,P|321:145|285:120,1,68.7500020980836,2|0,0:0|0:0,0:0:0:0:
300,314,5076,2,0,P|288:281|287:243,1,68.7500020980836,2|0,0:0|0:0,0:0:0:0:
402,262,5283,1,8,0:0:0:0:
402,262,5490,2,0,P|450:255|495:252,1,68.7500020980836
300,314,5697,6,0,P|231:312|162:311,1,137.500004196167,2|0,0:0|0:0,0:0:0:0:
179,140,6111,2,0,P|244:157|279:215,1,137.500004196167,8|0,0:0|0:0,0:0:0:0:
80,199,6525,2,0,P|78:135|56:25,1,137.500004196167,6|0,0:0|0:0,0:0:0:0:
182,245,6938,6,0,P|172:282|157:325,1,68.7500020980836,14|0,0:0|0:0,0:0:0:0:
76,384,7145,2,0,P|60:353|47:321,1,68.7500020980836,2|0,0:0|0:0,0:0:0:0:
80,199,7352,5,6,0:1:0:0:
250,384,7559,1,0,0:0:0:0:
318,227,7766,2,0,P|249:234|181:244,1,137.500004196167,8|0,0:0|0:0,0:0:0:0:
403,135,8180,6,0,P|362:128|328:117,1,68.7500020980836,2|0,0:0|0:0,0:0:0:0:
495,206,8387,2,0,P|466:224|435:240,1,68.7500020980836,2|0,0:0|0:0,0:0:0:0:
512,81,8594,1,8,0:0:0:0:
512,81,8800,2,0,P|488:54|462:25,1,68.7500020980836
349,18,9007,5,2,0:0:0:0:
495,206,9214,1,0,0:0:0:0:
240,202,9421,2,0,P|269:146|355:122,1,137.500004196167,8|0,0:0|0:0,0:0:0:0:
435,240,9835,6,0,P|388:238|357:233,1,68.7500020980836,2|0,0:0|0:0,0:0:0:0:
218,330,10042,2,0,P|254:325|286:327,1,68.7500020980836,2|0,0:0|0:0,0:0:0:0:
112,375,10249,2,0,P|104:323|101:223,1,137.500004196167,8|0,0:0|0:0,0:0:0:0:
366,234,10663,6,0,P|294:229|212:211,1,137.500004196167,6|0,0:1|0:0,0:0:0:0:
465,147,11076,2,0,P|465:215|454:290,1,137.500004196167,8|0,0:0|0:0,0:0:0:0:
390,374,11387,1,0,0:0:0:0:
286,327,11490,6,0,P|218:337|151:356,1,137.500004196167,2|0,0:0|0:0,0:0:0:0:
62,153,11904,2,0,P|138:200|173:259,1,137.500004196167,8|2,0:0|0:0,0:0:0:0:
366,234,12318,6,0,P|397:207|411:113,1,125,2|0,0:0|0:0,0:0:0:0:
248,33,12732,1,8,0:0:0:0:
248,33,12938,6,0,P|201:42|149:44,1,62.5,2|10,0:0|0:0,0:0:0:0:
240,134,13145,2,0,P|269:145|314:146,1,62.5,2|8,0:0|0:0,0:0:0:0:
164,238,13352,1,2,0:0:0:0:
164,238,13559,6,0,P|217:230|300:227,1,112.499996566773,8|0,0:0|0:0,0:0:0:0:
415,127,13973,6,0,P|396:188|386:255,1,100,2|0,0:0|0:0,0:0:0:0:
391,344,14387,6,0,P|368:265|447:290,1,200
300,147,15007,5,2,0:0:0:0:
235,284,15214,1,8,0:0:0:0:
235,284,15628,6,0,B|265:271|306:267|345:274|345:274|277:163|277:163|386:203|466:165|466:165|425:247,1,500,2|0,0:0|0:0,0:0:0:0:
310,58,17697,6,0,P|379:77|443:59,1,125
345,274,18525,1,0,0:0:0:0:
128,177,18938,6,0,B|118:108|160:54|160:54|91:65,1,187.5,2|0,0:0|0:0,0:0:0:0:
213,170,19766,2,0,B|201:133|231:102|231:102|269:123|307:113|307:113|335:133|335:133|406:133,1,250
397,133,21421,6,0,B|395:173|406:214|406:214|376:265,1,125
193,313,22249,6,0,B|166:317|138:341|138:341|183:344|228:373|228:373|279:346|318:350,1,250,2|0,0:0|0:0,0:0:0:0:
223,171,23490,1,0,0:0:0:0:
32,211,23904,6,0,B|36:161|24:128|24:128|65:85,1,125,2|0,0:0|0:0,0:0:0:0:
241,32,24732,1,0,0:0:0:0:
266,195,25145,1,0,0:0:0:0:
305,384,25559,6,0,B|329:331|363:317|363:317|346:293|321:284|321:284|372:245|380:205|364:150|364:150|394:175|409:222,1,375,2|0,0:0|0:0,0:0:0:0:
266,195,27214,6,0,B|226:204|195:221|195:221|158:210|131:183|83:193|83:193|121:212|139:241,1,250
242,385,28456,6,0,L|318:384,1,62.5,0|0,0:0|0:0,0:0:0:0:
400,239,28869,5,2,0:0:0:0:
266,195,29076,1,0,0:0:0:0:
266,53,29283,1,0,0:0:0:0:
400,10,29490,1,0,0:0:0:0:
267,336,29904,5,0,0:0:0:0:
266,195,30111,1,0,0:0:0:0:
266,53,30318,2,0,L|364:61,1,93.7500035762788,0|0,0:0|0:0,0:0:0:0:
278,328,30938,6,0,L|149:316,1,93.7500035762788,0|0,0:0|0:0,0:0:0:0:
266,195,31352,2,0,L|366:181,1,93.7500035762788,0|0,0:0|0:0,0:0:0:0:
166,207,31766,1,0,0:0:0:0:
253,86,31973,1,0,0:0:0:0:
277,295,32180,1,2,0:0:0:0:
277,295,32594,5,0,0:0:0:0:
358,182,32800,1,0,0:0:0:0:
166,207,33007,1,0,0:0:0:0:
370,292,33214,1,0,0:0:0:0:
256,102,33421,1,0,0:0:0:0:
277,295,33628,2,0,L|389:292,1,93.7500035762788
124,110,34249,5,0,0:0:0:0:
255,34,34456,1,0,0:0:0:0:
166,207,34663,2,0,P|111:215|60:199,1,93.7500035762788
343,116,35076,2,0,P|406:124|452:105,1,93.7500035762788
255,34,35490,6,0,L|255:226,1,187.500007152558,2|0,0:2|0:0,0:0:0:0:
124,110,36111,1,0,0:0:0:0:
433,115,36318,1,8,0:2:0:0:
433,115,36732,6,0,L|334:115,1,93.7500035762788,2|0,0:2|0:0,0:0:0:0:
183,295,37145,2,0,L|277:295,1,93.7500035762788,2|0,0:2|0:0,0:0:0:0:
124,110,37559,2,0,L|30:110,1,93.7500035762788
276,295,37973,6,0,P|287:220|217:162,1,140.625005364418,8|0,0:2|0:0,0:0:0:0:
118,220,38387,6,0,B|94:248|94:248|198:249,1,140.625005364418
124,110,38800,6,0,P|51:106|-24:88,1,125,6|0,0:0|0:0,0:0:0:0:
373,167,39214,2,0,P|294:167|229:175,1,125,8|0,0:0|0:0,0:0:0:0:
227,56,39525,1,0,0:0:0:0:
227,56,39628,6,0,P|270:11|357:17,1,125,2|0,0:0|0:0,0:0:0:0:
478,201,40042,1,8,0:0:0:0:
266,295,40249,5,0,0:0:0:0:
266,295,40352,1,0,0:0:0:0:
266,295,40456,2,0,P|254:230|249:158,1,125,6|0,0:0|0:0,0:0:0:0:
389,43,40869,2,0,P|380:113|369:178,1,125,8|0,0:0|0:0,0:0:0:0:
118,220,41283,5,2,0:0:0:0:
227,56,41490,1,0,0:0:0:0:
370,292,41697,1,8,0:0:0:0:
4,222,41904,5,0,0:0:0:0:
4,222,42007,1,0,0:0:0:0:
4,222,42111,2,0,P|22:159|75:122,1,125,6|0,0:0|0:0,0:0:0:0:
168,370,42525,1,8,0:0:0:0:
249,171,42732,5,0,0:0:0:0:
249,171,42835,1,0,0:0:0:0:
249,171,42938,2,0,L|243:98,1,62.5,2|0,0:0|0:0,0:0:0:0:
365,144,43145,2,0,L|374:47,1,62.5
491,178,43352,2,0,L|480:22,1,125,8|0,0:0|0:0,0:0:0:0:
330,263,43766,6,0,P|262:266|172:276,1,125,6|0,0:0|0:0,0:0:0:0:
198,68,44180,2,0,P|242:110|248:170,1,125,8|0,0:0|0:0,0:0:0:0:
42,122,44594,2,0,P|66:66|105:-5,1,125,2|0,0:0|0:0,0:0:0:0:
146,188,45007,6,0,L|146:157,2,31.25,8|0|0,0:0|0:0|0:0,0:0:0:0:
147,221,45214,1,0,0:0:0:0:
287,27,45421,5,6,0:1:0:0:
287,59,45525,1,0,0:0:0:0:
375,105,45628,5,0,0:0:0:0:
375,137,45732,1,0,0:0:0:0:
278,162,45835,5,0,0:0:0:0:
278,194,45938,1,0,0:0:0:0:
370,240,46042,6,0,L|433:239,2,41.6666666666667,0|0|0,0:0|0:0|0:0,0:0:0:0:
365,332,46249,5,6,0:1:0:0:
344,337,46318,1,0,0:0:0:0:
323,335,46387,1,0,0:0:0:0:
302,329,46456,1,0,0:0:0:0:
283,319,46525,1,0,0:0:0:0:
267,304,46594,1,0,0:0:0:0:
265,275,46663,5,2,0:0:0:0:
253,257,46732,1,0,0:0:0:0:
237,244,46801,1,0,0:0:0:0:
218,233,46870,1,0,0:0:0:0:
198,227,46939,1,0,0:0:0:0:
176,226,47008,1,0,0:0:0:0:
150,239,47076,6,0,L|131:334,1,62.5,6|0,0:1|0:0,0:0:0:0:
36,128,47283,2,0,L|20:205,1,62.5,2|0,0:0|0:0,0:0:0:0:
295,164,47490,2,0,L|276:259,1,62.5,6|0,0:1|0:0,0:0:0:0:
184,45,47697,2,0,L|168:122,1,62.5,2|0,0:0|0:0,0:0:0:0:
150,239,47904,5,2,0:0:0:0:
176,302,48007,1,0,0:0:0:0:
239,329,48111,1,2,0:0:0:0:
302,304,48214,1,0,0:0:0:0:
329,240,48318,5,2,0:0:0:0:
392,215,48421,1,0,0:0:0:0:
455,241,48525,1,2,0:0:0:0:
481,304,48628,1,0,0:0:0:0:
455,367,48732,6,0,P|384:361|293:369,1,137.500004196167,6|0,0:1|0:0,0:0:0:0:
42,332,49145,2,0,P|112:321|182:299,1,137.500004196167,8|0,0:0|0:0,0:0:0:0:
74,145,49456,1,0,0:0:0:0:
74,145,49559,6,0,P|72:182|78:263,1,68.7500020980836,2|0,0:0|0:0,0:0:0:0:
178,370,49766,2,0,P|177:329|172:265,1,68.7500020980836,2|0,0:0|0:0,0:0:0:0:
281,178,49973,1,8,0:0:0:0:
281,178,50180,6,0,P|316:177|361:170,1,68.7500020980836
312,307,50387,2,0,P|255:300|169:301,1,137.500004196167,2|0,0:0|0:0,0:0:0:0:
72,213,50697,1,0,0:0:0:0:
72,213,50800,5,8,0:0:0:0:
349,172,51007,1,0,0:0:0:0:
130,52,51214,2,0,P|134:96|143:147,1,68.7500020980836,2|0,0:0|0:0,0:0:0:0:
230,227,51421,2,0,P|237:197|242:156,1,68.7500020980836,2|0,0:0|0:0,0:0:0:0:
72,213,51628,1,8,0:0:0:0:
72,213,51835,5,0,0:0:0:0:
72,213,51938,1,0,0:0:0:0:
39,325,52042,2,0,P|103:310|199:298,1,137.500004196167,4|0,0:1|0:0,0:0:0:0:
406,375,52456,2,0,P|465:356|498:284,1,137.500004196167,8|0,0:0|0:0,0:0:0:0:
307,238,52766,1,0,0:0:0:0:
307,238,52869,6,0,L|313:321,1,68.7500020980836,2|0,0:0|0:0,0:0:0:0:
188,184,53076,2,0,L|206:85,1,68.7500020980836,2|0,0:0|0:0,0:0:0:0:
72,213,53283,1,8,0:0:0:0:
72,213,53490,5,0,0:0:0:0:
72,213,53594,1,0,0:0:0:0:
163,319,53697,2,0,L|192:162,1,137.500004196167,6|0,0:0|0:0,0:0:0:0:
307,238,54007,1,0,0:0:0:0:
307,238,54111,6,0,P|360:240|413:237,1,68.7500020980836,12|0,0:0|0:0,0:0:0:0:
231,327,54318,2,0,L|147:317,1,68.7500020980836,2|0,0:0|0:0,0:0:0:0:
351,347,54525,1,6,0:0:0:0:
470,183,54732,5,2,0:0:0:0:
402,166,54835,1,2,0:0:0:0:
334,150,54938,1,8,0:0:0:0:
267,134,55042,1,8,0:0:0:0:
200,116,55145,1,2,0:0:0:0:
330,281,55352,6,0,L|363:384,1,68.7500020980836,6|0,0:1|0:0,0:0:0:0:
334,150,55559,2,0,P|360:178|390:223,1,68.7500020980836
253,61,55765,2,0,P|317:50|432:43,1,137.500004196167,8|0,0:0|0:0,0:0:0:0:
334,150,56076,1,0,0:0:0:0:
216,242,56179,6,0,L|208:155,1,68.7500020980836,2|0,0:0|0:0,0:0:0:0:
122,46,56386,2,0,L|114:118,1,68.7500020980836,2|0,0:0|0:0,0:0:0:0:
27,306,56594,1,8,0:0:0:0:
27,306,56800,5,0,0:0:0:0:
27,306,56903,1,0,0:0:0:0:
110,246,57007,2,0,P|57:201|0:165,1,137.500004196167,2|0,0:0|0:0,0:0:0:0:
114,114,57317,1,0,0:0:0:0:
114,114,57420,5,8,0:0:0:0:
131,360,57627,1,0,0:0:0:0:
260,182,57834,2,0,P|294:172|345:170,1,68.7500020980836,2|0,0:0|0:0,0:0:0:0:
177,257,58041,2,0,P|129:249|85:240,1,68.7500020980836,2|0,0:0|0:0,0:0:0:0:
114,114,58248,1,8,0:0:0:0:
114,114,58455,5,0,0:0:0:0:
114,114,58558,1,0,0:0:0:0:
220,50,58662,2,0,P|249:129|259:186,1,137.500004196167,6|0,0:0|0:0,0:0:0:0:
18,199,59076,2,0,P|51:140|113:113,1,137.500004196167,8|0,0:0|0:0,0:0:0:0:
129,223,59386,1,0,0:0:0:0:
69,317,59490,6,0,L|-13:323,1,68.7500020980836,6|0,0:0|0:0,0:0:0:0:
129,223,59697,2,0,L|54:187,1,68.7500020980836,2|0,0:0|0:0,0:0:0:0:
227,171,59904,2,0,L|180:102,1,68.7500020980836,8|0,0:0|0:0,0:0:0:0:
337,174,60111,2,0,L|331:91,1,68.7500020980836,8|0,0:0|0:0,0:0:0:0:
451,224,60318,6,0,P|422:293|384:358,1,137.500004196167,6|0,0:0|0:0,0:0:0:0:
303,280,60628,1,0,0:0:0:0:
337,174,60732,6,0,P|370:158|407:134,1,68.7500020980836,8|0,0:0|0:0,0:0:0:0:
234,287,60938,2,0,P|263:285|342:269,1,68.7500020980836,2|0,0:0|0:0,0:0:0:0:
208,153,61145,5,8,0:0:0:0:
136,127,61249,1,8,0:0:0:0:
77,173,61352,1,2,0:0:0:0:
84,247,61455,1,2,0:0:0:0:
147,204,61559,5,8,0:0:0:0:
77,173,61662,1,8,0:0:0:0:
14,216,61766,1,10,0:0:0:0:
21,290,61869,1,2,0:0:0:0:
90,321,61973,6,0,P|165:308|280:299,1,137.500004196167,6|0,0:1|0:0,0:0:0:0:
444,315,62386,2,0,P|482:295|484:154,1,137.500004196167,8|0,0:0|0:0,0:0:0:0:
266,57,62800,6,0,L|261:134,1,68.7500020980836,2|0,0:0|0:0,0:0:0:0:
386,161,63007,2,0,L|376:92,1,68.7500020980836,2|0,0:0|0:0,0:0:0:0:
291,244,63214,1,8,0:0:0:0:
291,244,63421,1,0,0:0:0:0:
224,227,63524,1,0,0:0:0:0:
156,211,63628,5,6,0:1:0:0:
462,125,63835,1,0,0:0:0:0:
301,315,64042,1,8,0:0:0:0:
310,68,64249,1,0,0:0:0:0:
448,285,64456,6,0,L|404:368,1,68.7500020980836,2|0,0:0|0:0,0:0:0:0:
404,176,64663,2,0,L|497:170,1,68.7500020980836,2|0,0:0|0:0,0:0:0:0:
345,266,64869,1,8,0:0:0:0:
450,58,65076,5,0,0:0:0:0:
382,44,65179,1,0,0:0:0:0:
314,29,65283,2,0,B|259:19|259:19|231:41|159:59,1,137.500004196167,6|0,0:1|0:0,0:0:0:0:
0,302,65697,2,0,B|48:313|48:313|136:287,1,137.500004196167,8|0,0:0|0:0,0:0:0:0:
266,246,66007,1,0,0:0:0:0:
266,246,66111,6,0,L|259:336,1,68.7500020980836,2|0,0:0|0:0,0:0:0:0:
405,353,66318,2,0,L|393:257,1,68.7500020980836,2|0,0:0|0:0,0:0:0:0:
370,148,66525,1,12,0:0:0:0:
222,378,66731,5,4,0:0:0:0:
157,353,66835,1,0,0:0:0:0:
96,317,66938,2,0,B|96:271|96:271|144:255|169:204,1,137.500004196167,6|0,0:1|0:0,0:0:0:0:
64,157,67248,1,4,0:0:0:0:
29,264,67352,6,0,L|118:274,1,68.7500020980836,8|0,0:0|0:0,0:0:0:0:
213,137,67559,2,0,L|145:140,1,68.7500020980836,4|0,0:0|0:0,0:0:0:0:
247,265,67766,5,2,0:0:0:0:
308,233,67869,1,8,0:0:0:0:
340,172,67973,1,8,0:0:0:0:
345,103,68076,1,2,0:0:0:0:
504,189,68180,5,10,0:0:0:0:
444,222,68283,1,2,0:0:0:0:
405,278,68386,1,8,0:0:0:0:
380,342,68490,1,2,0:0:0:0:
272,384,68594,6,0,P|256:353|247:305,1,68.7500020980836,6|0,0:1|0:0,0:0:0:0:
143,287,68800,2,0,P|131:319|110:351,1,68.7500020980836,2|0,0:0|0:0,0:0:0:0:
66,169,69006,2,0,P|129:188|221:143,1,137.500004196167,8|0,0:0|0:0,0:0:0:0:
129,5,69317,1,0,0:0:0:0:
129,5,69421,6,0,P|126:41|130:76,1,68.7500020980836,2|0,0:0|0:0,0:0:0:0:
271,108,69628,2,0,P|268:78|257:33,1,68.7500020980836,2|0,0:0|0:0,0:0:0:0:
177,212,69835,1,8,0:0:0:0:
177,212,70042,5,0,0:0:0:0:
243,226,70144,1,0,0:0:0:0:
310,242,70249,2,0,B|398:260|398:260|467:230,1,137.500004196167,6|0,0:1|0:0,0:0:0:0:
388,128,70558,1,0,0:0:0:0:
388,128,70661,1,8,0:0:0:0:
279,382,70868,1,0,0:0:0:0:
179,84,71076,6,0,L|71:80,1,68.7500020980836,2|0,0:0|0:0,0:0:0:0:
177,212,71282,2,0,L|262:204,1,68.7500020980836,2|0,0:0|0:0,0:0:0:0:
322,96,71489,1,8,0:0:0:0:
322,96,71696,5,0,0:0:0:0:
329,164,71799,1,0,0:0:0:0:
338,232,71903,2,0,P|400:243|514:222,1,137.500004196167,6|0,0:0|0:0,0:0:0:0:
186,376,72317,2,0,P|115:361|14:365,1,137.500004196167,8|0,0:0|0:0,0:0:0:0:
138,240,72627,1,0,0:0:0:0:
138,240,72730,6,0,P|144:214|148:145,1,68.7500020980836,2|0,0:0|0:0,0:0:0:0:
277,210,72937,2,0,P|271:172|265:114,1,68.7500020980836,2|0,0:0|0:0,0:0:0:0:
247,342,73145,2,0,P|315:337|421:334,1,137.500004196167,8|2,0:0|0:0,0:0:0:0:
477,232,73456,1,0,0:0:0:0:
477,232,73559,6,0,P|493:163|453:67,1,137.500004196167,6|0,0:1|0:0,0:0:0:0:
240,164,73972,2,0,B|138:170|138:170|175:120,1,137.500004196167,8|0,0:0|0:0,0:0:0:0:
392,318,74387,2,0,B|351:344|351:344|315:330|249:328,1,137.500004196167,2|0,0:0|0:0,0:0:0:0:
57,196,74800,2,0,B|38:142|57:89|57:89|94:82,1,137.500004196167,8|0,0:0|0:0,0:0:0:0:
194,64,75111,1,0,0:0:0:0:
251,177,75214,5,14,0:0:0:0:
251,199,75283,1,0,0:0:0:0:
252,221,75352,1,0,0:0:0:0:
252,244,75421,2,0,L|324:246,1,68.7500020980836,2|0,0:0|0:0,0:0:0:0:
390,371,75628,6,0,L|252:375,1,137.500004196167,0|2,0:0|0:0,0:0:0:0:
113,187,76042,2,0,L|266:175,1,137.500004196167,2|0,0:0|0:0,0:0:0:0:
419,171,76352,1,0,0:0:0:0:
419,171,76456,1,8,0:0:0:0:
239,39,76663,5,10,0:0:0:0:
242,61,76732,1,0,0:0:0:0:
243,83,76800,1,0,0:0:0:0:
247,105,76869,2,0,L|257:252,1,137.500004196167,6|0,0:0|0:0,0:0:0:0:
257,242,77180,1,0,0:0:0:0:
362,157,77283,6,0,L|374:248,1,68.7500020980836,2|0,0:0|0:0,0:0:0:0:
147,133,77490,2,0,L|151:221,1,68.7500020980836,2|0,0:0|0:0,0:0:0:0:
239,39,77697,5,8,0:0:0:0:
307,34,77800,1,0,0:0:0:0:
376,30,77904,1,0,0:0:0:0:
238,290,78111,5,8,0:0:0:0:
169,284,78214,1,0,0:0:0:0:
100,277,78318,1,0,0:0:0:0:
358,101,78525,6,0,L|366:200,1,93.7500035762788,2|0,0:0|0:0,0:0:0:0:
159,190,78938,2,0,L|266:181,1,93.7500035762788,0|0,0:0|0:0,0:0:0:0:
246,384,79352,2,0,L|236:267,1,93.7500035762788,0|0,0:0|0:0,0:0:0:0:
443,312,79766,1,0,0:0:0:0:
348,310,79973,6,0,L|341:362,1,31.2500011920929,0|0,0:0|0:0,0:0:0:0:
365,194,80180,5,2,0:0:0:0:
168,263,80387,1,0,0:0:0:0:
343,340,80594,1,0,0:0:0:0:
272,136,80800,1,0,0:0:0:0:
231,330,81007,2,0,P|187:355|116:341,2,93.7500035762788,0|0|0,0:0|0:0|0:0,0:0:0:0:
83,212,81628,1,0,0:0:0:0:
168,263,81835,6,0,P|181:230|169:165,1,93.7500035762788,2|0,0:0|0:0,0:0:0:0:
15,49,82249,2,0,P|5:101|25:148,1,93.7500035762788,0|0,0:0|0:0,0:0:0:0:
204,25,82663,2,0,P|245:28|315:45,2,93.7500035762788,2|0|0,0:0|0:0|0:0,0:0:0:0:
329,200,83283,1,0,0:0:0:0:
482,138,83490,6,0,L|492:44,1,93.7500035762788,2|0,0:0|0:0,0:0:0:0:
319,106,83904,2,0,L|329:200,1,93.7500035762788,0|0,0:0|0:0,0:0:0:0:
138,312,84318,1,0,0:0:0:0:
218,131,84525,1,0,0:0:0:0:
336,297,84732,1,0,0:0:0:0:
107,210,84938,1,0,0:0:0:0:
169,383,85145,6,0,P|212:365|257:331,1,93.7500035762788,2|0,0:0|0:0,0:0:0:0:
390,167,85559,2,0,P|357:135|305:97,1,93.7500035762788,0|0,0:0|0:0,0:0:0:0:
107,210,85973,2,0,P|148:228|207:242,1,93.7500035762788,0|0,0:0|0:0,0:0:0:0:
439,239,86387,1,0,0:0:0:0:
263,148,86594,1,0,0:0:0:0:
349,290,86800,6,0,L|349:389,1,93.7500035762788,2|0,0:0|0:0,0:0:0:0:
111,303,87214,2,0,L|106:192,1,93.7500035762788,0|0,0:0|0:0,0:0:0:0:
277,351,87628,1,2,0:0:0:0:
236,218,87835,1,0,0:0:0:0:
116,382,88042,1,0,0:0:0:0:
449,72,88456,5,2,0:0:0:0:
0,177,89283,1,2,0:0:0:0:
512,384,90111,5,10,0:0:0:0:
0,13,90938,1,4,0:0:0:0:
269,384,91766,5,2,0:0:0:0:
286,31,92180,1,8,0:0:0:0:
216,193,92387,1,0,0:0:0:0:
264,193,92490,1,8,0:0:0:0:
312,193,92594,1,0,0:0:0:0:
135,73,92800,1,2,0:0:0:0:
162,317,93007,1,8,0:0:0:0:
336,77,93214,1,2,0:0:0:0:
326,351,93421,5,2,0:0:0:0:
212,113,93628,1,0,0:0:0:0:
403,182,93835,1,8,0:0:0:0:
208,330,94042,1,0,0:0:0:0:
162,317,94145,1,8,0:0:0:0:
115,307,94249,1,0,0:0:0:0:
103,109,94456,1,2,0:0:0:0:
259,253,94663,1,8,0:0:0:0:
21,232,94869,1,2,0:0:0:0:
255,115,95076,5,2,0:0:0:0:
249,356,95283,1,0,0:0:0:0:
124,195,95490,1,8,0:0:0:0:
356,227,95697,1,0,0:0:0:0:
341,271,95800,1,8,0:0:0:0:
327,316,95904,1,0,0:0:0:0:
245,127,96111,1,2,0:0:0:0:
192,342,96318,1,8,0:0:0:0:
82,126,96524,1,2,0:0:0:0:
71,384,96732,5,2,0:0:0:0:
205,160,96939,1,0,0:0:0:0:
309,384,97145,1,8,0:0:0:0:
170,255,97353,1,0,0:0:0:0:
216,250,97456,1,8,0:0:0:0:
263,245,97560,1,0,0:0:0:0:
71,384,97767,1,2,0:0:0:0:
114,144,97973,1,8,0:0:0:0:
242,340,98180,1,2,0:0:0:0:
7,229,98387,5,2,0:0:0:0:
235,175,98594,1,0,0:0:0:0:
71,384,98801,1,8,0:0:0:0:
83,104,99008,1,0,0:0:0:0:
129,111,99111,1,8,0:0:0:0:
176,117,99215,1,0,0:0:0:0:
14,298,99422,1,2,0:0:0:0:
17,64,99629,1,8,0:0:0:0:
191,263,99835,1,2,0:0:0:0:
191,6,100042,5,2,0:0:0:0:
75,228,100249,1,0,0:0:0:0:
333,108,100456,1,8,0:0:0:0:
95,72,100663,1,0,0:0:0:0:
108,117,100766,1,8,0:0:0:0:
119,163,100870,1,0,0:0:0:0:
286,29,101077,1,2,0:0:0:0:
255,250,101283,1,8,0:0:0:0:
459,161,101490,1,2,0:0:0:0:
205,115,101697,5,2,0:0:0:0:
402,288,101904,1,0,0:0:0:0:
340,61,102111,1,8,0:0:0:0:
278,298,102318,1,0,0:0:0:0:
230,301,102421,1,8,0:0:0:0:
182,303,102525,1,0,0:0:0:0:
280,128,102732,1,2,0:0:0:0:
333,384,102939,1,8,0:0:0:0:
430,190,103145,1,2,0:0:0:0:
141,197,103352,5,2,0:0:0:0:
344,253,103559,1,0,0:0:0:0:
284,55,103766,1,8,0:0:0:0:
182,303,103973,1,0,0:0:0:0:
230,301,104076,1,8,0:0:0:0:
278,298,104180,1,8,0:0:0:0:
92,133,104387,1,2,0:0:0:0:
114,368,104594,5,8,0:0:0:0:
144,331,104697,1,8,0:0:0:0:
182,303,104800,1,8,0:0:0:0:
227,288,104904,1,2,0:0:0:0:
281,284,105007,6,0,B|336:280|336:280|426:205,1,137.500004196167,6|0,0:0|0:0,0:0:0:0:
170,168,105318,2,0,B|115:164|115:164|25:89,1,137.500004196167,2|0,0:0|0:0,0:0:0:0:
345,132,105628,2,0,B|400:128|400:128|490:53,1,137.500004196167,2|0,0:0|0:0,0:0:0:0:
150,31,106042,6,0,L|171:181,1,137.500004196167,8|8,0:0|0:0,0:0:0:0:
456,289,106456,2,0,L|464:209,1,68.7500020980836,2|0,0:0|0:0,0:0:0:0:
463,75,106663,6,0,P|400:55|325:75,1,137.500004196167,6|0,0:0|0:0,0:0:0:0:
174,247,106973,2,0,P|247:266|316:247,1,137.500004196167,2|0,0:0|0:0,0:0:0:0:
396,183,107283,6,0,L|438:256,1,68.7500020980836,8|0,0:0|0:0,0:0:0:0:
292,184,107490,2,0,L|310:271,1,68.7500020980836,8|0,0:0|0:0,0:0:0:0:
191,157,107697,2,0,L|185:260,1,68.7500020980836,2|0,0:0|0:0,0:0:0:0:
100,87,107904,2,0,L|59:242,1,137.500004196167,2|8,0:0|0:0,0:0:0:0:
269,384,108318,5,14,0:0:0:0:
384,29,108628,1,8,0:0:0:0:
0,97,108938,1,8,0:0:0:0:
226,253,109145,5,2,0:0:0:0:
292,232,109249,1,0,0:0:0:0:
328,174,109352,1,2,0:0:0:0:
315,106,109456,1,0,0:0:0:0:
256,70,109559,2,0,L|180:69,1,68.7500020980836,8|0,0:0|0:0,0:0:0:0:
109,192,109766,2,0,L|194:191,1,68.7500020980836,2|0,0:0|0:0,0:0:0:0:
50,64,109973,5,14,0:0:0:0:
246,356,110283,1,8,0:0:0:0:
398,55,110594,2,0,L|299:48,1,68.7500020980836,8|0,0:0|0:0,0:0:0:0:
230,159,110800,6,0,P|153:159|72:145,1,137.500004196167,6|0,0:0|0:0,0:0:0:0:
29,288,111111,1,8,0:0:0:0:
29,288,111214,2,0,P|98:277|178:272,1,137.500004196167,0|8,0:0|0:0,0:0:0:0:
392,335,111628,6,0,P|481:258|389:166,1,275.000008392334,6|8,0:0|0:0,0:0:0:0:
246,272,112249,6,0,L|238:359,1,68.7500020980836,2|8,0:0|0:0,0:0:0:0:
136,253,112456,2,0,L|131:183,1,68.7500020980836,2|0,0:0|0:0,0:0:0:0:
28,279,112663,2,0,L|36:352,1,68.7500020980836,2|0,0:0|0:0,0:0:0:0:
150,367,112869,5,8,0:0:0:0:
330,189,113076,1,8,0:0:0:0:
41,34,113283,5,14,0:0:0:0:
309,18,113490,1,8,0:0:0:0:
0,171,113697,1,8,0:0:0:0:
376,216,113904,1,2,0:0:0:0:
35,347,114111,6,0,P|28:278|69:222,1,137.500004196167,2|0,0:0|0:0,0:0:0:0:
258,275,114421,2,0,B|209:276|209:276|177:302|177:302|103:304,1,137.500004196167,8|0,0:0|0:0,0:0:0:0:
148,129,114732,2,0,L|144:204,1,68.7500020980836,2|0,0:0|0:0,0:0:0:0:
253,379,114938,6,0,B|302:385|338:372|365:331|365:331|349:292|356:256|356:256|392:258|422:241,1,275.000008392334,14|8,0:0|0:0,0:0:0:0:
319,50,115559,1,2,0:0:0:0:
251,45,115663,1,0,0:0:0:0:
183,41,115766,6,0,L|37:34,1,137.500004196167,2|0,0:0|0:0,0:0:0:0:
147,187,116076,2,0,L|295:173,1,137.500004196167,8|0,0:0|0:0,0:0:0:0:
353,166,116387,1,2,0:0:0:0:
156,289,116594,5,6,0:0:0:0:
270,52,116800,1,2,0:0:0:0:
392,253,117007,1,8,0:0:0:0:
101,119,117214,1,2,0:0:0:0:
232,318,117421,1,8,0:0:0:0:
384,129,117628,5,8,0:0:0:0:
377,318,117835,1,2,0:0:0:0:
248,80,118042,1,2,0:0:0:0:
461,29,118249,5,2,0:0:0:0:
448,96,118352,1,0,0:0:0:0:
436,164,118456,1,2,0:0:0:0:
423,231,118559,1,0,0:0:0:0:
315,307,118663,5,8,0:0:0:0:
306,240,118766,1,0,0:0:0:0:
293,173,118870,1,2,0:0:0:0:
282,106,118973,1,0,0:0:0:0:
166,180,119076,5,2,0:0:0:0:
161,248,119179,1,0,0:0:0:0:
155,316,119283,1,2,0:0:0:0:
148,384,119386,1,0,0:0:0:0:
31,305,119490,5,8,0:0:0:0:
28,235,119594,1,0,0:0:0:0:
24,166,119697,1,2,0:0:0:0:
18,97,119800,1,0,0:0:0:0:
147,53,119904,5,2,0:0:0:0:
210,79,120007,2,0,B|261:97|261:97|361:84,1,137.500004196167,2|0,0:0|0:0,0:0:0:0:
479,141,120318,2,0,L|482:234,1,68.7500020980836,8|0,0:0|0:0,0:0:0:0:
343,262,120525,2,0,L|349:166,1,68.7500020980836,2|0,0:0|0:0,0:0:0:0:
219,315,120732,5,2,0:0:0:0:
150,311,120835,1,0,0:0:0:0:
81,305,120938,1,2,0:0:0:0:
12,299,121042,1,0,0:0:0:0:
71,189,121145,6,0,L|65:113,1,68.7500020980836,8|0,0:0|0:0,0:0:0:0:
192,148,121352,2,0,L|186:232,1,68.7500020980836,2|0,0:0|0:0,0:0:0:0:
303,206,121559,6,0,L|304:267,2,45.8333347320557,2|0|0,0:0|0:0|0:0,0:0:0:0:
412,176,121766,6,0,L|418:239,2,45.8333347320557,2|0|0,0:0|0:0|0:0,0:0:0:0:
337,82,121973,5,2,0:0:0:0:
316,72,122042,1,0,0:0:0:0:
293,68,122111,1,0,0:0:0:0:
270,67,122180,1,8,0:0:0:0:
247,70,122249,1,0,0:0:0:0:
225,76,122318,1,0,0:0:0:0:
192,108,122387,5,2,0:0:0:0:
201,128,122456,1,0,0:0:0:0:
207,150,122525,1,0,0:0:0:0:
210,172,122594,1,2,0:0:0:0:
210,194,122663,1,0,0:0:0:0:
207,216,122732,1,0,0:0:0:0:
197,260,122800,5,8,0:0:0:0:
231,247,122869,1,0,0:0:0:0:
268,243,122938,1,0,0:0:0:0:
304,243,123007,1,8,0:0:0:0:
340,249,123076,1,0,0:0:0:0:
374,260,123145,1,0,0:0:0:0:
403,282,123214,6,0,B|412:228|412:228|431:207|431:207|444:134,1,137.500004196167,6|0,0:1|0:0,0:0:0:0:
158,67,123628,2,0,L|141:161,1,68.7500020980836,8|0,0:0|0:0,0:0:0:0:
281,54,123835,2,0,L|264:140,1,68.7500020980836,2|8,0:0|0:0,0:0:0:0:
229,266,124042,1,0,0:0:0:0:
172,156,124145,1,0,0:0:0:0:
326,203,124249,1,2,0:0:0:0:
9,168,124456,6,0,L|4:59,1,68.7500020980836,8|0,0:0|0:0,0:0:0:0:
112,248,124663,2,0,L|105:348,1,68.7500020980836,2|0,0:0|0:0,0:0:0:0:
130,118,124869,6,0,P|199:102|269:121,1,137.500004196167,6|0,0:1|0:0,0:0:0:0:
460,383,125283,2,0,L|379:392,1,68.7500020980836,8|0,0:0|0:0,0:0:0:0:
342,255,125490,2,0,L|436:259,1,68.7500020980836,2|8,0:0|0:0,0:0:0:0:
304,352,125697,1,0,0:0:0:0:
281,210,125800,1,0,0:0:0:0:
178,309,125904,1,2,0:0:0:0:
0,82,126111,6,0,P|32:70|83:78,1,68.7500020980836,8|0,0:0|0:0,0:0:0:0:
229,151,126318,2,0,P|190:159|154:151,1,68.7500020980836,2|0,0:0|0:0,0:0:0:0:
36,40,126525,6,0,L|48:206,1,137.500004196167,6|0,0:1|0:0,0:0:0:0:
328,73,126938,2,0,L|419:90,1,68.7500020980836,8|0,0:0|0:0,0:0:0:0:
229,151,127145,2,0,P|211:123|204:64,1,68.7500020980836,2|8,0:0|0:0,0:0:0:0:
286,0,127352,1,0,0:0:0:0:
322,104,127456,1,0,0:0:0:0:
172,108,127559,1,2,0:0:0:0:
172,108,127766,6,0,L|185:196,1,68.7500020980836,8|0,0:0|0:0,0:0:0:0:
75,277,127973,2,0,L|63:196,1,68.7500020980836,2|0,0:0|0:0,0:0:0:0:
271,159,128180,6,0,L|380:164,1,68.7500020980836,6|0,0:1|0:0,0:0:0:0:
197,288,128387,2,0,L|298:293,1,68.7500020980836,0|0,0:0|0:0,0:0:0:0:
172,108,128594,2,0,L|103:104,1,68.7500020980836,8|0,0:0|0:0,0:0:0:0:
108,228,128800,2,0,L|21:224,1,68.7500020980836,2|8,0:0|0:0,0:0:0:0:
272,223,129007,6,0,L|262:317,1,68.7500020980836,0|0,0:0|0:0,0:0:0:0:
126,295,129214,2,0,L|117:380,1,68.7500020980836,2|0,0:0|0:0,0:0:0:0:
47,156,129421,2,0,L|38:236,1,68.7500020980836,8|0,0:0|0:0,0:0:0:0:
179,39,129628,2,0,L|170:120,1,68.7500020980836,2|0,0:0|0:0,0:0:0:0:
264,291,129835,6,0,P|326:300|422:295,1,137.500004196167,6|0,0:0|0:0,0:0:0:0:
292,18,130249,1,8,0:0:0:0:
292,18,130456,2,0,P|250:18|201:12,1,68.7500020980836,2|8,0:0|0:0,0:0:0:0:
140,129,130663,2,0,P|175:126|218:131,1,68.7500020980836,0|0,0:0|0:0,0:0:0:0:
298,211,130869,1,2,0:0:0:0:
69,359,131076,6,0,L|-31:349,1,68.7500020980836,8|0,0:0|0:0,0:0:0:0:
72,230,131283,2,0,L|12:188,1,68.7500020980836,2|0,0:0|0:0,0:0:0:0:
187,142,131490,6,0,B|240:164|240:164|318:149,1,137.500004196167,6|0,0:0|0:0,0:0:0:0:
512,351,131904,2,0,B|459:329|459:329|380:343,1,137.500004196167,8|2,0:0|0:0,0:0:0:0:
267,279,132214,1,8,0:0:0:0:
161,355,132318,2,0,L|56:359,1,68.7500020980836,0|0,0:0|0:0,0:0:0:0:
92,357,132525,1,2,0:0:0:0:
254,125,132732,6,0,L|252:39,1,68.7500020980836,8|0,0:0|0:0,0:0:0:0:
142,0,132938,2,0,L|143:69,1,68.7500020980836,2|0,0:0|0:0,0:0:0:0:
367,141,133145,6,0,L|364:-2,1,137.500004196167,6|0,0:0|0:0,0:0:0:0:
512,260,133559,1,8,0:0:0:0:
199,263,133766,2,0,L|104:257,1,68.7500020980836,2|8,0:0|0:0,0:0:0:0:
159,140,133973,2,0,L|59:132,1,68.7500020980836,0|0,0:0|0:0,0:0:0:0:
128,20,134179,1,2,0:0:0:0:
367,141,134386,6,0,L|435:136,1,68.7500020980836,8|0,0:0|0:0,0:0:0:0:
319,265,134593,2,0,L|391:260,1,68.7500020980836,2|0,0:0|0:0,0:0:0:0:
216,352,134800,6,0,L|129:314,1,68.7500020980836,6|0,0:0|0:0,0:0:0:0:
241,228,135007,2,0,L|184:151,1,68.7500020980836,0|0,0:0|0:0,0:0:0:0:
340,91,135214,2,0,L|347:159,1,68.7500020980836,8|0,0:0|0:0,0:0:0:0:
506,129,135421,2,0,L|478:192,1,68.7500020980836,2|0,0:0|0:0,0:0:0:0:
383,287,135628,6,0,L|273:282,1,68.7500020980836,0|0,0:0|0:0,0:0:0:0:
215,159,135835,2,0,L|204:70,1,68.7500020980836,2|0,0:0|0:0,0:0:0:0:
354,90,136042,2,0,L|345:181,1,68.7500020980836,8|0,0:0|0:0,0:0:0:0:
239,283,136249,2,0,L|159:287,1,68.7500020980836,2|0,0:0|0:0,0:0:0:0:
70,167,136456,6,0,P|76:136|81:95,1,68.7500020980836,6|0,0:1|0:0,0:0:0:0:
215,159,136663,2,0,P|210:125|205:80,1,68.7500020980836,0|0,0:0|0:0,0:0:0:0:
358,190,136869,6,0,P|363:132|365:42,1,137.500004196167,8|2,0:0|0:0,0:0:0:0:
239,87,137180,1,8,0:0:0:0:
398,130,137283,6,0,P|429:128|466:120,1,68.7500020980836,0|0,0:0|0:0,0:0:0:0:
388,259,137490,2,0,P|339:251|293:250,1,68.7500020980836,2|0,0:0|0:0,0:0:0:0:
215,159,137697,2,0,P|194:196|179:257,1,68.7500020980836,8|0,0:0|0:0,0:0:0:0:
94,319,137904,2,0,P|125:347|172:368,1,68.7500020980836,2|0,0:0|0:0,0:0:0:0:
340,381,138111,6,0,B|317:334|317:334|320:207,1,137.500004196167,6|0,0:1|0:0,0:0:0:0:
325,112,138421,1,0,0:0:0:0:
325,112,138525,1,8,0:0:0:0:
199,280,138732,5,2,0:0:0:0:
130,274,138835,1,8,0:0:0:0:
61,267,138938,2,0,L|63:168,1,68.7500020980836,0|0,0:0|0:0,0:0:0:0:
181,130,139145,2,0,L|183:32,1,68.7500020980836,2|0,0:0|0:0,0:0:0:0:
72,16,139352,2,0,L|69:101,1,68.7500020980836,8|0,0:0|0:0,0:0:0:0:
173,230,139559,2,0,L|171:311,1,68.7500020980836,2|0,0:0|0:0,0:0:0:0:
181,130,139766,5,6,0:1:0:0:
246,111,139869,1,0,0:0:0:0:
311,89,139973,2,0,L|325:2,1,68.7500020980836,0|0,0:0|0:0,0:0:0:0:
181,130,140180,2,0,L|190:217,1,68.7500020980836,8|0,0:0|0:0,0:0:0:0:
221,32,140387,2,0,L|98:24,1,68.7500020980836,2|8,0:0|0:0,0:0:0:0:
282,175,140594,2,0,L|391:170,1,68.7500020980836,0|0,0:0|0:0,0:0:0:0:
463,134,140800,5,2,0:0:0:0:
410,88,140904,1,0,0:0:0:0:
360,41,141007,2,0,L|311:88,1,68.7500020980836,8|0,0:0|0:0,0:0:0:0:
232,223,141214,2,0,L|281:175,1,68.7500020980836,2|0,0:0|0:0,0:0:0:0:
260,16,141421,6,0,L|211:64,1,68.7500020980836,6|0,0:1|0:0,0:0:0:0:
124,195,141628,2,0,L|172:146,1,68.7500020980836,0|0,0:0|0:0,0:0:0:0:
51,237,141835,1,8,0:0:0:0:
45,168,141939,1,0,0:0:0:0:
40,99,142042,6,0,L|46:180,1,68.7500020980836,2|8,0:0|0:0,0:0:0:0:
54,305,142249,2,0,L|48:202,1,68.7500020980836,0|0,0:0|0:0,0:0:0:0:
118,126,142456,2,0,L|125:211,1,68.7500020980836,2|0,0:0|0:0,0:0:0:0:
134,333,142663,2,0,L|127:242,1,68.7500020980836,8|0,0:0|0:0,0:0:0:0:
198,155,142869,2,0,L|205:239,1,68.7500020980836,2|0,0:0|0:0,0:0:0:0:
213,360,143076,6,0,L|201:199,1,137.500004196167,6|0,0:0|0:0,0:0:0:0:
483,41,143490,2,0,L|481:109,1,68.7500020980836,8|0,0:0|0:0,0:0:0:0:
360,162,143697,2,0,L|358:93,1,68.7500020980836,2|8,0:0|0:0,0:0:0:0:
248,40,143904,5,0,0:0:0:0:
179,45,144007,1,0,0:0:0:0:
110,52,144111,1,2,0:0:0:0:
257,285,144318,6,0,L|256:216,1,68.7500020980836,8|0,0:0|0:0,0:0:0:0:
134,164,144525,2,0,L|131:232,1,68.7500020980836,2|0,0:0|0:0,0:0:0:0:
41,45,144732,6,0,L|200:44,1,137.500004196167,6|0,0:0|0:0,0:0:0:0:
419,233,145145,2,0,L|403:325,1,68.7500020980836,8|0,0:0|0:0,0:0:0:0:
284,279,145352,2,0,L|266:177,1,68.7500020980836,2|8,0:0|0:0,0:0:0:0:
373,79,145559,2,0,L|360:160,1,68.7500020980836,0|0,0:0|0:0,0:0:0:0:
226,119,145766,2,0,L|209:23,1,68.7500020980836,2|0,0:0|0:0,0:0:0:0:
159,239,145973,5,8,0:0:0:0:
253,340,146077,1,8,0:0:0:0:
378,282,146180,1,2,0:0:0:0:
294,16,146387,5,14,0:0:0:0:
52,237,146594,1,2,0:0:0:0:
109,25,146904,5,8,0:0:0:0:
388,221,147111,1,2,0:0:0:0:
71,332,147318,5,8,0:0:0:0:
59,264,147421,1,8,0:0:0:0:
84,199,147525,1,2,0:0:0:0:
139,158,147628,1,8,0:0:0:0:
207,152,147732,1,2,0:0:0:0:
268,182,147835,1,8,0:0:0:0:
304,240,147938,1,8,0:0:0:0:
184,276,148042,5,6,0:0:0:0:
119,252,148147,1,8,0:0:0:0:
77,196,148253,1,8,0:0:0:0:
71,127,148359,1,2,0:0:0:0:
102,65,148465,1,8,0:0:0:0:
161,29,148571,1,8,0:0:0:0:
229,29,148676,1,2,0:0:0:0:
287,64,148782,1,8,0:0:0:0:
195,150,148888,5,8,0:0:0:0:
141,193,148994,1,2,0:0:0:0:
84,231,149100,1,8,0:0:0:0:
26,268,149206,1,2,0:0:0:0:
23,199,149311,1,8,0:0:0:0:
84,231,149417,1,2,0:0:0:0:
144,263,149523,1,8,0:0:0:0:
205,294,149629,1,8,0:0:0:0:
271,174,149735,5,14,0:0:0:0:
210,142,149840,1,2,0:0:0:0:
142,154,149946,1,8,0:0:0:0:
97,206,150052,1,8,0:0:0:0:
94,274,150158,1,8,0:0:0:0:
133,330,150264,1,2,0:0:0:0:
195,249,150370,6,0,L|256:243,2,45.8333347320557,2|0|0,0:0|0:0|0:0,0:0:0:0:
142,154,150581,6,0,L|71:143,2,45.8333347320557,8|0|0,0:0|0:0|0:0,0:0:0:0:
193,76,150793,5,8,0:0:0:0:
229,77,150863,1,0,0:0:0:0:
265,77,150934,1,0,0:0:0:0:
301,77,151004,6,0,L|310:18,2,45.8333347320557,2|0|0,0:0|0:0|0:0,0:0:0:0:
215,150,151216,2,0,L|224:229,2,45.8333347320557,8|0|0,0:0|0:0|0:0,0:0:0:0:
133,238,151428,5,14,0:0:0:0:
155,266,151498,1,0,0:0:0:0:
186,285,151569,1,0,0:0:0:0:
221,292,151639,1,8,0:0:0:0:
257,285,151710,1,0,0:0:0:0:
288,266,151780,1,0,0:0:0:0:
309,236,151851,5,2,0:0:0:0:
318,200,151922,1,0,0:0:0:0:
313,163,151992,1,0,0:0:0:0:
294,130,152063,1,2,0:0:0:0:
264,108,152133,1,0,0:0:0:0:
228,97,152204,1,0,0:0:0:0:
191,102,152274,5,2,0:0:0:0:
199,137,152345,1,0,0:0:0:0:
208,172,152415,1,0,0:0:0:0:
216,208,152486,1,8,0:0:0:0:
224,243,152556,1,0,0:0:0:0:
233,278,152627,1,0,0:0:0:0:
242,313,152698,5,8,0:0:0:0:
266,286,152768,1,0,0:0:0:0:
298,267,152839,1,0,0:0:0:0:
333,258,152909,1,2,0:0:0:0:
369,255,152980,1,0,0:0:0:0:
404,262,153050,1,0,0:0:0:0:
434,274,153121,5,14,0:0:0:0:
0,24,154192,1,2,0:0:0:0:
128,288,154621,1,8,0:0:0:0:
233,28,154835,5,8,0:0:0:0:
0,224,155156,1,8,0:0:0:0:
295,324,155478,1,8,0:0:0:0:
111,65,155799,5,8,0:0:0:0:
110,114,155906,1,8,0:0:0:0:
108,163,156013,1,8,0:0:0:0:
105,213,156121,5,2,0:0:0:0:
344,62,156335,1,8,0:0:0:0:
309,343,156549,6,0,B|259:319|259:319|212:338|156:328,1,159.375003039837,14|0,0:0|0:0,0:0:0:0:
77,297,156978,1,8,0:0:0:0:
175,157,157192,1,2,0:0:0:0:
314,254,157406,2,0,P|366:258|435:232,1,106.250002026558,2|0,0:0|0:0,0:0:0:0:
339,90,157835,2,0,B|298:85|263:59|263:59|231:81|178:87,1,159.375003039837,8|0,0:0|0:0,0:0:0:0:
107,84,158263,6,0,B|131:136|131:136|112:240,1,159.375003039837,2|0,0:0|0:0,0:0:0:0:
112,236,158692,1,8,0:0:0:0:
274,191,158906,1,2,0:0:0:0:
156,358,159121,2,0,P|97:366|29:336,1,106.250002026558,2|0,0:0|0:0,0:0:0:0:
131,136,159549,2,0,B|191:151|191:151|215:178|215:178|295:196,1,159.375003039837,8|0,0:0|0:0,0:0:0:0:
353,157,159978,6,0,B|368:197|354:238|328:260|328:260|346:310,1,159.375003039837,2|0,0:0|0:0,0:0:0:0:
427,319,160406,1,8,0:0:0:0:
443,149,160621,1,2,0:0:0:0:
274,191,160835,2,0,B|240:208|240:208|231:240|199:265,1,106.250002026558,2|0,0:0|0:0,0:0:0:0:
32,131,161263,2,0,B|12:98|19:55|45:27|45:27|-3:45,1,159.375003039837,8|0,0:0|0:0,0:0:0:0:
101,87,161692,5,2,0:0:0:0:
175,127,161799,2,0,P|235:133|304:90,1,106.250002026558,0|0,0:0|0:0,0:0:0:0:
349,71,162121,2,0,L|342:215,1,132.812502533197,8|0,0:0|0:0,0:0:0:0:
215,211,162549,6,0,P|163:207|112:211,1,88.541668355465,2|0,0:0|0:0,0:0:0:0:
32,95,162978,6,0,L|32:136,1,35.416667342186,8|2,0:0|0:0,0:0:0:0:
217,326,163406,6,0,B|274:313|321:339|321:339|368:292,1,159.375003039837,2|0,0:0|0:0,0:0:0:0:
405,233,163835,2,0,P|346:234|288:211,1,106.250002026558,8|2,0:0|0:0,0:0:0:0:
142,122,164263,2,0,P|125:179|132:239,1,106.250002026558,2|0,0:0|0:0,0:0:0:0:
239,363,164692,2,0,P|273:313|302:209,1,159.375003039837,8|0,0:0|0:0,0:0:0:0:
288,112,165121,6,0,B|333:147|333:147|443:139,1,159.375003039837,2|0,0:0|0:0,0:0:0:0:
502,87,165549,1,8,0:0:0:0:
392,251,165763,1,2,0:0:0:0:
245,39,165978,2,0,L|121:37,1,106.250002026558,2|0,0:0|0:0,0:0:0:0:
62,236,166406,2,0,L|183:238,1,106.250002026558,8|0,0:0|0:0,0:0:0:0:
367,175,166835,6,0,B|392:231|392:231|367:353,1,159.375003039837,2|0,0:0|0:0,0:0:0:0:
305,249,167263,1,8,0:0:0:0:
484,267,167478,1,2,0:0:0:0:
426,100,167692,2,0,P|372:81|302:103,1,106.250002026558,2|0,0:0|0:0,0:0:0:0:
152,248,168121,2,0,B|212:271|212:271|342:240,1,159.375003039837,8|0,0:0|0:0,0:0:0:0:
382,167,168549,6,0,B|415:222|415:222|402:337,1,159.375003039837,2|0,0:0|0:0,0:0:0:0:
404,316,168978,1,8,0:0:0:0:
259,382,169192,2,0,L|263:302,1,53.125001013279,2|0,0:0|0:0,0:0:0:0:
310,241,169406,5,10,0:0:0:0:
257,243,169513,1,8,0:0:0:0:
208,220,169621,1,2,0:0:0:0:
177,176,169728,1,2,0:0:0:0:
121,106,169835,5,8,0:0:0:0:
92,150,169942,1,8,0:0:0:0:
59,192,170049,1,2,0:0:0:0:
24,232,170156,1,2,0:0:0:0:
100,297,170263,6,0,B|153:270|153:270|273:292,1,159.375003039837,6|0,0:0|0:0,0:0:0:0:
335,301,170692,1,8,0:0:0:0:
175,377,170906,1,2,0:0:0:0:
201,168,171121,2,0,L|322:190,1,106.250002026558,2|0,0:0|0:0,0:0:0:0:
424,47,171549,2,0,B|373:47|313:22|313:22|263:70,1,159.375003039837,8|0,0:0|0:0,0:0:0:0:
201,168,171978,6,0,B|168:199|168:199|108:174|57:174,1,159.375003039837,2|0,0:0|0:0,0:0:0:0:
138,99,172406,1,8,0:0:0:0:
170,286,172621,1,2,0:0:0:0:
310,121,172835,2,0,P|362:136|399:178,1,106.250002026558,2|0,0:0|0:0,0:0:0:0:
291,384,173264,2,0,P|297:306|309:224,1,159.375003039837,8|0,0:0|0:0,0:0:0:0:
374,311,173692,6,0,P|285:313|204:309,1,159.375003039837,2|0,0:0|0:0,0:0:0:0:
230,204,174121,1,8,0:0:0:0:
320,384,174335,1,2,0:0:0:0:
404,210,174550,2,0,P|451:201|547:207,1,106.250002026558,2|0,0:0|0:0,0:0:0:0:
309,71,174978,2,0,P|256:78|181:67,1,106.250002026558,8|0,0:0|0:0,0:0:0:0:
5,39,175406,6,0,P|11:113|25:216,1,159.375003039837,2|0,0:0|0:0,0:0:0:0:
21,197,175835,1,8,0:0:0:0:
193,172,176049,2,0,P|250:190|312:198,1,106.250002026558,2|2,0:0|0:0,0:0:0:0:
395,341,176478,1,0,0:0:0:0:
395,341,176692,2,0,L|326:347,1,53.125001013279,8|0,0:0|0:0,0:0:0:0:
215,355,176906,5,8,0:0:0:0:
213,328,177013,1,8,0:0:0:0:
212,301,177121,2,0,B|208:259|208:259|275:284|352:268,1,159.375003039837,2|0,0:0|0:0,0:0:0:0:
407,256,177549,1,8,0:0:0:0:
292,114,177763,1,2,0:0:0:0:
212,301,177978,2,0,P|153:309|103:291,1,106.250002026558,2|0,0:0|0:0,0:0:0:0:
3,157,178406,2,0,P|83:162|163:164,1,159.375003039837,8|0,0:0|0:0,0:0:0:0:
255,212,178835,6,0,B|286:230|286:230|330:171|295:105,1,159.375003039837,2|0,0:0|0:0,0:0:0:0:
163,164,179263,2,0,P|151:227|173:280,1,106.250002026558,8|2,0:0|0:0,0:0:0:0:
353,323,179692,2,0,P|425:320|544:308,1,159.375003039837,2|0,0:0|0:0,0:0:0:0:
454,207,180121,2,0,P|396:208|320:191,1,106.250002026558,8|0,0:0|0:0,0:0:0:0:
113,141,180549,6,0,B|123:198|123:198|151:228|151:228|162:290,1,159.375003039837,6|0,0:0|0:0,0:0:0:0:
65,280,180978,1,8,0:0:0:0:
216,143,181192,1,2,0:0:0:0:
277,334,181406,2,0,P|330:345|408:333,1,106.250002026558,2|0,0:0|0:0,0:0:0:0:
151,229,181835,2,0,P|99:238|3:229,1,106.250002026558,8|0,0:0|0:0,0:0:0:0:
260,54,182263,5,8,0:0:0:0:
282,102,182371,1,8,0:0:0:0:
360,221,182585,5,2,0:0:0:0:
320,256,182692,1,2,0:0:0:0:
215,287,182906,5,2,0:0:0:0:
161,285,183013,1,2,0:0:0:0:
70,184,183228,5,2,0:0:0:0:
122,191,183335,1,2,0:0:0:0:
276,199,183549,5,8,0:0:0:0:
245,272,183656,1,8,0:0:0:0:
212,344,183763,1,2,0:0:0:0:
106,108,183978,5,6,0:1:0:0:
358,132,184192,1,2,0:0:0:0:
253,180,184406,6,0,P|243:140|259:72,1,93.7500035762788,8|0,0:1|0:0,0:0:0:0:
465,84,184835,2,0,P|476:130|467:176,1,93.7500035762788,0|0,0:0|0:0,0:0:0:0:
320,320,185263,2,0,L|202:312,1,93.7500035762788,8|2,0:1|0:0,0:0:0:0:
60,110,185692,5,2,0:0:0:0:
304,171,185906,1,2,0:0:0:0:
98,265,186121,5,8,0:1:0:0:
167,126,186335,1,0,0:0:0:0:
260,278,186549,2,0,P|304:288|373:263,1,93.7500035762788,0|0,0:0|0:0,0:0:0:0:
446,118,186978,1,8,0:1:0:0:
304,171,187192,1,2,0:0:0:0:
512,304,187406,5,2,0:0:0:0:
503,57,187621,1,2,0:0:0:0:
318,206,187835,6,0,L|429:217,1,93.7500035762788,8|0,0:1|0:0,0:0:0:0:
306,67,188263,2,0,L|191:77,1,93.7500035762788,0|0,0:0|0:0,0:0:0:0:
137,251,188692,2,0,L|247:262,1,93.7500035762788,8|2,0:1|0:0,0:0:0:0:
32,107,189120,5,2,0:0:0:0:
90,348,189335,1,2,0:0:0:0:
186,167,189549,5,8,0:1:0:0:
43,238,189763,1,0,0:0:0:0:
198,336,189978,2,0,P|235:324|300:319,1,93.7500035762788,0|0,0:0|0:0,0:0:0:0:
93,158,190406,2,0,P|143:167|212:162,1,93.7500035762788,8|2,0:1|0:0,0:0:0:0:
0,304,190834,5,6,0:1:0:0:
153,49,191049,1,2,0:0:0:0:
271,195,191263,6,0,L|376:207,1,93.7500035762788,8|0,0:1|0:0,0:0:0:0:
403,23,191692,2,0,L|303:59,1,93.7500035762788,0|0,0:0|0:0,0:0:0:0:
476,195,192121,2,0,L|490:82,1,93.7500035762788,8|2,0:1|0:0,0:0:0:0:
290,257,192549,5,2,0:0:0:0:
512,360,192764,1,2,0:0:0:0:
410,203,192978,5,8,0:1:0:0:
353,372,193192,1,0,0:0:0:0:
225,153,193406,2,0,P|270:136|326:140,1,93.7500035762788,0|0,0:0|0:0,0:0:0:0:
502,72,193835,2,0,L|498:143,1,46.8750017881394,8|0,0:0|0:0,0:0:0:0:
410,203,194049,5,8,0:0:0:0:
405,277,194156,1,8,0:0:0:0:
400,352,194263,2,0,B|364:331|364:331|240:339,1,125,6|0,0:0|0:0,0:0:0:0:
81,355,194692,1,8,0:0:0:0:
274,175,194906,2,0,L|266:247,1,62.5,2|0,0:0|0:0,0:0:0:0:
136,217,195121,2,0,L|130:154,1,62.5,2|0,0:0|0:0,0:0:0:0:
281,112,195335,2,0,L|273:174,1,62.5,0|0,0:0|0:0,0:0:0:0:
122,93,195549,5,8,0:0:0:0:
388,156,195763,1,0,0:0:0:0:
69,251,195978,5,2,0:0:0:0:
293,16,196192,1,0,0:0:0:0:
304,335,196406,1,8,0:0:0:0:
138,87,196621,6,0,L|38:71,1,62.5,2|0,0:0|0:0,0:0:0:0:
148,199,196835,2,0,L|225:190,1,62.5,2|0,0:0|0:0,0:0:0:0:
311,53,197049,6,0,L|227:39,1,62.5,0|0,0:0|0:0,0:0:0:0:
320,165,197263,2,0,L|392:157,1,62.5,8|0,0:0|0:0,0:0:0:0:
332,280,197478,5,0,0:0:0:0:
236,310,197585,1,0,0:0:0:0:
147,263,197692,2,0,L|149:123,1,125,6|0,0:0|0:0,0:0:0:0:
405,240,198121,1,8,0:0:0:0:
147,360,198335,5,2,0:0:0:0:
321,93,198549,1,2,0:0:0:0:
364,369,198763,1,0,0:0:0:0:
187,154,198978,1,8,0:0:0:0:
512,74,199192,5,0,0:0:0:0:
508,123,199299,1,0,0:0:0:0:
503,173,199406,1,2,0:0:0:0:
339,42,199621,1,0,0:0:0:0:
342,312,199835,1,8,0:0:0:0:
173,94,200049,1,2,0:0:0:0:
167,362,200263,1,2,0:0:0:0:
6,148,200478,5,0,0:0:0:0:
337,186,200692,1,8,0:0:0:0:
88,371,200906,1,0,0:0:0:0:
70,64,201121,5,12,0:0:0:0:
110,25,201228,1,8,0:0:0:0:
164,13,201335,1,8,0:0:0:0:
217,29,201442,1,2,0:0:0:0:
255,70,201549,1,8,0:0:0:0:
266,125,201656,1,8,0:0:0:0:
249,177,201763,1,2,0:0:0:0:
207,214,201871,1,2,0:0:0:0:
161,121,201978,5,2,0:0:0:0:
220,121,202085,1,2,0:0:0:0:
279,121,202192,1,2,0:0:0:0:
339,121,202299,1,8,0:0:0:0:
397,121,202406,1,2,0:0:0:0:
374,175,202513,1,2,0:0:0:0:
350,230,202620,1,2,0:0:0:0:
326,284,202728,1,8,0:0:0:0:
207,270,202835,5,8,0:0:0:0:
230,212,202942,1,8,0:0:0:0:
278,174,203049,1,2,0:0:0:0:
340,165,203156,1,8,0:0:0:0:
397,188,203263,5,12,0:0:0:0:
436,236,203370,1,8,0:0:0:0:
445,297,203477,1,2,0:0:0:0:
423,355,203585,1,2,0:0:0:0:
326,284,203691,5,12,0:0:0:0:
319,196,203798,1,2,0:0:0:0:
392,147,203905,1,2,0:0:0:0:
470,185,204013,1,8,0:0:0:0:
399,234,204121,5,12,0:0:0:0:
319,196,204228,1,2,0:0:0:0:
313,108,204335,1,8,0:0:0:0:
385,59,204443,1,2,0:0:0:0:
470,185,204549,5,14,0:0:0:0:
199,384,204978,1,12,0:0:0:0:
145,54,205406,1,2,0:0:0:0:
406,329,205621,5,2,0:0:0:0:
329,310,205728,1,2,0:0:0:0:
251,292,205835,1,8,0:0:0:0:
173,274,205942,1,8,0:0:0:0:
95,256,206049,1,2,0:0:0:0:
421,135,206263,6,0,L|453:-25,1,137.500004196167,6|0,0:0|0:0,0:0:0:0:
270,132,206692,1,8,0:0:0:0:
512,258,206906,5,2,0:0:0:0:
429,265,207013,1,2,0:0:0:0:
346,273,207121,1,8,0:0:0:0:
264,280,207228,1,8,0:0:0:0:
182,289,207335,1,2,0:0:0:0:
62,18,207549,6,0,L|50:103,1,68.7500020980836,8|0,0:0|0:0,0:0:0:0:
158,270,207763,2,0,L|154:202,1,68.7500020980836,2|0,0:0|0:0,0:0:0:0:
14,186,207978,6,0,L|175:172,1,137.500004196167,2|0,0:0|0:0,0:0:0:0:
369,148,208406,1,8,0:0:0:0:
189,23,208621,5,2,0:0:0:0:
215,101,208728,1,2,0:0:0:0:
236,179,208835,1,8,0:0:0:0:
257,258,208942,1,8,0:0:0:0:
278,337,209049,1,2,0:0:0:0:
410,76,209263,6,0,L|479:68,1,68.7500020980836,8|0,0:0|0:0,0:0:0:0:
470,208,209478,2,0,L|384:199,1,68.7500020980836,2|0,0:0|0:0,0:0:0:0:
292,121,209692,6,0,L|304:269,1,137.500004196167,2|0,0:0|0:0,0:0:0:0:
509,336,210121,1,8,0:0:0:0:
425,58,210335,5,2,0:0:0:0:
346,82,210442,1,2,0:0:0:0:
266,104,210549,1,8,0:0:0:0:
186,126,210656,1,8,0:0:0:0:
107,152,210763,1,2,0:0:0:0:
404,221,210978,6,0,L|421:290,1,68.7500020980836,8|0,0:0|0:0,0:0:0:0:
277,241,211192,2,0,L|291:167,1,68.7500020980836,2|0,0:0|0:0,0:0:0:0:
341,334,211406,6,0,P|292:354|210:332,2,137.500004196167,2|0|8,0:0|0:0|0:0,0:0:0:0:
203,18,212049,5,2,0:0:0:0:
185,98,212156,1,2,0:0:0:0:
167,178,212263,1,8,0:0:0:0:
147,258,212371,1,2,0:0:0:0:
122,336,212478,1,2,0:0:0:0:
336,286,212692,5,8,0:0:0:0:
421,216,212799,1,8,0:0:0:0:
312,161,212906,2,0,L|216:193,1,68.7500020980836,2|0,0:0|0:0,0:0:0:0:
283,51,213121,6,0,L|436:60,1,137.500004196167,6|0,0:0|0:0,0:0:0:0:
509,259,213549,1,8,0:0:0:0:
200,246,213763,1,8,0:0:0:0:
200,162,213871,1,8,0:0:0:0:
201,79,213978,6,0,L|109:75,1,68.7500020980836,2|0,0:0|0:0,0:0:0:0:
295,201,214192,2,0,L|365:197,1,68.7500020980836,2|0,0:0|0:0,0:0:0:0:
174,177,214406,2,0,L|176:254,1,68.7500020980836,8|0,0:0|0:0,0:0:0:0:
310,85,214621,2,0,L|305:15,1,68.7500020980836,8|0,0:0|0:0,0:0:0:0:
233,280,214835,6,0,P|285:296|390:286,1,137.500004196167,2|0,0:0|0:0,0:0:0:0:
444,100,215263,1,8,0:0:0:0:
196,63,215478,5,8,0:0:0:0:
193,145,215585,1,8,0:0:0:0:
189,227,215692,2,0,L|270:218,1,68.7500020980836,2|0,0:0|0:0,0:0:0:0:
311,349,215906,2,0,L|233:342,1,68.7500020980836,2|0,0:0|0:0,0:0:0:0:
112,335,216121,2,0,L|102:176,1,137.500004196167,8|8,0:0|0:0,0:0:0:0:
211,14,216549,6,0,L|219:93,1,68.7500020980836,2|0,0:0|0:0,0:0:0:0:
300,166,216763,2,0,L|320:66,1,68.7500020980836,8|0,0:0|0:0,0:0:0:0:
400,32,216978,2,0,L|407:102,1,68.7500020980836,8|0,0:0|0:0,0:0:0:0:
471,199,217192,2,0,L|492:84,1,68.7500020980836,6|0,0:0|0:0,0:0:0:0:
449,291,217406,5,8,0:0:0:0:
376,251,217513,1,0,0:0:0:0:
303,291,217621,1,8,0:0:0:0:
233,246,217728,1,0,0:0:0:0:
164,291,217835,1,2,0:0:0:0:
99,239,217942,1,0,0:0:0:0:
35,291,218049,1,2,0:0:0:0:
2,74,218263,6,0,L|153:81,1,137.500004196167,2|0,0:0|0:0,0:0:0:0:
233,318,218692,1,8,0:0:0:0:
42,233,218906,5,12,0:0:0:0:
108,184,219013,1,8,0:0:0:0:
185,214,219121,1,2,0:0:0:0:
196,299,219228,5,2,0:0:0:0:
260,249,219335,1,8,0:0:0:0:
251,167,219442,1,8,0:0:0:0:
175,135,219549,5,2,0:0:0:0:
108,184,219656,1,2,0:0:0:0:
120,269,219763,1,8,0:0:0:0:
451,97,219978,6,0,L|299:90,1,137.500004196167,6|0,0:0|0:0,0:0:0:0:
186,336,220406,1,8,0:0:0:0:
456,318,220621,5,2,0:0:0:0:
374,306,220728,1,2,0:0:0:0:
338,231,220835,1,8,0:0:0:0:
256,218,220942,1,8,0:0:0:0:
212,148,221049,1,2,0:0:0:0:
442,57,221263,6,0,L|454:224,1,137.500004196167,8|2,0:0|0:0,0:0:0:0:
87,286,221692,2,0,L|96:149,1,137.500004196167,2|0,0:0|0:0,0:0:0:0:
333,350,222121,1,8,0:0:0:0:
345,67,222335,2,0,L|273:94,1,68.7500020980836,2|8,0:0|0:0,0:0:0:0:
194,209,222549,6,0,L|195:277,1,68.7500020980836,8|2,0:0|0:0,0:0:0:0:
328,225,222763,2,0,L|337:293,1,68.7500020980836,8|2,0:0|0:0,0:0:0:0:
426,125,222978,2,0,L|426:29,1,68.7500020980836,8|0,0:0|0:0,0:0:0:0:
280,91,223192,2,0,L|270:2,1,68.7500020980836,2|0,0:0|0:0,0:0:0:0:
126,264,223406,6,0,L|286:254,1,137.500004196167,2|0,0:0|0:0,0:0:0:0:
498,247,223835,1,8,0:0:0:0:
356,3,224049,1,2,0:0:0:0:
278,30,224156,1,2,0:0:0:0:
231,98,224263,1,8,0:0:0:0:
229,181,224371,1,8,0:0:0:0:
263,255,224478,1,2,0:0:0:0:
512,153,224692,6,0,L|357:143,1,137.500004196167,8|2,0:0|0:0,0:0:0:0:
145,381,225121,2,0,L|295:356,1,137.500004196167,6|0,0:0|0:0,0:0:0:0:
5,168,225549,1,8,0:0:0:0:
5,168,225763,5,2,0:0:0:0:
76,97,225871,1,2,0:0:0:0:
140,191,225978,2,0,P|177:197|230:191,1,68.7500020980836,8|8,0:0|0:0,0:0:0:0:
268,89,226192,2,0,P|304:85|360:95,1,68.7500020980836,2|2,0:0|0:0,0:0:0:0:
310,253,226406,6,0,L|297:147,2,68.7500020980836,8|8|2,0:0|0:0|0:0,0:0:0:0:
483,51,226835,5,6,0:0:0:0:
274,363,227156,1,2,0:0:0:0:
95,37,227478,1,2,0:0:0:0:
95,37,227692,6,0,L|95:112,1,68.7500020980836,2|8,0:0|0:0,0:0:0:0:
218,118,227906,2,0,L|236:190,1,68.7500020980836,2|2,0:0|0:0,0:0:0:0:
427,81,228121,5,8,0:0:0:0:
348,55,228228,1,8,0:0:0:0:
270,26,228335,1,2,0:0:0:0:
375,310,228549,6,0,P|445:330|532:301,2,137.500004196167,6|0|8,0:0|0:0|0:0,0:0:0:0:
218,118,229192,1,8,0:0:0:0:
464,0,229406,6,0,L|442:171,1,137.500004196167,2|2,0:0|0:0,0:0:0:0:
373,220,229728,1,2,0:0:0:0:
325,121,229835,1,8,0:0:0:0:
325,121,229942,2,0,P|256:121|152:112,1,137.500004196167,8|0,0:0|0:0,0:0:0:0:
35,188,230263,6,0,L|54:266,1,68.7500020980836,6|0,0:0|0:0,0:0:0:0:
182,233,230478,2,0,L|215:299,2,68.7500020980836,2|0|8,0:0|0:0|0:0,0:0:0:0:
289,20,230906,5,8,0:0:0:0:
289,101,231013,1,8,0:0:0:0:
285,184,231121,1,2,0:0:0:0:
120,98,231335,1,2,0:0:0:0:
411,50,231549,5,8,0:0:0:0:
410,132,231656,1,8,0:0:0:0:
405,214,231763,1,2,0:0:0:0:
401,297,231871,1,2,0:0:0:0:
329,337,231978,6,0,B|165:328|165:328|157:276,1,206.250006294251,14|8,0:0|0:0,0:0:0:0:
273,221,232406,6,0,P|303:153|264:80,1,137.500004196167,2|8,0:0|0:0,0:0:0:0:
75,86,232835,6,0,L|53:1,3,68.7500020980836,2|8|2|2,0:0|0:0|0:0|0:0,0:0:0:0:
203,156,233263,6,0,B|250:146|250:146|297:170|357:145,1,137.500004196167,8|8,0:0|0:0,0:0:0:0:
452,11,233692,5,2,0:0:0:0:
452,11,233799,2,0,L|441:172,1,137.500004196167,2|0,0:0|0:0,0:0:0:0:
290,189,234121,2,0,L|302:25,1,137.500004196167,8|0,0:0|0:0,0:0:0:0:
66,65,234549,6,0,L|0:44,1,68.7500020980836,2|0,0:0|0:0,0:0:0:0:
93,183,234763,2,0,L|25:182,1,68.7500020980836,2|0,0:0|0:0,0:0:0:0:
130,289,234978,5,8,0:0:0:0:
212,286,235085,1,8,0:0:0:0:
294,286,235192,1,2,0:0:0:0:
447,64,235406,6,0,B|396:78|396:78|353:53|353:53|313:68,1,137.500004196167,2|0,0:0|0:0,0:0:0:0:
391,173,235728,2,0,B|348:149|348:149|310:164|310:164|241:116,1,137.500004196167,2|0,0:0|0:0,0:0:0:0:
342,247,236049,1,8,0:0:0:0:
9,211,236263,6,0,L|2:283,1,68.7500020980836,2|8,0:0|0:0,0:0:0:0:
115,248,236478,2,0,L|155:326,1,68.7500020980836,2|2,0:0|0:0,0:0:0:0:
219,203,236692,2,0,P|278:245|369:235,1,137.500004196167,8|0,0:0|0:0,0:0:0:0:
498,72,237121,6,0,B|333:78|333:78|319:32,1,206.250006294251,6|0,0:0|0:0,0:0:0:0:
22,143,237763,2,0,B|57:264|57:264|224:258,1,275.000008392334,0|0,0:0|0:0,0:0:0:0:
182,94,238406,1,0,0:0:0:0:
30,350,238835,5,6,0:0:0:0:
27,51,239156,1,12,0:0:0:0:
331,311,239478,1,12,0:0:0:0:
331,311,239906,5,2,0:0:0:0:
331,311,240013,1,2,0:0:0:0:
331,311,240121,2,0,L|319:386,2,68.7500020980836,8|8|2,0:0|0:0|0:0,0:0:0:0:
380,19,240549,5,6,0:0:0:0:
380,19,240978,2,0,P|317:30|244:11,1,125,8|2,0:0|0:0,0:0:0:0:
149,46,241299,1,2,0:0:0:0:
149,46,241406,2,0,L|160:112,1,62.5,8|8,0:0|0:0,0:0:0:0:
50,141,241621,2,0,L|50:45,1,62.5,2|0,0:0|0:0,0:0:0:0:
138,227,241835,2,0,P|197:218|293:219,1,125,8|2,0:0|0:0,0:0:0:0:
82,345,242263,6,0,P|20:292|7:244,1,125,2|0,0:0|0:0,0:0:0:0:
190,120,242692,1,8,0:0:0:0:
233,340,242906,1,2,0:0:0:0:
233,340,243013,1,2,0:0:0:0:
233,340,243121,2,0,L|158:347,1,62.5,8|8,0:0|0:0,0:0:0:0:
221,245,243335,2,0,L|286:256,1,62.5,2|0,0:0|0:0,0:0:0:0:
113,250,243549,2,0,P|108:196|113:122,1,125,8|2,0:0|0:0,0:0:0:0:
335,347,243978,6,0,P|389:342|453:287,1,125,2|0,0:0|0:0,0:0:0:0:
471,77,244406,1,8,0:0:0:0:
286,207,244621,1,2,0:0:0:0:
286,207,244728,1,2,0:0:0:0:
286,207,244835,2,0,L|354:218,2,62.5,8|8|2,0:0|0:0|0:0,0:0:0:0:
69,148,245263,2,0,L|76:238,1,62.5,8|0,0:0|0:0,0:0:0:0:
170,269,245478,2,0,L|185:196,1,62.5,2|0,0:0|0:0,0:0:0:0:
240,111,245692,6,0,P|299:125|366:131,1,125,2|0,0:0|0:0,0:0:0:0:
170,269,246121,2,0,P|108:255|3:244,1,125,8|2,0:0|0:0,0:0:0:0:
122,163,246442,1,2,0:0:0:0:
122,163,246549,2,0,B|116:74|116:74|170:53,1,125,8|2,0:0|0:0,0:0:0:0:
372,97,246978,1,8,0:0:0:0:
257,269,247192,1,2,0:0:0:0:
122,163,247406,6,0,P|178:154|271:151,1,125,6|0,0:0|0:0,0:0:0:0:
343,208,247728,2,0,P|366:276|324:348,1,125,2|0,0:0|0:0,0:0:0:0:
249,375,248049,1,8,0:0:0:0:
111,197,248263,2,0,L|186:190,3,62.5,2|8|2|2,0:0|0:0|0:0|0:0,0:0:0:0:
254,270,248692,1,8,0:0:0:0:
265,45,248906,1,8,0:0:0:0:
386,234,249121,6,0,P|445:231|519:221,1,125,6|0,0:0|0:0,0:0:0:0:
249,375,249549,2,0,P|244:313|215:244,1,125,8|8,0:0|0:0,0:0:0:0:
111,197,249871,1,8,0:0:0:0:
111,197,249978,2,0,P|75:250|115:298,1,125,2|2,0:0|0:0,0:0:0:0:
225,104,250406,5,8,0:0:0:0:
272,120,250513,1,8,0:0:0:0:
321,127,250621,1,8,0:0:0:0:
370,128,250728,1,8,0:0:0:0:
419,121,250835,5,6,0:0:0:0:
256,192,250888,12,2,252121,0:0:0:0:
256,192,252549,5,6,0:0:0:0:
256,192,252603,12,2,253835,0:0:0:0:
256,192,254263,5,4,0:0:0:0:
256,192,254317,12,6,261121,0:0:0:0:
