osu file format v14

[General]
AudioFilename: opto.mp3
AudioLeadIn: 0
PreviewTime: 90111
Countdown: 0
SampleSet: Soft
StackLeniency: 0.9
Mode: 0
LetterboxInBreaks: 0
WidescreenStoryboard: 1

[Editor]
Bookmarks: 732,15628,38800,48732,61973,78525,91766,105007,118249,123214,146387,156549,183978,194263,206263,226835,240549,261121
DistanceSpacing: 1.3
BeatDivisor: 4
GridSize: 8
TimelineZoom: 1.8

[Metadata]
Title:ebullient future (Japanese TV-EDIT ver.) & ever forever OG mix.
TitleUnicode:ebullient future (Japanese TV-EDIT ver.) & ever forever OG mix.
Artist:Various Artists
ArtistUnicode:Various Artists
Creator:Shad0w1and
Version:Kvantuma Rozo's Hard
Source:ef - a tale of melodies.
Tags:eternal feather 悠久の翼 minori ELISA 羽山ミズキ 後藤麻衣 雨宮優子 中島裕美子 宮村みやこ 田口弘子 新藤景 岡田純子 新藤千尋 やなせなつみ Mizuki Hayama Mai Goto Yuko Amamiya Yumiko Nakajima Miyako Miyamura Hiroko Taguchi Kei Shindou Junko Okada Chihiro Shindou Natsumi Yanase
BeatmapID:1005584
BeatmapSetID:447034

[Difficulty]
HPDrainRate:5
CircleSize:4
OverallDifficulty:6
ApproachRate:8
SliderMultiplier:1.6
SliderTickRate:1

[Events]
//Background and Video events
0,0,"BG.png",0,0
//Break Periods
2,78725,91016
2,156749,169513
2,170463,179799
//Storyboard Layer 0 (Background)
//Storyboard Layer 1 (Fail)
//Storyboard Layer 2 (Pass)
//Storyboard Layer 3 (Foreground)
//Storyboard Sound Samples

[TimingPoints]
72,428.571428571429,4,2,1,70,1,0
286,-100,4,2,1,90,0,0
732,413.793103448276,4,2,1,100,1,0
732,-90.9090909090909,4,2,1,100,0,1
12318,-100,4,2,1,80,0,0
13559,-111.111111111111,4,2,1,70,0,0
13973,-125,4,2,1,60,0,0
15628,-200,4,3,1,40,0,0
28869,-200,4,3,1,50,0,0
35490,-133.333333333333,4,3,1,50,0,0
38800,-100,4,2,1,60,0,0
40456,-100,4,2,1,65,0,0
42111,-100,4,2,1,70,0,0
43766,-100,4,2,1,75,0,0
45421,-100,4,2,1,80,0,0
47076,-100,4,2,1,85,0,0
48732,-90.9090909090909,4,2,1,100,0,1
59490,-66.6666666666667,4,2,1,100,0,1
60111,-90.9090909090909,4,2,1,100,0,1
75214,-100,4,2,1,90,0,1
78525,-133.333333333333,4,3,1,60,0,0
91766,-100,4,2,1,90,0,0
105007,-100,4,2,1,90,0,1
122800,-100,4,2,1,90,0,0
123214,-100,4,2,1,90,0,1
146387,-100,4,2,1,100,0,1
148042,423.280423280423,4,2,1,100,1,1
148042,-100,4,2,1,100,0,1
153121,428.571428571429,4,2,1,100,1,0
156549,-133.333333333333,4,2,1,70,0,0
170263,-133.333333333333,4,2,1,50,0,0
170371,-133.333333333333,4,2,1,70,0,0
180549,-133.333333333333,4,2,1,50,0,0
180656,-133.333333333333,4,2,1,70,0,0
182906,-133.333333333333,4,2,1,60,0,0
183549,-133.333333333333,4,2,1,70,0,0
183978,-133.333333333333,4,2,1,60,0,0
190835,-133.333333333333,4,2,1,50,0,0
191049,-133.333333333333,4,2,1,60,0,0
194263,-100,4,2,1,70,0,0
201121,-100,4,2,1,70,0,0
201978,-100,4,2,1,75,0,0
202835,-100,4,2,1,80,0,0
203692,-100,4,2,1,85,0,0
204121,-100,4,2,1,95,0,0
204549,-100,4,2,1,100,0,0
205406,-133.333333333333,4,2,1,100,0,0
206263,-100,4,2,1,95,0,1
238835,-100,4,2,1,75,0,1
239156,-100,4,2,1,85,0,1
239478,-100,4,2,1,95,0,1
240549,-100,4,2,1,100,0,0
240978,-100,4,2,1,70,0,0
250888,-100,4,2,1,40,0,0
252549,-100,4,2,1,70,0,0
252603,-100,4,2,1,40,0,0
254263,-100,4,2,1,70,0,0
254317,-100,4,2,1,40,0,0
255978,-100,4,2,1,30,0,0
257692,-100,4,2,1,20,0,0
259406,-100,4,2,1,10,0,0

[Colours]
Combo1 : 95,95,95
Combo2 : 112,241,131
Combo3 : 113,176,255
Combo4 : 208,98,98
Combo5 : 255,255,128
Combo6 : 208,208,208

[HitObjects]
72,256,72,5,2,0:0:0:0:
96,128,286,1,8,0:0:0:0:
96,128,732,6,0,B|136:152|136:152|192:144,1,88.0000026855469,6|0,0:1|0:0,0:0:0:0:
248,96,1145,2,0,L|256:8,1,88.0000026855469,8|0,0:0|0:0,0:0:0:0:
336,48,1559,1,2,0:0:0:0:
424,72,1766,1,2,0:0:0:0:
312,136,1973,1,8,0:0:0:0:
400,160,2180,1,0,0:0:0:0:
488,136,2387,6,0,B|448:160|400:160|400:160|360:192|344:232,1,176.000005371094,2|8,0:0|0:0,0:0:0:0:
432,256,3007,1,0,0:0:0:0:
368,312,3214,2,0,P|328:320|272:320,1,88.0000026855469,2|2,0:0|0:0,0:0:0:0:
208,272,3628,2,0,P|164:272|120:280,1,88.0000026855469,8|0,0:0|0:0,0:0:0:0:
48,328,4042,5,2,0:0:0:0:
40,240,4249,1,0,0:0:0:0:
88,168,4456,1,8,0:0:0:0:
80,80,4663,1,0,0:0:0:0:
160,120,4869,2,0,B|224:128|224:128|296:104,2,132.00000402832,2|0|0,0:0|0:0|0:0,0:0:0:0:
216,48,5697,2,0,L|231:197,2,132.00000402832,2|0|0,0:0|0:0|0:0,0:0:0:0:
312,160,6525,38,0,L|304:264,1,88.000002685547,6|0,0:0|0:0,0:0:0:0:
344,352,6938,1,14,0:0:0:0:
416,272,7145,1,2,0:0:0:0:
416,272,7249,1,0,0:0:0:0:
416,272,7352,6,0,P|408:224|392:184,1,88.000002685547,6|0,0:1|0:0,0:0:0:0:
216,232,7766,2,0,P|224:280|240:320,1,88.000002685547,8|0,0:0|0:0,0:0:0:0:
240,144,8180,2,0,P|192:152|152:168,1,88.000002685547,2|0,0:0|0:0,0:0:0:0:
48,256,8594,2,0,L|56:152,1,88.000002685547,8|2,0:0|0:0,0:0:0:0:
128,56,9007,5,2,0:0:0:0:
216,72,9214,1,0,0:0:0:0:
296,40,9421,1,8,0:0:0:0:
384,56,9628,1,0,0:0:0:0:
413,152,9835,5,2,0:0:0:0:
325,136,10042,1,2,0:0:0:0:
256,248,10249,1,8,0:0:0:0:
344,232,10456,1,0,0:0:0:0:
216,168,10663,38,0,P|168:224|216:328,1,176.000005371094,6|8,0:1|0:0,0:0:0:0:
344,232,11490,2,0,L|256:248,2,88.000002685547,2|0|8,0:0|0:0|0:0,0:0:0:0:
432,256,12111,1,2,0:0:0:0:
448,160,12318,6,0,B|440:112|440:112|400:160|336:136,1,160,2|8,0:0|0:0,0:0:0:0:
296,56,12938,1,2,0:0:0:0:
296,56,13145,2,0,P|333:50|384:56,1,80,2|2,0:0|0:0,0:0:0:0:
256,136,13559,2,0,L|176:128,1,71.9999978027344,8|0,0:0|0:0,0:0:0:0:
112,72,13973,6,0,P|72:64|48:64,1,64,2|0,0:0|0:0,0:0:0:0:
40,152,14387,2,0,P|80:160|104:160,1,64,0|0,0:0|0:0,0:0:0:0:
168,216,14800,2,0,L|160:288,1,64,0|2,0:0|0:0,0:0:0:0:
152,360,15214,1,8,0:0:0:0:
152,360,15628,6,0,L|224:344,1,60,2|0,0:0|0:0,0:0:0:0:
464,296,17697,2,0,L|472:376,2,80,0|0|0,0:0|0:0|0:0,0:0:0:0:
400,256,18938,2,0,B|408:176|408:176|352:192,1,120,2|0,0:0|0:0,0:0:0:0:
336,168,19766,2,0,P|295:171|248:168,2,80,0|0|0,0:0|0:0|0:0,0:0:0:0:
296,72,21421,37,0,0:0:0:0:
296,72,21835,1,0,0:0:0:0:
296,72,22249,2,0,P|232:80|136:80,1,160,2|0,0:0|0:0,0:0:0:0:
64,120,23490,2,0,L|56:168,1,40,0|0,0:0|0:0,0:0:0:0:
80,192,23904,6,0,P|72:232|80:272,1,80,2|0,0:0|0:0,0:0:0:0:
152,312,24732,2,0,P|160:272|152:232,1,80,0|0,0:0|0:0,0:0:0:0:
80,272,25559,6,0,B|128:280|192:256|256:272,1,160,2|0,0:0|0:0,0:0:0:0:
368,176,27214,2,0,B|320:168|256:192|192:176,1,160,0|0,0:0|0:0,0:0:0:0:
160,120,28456,1,0,0:0:0:0:
160,120,28869,6,0,P|152:80|160:40,1,80,2|0,0:0|0:0,0:0:0:0:
320,16,29697,2,0,P|328:56|320:96,1,80,0|0,0:0|0:0,0:0:0:0:
240,72,30525,37,0,0:0:0:0:
320,16,30938,1,0,0:0:0:0:
416,40,31352,2,0,L|408:128,1,80,0|0,0:0|0:0,0:0:0:0:
472,168,32180,6,0,P|432:216|456:272,1,120,2|0,0:0|0:0,0:0:0:0:
440,304,33007,2,0,L|360:312,1,80,0|0,0:0|0:0,0:0:0:0:
280,320,33835,1,0,0:0:0:0:
128,264,34663,2,0,P|168:264|208:272,1,80,0|0,0:0|0:0,0:0:0:0:
112,344,35490,6,0,L|120:184,1,120.000004577637,2|0,0:2|0:0,0:0:0:0:
160,32,36318,2,0,L|154:151,1,120.000004577637,8|2,0:2|0:2,0:0:0:0:
154,151,37145,1,2,0:2:0:0:
154,151,37973,5,8,0:2:0:0:
272,184,38387,1,0,0:0:0:0:
368,80,38800,38,0,P|328:64|288:56,1,80,6|0,0:0|0:0,0:0:0:0:
440,128,39214,2,0,P|473:101|500:70,1,80,8|0,0:0|0:0,0:0:0:0:
365,166,39628,2,0,L|357:254,2,80,2|0|8,0:0|0:0|0:0,0:0:0:0:
160,88,40456,6,0,P|120:112|80:128,1,80,6|0,0:0|0:0,0:0:0:0:
160,176,40869,2,0,P|152:224|144:256,1,80,8|0,0:0|0:0,0:0:0:0:
232,216,41283,2,0,P|240:304|264:376,1,160,2|8,0:0|0:0,0:0:0:0:
400,296,42111,6,0,L|400:208,1,80,6|0,0:0|0:0,0:0:0:0:
432,144,42525,2,0,L|344:144,1,80,8|0,0:0|0:0,0:0:0:0:
320,72,42938,2,0,L|416:72,2,80,2|0|8,0:0|0:0|0:0,0:0:0:0:
160,104,43766,6,0,P|112:96|72:80,2,80,6|0|8,0:0|0:0|0:0,0:0:0:0:
224,152,44387,1,0,0:0:0:0:
152,184,44594,2,0,P|136:256|144:344,1,160,2|8,0:0|0:0,0:0:0:0:
344,296,45421,37,6,0:1:0:0:
336,304,45525,1,0,0:0:0:0:
328,312,45628,2,0,L|272:320,2,40,0|0|0,0:0|0:0|0:0,0:0:0:0:
448,208,46249,1,6,0:1:0:0:
456,216,46353,1,0,0:0:0:0:
464,224,46456,2,0,L|520:232,2,40,0|0|2,0:0|0:0|0:0,0:0:0:0:
344,112,47076,5,6,0:1:0:0:
340,131,47179,1,0,0:0:0:0:
336,151,47282,1,2,0:0:0:0:
332,170,47386,1,0,0:0:0:0:
328,190,47490,2,0,B|272:216|272:216|208:184,1,120,6|0,0:1|0:0,0:0:0:0:
184,208,47904,6,0,P|184:152|176:112,1,80,2|2,0:0|0:0,0:0:0:0:
80,40,48318,2,0,P|80:80|96:136,1,80,2|2,0:0|0:0,0:0:0:0:
56,200,48732,6,0,P|114:250|96:344,1,176.000005371094,6|8,0:1|0:0,0:0:0:0:
32,288,49352,1,0,0:0:0:0:
120,264,49559,2,0,P|168:272|208:272,1,88.000002685547,2|2,0:0|0:0,0:0:0:0:
272,216,49973,2,0,L|280:120,1,88.000002685547,8|0,0:0|0:0,0:0:0:0:
288,40,50387,37,2,0:0:0:0:
184,120,50594,1,0,0:0:0:0:
272,216,50800,1,8,0:0:0:0:
376,136,51007,2,0,L|384:48,2,88.000002685547,0|2|2,0:0|0:0|0:0,0:0:0:0:
456,176,51628,1,8,0:0:0:0:
384,224,51835,1,0,0:0:0:0:
384,224,51938,1,0,0:0:0:0:
384,224,52042,6,0,P|408:272|432:304,2,88.000002685547,4|0|8,0:1|0:0|0:0,0:0:0:0:
304,184,52663,1,0,0:0:0:0:
224,224,52869,2,0,L|240:360,2,132.00000402832,2|0|0,0:0|0:0|0:0,0:0:0:0:
144,192,53697,1,6,0:0:0:0:
64,232,53904,1,0,0:0:0:0:
64,232,54007,1,0,0:0:0:0:
64,232,54111,1,12,0:0:0:0:
48,144,54318,1,2,0:0:0:0:
128,104,54525,2,0,L|136:8,2,88.000002685547,6|2|8,0:0|0:0|0:0,0:0:0:0:
272,200,55352,6,0,P|264:152|264:104,1,88.000002685547,6|0,0:1|0:0,0:0:0:0:
424,72,55766,2,0,P|386:102|344:126,1,88.000002685547,8|0,0:0|0:0,0:0:0:0:
192,168,56180,1,2,0:0:0:0:
263,112,56387,1,2,0:0:0:0:
352,123,56594,1,8,0:0:0:0:
408,192,56800,1,0,0:0:0:0:
408,192,56904,1,0,0:0:0:0:
408,192,57007,6,0,B|416:320|416:320|376:288,1,176.000005371094,2|8,0:0|0:0,0:0:0:0:
296,224,57628,1,0,0:0:0:0:
296,224,57835,2,0,P|240:232|192:248,1,88.000002685547,2|2,0:0|0:0,0:0:0:0:
48,312,58249,2,0,P|80:320|144:328,1,88.000002685547,8|0,0:0|0:0,0:0:0:0:
112,240,58663,38,0,L|120:152,1,88.000002685547,6|0,0:0|0:0,0:0:0:0:
56,16,59076,1,8,0:0:0:0:
128,64,59283,1,0,0:0:0:0:
216,48,59490,6,0,P|272:32|336:32,1,120.000004577637,6|2,0:0|0:0,0:0:0:0:
360,192,59904,2,0,P|304:208|240:208,1,120.000004577637,8|8,0:0|0:0,0:0:0:0:
288,120,60318,5,6,0:0:0:0:
360,192,60525,1,0,0:0:0:0:
336,280,60732,2,0,L|344:368,1,88.000002685547,8|2,0:0|0:0,0:0:0:0:
264,328,61145,2,0,L|112:344,1,132.00000402832,8|2,0:0|0:0,0:0:0:0:
88,360,61559,1,8,0:0:0:0:
40,248,61766,1,10,0:0:0:0:
40,248,61973,6,0,P|104:256|160:248,1,88.000002685547,6|0,0:1|0:0,0:0:0:0:
168,176,62387,2,0,L|160:80,1,88.000002685547,8|0,0:0|0:0,0:0:0:0:
256,32,62800,1,2,0:0:0:0:
248,120,63007,1,2,0:0:0:0:
248,120,63111,1,0,0:0:0:0:
248,120,63214,2,0,P|280:160|312:192,1,88.000002685547,8|0,0:0|0:0,0:0:0:0:
432,96,63628,2,0,L|344:104,1,88.000002685547,6|0,0:1|0:0,0:0:0:0:
392,184,64042,2,0,L|384:288,1,88.000002685547,8|0,0:0|0:0,0:0:0:0:
304,304,64456,37,2,0:0:0:0:
192,320,64663,1,2,0:0:0:0:
256,368,64869,1,8,0:0:0:0:
240,256,65076,1,0,0:0:0:0:
208,224,65180,1,0,0:0:0:0:
168,232,65283,6,0,B|64:240|64:240|88:216|88:168,1,176.000005371094,6|8,0:1|0:0,0:0:0:0:
0,176,65904,1,0,0:0:0:0:
40,96,66111,2,0,P|64:88|136:96,1,88.000002685547,2|2,0:0|0:0,0:0:0:0:
160,112,66421,2,0,L|248:120,1,88.000002685547,0|0,0:0|0:0,0:0:0:0:
288,112,66732,1,4,0:0:0:0:
376,152,66938,6,0,B|400:96|368:56|368:56|408:40,2,132.00000402832,6|4|4,0:1|0:0|0:0,0:0:0:0:
448,208,67766,2,0,L|491:213,2,44.0000013427735,2|8|8,0:0|0:0|0:0,0:0:0:0:
368,248,68180,1,10,0:0:0:0:
346,246,68283,1,2,0:0:0:0:
324,247,68386,1,8,0:0:0:0:
302,251,68490,1,2,0:0:0:0:
281,259,68594,6,0,B|288:368|288:368|256:328,1,132.00000402832,6|0,0:1|0:0,0:0:0:0:
232,336,69007,2,0,P|176:328|136:328,1,88.000002685547,8|0,0:0|0:0,0:0:0:0:
48,176,69421,2,0,P|104:184|144:184,1,88.000002685547,2|2,0:0|0:0,0:0:0:0:
176,176,69732,1,0,0:0:0:0:
208,144,69835,2,0,L|208:48,1,88.000002685547,8|0,0:0|0:0,0:0:0:0:
321,37,70249,37,6,0:1:0:0:
296,144,70456,1,0,0:0:0:0:
404,178,70663,1,8,0:0:0:0:
441,69,70870,1,0,0:0:0:0:
296,144,71076,2,0,L|304:240,1,88.000002685547,2|2,0:0|0:0,0:0:0:0:
208,352,71490,2,0,L|216:256,1,88.000002685547,8|0,0:0|0:0,0:0:0:0:
168,128,71904,6,0,P|111:122|71:128,1,88.000002685547,6|0,0:0|0:0,0:0:0:0:
144,208,72318,1,8,0:0:0:0:
144,208,72525,1,0,0:0:0:0:
256,120,72732,6,0,L|248:32,1,88.000002685547,2|2,0:0|0:0,0:0:0:0:
328,168,73145,1,8,0:0:0:0:
328,168,73352,1,2,0:0:0:0:
256,296,73559,6,0,P|192:320|120:320,1,132.00000402832,6|0,0:1|0:0,0:0:0:0:
88,312,73973,1,8,0:0:0:0:
216,192,74387,2,0,L|352:208,1,132.00000402832,2|0,0:0|0:0,0:0:0:0:
384,232,74800,2,0,P|424:248|488:248,1,88.000002685547,8|0,0:0|0:0,0:0:0:0:
440,168,75214,38,0,B|448:56|448:56|432:80|408:88,1,160,14|0,0:0|0:0,0:0:0:0:
336,96,75835,1,2,0:0:0:0:
256,192,76042,12,2,78525,0:0:0:0:
80,48,91766,54,0,P|120:64|128:128,1,80,2|0,0:0|0:0,0:0:0:0:
80,152,92180,2,0,L|80:240,1,80,8|0,0:0|0:0,0:0:0:0:
80,312,92594,1,0,0:0:0:0:
144,360,92800,1,2,0:0:0:0:
208,312,93007,2,0,L|296:312,1,80,8|2,0:0|0:0,0:0:0:0:
352,360,93421,6,0,P|384:320|472:360,1,160,2|8,0:0|0:0,0:0:0:0:
432,288,94042,1,0,0:0:0:0:
480,224,94249,2,0,L|480:144,1,80,0|2,0:0|0:0,0:0:0:0:
480,64,94663,2,0,P|440:40|400:48,1,80,8|2,0:0|0:0,0:0:0:0:
352,96,95076,70,0,P|312:120|240:104,1,120,2|0,0:0|0:0,0:0:0:0:
208,80,95490,1,8,0:0:0:0:
112,88,95697,1,0,0:0:0:0:
80,176,95904,2,0,L|216:168,1,120,0|0,0:0|0:0,0:0:0:0:
232,192,96318,2,0,P|248:232|240:272,1,80,8|2,0:0|0:0,0:0:0:0:
176,320,96732,6,0,L|88:328,2,80,2|0|8,0:0|0:0|0:0,0:0:0:0:
256,344,97352,1,0,0:0:0:0:
320,296,97559,2,0,P|360:304|400:320,1,80,0|2,0:0|0:0,0:0:0:0:
472,344,97973,69,8,0:0:0:0:
451,224,98180,1,2,0:0:0:0:
472,344,98387,6,0,P|504:272|448:224,1,160,2|8,0:0|0:0,0:0:0:0:
376,216,99007,2,0,L|368:168,1,40,0|8,0:0|0:0,0:0:0:0:
384,136,99214,2,0,L|472:120,2,80,0|2|8,0:0|0:0|0:0,0:0:0:0:
312,96,99835,1,2,0:0:0:0:
368,40,100042,70,0,B|328:8|272:16|248:56|248:56|216:48,1,160,2|8,0:0|0:0,0:0:0:0:
152,24,100663,1,0,0:0:0:0:
112,96,100869,1,0,0:0:0:0:
32,120,101076,1,2,0:0:0:0:
56,40,101283,2,0,P|88:64|112:96,1,80,8|2,0:0|0:0,0:0:0:0:
96,176,101697,6,0,L|96:256,1,80,2|0,0:0|0:0,0:0:0:0:
48,320,102111,1,8,0:0:0:0:
112,368,102318,1,0,0:0:0:0:
160,304,102525,2,0,L|240:288,1,80,0|2,0:0|0:0,0:0:0:0:
312,312,102938,2,0,P|316:268|288:232,1,80,8|2,0:0|0:0,0:0:0:0:
232,192,103352,70,0,L|232:112,1,80,2|0,0:0|0:0,0:0:0:0:
304,80,103766,2,0,L|304:160,1,80,8|0,0:0|0:0,0:0:0:0:
368,208,104180,2,0,P|408:224|448:216,1,80,8|2,0:0|0:0,0:0:0:0:
496,120,104594,5,8,0:0:0:0:
496,120,104697,1,8,0:0:0:0:
496,120,104800,1,8,0:0:0:0:
496,120,104904,1,2,0:0:0:0:
496,120,105007,70,0,L|360:136,1,120,6|2,0:0|0:0,0:0:0:0:
344,112,105421,2,0,P|296:120|264:120,1,80,0|2,0:0|0:0,0:0:0:0:
192,80,105835,2,0,P|136:40|80:64,1,120,0|0,0:0|0:0,0:0:0:0:
56,80,106249,2,0,L|48:160,1,80,8|2,0:0|0:0,0:0:0:0:
112,208,106663,6,0,P|112:264|56:296,2,120,6|2|8,0:0|0:0|0:0,0:0:0:0:
128,168,107387,1,0,0:0:0:0:
160,144,107490,2,0,L|240:144,1,80,8|2,0:0|0:0,0:0:0:0:
272,216,107904,2,0,L|192:216,1,80,2|8,0:0|0:0,0:0:0:0:
256,288,108318,70,0,P|328:264|320:160,1,160,14|0,0:0|0:0,0:0:0:0:
312,112,108938,1,8,0:0:0:0:
392,112,109145,2,0,P|440:120|480:136,1,80,2|2,0:0|0:0,0:0:0:0:
312,112,109559,2,0,P|304:64|304:24,1,80,8|2,0:0|0:0,0:0:0:0:
384,24,109973,6,0,L|216:40,1,160,14|0,0:0|0:0,0:0:0:0:
160,88,110594,1,8,0:0:0:0:
160,88,110697,1,0,0:0:0:0:
160,88,110800,2,0,P|120:80|72:88,1,80,6|0,0:0|0:0,0:0:0:0:
40,160,111214,2,0,P|80:168|128:160,1,80,0|8,0:0|0:0,0:0:0:0:
192,208,111628,70,0,P|240:200|320:208,1,120,6|0,0:0|0:0,0:0:0:0:
344,224,112042,1,8,0:0:0:0:
264,304,112249,1,2,0:0:0:0:
192,208,112456,2,0,L|200:96,1,80,2|2,0:0|0:0,0:0:0:0:
280,24,112869,2,0,L|288:136,1,80,8|8,0:0|0:0,0:0:0:0:
360,144,113283,6,0,P|416:104|496:136,1,160,14|8,0:0|0:0,0:0:0:0:
504,296,114111,2,0,P|448:336|368:304,1,160,2|0,0:0|0:0,0:0:0:0:
320,240,114732,1,2,0:0:0:0:
256,288,114938,2,0,L|168:296,1,80,14|0,0:0|0:0,0:0:0:0:
45,182,115352,1,8,0:0:0:0:
51,189,115455,1,0,0:0:0:0:
57,197,115558,1,2,0:0:0:0:
64,205,115662,1,0,0:0:0:0:
71,213,115766,70,0,L|216:224,2,120,2|8|2,0:0|0:0|0:0,0:0:0:0:
120,144,116594,2,0,L|128:56,1,80,6|2,0:0|0:0,0:0:0:0:
208,48,117007,1,8,0:0:0:0:
256,112,117214,1,2,0:0:0:0:
336,96,117421,2,0,P|384:88|416:88,1,80,8|8,0:0|0:0,0:0:0:0:
464,160,117835,2,0,P|416:168|384:168,1,80,2|2,0:0|0:0,0:0:0:0:
352,192,118145,1,0,0:0:0:0:
320,208,118249,6,0,L|200:200,2,120,2|0|2,0:0|0:0|0:0,0:0:0:0:
360,280,119076,2,0,L|480:288,2,120,2|0|2,0:0|0:0|0:0,0:0:0:0:
296,328,119904,70,0,P|224:280|144:320,1,160,2|8,0:0|0:0,0:0:0:0:
80,280,120525,2,0,L|88:200,1,80,2|2,0:0|0:0,0:0:0:0:
104,120,120938,1,2,0:0:0:0:
104,120,121042,1,0,0:0:0:0:
104,120,121145,2,0,L|152:112,2,40,8|0|2,0:0|0:0|0:0,0:0:0:0:
256,192,121559,12,8,122800,0:0:0:0:
256,192,123214,6,0,L|432:176,1,160,6|8,0:1|0:0,0:0:0:0:
352,216,123835,2,0,P|320:256|312:312,1,80,2|0,0:0|0:0,0:0:0:0:
368,352,124249,1,2,0:0:0:0:
440,296,124456,2,0,L|432:208,1,80,8|2,0:0|0:0,0:0:0:0:
496,96,124869,70,0,P|496:144|512:184,2,80,6|0|8,0:1|0:0|0:0,0:0:0:0:
424,40,125490,1,2,0:0:0:0:
424,40,125594,1,8,0:0:0:0:
424,40,125697,2,0,P|376:56|328:80,1,80,0|2,0:0|0:0,0:0:0:0:
256,128,126111,2,0,L|264:48,1,80,8|2,0:0|0:0,0:0:0:0:
184,64,126525,6,0,P|136:112|48:88,1,160,6|8,0:1|0:0,0:0:0:0:
36,14,127145,1,2,0:0:0:0:
112,40,127352,1,0,0:0:0:0:
128,120,127559,1,2,0:0:0:0:
72,176,127766,2,0,L|-16:184,1,80,8|2,0:0|0:0,0:0:0:0:
8,264,128180,70,0,L|16:304,1,40,6|0,0:1|0:0,0:0:0:0:
80,352,128387,1,0,0:0:0:0:
128,280,128594,2,0,L|208:288,1,80,8|2,0:0|0:0,0:0:0:0:
272,336,129007,2,0,P|336:304|408:352,1,160,0|8,0:0|0:0,0:0:0:0:
480,312,129628,6,0,L|488:256,1,40,2|0,0:0|0:0,0:0:0:0:
432,224,129835,2,0,L|424:136,2,80,6|0|8,0:0|0:0|0:0,0:0:0:0:
496,176,130456,2,0,B|424:144|424:144|464:128|480:88,1,160,2|2,0:0|0:0,0:0:0:0:
400,64,131076,2,0,P|360:56|312:64,1,80,8|2,0:0|0:0,0:0:0:0:
280,128,131490,70,0,P|240:144|192:152,1,80,6|0,0:0|0:0,0:0:0:0:
136,112,131904,1,8,0:0:0:0:
216,48,132111,1,2,0:0:0:0:
280,128,132318,2,0,L|288:208,1,80,0|2,0:0|0:0,0:0:0:0:
208,328,132732,2,0,P|216:280|232:240,1,80,8|2,0:0|0:0,0:0:0:0:
288,304,133145,6,0,L|120:296,1,160,6|8,0:0|0:0,0:0:0:0:
48,304,133766,1,2,0:0:0:0:
16,232,133973,1,0,0:0:0:0:
72,176,134180,1,2,0:0:0:0:
40,104,134387,2,0,L|48:24,1,80,8|2,0:0|0:0,0:0:0:0:
120,64,134800,70,0,P|168:112|248:72,1,160,6|8,0:0|0:0,0:0:0:0:
260,68,135318,1,0,0:0:0:0:
280,64,135421,1,2,0:0:0:0:
300,68,135525,1,0,0:0:0:0:
312,84,135628,2,0,L|408:92,1,80,0|2,0:0|0:0,0:0:0:0:
368,168,136042,2,0,P|408:176|448:192,1,80,8|2,0:0|0:0,0:0:0:0:
512,224,136456,6,0,L|352:240,1,160,6|8,0:1|0:0,0:0:0:0:
320,312,137076,1,2,0:0:0:0:
320,312,137180,1,8,0:0:0:0:
320,312,137283,2,0,P|256:288|176:328,1,160,0|8,0:0|0:0,0:0:0:0:
120,264,137904,1,2,0:0:0:0:
80,328,138111,70,0,L|88:184,1,120,6|0,0:1|0:0,0:0:0:0:
64,176,138525,2,0,P|80:136|80:96,1,80,8|2,0:0|0:0,0:0:0:0:
0,88,138938,2,0,L|160:80,1,160,0|8,0:0|0:0,0:0:0:0:
316,44,139766,6,0,L|377:53,3,40,6|0|0|0,0:1|0:0|0:0|0:0,0:0:0:0:
390,29,140180,2,0,P|441:42|471:132,1,120,8|8,0:0|0:0,0:0:0:0:
397,109,140594,2,0,L|382:164,3,40,0|0|2|0,0:0|0:0|0:0|0:0,0:0:0:0:
403,183,141007,1,8,0:0:0:0:
353,245,141214,1,2,0:0:0:0:
424,280,141421,70,0,P|472:280|512:272,2,80,6|0|8,0:1|0:0|0:0,0:0:0:0:
368,336,142042,1,2,0:0:0:0:
288,312,142249,2,0,P|240:312|184:328,1,80,0|2,0:0|0:0,0:0:0:0:
136,344,142663,2,0,L|144:256,1,80,8|2,0:0|0:0,0:0:0:0:
88,208,143076,6,0,B|120:176|104:120|56:112|56:112|112:112,1,160,6|8,0:0|0:0,0:0:0:0:
144,48,143697,1,2,0:0:0:0:
192,112,143904,2,0,P|240:120|280:120,1,80,0|2,0:0|0:0,0:0:0:0:
336,72,144318,2,0,P|368:48|408:32,1,80,8|2,0:0|0:0,0:0:0:0:
507,105,144732,70,0,B|512:120|512:120|408:112,1,120,6|0,0:0|0:0,0:0:0:0:
384,144,145145,2,0,P|376:184|384:224,1,80,8|2,0:0|0:0,0:0:0:0:
408,256,145456,1,8,0:0:0:0:
408,256,145559,2,0,L|488:248,1,80,0|2,0:0|0:0,0:0:0:0:
496,328,145973,2,0,L|416:336,1,80,8|2,0:0|0:0,0:0:0:0:
344,304,146387,22,0,L|208:296,2,120,14|0|0,0:0|0:0|0:0,0:0:0:0:
320,224,147214,1,0,0:0:0:0:
296,144,147421,2,0,L|415:151,2,120,8|2|6,0:0|0:0|0:0,0:0:0:0:
232,96,148253,5,8,0:0:0:0:
168,144,148465,2,0,P|152:88|200:24,2,120,8|8|8,0:0|0:0|0:0,0:0:0:0:
104,192,149311,2,0,L|24:184,1,80,8|8,0:0|0:0,0:0:0:0:
176,224,149735,2,0,P|176:272|144:336,1,120,14|8,0:0|0:0,0:0:0:0:
240,184,150370,2,0,L|400:192,1,160,2|8,0:0|0:0,0:0:0:0:
472,232,151004,5,2,0:0:0:0:
472,232,151110,1,0,0:0:0:0:
360,272,151428,6,0,P|432:296|472:232,1,160,14|2,0:0|0:0,0:0:0:0:
464,152,152063,2,0,P|464:112|472:64,1,80,2|2,0:0|0:0,0:0:0:0:
408,24,152486,1,8,0:0:0:0:
256,192,153121,69,14,0:0:0:0:
256,192,154299,12,14,156549,0:0:0:0:
256,192,170263,21,6,0:0:0:0:
256,192,180549,5,6,0:0:0:0:
160,264,182263,69,8,0:0:0:0:
352,264,182692,1,2,0:0:0:0:
256,104,183121,2,0,L|256:168,2,60.0000022888184,0|2|8,0:0|0:0|0:0,0:0:0:0:
256,104,183978,5,6,0:1:0:0:
256,104,185692,2,0,B|248:160|280:200|280:200|232:184|232:184|264:224|256:272,1,240.000009155274,2|0,0:0|0:0,0:0:0:0:
184,344,186978,2,0,B|176:296|184:248|184:248|152:272,1,120.000004577637,8|2,0:1|0:0,0:0:0:0:
184,344,187835,69,8,0:1:0:0:
328,344,188263,1,0,0:0:0:0:
384,232,188692,2,0,P|351:234|312:248,1,60.0000022888184,8|2,0:1|0:0,0:0:0:0:
408,304,189121,6,0,B|416:152|416:152|440:184,1,180.000006866455,2|0,0:0|0:0,0:0:0:0:
495,240,189978,2,0,P|464:290|408:304,1,120.000004577637,0|8,0:0|0:1,0:0:0:0:
296,256,190835,69,6,0:1:0:0:
184,208,191263,6,0,P|224:200|248:200,1,60.0000022888184,8|0,0:1|0:0,0:0:0:0:
224,272,191692,2,0,L|104:264,1,120.000004577637,0|8,0:0|0:1,0:0:0:0:
40,304,192335,1,2,0:0:0:0:
36,230,192549,70,0,B|68:190|48:136|48:136|72:152,1,120.000004577637,2|8,0:0|0:1,0:0:0:0:
136,160,193192,1,0,0:0:0:0:
112,88,193406,2,0,P|112:48|120:16,2,60.0000022888184,0|0|8,0:0|0:0|0:0,0:0:0:0:
136,160,194049,21,8,0:0:0:0:
136,160,194156,5,8,0:0:0:0:
136,160,194263,6,0,B|272:168|272:168|256:144,1,160,6|8,0:0|0:0,0:0:0:0:
216,80,194906,2,0,P|256:72|304:80,1,80,2|2,0:0|0:0,0:0:0:0:
368,112,195335,1,0,0:0:0:0:
424,56,195549,2,0,L|416:144,1,80,8|0,0:0|0:0,0:0:0:0:
472,192,195978,6,0,P|480:232|472:272,1,80,2|0,0:0|0:0,0:0:0:0:
352,343,196406,2,0,L|432:336,1,80,8|2,0:0|0:0,0:0:0:0:
400,264,196835,2,0,L|320:271,1,80,2|0,0:0|0:0,0:0:0:0:
272,336,197263,1,8,0:0:0:0:
200,312,197478,38,0,L|192:264,1,40,0|0,0:0|0:0,0:0:0:0:
113,225,197692,2,0,B|129:353|129:353|97:337,1,160,6|8,0:0|0:0,0:0:0:0:
25,231,198335,2,0,P|39:193|49:145,1,80,2|2,0:0|0:0,0:0:0:0:
116,105,198763,1,0,0:0:0:0:
176,48,198978,6,0,P|215:38|256:38,1,80,8|0,0:0|0:0,0:0:0:0:
343,112,199406,2,0,B|360:134|360:134|218:129,1,160,2|8,0:0|0:0,0:0:0:0:
113,225,200049,2,0,L|193:217,1,80,2|2,0:0|0:0,0:0:0:0:
284,260,200478,1,0,0:0:0:0:
376,208,200692,1,8,0:0:0:0:
368,304,200906,2,0,P|360:344|368:384,2,80,0|12|8,0:0|0:0|0:0,0:0:0:0:
424,248,201549,5,8,0:0:0:0:
424,248,201656,1,8,0:0:0:0:
424,248,201763,1,2,0:0:0:0:
496,216,201978,6,0,L|368:208,1,120,2|8,0:0|0:0,0:0:0:0:
344,184,202406,1,2,0:0:0:0:
384,112,202621,1,2,0:0:0:0:
384,112,202728,1,8,0:0:0:0:
384,112,202835,38,0,P|432:120|464:136,2,80,8|2|12,0:0|0:0|0:0,0:0:0:0:
304,112,203478,1,2,0:0:0:0:
304,112,203585,1,2,0:0:0:0:
304,112,203692,2,0,L|248:120,3,40,12|2|2|8,0:0|0:0|0:0|0:0,0:0:0:0:
232,104,204121,2,0,L|176:112,3,40,12|2|8|2,0:0|0:0|0:0|0:0,0:0:0:0:
144,128,204549,5,14,0:0:0:0:
144,128,204978,1,12,0:0:0:0:
144,128,205406,6,0,P|112:136|80:136,1,60.0000022888184,2|2,0:0|0:0,0:0:0:0:
43,150,205728,1,2,0:0:0:0:
43,150,205835,2,0,L|51:214,1,60.0000022888184,8|2,0:0|0:0,0:0:0:0:
120,280,206263,5,6,0:0:0:0:
72,344,206478,1,0,0:0:0:0:
72,344,206585,1,0,0:0:0:0:
72,344,206692,1,8,0:0:0:0:
192,312,206906,1,2,0:0:0:0:
272,336,207121,2,0,P|312:336|352:320,1,80,8|2,0:0|0:0,0:0:0:0:
368,248,207549,2,0,B|376:152|376:152|384:176,1,120,8|0,0:0|0:0,0:0:0:0:
416,200,207978,38,0,P|448:224|488:240,1,80,2|0,0:0|0:0,0:0:0:0:
488,160,208406,1,8,0:0:0:0:
424,120,208621,2,0,L|304:112,1,120,2|8,0:0|0:0,0:0:0:0:
264,128,209049,1,2,0:0:0:0:
152,48,209263,2,0,P|200:48|232:56,1,80,8|2,0:0|0:0,0:0:0:0:
184,144,209692,5,2,0:0:0:0:
88,128,209906,1,0,0:0:0:0:
56,112,210013,1,0,0:0:0:0:
16,96,210121,2,0,L|24:224,1,120,8|2,0:0|0:0,0:0:0:0:
32,256,210549,1,8,0:0:0:0:
104,224,210763,1,2,0:0:0:0:
64,328,210978,1,8,0:0:0:0:
136,296,211192,1,2,0:0:0:0:
136,296,211299,1,0,0:0:0:0:
136,296,211406,6,0,B|256:304|256:304|224:272,1,160,2|8,0:0|0:0,0:0:0:0:
200,200,212049,2,0,P|192:160|192:112,1,80,2|8,0:0|0:0,0:0:0:0:
248,64,212478,1,2,0:0:0:0:
352,176,212692,1,8,0:0:0:0:
200,200,212906,1,2,0:0:0:0:
90,87,213121,6,0,B|152:88|192:64|248:64,1,160,6|8,0:0|0:0,0:0:0:0:
312,104,213763,2,0,P|312:144|320:184,1,80,8|2,0:0|0:0,0:0:0:0:
408,224,214192,1,2,0:0:0:0:
480,136,214406,2,0,P|432:128|400:128,1,80,8|8,0:0|0:0,0:0:0:0:
320,264,214835,38,0,L|480:248,1,160,2|8,0:0|0:0,0:0:0:0:
319,183,215478,21,8,0:0:0:0:
202,224,215692,1,2,0:0:0:0:
319,183,215906,1,2,0:0:0:0:
112,137,216121,2,0,P|116:89|132:41,1,80,8|8,0:0|0:0,0:0:0:0:
222,107,216549,5,2,0:0:0:0:
202,224,216763,1,8,0:0:0:0:
202,224,216871,1,0,0:0:0:0:
202,224,216978,2,0,B|212:246|212:246|116:238,1,120,8|0,0:0|0:0,0:0:0:0:
81,252,217406,2,0,P|73:292|81:340,1,80,8|8,0:0|0:0,0:0:0:0:
160,336,217835,2,0,L|248:328,1,80,2|2,0:0|0:0,0:0:0:0:
304,288,218263,37,2,0:0:0:0:
323,282,218370,1,0,0:0:0:0:
342,280,218477,1,0,0:0:0:0:
362,281,218584,1,0,0:0:0:0:
382,287,218692,2,0,P|432:304|488:272,1,120,8|8,0:0|0:0,0:0:0:0:
496,232,219121,6,0,L|504:184,3,40,2|2|8|8,0:0|0:0|0:0|0:0,0:0:0:0:
488,160,219549,2,0,L|496:112,3,40,2|2|8|0,0:0|0:0|0:0|0:0,0:0:0:0:
456,104,219978,6,0,B|424:88|408:64|408:64|416:192,1,160,6|8,0:0|0:0,0:0:0:0:
368,224,220621,1,2,0:0:0:0:
368,224,220728,1,2,0:0:0:0:
368,224,220835,1,8,0:0:0:0:
256,168,221049,2,0,P|295:159|343:157,1,80,2|8,0:0|0:0,0:0:0:0:
288,248,221478,1,2,0:0:0:0:
208,240,221692,6,0,B|200:304|232:352|232:352|176:344,1,160,2|8,0:0|0:0,0:0:0:0:
112,336,222335,2,0,L|56:352,1,40,2|8,0:0|0:0,0:0:0:0:
24,296,222549,1,8,0:0:0:0:
80,184,222763,1,8,0:0:0:0:
48,64,222978,2,0,P|88:56|136:72,1,80,8|2,0:0|0:0,0:0:0:0:
200,96,223406,38,0,L|320:88,1,120,2|0,0:0|0:0,0:0:0:0:
352,112,223835,2,0,P|360:152|352:200,1,80,8|2,0:0|0:0,0:0:0:0:
320,216,224156,1,2,0:0:0:0:
320,216,224263,2,0,L|216:208,1,80,8|2,0:0|0:0,0:0:0:0:
48,288,224692,2,0,P|120:312|192:256,1,160,8|6,0:0|0:0,0:0:0:0:
168,192,225335,5,0,0:0:0:0:
168,192,225442,1,0,0:0:0:0:
168,192,225549,2,0,P|160:144|168:104,1,80,8|2,0:0|0:0,0:0:0:0:
256,56,225978,2,0,P|307:62|360:64,1,80,8|2,0:0|0:0,0:0:0:0:
416,120,226406,1,8,0:0:0:0:
417,139,226513,1,8,0:0:0:0:
419,159,226620,1,2,0:0:0:0:
421,179,226727,1,0,0:0:0:0:
424,200,226835,6,0,B|431:292|431:292|456:264,2,106.666666666667,6|0|0,0:0|0:0|0:0,0:0:0:0:
352,256,227692,2,0,B|345:164|345:164|312:192,2,106.666666666667,2|0|0,0:0|0:0|0:0,0:0:0:0:
368,336,228549,5,6,0:0:0:0:
368,336,229406,2,0,B|240:328|240:328|272:352,1,160,2|8,0:0|0:0,0:0:0:0:
136,184,230263,2,0,B|264:192|264:192|232:168,1,160,6|8,0:0|0:0,0:0:0:0:
200,104,230906,2,0,P|192:64|200:24,2,80,8|2|2,0:0|0:0|0:0,0:0:0:0:
280,112,231549,1,8,0:0:0:0:
336,56,231763,1,2,0:0:0:0:
336,56,231871,1,2,0:0:0:0:
336,56,231978,38,0,L|472:72,4,120,14|8|8|8|8,0:0|0:0|0:0|0:0|0:0,0:0:0:0:
376,208,233692,6,0,P|432:200|480:168,2,106.666666666667,2|0|0,0:0|0:0|0:0,0:0:0:0:
280,248,234549,2,0,P|258:300|262:358,2,106.666666666667,2|0|0,0:0|0:0|0:0,0:0:0:0:
288,144,235406,1,2,0:0:0:0:
310,135,236263,5,2,0:0:0:0:
337,132,236478,5,2,0:0:0:0:
337,132,236585,1,2,0:0:0:0:
337,132,236692,2,0,P|291:101|232:80,1,80,8|0,0:0|0:0,0:0:0:0:
144,80,237121,5,6,0:0:0:0:
144,80,238835,6,0,B|88:104|88:104|24:96,2,120,6|12|12,0:0|0:0|0:0,0:0:0:0:
360,192,240121,21,8,0:0:0:0:
340,190,240228,5,8,0:0:0:0:
320,188,240335,5,2,0:0:0:0:
300,186,240442,5,0,0:0:0:0:
280,184,240549,37,6,0:0:0:0:
