osu file format v14

[General]
AudioFilename: audio.mp3
AudioLeadIn: 0
PreviewTime: -1
Countdown: 1
SampleSet: Soft
StackLeniency: 0.7
Mode: 0
LetterboxInBreaks: 0
WidescreenStoryboard: 0

[Editor]
DistanceSpacing: 1
BeatDivisor: 4
GridSize: 8
TimelineZoom: 1

[Metadata]
Title:bad maps
TitleUnicode:bad maps
Artist:Various Artists
ArtistUnicode:Various Artists
Creator:-[Koinuri]
Version:double bpm
Source:
Tags:paraoka rainbow archiver
BeatmapID:1142450
BeatmapSetID:539133

[Difficulty]
HPDrainRate:6
CircleSize:4
OverallDifficulty:8
ApproachRate:10
SliderMultiplier:1.9
SliderTickRate:1

[Events]
//Background and Video events
//Break Periods
//Storyboard Layer 0 (Background)
//Storyboard Layer 1 (Fail)
//Storyboard Layer 2 (Pass)
//Storyboard Layer 3 (Foreground)
//Storyboard Sound Samples

[TimingPoints]
4455,222.222222222222,4,2,0,100,1,0

[HitObjects]
256,192,899,12,0,3510,0:0:0:0:
196,153,3566,6,0,B|211:198|193:243|193:243|172:295|214:293|214:293|265:290|217:187,1,285
123,196,4010,1,0,0:0:0:0:
311,249,4121,2,0,P|379:254|422:225,2,95
453,168,4455,6,0,L|456:9,1,142.5
435,35,4677,2,0,P|375:41|325:22,1,95
255,26,4899,1,0,0:0:0:0:
178,58,5010,1,0,0:0:0:0:
97,34,5121,1,0,0:0:0:0:
137,146,5232,1,0,0:0:0:0:
243,131,5343,6,0,L|458:138,1,190
374,251,5677,1,0,0:0:0:0:
394,331,5788,2,0,P|444:301|416:187,1,190
300,321,6121,1,0,0:0:0:0:
170,315,6232,6,0,P|163:259|167:217,1,95
302,139,6454,2,0,P|309:83|305:41,1,95
173,55,6677,1,0,0:0:0:0:
170,207,6788,1,0,0:0:0:0:
249,237,6899,1,0,0:0:0:0:
303,150,7010,1,0,0:0:0:0:
362,253,7121,6,0,P|415:259|460:245,1,95
481,231,7343,2,0,P|467:284|480:374,1,142.5
486,366,7566,1,0,0:0:0:0:
377,341,7677,1,0,0:0:0:0:
425,154,7788,2,0,P|476:150|536:166,1,95
328,94,8010,6,0,L|101:90,1,190
162,184,8343,1,0,0:0:0:0:
208,40,8454,1,0,0:0:0:0:
92,129,8566,1,0,0:0:0:0:
135,259,8677,1,0,0:0:0:0:
248,184,8788,1,0,0:0:0:0:
179,273,8899,6,0,L|-16:268,1,190
264,340,9232,2,0,P|342:330|378:348,1,95
437,368,9454,1,0,0:0:0:0:
494,252,9566,1,0,0:0:0:0:
432,360,9677,1,0,0:0:0:0:
369,217,9788,6,0,P|346:153|357:120,1,95
487,23,10010,2,0,L|462:221,1,190
272,182,10343,1,0,0:0:0:0:
341,93,10454,2,0,P|392:86|432:99,1,95
352,229,10677,5,0,0:0:0:0:
256,94,10788,1,0,0:0:0:0:
193,177,10899,2,0,P|185:238|196:367,1,190
257,294,11232,1,0,0:0:0:0:
108,268,11343,2,0,P|53:267|-9:274,1,95
105,171,11566,6,0,P|116:64|99:-18,1,190
29,54,11899,1,0,0:0:0:0:
197,101,12010,2,0,P|271:107|316:91,1,95
373,55,12232,1,0,0:0:0:0:
316,183,12343,1,0,0:0:0:0:
422,159,12454,6,0,P|427:220|425:264,1,95
395,363,12677,1,0,0:0:0:0:
340,269,12788,1,0,0:0:0:0:
298,344,12899,2,0,L|95:334,1,190
161,257,13232,1,0,0:0:0:0:
20,306,13343,6,0,P|29:253|23:202,1,95
3,137,13566,1,0,0:0:0:0:
58,333,13677,1,0,0:0:0:0:
131,186,13788,2,0,P|184:176|236:189,1,95
299,311,14010,1,0,0:0:0:0:
352,244,14121,1,0,0:0:0:0:
470,269,14232,6,0,P|491:226|487:152,1,95
296,176,14454,2,0,P|296:238|375:344,1,190
476,344,14788,1,0,0:0:0:0:
402,148,14899,2,0,P|400:91|419:47,1,95
317,81,15121,6,0,L|93:79,1,190
53,67,15454,1,0,0:0:0:0:
59,161,15566,1,0,0:0:0:0:
51,269,15677,1,0,0:0:0:0:
150,171,15788,1,0,0:0:0:0:
169,290,15899,1,0,0:0:0:0:
251,249,16010,6,0,L|428:243,1,142.5
400,242,16232,2,0,P|392:306|416:343,1,95
471,279,16454,1,0,0:0:0:0:
481,100,16566,1,0,0:0:0:0:
401,226,16677,1,0,0:0:0:0:
476,107,16788,1,0,0:0:0:0:
190,119,16899,6,0,L|211:294,1,142.5
220,272,17121,2,0,P|237:222|150:193,1,142.5
150,188,17343,2,0,L|28:216,2,95
315,254,17677,6,0,P|374:249|469:161,1,190
327,150,18010,2,0,P|333:217|388:307,1,142.5
378,295,18232,2,0,L|364:397,2,95
473,163,18566,1,0,0:0:0:0:
311,152,18677,6,0,L|85:132,1,190
52,228,19010,1,0,0:0:0:0:
174,314,19121,2,0,P|187:260|178:197,1,95
64,366,19343,1,0,0:0:0:0:
277,331,19454,6,0,L|466:303,1,190
377,193,19788,2,0,P|371:139|387:93,1,95
284,187,20010,2,0,P|214:199|166:189,1,95
76,73,20232,6,0,P|157:57|195:62,1,95
276,101,20454,2,0,L|309:333,1,190
205,311,20788,1,0,0:0:0:0:
380,203,20899,5,0,0:0:0:0:
286,370,21010,1,0,0:0:0:0:
189,174,21121,1,0,0:0:0:0:
310,212,21232,6,0,L|513:187,1,190
383,80,21566,2,0,P|435:77|487:96,1,95
425,284,21788,2,0,P|428:336|409:388,1,95
189,327,22010,2,0,P|137:330|85:311,1,95
255,160,22232,6,0,L|256:371,1,190
331,271,22566,1,0,0:0:0:0:
189,198,22677,2,0,P|134:189|87:204,2,95
325,134,23010,6,0,L|518:132,1,190
458,217,23343,1,0,0:0:0:0:
372,51,23454,1,0,0:0:0:0:
323,219,23566,2,0,P|316:275|328:321,1,95
416,352,23788,1,0,0:0:0:0:
402,139,23899,1,0,0:0:0:0:
142,214,24010,5,0,0:0:0:0:
260,113,24121,1,0,0:0:0:0:
65,84,24232,1,0,0:0:0:0:
68,89,24288,1,0,0:0:0:0:
71,94,24343,1,0,0:0:0:0:
270,109,24454,1,0,0:0:0:0:
136,229,24566,1,0,0:0:0:0:
268,304,24677,2,0,P|328:306|367:285,1,95
470,225,24899,6,0,L|482:52,1,142.5
336,95,25121,2,0,P|330:123|330:169,1,47.5
341,228,25232,2,0,P|360:248|398:275,1,47.5
260,205,25343,2,0,L|49:222,1,190
105,308,25677,1,0,0:0:0:0:
222,111,25788,6,0,L|-3:127,1,190
122,313,26121,1,0,0:0:0:0:
248,313,26232,2,0,P|256:235|238:187,1,95
154,184,26454,1,0,0:0:0:0:
339,182,26566,6,0,L|541:178,1,190
444,264,26899,1,0,0:0:0:0:
401,99,27010,1,0,0:0:0:0:
232,119,27121,2,0,L|32:107,1,190
75,223,27454,1,0,0:0:0:0:
207,212,27566,6,0,P|213:151|173:81,1,142.5
167,71,27788,2,0,P|241:78|287:56,1,95
362,34,28010,1,0,0:0:0:0:
278,193,28121,1,0,0:0:0:0:
379,143,28232,1,0,0:0:0:0:
464,211,28343,6,0,L|473:405,1,190
333,291,28677,2,0,P|327:243|349:203,1,95
449,57,28899,2,0,L|435:171,1,95
265,153,29121,2,0,L|147:147,1,95
47,63,29343,6,0,P|148:50|233:86,1,190
245,293,29677,1,0,0:0:0:0:
386,133,29788,2,0,P|389:81|378:37,1,95
161,255,30010,2,0,P|158:307|169:351,1,95
460,236,30232,6,0,P|393:228|248:267,1,190
193,197,30566,2,0,L|151:4,1,190
239,56,30899,1,0,0:0:0:0:
80,155,31010,1,0,0:0:0:0:
202,221,31121,5,0,0:0:0:0:
277,166,31232,1,0,0:0:0:0:
277,306,31343,1,0,0:0:0:0:
277,313,31399,1,0,0:0:0:0:
277,320,31454,1,0,0:0:0:0:
361,265,31566,1,0,0:0:0:0:
138,302,31677,1,0,0:0:0:0:
381,351,31788,2,0,P|446:341|494:357,1,95
211,241,32010,6,0,L|39:229,1,142.5
58,221,32232,2,0,L|57:149,1,47.5
53,83,32343,2,0,L|52:11,1,47.5
162,126,32454,2,0,L|392:119,1,190
427,61,32788,1,0,0:0:0:0:
376,324,32899,6,0,L|260:309,1,95
408,235,33121,1,0,0:0:0:0:
456,362,33232,1,0,0:0:0:0:
168,228,33343,6,0,L|284:213,1,95
136,139,33565,1,0,0:0:0:0:
88,266,33676,1,0,0:0:0:0:
360,118,33788,6,0,L|244:103,1,95
392,29,34010,1,0,0:0:0:0:
440,156,34121,1,0,0:0:0:0:
177,54,34232,6,0,L|315:38,1,95
200,195,34454,2,0,L|14:172,1,142.5
51,176,34677,6,0,P|43:124|65:80,1,95
230,114,34899,1,0,0:0:0:0:
88,302,35010,1,0,0:0:0:0:
178,281,35121,6,0,P|237:277|292:289,1,95
334,340,35343,1,0,0:0:0:0:
474,249,35454,1,0,0:0:0:0:
400,218,35566,6,0,P|392:169|407:125,1,95
276,256,35788,2,0,P|227:264|183:249,1,95
117,190,36010,2,0,L|106:-36,1,190
206,49,36343,1,0,0:0:0:0:
296,115,36454,6,0,P|348:124|447:100,1,142.5
440,99,36677,2,0,P|388:108|289:84,1,142.5
315,77,36899,2,0,P|367:86|466:62,1,142.5
465,63,37121,2,0,L|450:194,1,95
354,207,37343,6,0,P|340:257|441:336,1,190
304,311,37677,2,0,P|242:301|207:318,1,95
150,355,37899,1,0,0:0:0:0:
47,211,38010,1,0,0:0:0:0:
143,250,38121,1,0,0:0:0:0:
229,195,38232,6,0,P|252:129|240:47,1,142.5
223,46,38454,2,0,P|200:112|212:194,1,142.5
252,210,38677,2,0,P|275:144|263:62,1,142.5
192,54,38899,2,0,P|177:108|179:149,1,95
336,203,39121,5,0,0:0:0:0:
103,97,39232,1,0,0:0:0:0:
167,254,39343,2,0,P|231:264|276:250,1,95
403,123,39566,1,0,0:0:0:0:
328,299,39677,1,0,0:0:0:0:
452,345,39788,2,0,P|454:295|437:246,1,95
299,116,40010,6,0,L|186:108,1,95
119,49,40232,1,0,0:0:0:0:
71,176,40343,1,0,0:0:0:0:
246,204,40454,6,0,L|359:196,1,95
426,137,40676,1,0,0:0:0:0:
474,264,40787,1,0,0:0:0:0:
299,294,40899,6,0,L|186:286,1,95
119,227,41121,1,0,0:0:0:0:
71,354,41232,1,0,0:0:0:0:
243,384,41343,6,0,L|356:376,1,95
403,197,41566,2,0,P|398:250|424:353,1,142.5
435,343,41788,6,0,P|486:342|521:301,1,95
417,181,42010,1,0,0:0:0:0:
340,295,42121,1,0,0:0:0:0:
271,106,42232,2,0,L|491:92,1,190
288,214,42566,1,0,0:0:0:0:
165,153,42677,6,0,P|162:96|187:42,1,95
217,283,42899,2,0,P|160:286|106:261,1,95
0,150,43121,2,0,P|57:147|111:172,1,95
236,287,43343,1,0,0:0:0:0:
156,125,43454,1,0,0:0:0:0:
265,102,43566,6,0,P|355:86|468:111,1,190
360,215,43899,1,0,0:0:0:0:
196,227,44010,2,0,P|196:174|213:124,1,95
360,237,44232,2,0,P|368:294|356:341,1,95
220,338,44454,6,0,L|-3:335,1,190
112,241,44788,1,0,0:0:0:0:
37,147,44899,2,0,P|21:91|37:58,1,95
214,108,45121,2,0,L|203:267,1,142.5
200,264,45343,6,0,P|255:253|299:272,1,95
408,320,45566,1,0,0:0:0:0:
430,52,45677,1,0,0:0:0:0:
365,145,45788,6,0,P|354:204|364:247,1,95
408,320,46010,1,0,0:0:0:0:
430,52,46121,1,0,0:0:0:0:
271,134,46232,6,0,P|209:137|156:120,1,95
96,40,46454,1,0,0:0:0:0:
430,52,46565,1,0,0:0:0:0:
208,315,46677,6,0,P|217:269|213:222,1,95
104,344,46899,1,0,0:0:0:0:
448,316,47010,1,0,0:0:0:0:
283,206,47121,6,0,L|481:196,1,190
340,313,47454,1,0,0:0:0:0:
176,129,47566,2,0,P|177:73|202:27,1,95
300,138,47788,1,0,0:0:0:0:
204,270,47899,1,0,0:0:0:0:
38,226,48010,6,0,L|266:218,1,190
420,304,48343,2,0,B|439:233|412:189|412:189|408:140|448:95,1,190
361,73,48677,2,0,P|294:72|246:49,1,95
44,175,48899,6,0,L|272:166,1,190
167,257,49232,1,0,0:0:0:0:
348,205,49343,2,0,P|367:268|357:315,2,95
176,138,49677,6,0,P|165:83|272:29,1,190
349,98,50010,2,0,L|476:96,1,95
174,238,50232,2,0,L|74:231,1,95
352,195,50454,2,0,L|470:184,1,95
159,149,50677,6,0,L|54:134,1,95
247,104,50899,1,0,0:0:0:0:
194,268,51010,1,0,0:0:0:0:
303,220,51121,2,0,P|363:236|408:226,2,95
173,51,51454,1,0,0:0:0:0:
64,184,51566,6,0,L|51:378,1,190
302,272,51899,2,0,P|229:257|127:319,1,190
426,343,52232,2,0,L|429:236,1,95
296,188,52454,5,0,0:0:0:0:
481,164,52566,1,0,0:0:0:0:
383,44,52677,1,0,0:0:0:0:
383,44,52732,1,0,0:0:0:0:
383,44,52788,1,0,0:0:0:0:
352,252,52899,1,0,0:0:0:0:
445,101,53010,1,0,0:0:0:0:
265,106,53121,2,0,P|202:110|166:98,1,95
84,182,53343,6,0,L|84:297,1,95
454,256,53566,2,0,L|454:161,1,95
106,121,53788,2,0,L|106:236,1,95
425,318,54011,2,0,L|425:223,1,95
123,321,54232,6,0,L|353:299,1,190
200,211,54566,1,0,0:0:0:0:
283,207,54677,2,0,P|294:151|272:98,1,95
125,80,54899,1,0,0:0:0:0:
280,106,55010,6,0,P|367:112|392:100,1,95
461,50,55232,1,0,0:0:0:0:
387,182,55343,2,0,L|389:286,1,95
269,354,55566,2,0,L|283:162,1,190
382,354,55899,1,0,0:0:0:0:
195,264,56010,6,0,P|124:260|95:247,1,95
22,137,56232,1,0,0:0:0:0:
16,272,56343,1,0,0:0:0:0:
178,149,56454,2,0,L|185:51,1,95
36,128,56677,1,0,0:0:0:0:
266,169,56788,6,0,L|468:149,1,190
178,227,57121,2,0,L|59:218,1,95
325,257,57343,2,0,P|329:317|311:359,1,95
157,128,57566,2,0,P|144:73|165:37,1,95
420,198,57788,6,0,L|428:404,1,190
496,241,58121,1,0,0:0:0:0:
304,241,58232,2,0,P|298:292|305:337,2,95
401,116,58566,6,0,L|200:114,1,190
21,267,58899,2,0,P|89:247|106:208,1,95
179,154,59121,2,0,L|193:6,1,142.5
208,16,59343,2,0,P|275:28|329:6,1,95
471,25,59566,5,0,0:0:0:0:
262,127,59677,1,0,0:0:0:0:
377,124,59788,2,0,P|449:122|479:135,1,95
283,332,60010,2,0,L|303:141,1,190
223,101,60343,6,0,P|83:81|37:91,2,190
293,285,60899,2,0,L|519:279,1,190
217,223,61232,6,0,L|-10:218,1,190
60,297,61566,1,0,0:0:0:0:
151,140,61677,1,0,0:0:0:0:
306,275,61788,2,0,P|319:207|302:128,1,142.5
291,136,62010,1,0,0:0:0:0:
426,57,62121,6,0,L|414:291,1,190
299,349,62454,2,0,P|360:341|396:354,1,95
124,322,62677,2,0,P|63:330|27:317,1,95
263,206,62899,1,0,0:0:0:0:
211,340,63010,1,0,0:0:0:0:
106,190,63121,6,0,P|103:121|134:4,1,190
213,90,63454,1,0,0:0:0:0:
331,157,63566,2,0,P|406:170|509:110,1,190
380,285,63899,6,0,P|310:271|192:317,1,190
132,347,64232,2,0,P|71:353|25:335,1,95
138,164,64454,2,0,L|165:363,1,190
52,225,64788,1,0,0:0:0:0:
230,226,64899,6,0,P|293:225|328:214,1,95
414,204,65121,2,0,P|475:201|510:213,1,95
353,118,65343,2,0,L|159:113,1,190
152,215,65677,1,0,0:0:0:0:
292,334,65788,6,0,P|299:271|289:229,1,95
75,266,66010,2,0,P|60:324|71:358,1,95
417,324,66232,2,0,L|419:121,1,190
471,40,66566,1,0,0:0:0:0:
293,55,66677,6,0,P|227:64|104:37,1,190
127,147,67010,1,0,0:0:0:0:
241,209,67121,2,0,L|443:193,1,190
249,331,67454,6,0,P|123:341|62:313,2,190
339,240,68010,2,0,L|351:130,1,95
333,62,68232,1,0,0:0:0:0:
393,318,68343,1,0,0:0:0:0:
232,181,68454,6,0,L|131:177,1,95
80,252,68677,1,0,0:0:0:0:
274,254,68788,1,0,0:0:0:0:
317,164,68899,6,0,L|418:160,1,95
469,235,69122,1,0,0:0:0:0:
275,237,69233,1,0,0:0:0:0:
234,151,69343,6,0,L|133:147,1,95
82,222,69566,1,0,0:0:0:0:
276,224,69677,1,0,0:0:0:0:
377,185,69788,6,0,P|387:120|352:-4,1,190
223,332,70121,6,0,L|457:314,2,190
92,270,70677,2,0,L|88:67,1,190
20,182,71010,1,0,0:0:0:0:
190,164,71121,6,0,L|384:144,1,190
302,252,71454,1,0,0:0:0:0:
202,223,71566,2,0,P|198:140|268:32,1,190
180,96,71899,6,0,P|117:112|1:64,1,190
326,74,72232,2,0,L|428:49,1,95
234,167,72454,2,0,L|242:385,1,190
336,341,72788,1,0,0:0:0:0:
435,259,72899,6,0,L|451:98,1,142.5
325,92,73121,2,0,L|327:153,1,47.5
338,237,73232,2,0,L|340:298,1,47.5
242,284,73343,2,0,L|71:281,1,142.5
81,285,73566,6,0,P|71:218|103:137,1,142.5
94,136,73788,2,0,P|174:147|277:81,2,190
290,199,74454,6,0,P|353:177|434:188,1,142.5
443,185,74677,2,0,L|458:377,2,190
479,82,75232,1,0,0:0:0:0:
385,95,75343,2,0,P|331:81|287:95,1,95
269,232,75566,6,0,P|211:246|44:207,1,190
72,131,75899,1,0,0:0:0:0:
194,160,76010,2,0,P|196:229|189:271,1,95
161,355,76232,1,0,0:0:0:0:
34,241,76343,1,0,0:0:0:0:
212,189,76454,6,0,L|416:164,1,190
360,262,76788,1,0,0:0:0:0:
278,69,76899,2,0,P|351:40|381:49,1,95
459,177,77121,1,0,0:0:0:0:
245,196,77232,6,0,P|243:125|270:4,1,190
126,148,77566,2,0,P|70:152|23:140,1,95
353,85,77788,2,0,P|409:81|456:93,1,95
310,195,78010,1,0,0:0:0:0:
203,104,78121,1,0,0:0:0:0:
145,223,78232,6,0,P|143:290|256:356,1,190
327,301,78566,1,0,0:0:0:0:
450,203,78677,5,0,0:0:0:0:
420,361,78788,1,0,0:0:0:0:
354,224,78899,1,0,0:0:0:0:
420,350,79010,1,0,0:0:0:0:
444,188,79121,6,0,P|461:112|457:-11,1,190
333,134,79454,1,0,0:0:0:0:
215,160,79566,2,0,P|153:159|109:135,1,95
80,71,79788,1,0,0:0:0:0:
41,252,79899,6,0,P|102:240|230:273,1,190
270,354,80232,1,0,0:0:0:0:
446,241,80343,1,0,0:0:0:0:
318,278,80454,5,0,0:0:0:0:
450,364,80566,1,0,0:0:0:0:
328,287,80677,1,0,0:0:0:0:
462,223,80788,1,0,0:0:0:0:
316,142,80899,6,0,L|154:141,1,142.5
160,137,81121,2,0,P|152:209|214:270,1,142.5
212,265,81343,2,0,P|264:231|252:133,1,142.5
249,147,81566,2,0,P|225:106|223:60,1,95
304,68,81788,6,0,P|372:77|441:57,1,95
411,66,81954,1,0,0:0:0:0:
422,58,82010,1,0,0:0:0:0:
390,208,82121,1,0,0:0:0:0:
464,165,82232,5,0,0:0:0:0:
311,148,82343,1,0,0:0:0:0:
466,175,82454,1,0,0:0:0:0:
322,277,82566,1,0,0:0:0:0:
311,132,82677,6,0,L|517:118,1,190
416,299,83010,1,0,0:0:0:0:
256,209,83121,2,0,P|182:204|139:213,1,95
60,279,83343,1,0,0:0:0:0:
201,299,83454,1,0,0:0:0:0:
235,96,83566,2,0,L|45:89,1,190
108,329,83899,1,0,0:0:0:0:
274,254,84010,2,0,P|290:200|270:153,1,95
196,60,84232,5,0,0:0:0:0:
333,128,84343,2,0,P|396:134|512:73,1,190
399,248,84677,1,0,0:0:0:0:
201,174,84788,2,0,P|144:159|12:189,1,190
111,331,85121,1,0,0:0:0:0:
324,273,85232,6,0,L|333:135,1,95
333,170,85399,1,0,0:0:0:0:
338,160,85454,1,0,0:0:0:0:
467,137,85566,1,0,0:0:0:0:
272,97,85677,1,0,0:0:0:0:
407,244,85788,5,0,0:0:0:0:
382,80,85899,1,0,0:0:0:0:
263,228,86010,1,0,0:0:0:0:
196,140,86121,6,0,L|-13:133,1,190
136,326,86454,2,0,P|156:255|137:222,1,95
302,135,86677,2,0,P|355:141|408:128,1,95
186,54,86899,5,0,0:0:0:0:
248,238,87010,2,0,P|313:255|449:204,1,190
158,286,87343,2,0,P|92:273|41:285,1,95
283,158,87566,2,0,P|333:129|469:142,1,190
324,314,87899,1,0,0:0:0:0:
248,92,88010,5,0,0:0:0:0:
220,243,88121,1,0,0:0:0:0:
320,215,88232,1,0,0:0:0:0:
320,215,88288,1,0,0:0:0:0:
320,215,88343,1,0,0:0:0:0:
115,227,88454,5,0,0:0:0:0:
294,296,88566,1,0,0:0:0:0:
254,153,88677,1,0,0:0:0:0:
151,341,88788,1,0,0:0:0:0:
176,146,88899,6,0,P|126:132|-7:186,1,190
94,243,89232,1,0,0:0:0:0:
203,52,89343,5,0,0:0:0:0:
229,194,89454,1,0,0:0:0:0:
356,107,89566,1,0,0:0:0:0:
182,68,89677,6,0,P|155:143|195:258,1,190
347,283,90010,2,0,L|460:286,1,95
136,258,90232,2,0,P|114:317|119:360,1,95
268,348,90454,5,0,0:0:0:0:
214,155,90566,2,0,L|25:135,1,190
275,73,90899,1,0,0:0:0:0:
249,272,91010,1,0,0:0:0:0:
341,326,91121,2,0,P|394:336|453:320,1,95
477,101,91343,2,0,P|424:91|365:107,1,95
342,237,91566,5,0,0:0:0:0:
372,64,91677,1,0,0:0:0:0:
448,205,91788,1,0,0:0:0:0:
448,205,91843,1,0,0:0:0:0:
448,205,91899,1,0,0:0:0:0:
229,129,92010,5,0,0:0:0:0:
241,290,92121,1,0,0:0:0:0:
356,158,92232,1,0,0:0:0:0:
232,309,92343,1,0,0:0:0:0:
121,182,92454,5,0,0:0:0:0:
348,246,92566,1,0,0:0:0:0:
270,50,92677,1,0,0:0:0:0:
270,50,92732,1,0,0:0:0:0:
270,50,92788,1,0,0:0:0:0:
228,195,92899,1,0,0:0:0:0:
444,168,93010,1,0,0:0:0:0:
224,183,93121,1,0,0:0:0:0:
289,325,93232,1,0,0:0:0:0:
192,271,93343,6,0,L|13:264,1,142.5
41,256,93566,2,0,L|112:102,1,142.5
133,129,93788,2,0,L|165:226,2,95
44,88,94121,1,0,0:0:0:0:
294,158,94232,6,0,L|468:140,1,142.5
452,140,94454,2,0,L|436:-4,1,142.5
413,15,94677,2,0,P|355:43|222:11,1,190
256,192,95121,12,0,96010,0:0:0:0:
