osu file format v14

[General]
AudioFilename: audio.mp3
AudioLeadIn: 0
PreviewTime: 54671
Countdown: 0
SampleSet: Normal
StackLeniency: 0.7
Mode: 1
LetterboxInBreaks: 0
WidescreenStoryboard: 0

[Editor]
DistanceSpacing: 0.1
BeatDivisor: 4
GridSize: 32
TimelineZoom: 2.799999

[Metadata]
Title:Yume o Kakeru! (TV Size)
TitleUnicode:ユメヲカケル!(TV Size)
Artist:Various Artists
ArtistUnicode:Various Artists
Creator:komasy
Version:Oni!
Source:ウマ娘 プリティーダービー Season 2
Tags:J-POP JPOP Anime Japanese 日本語 Umamusume Pretty Derby 2nd Second Opening 2期 オープニング Cygames スペシャルウィーク Special Week 和氣あず未 Waki Azumi サイレンススズカ Silence Suzuka 高野麻里佳 Kouno Marika トウカイテイオー Tokai Teio Machico ウオッカ Vodka 大橋彩香 Ohashi Oohashi Ayaka ダイワスカーレット Daiwa Scarlet 木村千咲 Kimura Chisa ゴールドシップ Gold Ship 上田 瞳 Ueda Hitomi メジロマックイーン Mejiro McQueen 大西沙織 Onishi Oonishi Saori マイクスギヤマ Mike Sugiyama 杉山昭彦 Sugiyama Akihiko 東大路憲太 Higashiooji Higashioji Higashiohji Kenta ANIMATION vol.3 Original Sound Track
BeatmapID:2976849
BeatmapSetID:1447619

[Difficulty]
HPDrainRate:5.5
CircleSize:7
OverallDifficulty:5.5
ApproachRate:10
SliderMultiplier:1.4
SliderTickRate:1

[Events]
//Background and Video events
0,0,"bg (2).jpg",0,100
//Break Periods
//Storyboard Layer 0 (Background)
//Storyboard Layer 1 (Fail)
//Storyboard Layer 2 (Pass)
//Storyboard Layer 3 (Foreground)
//Storyboard Layer 4 (Overlay)
//Storyboard Sound Samples

[TimingPoints]
-789,307.692307692308,4,1,0,30,1,0
-100,-133.333333333333,4,1,0,30,0,0
2672,-133.333333333333,4,1,0,60,0,0
2980,-133.333333333333,4,1,0,30,0,0
3980,-100,4,1,0,60,0,0
5364,307.692307692308,4,1,0,80,1,0
5364,-111.111111111111,4,1,0,80,0,0
9516,-111.111111111111,4,1,0,80,0,0
9593,-110.296388455056,4,1,0,80,0,0
9670,-109.493526742699,4,1,0,80,0,0
9824,-107.922248495294,4,1,0,80,0,0
9978,-106.395542452353,4,1,0,80,0,0
10132,-104.911318462504,4,1,0,80,0,0
10285,-103.468041825921,4,1,0,80,0,0
10593,-100.697329003348,4,1,0,80,0,0
10747,-99.3669332681486,4,1,0,80,0,0
11055,-96.8087948853977,4,1,0,80,0,0
11362,-94.3790659681357,4,1,0,80,0,0
11824,-111.111111111111,4,1,0,80,0,0
11978,-108.9108695226,4,1,0,80,0,0
12132,-106.79607503065,4,1,0,80,0,0
12285,-104.76195464855,4,1,0,80,0,0
12439,-102.803767141243,4,1,0,80,0,0
12593,-100.917440451141,4,1,0,80,0,0
12747,-99.0990901712531,4,1,0,80,0,0
12901,-97.3451068995291,4,1,0,80,0,0
13055,-95.6521323251599,4,1,0,80,0,0
13132,-94.8276270808737,4,1,0,80,0,0
13208,-94.0171261597012,4,1,0,80,0,0
13362,-92.4369903255446,4,1,0,80,0,0
13516,-90.9090909090909,4,1,0,80,0,0
13825,-100,4,1,0,80,0,1
23747,-100,4,1,0,75,0,1
23825,-100,4,1,0,75,0,0
32209,-100,4,1,0,85,0,0
32440,-100,4,1,0,85,0,1
33671,-100,4,1,0,85,0,0
41056,-100,4,1,0,85,0,1
43439,-111.111111111111,4,1,0,85,0,1
43517,-111.111111111111,4,1,0,85,0,0
47516,-111.111111111111,4,1,0,85,0,0
47670,-109.596847994652,4,1,0,85,0,0
47978,-106.688744124117,4,1,0,85,0,0
48132,-105.29186378181,4,1,0,85,0,0
48285,-103.931089530398,4,1,0,85,0,0
48362,-103.263754215743,4,1,0,85,0,0
48439,-102.605039343902,4,1,0,85,0,0
48747,-100.051826846306,4,1,0,85,0,0
53516,-111.111111111111,4,1,0,85,0,0
53670,-107.142895408177,4,1,0,85,0,0
53824,-103.448240190262,4,1,0,85,0,0
53978,-100,4,1,0,85,0,0
54132,-96.774224765879,4,1,0,85,0,0
54208,-95.2380952380952,4,1,0,85,0,0
54285,-93.7499707031342,4,1,0,85,0,0
54439,-90.9090909090909,4,1,0,85,0,0
54516,-90.9090909090909,4,1,0,30,0,0
54594,-100,4,1,0,30,0,0
54671,-111.111111111111,4,1,0,30,0,0
54901,-90.9090909090909,4,1,0,40,0,0
55055,-90.9090909090909,4,1,0,45,0,0
55209,-90.9090909090909,4,1,0,50,0,0
55363,-90.9090909090909,4,1,0,55,0,0
55516,-90.9090909090909,4,1,0,60,0,0
55670,-90.9090909090909,4,1,0,70,0,0
55750,-100,4,1,0,95,0,0
55825,-100,4,1,0,95,0,1
66747,-100,4,1,0,95,0,1
66901,-101.010101010101,4,1,0,95,0,1
67055,-102.262036241666,4,1,0,95,0,1
67362,-104.628777098853,4,1,0,95,0,1
67670,-107.107549904085,4,1,0,95,0,1
67824,-108.391566702544,4,1,0,95,0,1
67978,-109.706742905539,4,1,0,95,0,1
68055,-110.37637239222,4,1,0,95,0,1
68133,-111.111111111111,4,1,0,95,0,0
69670,-111.111111111111,4,1,0,95,0,0
69824,-109.380110102019,4,1,0,95,0,0
69978,-107.702100298658,4,1,0,95,0,0
70285,-104.496156108898,4,1,0,95,0,0
70439,-102.963601337291,4,1,0,95,0,0
70593,-101.475453087898,4,1,0,95,0,0
70747,-100.029708823521,4,1,0,95,0,0
70824,-99.3221264867281,4,1,0,95,0,0
70901,-98.6244843172276,4,1,0,95,0,0
70978,-97.9366702315615,4,1,0,95,0,0
71055,-97.2582888376662,4,1,0,95,0,0
71132,-96.5892407312965,4,1,0,95,0,0
71208,-95.9294266394099,4,1,0,95,0,0
71362,-94.6362985093837,4,1,0,95,0,0
71439,-94.0028088039271,4,1,0,95,0,0
71516,-93.3776565943301,4,1,0,95,0,0
71593,-92.7607644229075,4,1,0,95,0,0
71670,-92.1520545761328,4,1,0,95,0,0
71747,-91.5511977185442,4,1,0,95,0,0
71825,-90.958125607714,4,1,0,95,0,1
85364,-90.9090909090909,4,1,0,75,0,1
85671,-100,4,1,0,60,0,1
85979,-100,4,1,0,45,0,1
86287,-100,4,1,0,30,0,0

[HitObjects]
352,96,2749,5,8,0:0:0:0:
352,96,2826,1,8,0:0:0:0:
160,96,2903,1,0,0:0:0:0:
256,192,3057,12,0,3826,0:0:0:0:
352,288,4005,5,12,0:0:0:0:
160,288,5364,5,4,0:0:0:0:
160,96,6440,1,0,0:0:0:0:
352,96,6594,1,8,0:0:0:0:
352,96,6748,1,8,0:0:0:0:
160,96,7056,1,0,0:0:0:0:
352,96,7364,1,8,0:0:0:0:
160,96,7517,1,0,0:0:0:0:
352,96,7671,1,8,0:0:0:0:
160,288,7825,1,4,0:0:0:0:
352,96,8594,1,8,0:0:0:0:
160,96,8748,1,0,0:0:0:0:
352,288,8902,1,12,0:0:0:0:
352,96,9517,1,8,0:0:0:0:
352,96,9594,1,8,0:0:0:0:
352,96,9671,1,8,0:0:0:0:
352,96,9825,1,8,0:0:0:0:
160,96,9979,1,0,0:0:0:0:
160,96,10133,1,0,0:0:0:0:
352,288,10287,1,12,0:0:0:0:
352,96,10594,1,8,0:0:0:0:
160,288,10748,1,4,0:0:0:0:
160,96,11056,1,0,0:0:0:0:
352,288,11364,1,12,0:0:0:0:
160,96,11825,5,0,0:0:0:0:
160,96,11979,1,0,0:0:0:0:
160,96,12133,1,0,0:0:0:0:
160,96,12287,1,0,0:0:0:0:
160,96,12440,1,0,0:0:0:0:
160,96,12594,1,0,0:0:0:0:
352,96,12748,1,8,0:0:0:0:
352,96,12902,1,8,0:0:0:0:
160,96,13056,1,0,0:0:0:0:
160,96,13133,1,0,0:0:0:0:
160,96,13210,1,0,0:0:0:0:
352,288,13364,1,12,0:0:0:0:
352,288,13517,1,12,0:0:0:0:
160,288,13825,1,4,0:0:0:0:
160,96,14133,1,0,0:0:0:0:
352,96,14287,1,8,0:0:0:0:
160,96,14440,1,0,0:0:0:0:
160,96,14748,1,0,0:0:0:0:
352,96,14902,1,8,0:0:0:0:
160,96,15056,1,0,0:0:0:0:
160,96,15364,1,0,0:0:0:0:
352,96,15517,1,8,0:0:0:0:
352,96,15671,1,8,0:0:0:0:
160,96,15979,1,0,0:0:0:0:
352,96,16133,1,8,0:0:0:0:
352,96,16287,1,8,0:0:0:0:
160,96,16440,1,0,0:0:0:0:
160,96,16594,1,0,0:0:0:0:
352,96,16748,1,8,0:0:0:0:
160,96,16902,1,0,0:0:0:0:
160,96,17210,1,0,0:0:0:0:
352,96,17364,1,8,0:0:0:0:
160,96,17517,1,0,0:0:0:0:
160,96,17825,1,0,0:0:0:0:
352,96,17979,1,8,0:0:0:0:
352,96,18133,1,8,0:0:0:0:
352,96,18440,1,8,0:0:0:0:
352,96,18517,1,8,0:0:0:0:
352,96,18594,1,8,0:0:0:0:
160,288,18748,1,4,0:0:0:0:
160,96,19056,1,0,0:0:0:0:
352,96,19210,1,8,0:0:0:0:
160,96,19364,1,0,0:0:0:0:
160,96,19671,1,0,0:0:0:0:
352,96,19825,1,8,0:0:0:0:
160,96,19979,1,0,0:0:0:0:
160,96,20287,1,0,0:0:0:0:
352,96,20440,1,8,0:0:0:0:
352,96,20594,1,8,0:0:0:0:
160,96,20748,1,0,0:0:0:0:
352,96,20902,1,8,0:0:0:0:
352,96,20979,1,8,0:0:0:0:
352,96,21056,1,8,0:0:0:0:
160,288,21210,1,4,0:0:0:0:
352,96,21517,1,8,0:0:0:0:
352,96,21825,1,8,0:0:0:0:
160,96,21979,1,0,0:0:0:0:
160,96,22133,1,0,0:0:0:0:
352,96,22287,1,8,0:0:0:0:
352,288,22594,1,12,0:0:0:0:
352,288,22748,1,12,0:0:0:0:
160,288,23056,1,4,0:0:0:0:
160,96,23825,1,0,0:0:0:0:
352,96,24133,1,8,0:0:0:0:
352,96,24440,1,8,0:0:0:0:
160,96,24748,1,0,0:0:0:0:
352,96,24902,1,8,0:0:0:0:
160,96,25056,1,8,0:0:0:0:
352,96,25210,1,0,0:0:0:0:
160,96,25517,1,0,0:0:0:0:
160,96,25825,1,0,0:0:0:0:
352,96,26133,1,8,0:0:0:0:
160,96,26287,1,0,0:0:0:0:
352,96,26594,1,8,0:0:0:0:
352,96,26902,1,8,0:0:0:0:
160,96,27210,1,0,0:0:0:0:
352,96,27364,1,8,0:0:0:0:
160,96,27517,1,0,0:0:0:0:
352,96,27671,1,8,0:0:0:0:
160,96,27979,1,0,0:0:0:0:
352,96,28287,1,8,0:0:0:0:
352,96,28594,1,8,0:0:0:0:
160,96,28748,1,0,0:0:0:0:
160,96,29056,1,0,0:0:0:0:
352,96,29210,1,8,0:0:0:0:
160,96,29364,1,0,0:0:0:0:
352,96,29671,1,8,0:0:0:0:
352,96,29825,1,8,0:0:0:0:
160,96,29979,1,0,0:0:0:0:
160,96,30287,1,0,0:0:0:0:
352,96,30440,1,8,0:0:0:0:
160,96,30594,1,0,0:0:0:0:
352,96,30902,1,8,0:0:0:0:
160,96,31056,1,0,0:0:0:0:
352,96,31364,1,8,0:0:0:0:
160,96,31671,1,0,0:0:0:0:
160,96,31979,1,0,0:0:0:0:
352,96,32133,1,8,0:0:0:0:
160,96,32287,1,0,0:0:0:0:
160,96,32364,1,0,0:0:0:0:
352,96,32440,1,8,0:0:0:0:
352,96,32594,1,8,0:0:0:0:
160,288,32902,1,4,0:0:0:0:
352,288,33210,1,12,0:0:0:0:
160,96,33671,1,0,0:0:0:0:
352,96,33979,1,8,0:0:0:0:
160,96,34287,1,0,0:0:0:0:
160,96,34440,1,0,0:0:0:0:
352,96,34594,1,8,0:0:0:0:
160,96,34902,1,0,0:0:0:0:
160,96,35056,1,0,0:0:0:0:
352,96,35210,1,8,0:0:0:0:
160,96,35364,1,0,0:0:0:0:
160,96,35671,1,0,0:0:0:0:
352,96,35825,1,8,0:0:0:0:
352,96,35979,1,8,0:0:0:0:
160,96,36133,1,0,0:0:0:0:
352,96,36440,1,8,0:0:0:0:
160,96,36748,1,0,0:0:0:0:
160,96,36902,1,0,0:0:0:0:
352,96,37056,1,8,0:0:0:0:
160,96,37210,1,0,0:0:0:0:
160,96,37287,1,0,0:0:0:0:
160,96,37364,1,0,0:0:0:0:
160,96,37517,1,0,0:0:0:0:
352,96,37671,1,8,0:0:0:0:
160,96,37825,1,0,0:0:0:0:
160,96,38133,1,0,0:0:0:0:
352,96,38287,1,8,0:0:0:0:
352,96,38440,1,8,0:0:0:0:
160,96,38594,1,0,0:0:0:0:
352,96,38902,1,8,0:0:0:0:
352,96,39056,1,8,0:0:0:0:
160,96,39210,1,0,0:0:0:0:
160,96,39364,1,0,0:0:0:0:
352,96,39517,1,8,0:0:0:0:
160,96,39825,1,0,0:0:0:0:
160,96,39979,1,0,0:0:0:0:
352,96,40133,1,8,0:0:0:0:
160,96,40287,1,0,0:0:0:0:
160,96,40594,1,0,0:0:0:0:
352,96,40748,1,8,0:0:0:0:
160,96,40902,1,0,0:0:0:0:
352,288,41056,1,12,0:0:0:0:
352,288,41210,1,12,0:0:0:0:
352,288,41517,1,12,0:0:0:0:
352,288,41671,1,12,0:0:0:0:
160,288,41979,1,4,0:0:0:0:
160,288,42133,1,4,0:0:0:0:
160,288,42440,1,4,0:0:0:0:
160,288,42594,1,4,0:0:0:0:
352,288,42902,1,12,0:0:0:0:
352,288,43056,1,12,0:0:0:0:
160,288,43517,1,4,0:0:0:0:
160,96,43979,1,0,0:0:0:0:
352,96,44133,1,8,0:0:0:0:
160,96,44594,1,0,0:0:0:0:
160,96,44902,1,0,0:0:0:0:
160,96,45056,1,0,0:0:0:0:
352,96,45210,1,8,0:0:0:0:
160,96,45517,1,0,0:0:0:0:
352,96,45671,1,8,0:0:0:0:
352,96,45825,1,8,0:0:0:0:
160,96,45979,1,0,0:0:0:0:
160,96,46440,1,0,0:0:0:0:
352,96,46594,1,8,0:0:0:0:
352,96,46748,1,8,0:0:0:0:
160,96,46902,1,0,0:0:0:0:
352,96,47056,1,8,0:0:0:0:
352,96,47364,5,8,0:0:0:0:
352,96,47517,1,8,0:0:0:0:
160,96,47671,1,0,0:0:0:0:
160,96,47979,1,0,0:0:0:0:
352,96,48133,1,8,0:0:0:0:
160,96,48287,1,0,0:0:0:0:
352,96,48364,1,8,0:0:0:0:
160,96,48440,1,0,0:0:0:0:
352,288,48748,1,12,0:0:0:0:
352,288,49056,1,12,0:0:0:0:
160,96,49364,1,0,0:0:0:0:
352,96,49517,1,8,0:0:0:0:
160,96,49825,1,0,0:0:0:0:
352,96,49979,1,8,0:0:0:0:
160,96,50133,1,0,0:0:0:0:
160,96,50210,1,0,0:0:0:0:
160,96,50287,1,0,0:0:0:0:
160,96,50440,1,0,0:0:0:0:
352,96,50594,1,8,0:0:0:0:
160,96,50748,1,0,0:0:0:0:
160,96,51056,1,0,0:0:0:0:
352,288,51210,1,12,0:0:0:0:
352,288,51517,1,12,0:0:0:0:
160,96,51825,1,0,0:0:0:0:
352,96,51979,1,8,0:0:0:0:
160,96,52287,1,0,0:0:0:0:
352,96,52440,1,8,0:0:0:0:
160,96,52594,1,0,0:0:0:0:
160,96,52671,1,0,0:0:0:0:
160,96,52748,1,0,0:0:0:0:
352,96,52902,1,8,0:0:0:0:
160,96,53056,1,0,0:0:0:0:
352,288,53210,1,12,0:0:0:0:
160,96,53517,5,0,0:0:0:0:
160,96,53671,1,0,0:0:0:0:
160,96,53825,1,0,0:0:0:0:
160,96,53979,1,0,0:0:0:0:
160,96,54133,1,0,0:0:0:0:
352,96,54210,1,8,0:0:0:0:
160,96,54287,1,0,0:0:0:0:
352,288,54440,1,12,0:0:0:0:
256,192,54748,12,0,55671,0:0:0:0:
160,288,55825,5,4,0:0:0:0:
352,96,56133,1,8,0:0:0:0:
160,96,56287,1,0,0:0:0:0:
160,96,56364,1,0,0:0:0:0:
160,96,56440,1,0,0:0:0:0:
352,96,56748,1,8,0:0:0:0:
160,96,56902,1,0,0:0:0:0:
160,96,57210,1,0,0:0:0:0:
352,96,57364,1,8,0:0:0:0:
160,96,57517,1,0,0:0:0:0:
160,96,57594,1,0,0:0:0:0:
352,96,57671,1,8,0:0:0:0:
160,96,57825,1,0,0:0:0:0:
352,96,57979,1,8,0:0:0:0:
352,96,58133,1,8,0:0:0:0:
160,96,58287,1,0,0:0:0:0:
352,96,58594,1,8,0:0:0:0:
352,96,58748,1,8,0:0:0:0:
160,96,58902,1,0,0:0:0:0:
352,96,59056,1,8,0:0:0:0:
352,96,59133,1,8,0:0:0:0:
160,96,59210,1,0,0:0:0:0:
352,288,59364,1,12,0:0:0:0:
160,96,59671,1,0,0:0:0:0:
352,96,59825,1,8,0:0:0:0:
352,96,59979,1,8,0:0:0:0:
160,96,60133,1,0,0:0:0:0:
160,96,60287,1,0,0:0:0:0:
352,96,60440,1,8,0:0:0:0:
352,96,60594,1,8,0:0:0:0:
352,96,60671,1,8,0:0:0:0:
160,96,60748,1,0,0:0:0:0:
352,96,61056,1,8,0:0:0:0:
160,96,61210,1,0,0:0:0:0:
160,96,61287,1,0,0:0:0:0:
160,96,61364,1,0,0:0:0:0:
352,96,61671,1,8,0:0:0:0:
160,96,61825,1,0,0:0:0:0:
160,96,61902,1,0,0:0:0:0:
352,96,61979,1,8,0:0:0:0:
160,96,62133,1,0,0:0:0:0:
352,96,62287,1,8,0:0:0:0:
160,96,62440,1,0,0:0:0:0:
160,96,62748,1,0,0:0:0:0:
352,96,62902,1,8,0:0:0:0:
352,96,63056,1,8,0:0:0:0:
160,96,63210,1,0,0:0:0:0:
352,96,63517,1,8,0:0:0:0:
160,96,63671,1,0,0:0:0:0:
352,96,63825,1,8,0:0:0:0:
352,96,63902,1,8,0:0:0:0:
160,96,63979,1,0,0:0:0:0:
352,96,64133,1,8,0:0:0:0:
160,288,64287,1,4,0:0:0:0:
160,96,64594,1,0,0:0:0:0:
352,96,64748,1,8,0:0:0:0:
160,288,64902,1,4,0:0:0:0:
160,96,65210,1,0,0:0:0:0:
160,96,65287,1,0,0:0:0:0:
352,96,65364,1,8,0:0:0:0:
160,96,65517,1,0,0:0:0:0:
352,288,65671,1,12,0:0:0:0:
352,96,65979,1,8,0:0:0:0:
160,288,66133,1,4,0:0:0:0:
352,96,66440,1,8,0:0:0:0:
352,96,66594,1,8,0:0:0:0:
160,288,66748,5,4,0:0:0:0:
352,288,67056,1,12,0:0:0:0:
160,288,67364,1,4,0:0:0:0:
160,96,67671,1,0,0:0:0:0:
352,96,67825,1,8,0:0:0:0:
352,96,67979,1,8,0:0:0:0:
160,96,68133,1,0,0:0:0:0:
160,96,68440,1,0,0:0:0:0:
352,96,68594,1,8,0:0:0:0:
160,96,68902,1,0,0:0:0:0:
352,96,69210,1,8,0:0:0:0:
160,288,69364,5,4,0:0:0:0:
352,96,69671,1,8,0:0:0:0:
160,96,69825,1,0,0:0:0:0:
160,96,69979,1,0,0:0:0:0:
352,96,70287,1,8,0:0:0:0:
160,96,70440,1,0,0:0:0:0:
160,96,70594,1,0,0:0:0:0:
352,96,70748,1,8,0:0:0:0:
160,96,70902,1,0,0:0:0:0:
160,96,70979,1,0,0:0:0:0:
352,96,71056,1,8,0:0:0:0:
160,96,71210,1,0,0:0:0:0:
352,96,71364,1,8,0:0:0:0:
160,96,71440,1,0,0:0:0:0:
352,96,71517,1,8,0:0:0:0:
352,96,71594,1,8,0:0:0:0:
160,96,71671,1,0,0:0:0:0:
352,288,71825,1,12,0:0:0:0:
352,96,72133,1,8,0:0:0:0:
160,96,72287,1,0,0:0:0:0:
160,96,72364,1,0,0:0:0:0:
352,96,72440,1,8,0:0:0:0:
160,96,72594,1,0,0:0:0:0:
352,96,72748,1,8,0:0:0:0:
160,96,72902,1,0,0:0:0:0:
160,96,73210,1,0,0:0:0:0:
352,96,73364,1,8,0:0:0:0:
160,96,73517,1,0,0:0:0:0:
352,96,73594,1,8,0:0:0:0:
352,96,73671,1,8,0:0:0:0:
160,96,73825,1,0,0:0:0:0:
352,96,73979,1,8,0:0:0:0:
352,96,74133,1,8,0:0:0:0:
160,96,74287,1,0,0:0:0:0:
352,96,74594,1,8,0:0:0:0:
160,96,74748,1,0,0:0:0:0:
352,96,74902,1,8,0:0:0:0:
352,96,74979,1,8,0:0:0:0:
160,96,75056,1,0,0:0:0:0:
160,96,75133,1,0,0:0:0:0:
352,96,75210,1,8,0:0:0:0:
160,288,75364,1,4,0:0:0:0:
160,96,75671,1,0,0:0:0:0:
352,96,75825,1,8,0:0:0:0:
160,288,75979,1,4,0:0:0:0:
160,96,76287,1,0,0:0:0:0:
352,96,76440,1,8,0:0:0:0:
160,96,76594,1,0,0:0:0:0:
352,288,76748,5,12,0:0:0:0:
160,96,76902,1,0,0:0:0:0:
160,96,76979,1,0,0:0:0:0:
352,96,77056,1,8,0:0:0:0:
160,288,77210,1,4,0:0:0:0:
160,288,77517,1,4,0:0:0:0:
352,288,77825,1,12,0:0:0:0:
160,96,78133,1,0,0:0:0:0:
352,96,78287,1,8,0:0:0:0:
160,96,78594,1,0,0:0:0:0:
160,96,78748,1,0,0:0:0:0:
352,96,78825,1,0,0:0:0:0:
352,96,78902,1,8,0:0:0:0:
160,96,78979,1,0,0:0:0:0:
352,96,79056,1,8,0:0:0:0:
160,96,79210,1,4,0:0:0:0:
352,96,79517,1,8,0:0:0:0:
160,96,79671,1,0,0:0:0:0:
352,96,79825,1,8,0:0:0:0:
160,96,79979,1,0,0:0:0:0:
352,96,80287,1,8,0:0:0:0:
160,96,80440,1,0,0:0:0:0:
160,96,80517,1,0,0:0:0:0:
160,96,80594,1,0,0:0:0:0:
352,96,80748,1,8,0:0:0:0:
160,96,80902,1,0,0:0:0:0:
160,96,81210,1,0,0:0:0:0:
352,288,81364,1,12,0:0:0:0:
160,288,81517,1,4,0:0:0:0:
160,96,81825,5,0,0:0:0:0:
160,96,81902,1,0,0:0:0:0:
352,96,81979,1,8,0:0:0:0:
160,96,82133,1,0,0:0:0:0:
352,96,82287,1,8,0:0:0:0:
160,96,82440,1,0,0:0:0:0:
352,96,82594,1,8,0:0:0:0:
160,96,82748,1,0,0:0:0:0:
352,288,82902,1,12,0:0:0:0:
352,288,83056,1,12,0:0:0:0:
160,288,83364,1,4,0:0:0:0:
352,96,83671,1,8,0:0:0:0:
160,96,83825,1,0,0:0:0:0:
160,96,83902,1,0,0:0:0:0:
160,96,83979,1,0,0:0:0:0:
352,288,84133,1,12,0:0:0:0:
352,288,84440,1,12,0:0:0:0:
352,288,84594,1,12,0:0:0:0:
160,288,84902,1,4,0:0:0:0:
160,288,85056,1,4,0:0:0:0:
256,192,85210,12,0,86287,0:0:0:0:
