osu file format v14

[General]
AudioFilename: audio.mp3
AudioLeadIn: 0
PreviewTime: 54671
Countdown: 0
SampleSet: Normal
StackLeniency: 0.7
Mode: 1
LetterboxInBreaks: 0
WidescreenStoryboard: 0

[Editor]
DistanceSpacing: 0.1
BeatDivisor: 2
GridSize: 32
TimelineZoom: 1.6

[Metadata]
Title:Yume o Kakeru! (TV Size)
TitleUnicode:ユメヲカケル!(TV Size)
Artist:Various Artists
ArtistUnicode:Various Artists
Creator:komasy
Version:Futsuu!
Source:ウマ娘 プリティーダービー Season 2
Tags:J-POP JPOP Anime Japanese 日本語 Umamusume Pretty Derby 2nd Second Opening 2期 オープニング Cygames スペシャルウィーク Special Week 和氣あず未 Waki Azumi サイレンススズカ Silence Suzuka 高野麻里佳 Kouno Marika トウカイテイオー Tokai Teio Machico ウオッカ Vodka 大橋彩香 Ohashi Oohashi Ayaka ダイワスカーレット Daiwa Scarlet 木村千咲 Kimura Chisa ゴールドシップ Gold Ship 上田 瞳 Ueda Hitomi メジロマックイーン Mejiro McQueen 大西沙織 Onishi Oonishi Saori マイクスギヤマ Mike Sugiyama 杉山昭彦 Sugiyama Akihiko 東大路憲太 Higashiooji Higashioji Higashiohji Kenta ANIMATION vol.3 Original Sound Track
BeatmapID:2976845
BeatmapSetID:1447619

[Difficulty]
HPDrainRate:7
CircleSize:7
OverallDifficulty:4
ApproachRate:10
SliderMultiplier:1.4
SliderTickRate:1

[Events]
//Background and Video events
0,0,"bg (2).jpg",0,100
//Break Periods
//Storyboard Layer 0 (Background)
//Storyboard Layer 1 (Fail)
//Storyboard Layer 2 (Pass)
//Storyboard Layer 3 (Foreground)
//Storyboard Layer 4 (Overlay)
//Storyboard Sound Samples

[TimingPoints]
-789,307.692307692308,4,1,0,30,1,0
-100,-125,4,1,0,30,0,0
2672,-125,4,1,0,60,0,0
2980,-125,4,1,0,30,0,0
3980,-111.111111111111,4,1,0,60,0,0
5364,307.692307692308,4,1,0,80,1,0
5364,-100,4,1,0,80,0,0
13825,-100,4,1,0,80,0,1
23747,-100,4,1,0,75,0,1
23825,-100,4,1,0,75,0,0
32209,-100,4,1,0,85,0,0
32440,-100,4,1,0,85,0,1
33671,-100,4,1,0,85,0,0
41056,-100,4,1,0,85,0,1
43517,-100,4,1,0,85,0,0
54516,-100,4,1,0,30,0,0
54594,-100,4,1,0,30,0,0
54671,-100,4,1,0,30,0,0
54901,-100,4,1,0,40,0,0
55055,-100,4,1,0,45,0,0
55209,-100,4,1,0,50,0,0
55363,-100,4,1,0,55,0,0
55516,-100,4,1,0,60,0,0
55670,-100,4,1,0,70,0,0
55750,-100,4,1,0,95,0,0
55825,-100,4,1,0,95,0,1
68133,-100,4,1,0,95,0,0
71825,-100,4,1,0,95,0,1
85364,-100,4,1,0,75,0,1
85671,-100,4,1,0,60,0,1
85979,-100,4,1,0,45,0,1
86287,-100,4,1,0,30,0,0

[HitObjects]
160,288,2903,5,4,0:0:0:0:
256,192,3057,12,0,3826,0:0:0:0:
352,288,4005,5,12,0:0:0:0:
160,288,5364,5,4,0:0:0:0:
160,96,6440,1,0,0:0:0:0:
352,96,6594,1,8,0:0:0:0:
160,96,7056,1,0,0:0:0:0:
160,96,7517,1,0,0:0:0:0:
160,288,7825,1,4,0:0:0:0:
160,96,8594,1,0,0:0:0:0:
352,288,8902,1,12,0:0:0:0:
352,96,9671,1,8,0:0:0:0:
160,96,9979,1,0,0:0:0:0:
352,288,10287,1,12,0:0:0:0:
160,288,10748,1,4,0:0:0:0:
160,96,11056,1,0,0:0:0:0:
352,288,11364,1,12,0:0:0:0:
160,96,12133,1,0,0:0:0:0:
160,96,12440,1,0,0:0:0:0:
352,96,12748,1,8,0:0:0:0:
160,96,13056,1,0,0:0:0:0:
352,288,13364,1,12,0:0:0:0:
352,288,13517,1,12,0:0:0:0:
160,288,13825,1,4,0:0:0:0:
352,96,14440,1,8,0:0:0:0:
160,96,14748,1,0,0:0:0:0:
352,96,15056,1,8,0:0:0:0:
160,96,15364,1,0,0:0:0:0:
160,96,15517,1,0,0:0:0:0:
352,96,15671,1,8,0:0:0:0:
352,96,15979,1,8,0:0:0:0:
160,96,16287,1,0,0:0:0:0:
352,96,16902,1,8,0:0:0:0:
160,96,17210,1,0,0:0:0:0:
352,96,17517,1,8,0:0:0:0:
160,96,17825,1,0,0:0:0:0:
352,96,17979,1,8,0:0:0:0:
160,96,18133,1,0,0:0:0:0:
352,96,18440,1,8,0:0:0:0:
160,288,18748,1,4,0:0:0:0:
352,96,19364,1,8,0:0:0:0:
160,96,19671,1,0,0:0:0:0:
352,96,19979,1,8,0:0:0:0:
160,96,20287,1,0,0:0:0:0:
160,96,20440,1,0,0:0:0:0:
352,96,20594,1,8,0:0:0:0:
352,96,20902,1,8,0:0:0:0:
160,288,21210,1,4,0:0:0:0:
352,96,21825,1,8,0:0:0:0:
352,96,21979,1,0,0:0:0:0:
160,96,22287,1,0,0:0:0:0:
352,96,22594,1,8,0:0:0:0:
352,96,22748,1,8,0:0:0:0:
352,288,23056,1,4,0:0:0:0:
160,96,23825,1,0,0:0:0:0:
352,96,24133,1,8,0:0:0:0:
352,96,24440,1,8,0:0:0:0:
352,96,25056,1,8,0:0:0:0:
352,96,25210,1,8,0:0:0:0:
160,96,25517,1,0,0:0:0:0:
160,96,25825,1,0,0:0:0:0:
352,96,26133,1,8,0:0:0:0:
160,96,26287,1,0,0:0:0:0:
352,96,26594,1,8,0:0:0:0:
352,96,26902,1,8,0:0:0:0:
160,96,27517,1,0,0:0:0:0:
352,96,27671,1,8,0:0:0:0:
160,96,27979,1,0,0:0:0:0:
352,96,28287,1,8,0:0:0:0:
160,96,28748,1,0,0:0:0:0:
352,96,29210,1,8,0:0:0:0:
352,96,29364,1,8,0:0:0:0:
352,96,29825,1,8,0:0:0:0:
160,96,29979,1,0,0:0:0:0:
160,96,30440,1,0,0:0:0:0:
160,96,30594,1,0,0:0:0:0:
160,96,31056,1,0,0:0:0:0:
352,96,31364,1,8,0:0:0:0:
160,96,31671,1,0,0:0:0:0:
160,96,32287,1,0,0:0:0:0:
352,96,32440,1,8,0:0:0:0:
352,96,32594,1,8,0:0:0:0:
160,288,32902,1,4,0:0:0:0:
352,288,33210,1,12,0:0:0:0:
160,96,33671,1,0,0:0:0:0:
352,96,33979,1,8,0:0:0:0:
352,96,34287,1,8,0:0:0:0:
352,96,34902,1,8,0:0:0:0:
160,96,35056,1,0,0:0:0:0:
160,96,35364,1,0,0:0:0:0:
352,96,35671,1,8,0:0:0:0:
352,96,35979,1,8,0:0:0:0:
160,96,36133,1,0,0:0:0:0:
352,96,36440,1,8,0:0:0:0:
160,96,36748,1,0,0:0:0:0:
160,96,37364,1,0,0:0:0:0:
352,96,37517,1,8,0:0:0:0:
160,96,37825,1,0,0:0:0:0:
352,96,38133,1,8,0:0:0:0:
160,96,38440,1,0,0:0:0:0:
352,96,38594,1,8,0:0:0:0:
160,96,39056,1,0,0:0:0:0:
160,96,39210,1,0,0:0:0:0:
352,96,39825,1,8,0:0:0:0:
352,96,39979,1,8,0:0:0:0:
160,96,40287,1,0,0:0:0:0:
352,96,40594,1,8,0:0:0:0:
352,96,41056,1,8,0:0:0:0:
352,96,41210,1,8,0:0:0:0:
352,96,41517,1,8,0:0:0:0:
352,96,41671,1,8,0:0:0:0:
160,96,41979,1,0,0:0:0:0:
160,96,42133,1,0,0:0:0:0:
160,96,42440,1,0,0:0:0:0:
160,96,42594,1,0,0:0:0:0:
352,96,42902,1,8,0:0:0:0:
352,96,43056,1,8,0:0:0:0:
160,288,43517,1,4,0:0:0:0:
352,96,44133,1,8,0:0:0:0:
160,96,44594,1,0,0:0:0:0:
352,96,45210,1,8,0:0:0:0:
352,96,45671,1,8,0:0:0:0:
160,96,45979,1,0,0:0:0:0:
352,96,46594,1,8,0:0:0:0:
352,96,47056,1,8,0:0:0:0:
160,96,47364,5,0,0:0:0:0:
352,96,47671,1,8,0:0:0:0:
160,96,47979,1,0,0:0:0:0:
160,96,48287,1,0,0:0:0:0:
160,96,48440,1,0,0:0:0:0:
352,288,48748,1,12,0:0:0:0:
352,288,49056,1,12,0:0:0:0:
352,96,49517,1,8,0:0:0:0:
160,96,49825,1,0,0:0:0:0:
352,96,50133,1,8,0:0:0:0:
352,96,50440,1,8,0:0:0:0:
160,96,50748,1,0,0:0:0:0:
352,288,51210,1,12,0:0:0:0:
352,288,51517,1,12,0:0:0:0:
352,96,51979,1,8,0:0:0:0:
352,96,52287,1,8,0:0:0:0:
160,96,52594,1,0,0:0:0:0:
160,96,52902,1,8,0:0:0:0:
256,192,53210,12,0,54440,0:0:0:0:
352,288,55825,5,12,0:0:0:0:
352,96,56287,1,0,0:0:0:0:
160,96,56440,1,0,0:0:0:0:
160,96,56902,1,0,0:0:0:0:
160,96,57210,1,0,0:0:0:0:
352,96,57517,1,8,0:0:0:0:
352,96,57825,1,8,0:0:0:0:
160,96,58133,1,0,0:0:0:0:
352,96,58287,1,8,0:0:0:0:
352,96,58594,1,8,0:0:0:0:
160,96,58748,1,0,0:0:0:0:
160,96,59056,1,0,0:0:0:0:
352,288,59364,1,8,0:0:0:0:
352,96,59979,1,8,0:0:0:0:
160,96,60287,1,0,0:0:0:0:
160,96,60594,1,0,0:0:0:0:
352,96,60748,1,8,0:0:0:0:
160,96,61210,1,0,0:0:0:0:
160,96,61364,1,0,0:0:0:0:
160,96,61825,1,0,0:0:0:0:
352,96,61979,1,8,0:0:0:0:
352,96,62133,1,8,0:0:0:0:
160,96,62440,1,0,0:0:0:0:
352,96,62748,1,8,0:0:0:0:
352,96,63056,1,8,0:0:0:0:
160,96,63210,1,0,0:0:0:0:
160,96,63671,1,0,0:0:0:0:
160,96,63825,1,0,0:0:0:0:
160,96,64287,1,0,0:0:0:0:
352,96,64594,1,8,0:0:0:0:
160,96,64902,1,0,0:0:0:0:
160,96,65210,1,0,0:0:0:0:
352,96,65364,1,8,0:0:0:0:
352,288,65671,1,12,0:0:0:0:
160,96,66133,1,0,0:0:0:0:
352,96,66440,1,8,0:0:0:0:
160,288,66748,5,4,0:0:0:0:
352,288,67056,1,12,0:0:0:0:
160,288,67364,1,4,0:0:0:0:
160,96,68133,1,0,0:0:0:0:
352,96,68594,1,8,0:0:0:0:
352,96,68902,1,8,0:0:0:0:
160,96,69364,5,0,0:0:0:0:
160,96,69825,1,0,0:0:0:0:
160,96,69979,1,0,0:0:0:0:
352,96,70440,1,8,0:0:0:0:
352,96,70594,1,8,0:0:0:0:
160,96,71056,1,0,0:0:0:0:
352,96,71210,1,8,0:0:0:0:
160,96,71517,1,0,0:0:0:0:
160,96,71671,1,0,0:0:0:0:
352,288,71825,1,12,0:0:0:0:
160,96,72287,1,0,0:0:0:0:
160,96,72440,1,0,0:0:0:0:
160,96,72902,1,0,0:0:0:0:
352,96,73210,1,8,0:0:0:0:
160,96,73517,1,0,0:0:0:0:
352,96,73825,1,8,0:0:0:0:
160,96,74133,1,0,0:0:0:0:
352,96,74287,1,8,0:0:0:0:
352,96,74594,1,8,0:0:0:0:
160,96,74748,1,0,0:0:0:0:
160,96,75056,1,0,0:0:0:0:
352,96,75364,1,8,0:0:0:0:
352,96,75825,1,8,0:0:0:0:
160,96,75979,1,0,0:0:0:0:
352,96,76133,1,8,0:0:0:0:
160,96,76440,1,0,0:0:0:0:
352,96,76748,5,8,0:0:0:0:
160,96,77210,1,4,0:0:0:0:
160,96,77517,1,4,0:0:0:0:
352,288,77825,1,12,0:0:0:0:
160,96,78594,1,0,0:0:0:0:
352,96,78902,1,8,0:0:0:0:
352,96,79056,1,8,0:0:0:0:
160,288,79210,1,4,0:0:0:0:
352,96,79517,1,8,0:0:0:0:
352,96,79825,1,8,0:0:0:0:
160,96,79979,1,0,0:0:0:0:
160,96,80287,1,8,0:0:0:0:
352,96,80594,1,8,0:0:0:0:
352,96,80748,1,8,0:0:0:0:
160,96,80902,1,0,0:0:0:0:
160,96,81210,1,0,0:0:0:0:
352,96,81364,1,8,0:0:0:0:
160,288,81517,1,4,0:0:0:0:
352,96,81979,1,8,0:0:0:0:
352,96,82287,1,8,0:0:0:0:
160,96,82440,1,0,0:0:0:0:
352,96,82594,1,8,0:0:0:0:
352,96,82902,1,8,0:0:0:0:
352,96,83056,1,8,0:0:0:0:
160,96,83364,1,0,0:0:0:0:
352,96,83671,1,8,0:0:0:0:
352,288,84133,1,12,0:0:0:0:
352,288,84440,1,12,0:0:0:0:
352,288,84594,1,12,0:0:0:0:
160,288,84902,1,4,0:0:0:0:
160,288,85056,1,4,0:0:0:0:
256,192,85210,12,0,86287,0:0:0:0:
