osu file format v14

[General]
AudioFilename: air.mp3
AudioLeadIn: 0
PreviewTime: 37486
Countdown: 0
SampleSet: Soft
StackLeniency: 0.7
Mode: 3
LetterboxInBreaks: 0
SpecialStyle: 0
WidescreenStoryboard: 0

[Editor]
Bookmarks: 14986,28552,40574,62192,69264,78074,90427
DistanceSpacing: 1.3
BeatDivisor: 4
GridSize: 8
TimelineZoom: 2.4

[Metadata]
Title:Wh1teh Pack #1
TitleUnicode:Wh1teh Pack #1
Artist:Various Artists
ArtistUnicode:Various Artists
Creator:Wh1teh
Version:mommy - AIRSHAVER
Source:
Tags:Jacks Jumpstream Technical Speed Fennec Fallacy osu!mania 4K World Cup 2018 Quarterfinals MWC18 Soreption Deterioration of Minds DJ SHARPNEL Jea SHARPNELSOUND Strangeprogram Dougal & Gammer Guitar Hero goreshit MATZcore Katanagatari Taku Iwasaki Douse Konna no ga Suki desho? mommy AIRSHAVER Niko Initial D Night of Fire ゆうゆ Yuuyu Scrap Syndrome HALLEY LABS JACKALQ​~​1​.​EXE infected by ROTTEEN​.​DM Infinite Memory Overwrite hapi Hatsune Miku's Head Exercises Atama no Taisou DM Ashura memeMAX deltaMAX DanceDanceRevolution DDR C-CLAYS VaizravaNa 虎柄の毘沙門天 東方星蓮船 ~ Undefined Fantastic Object Shou Toramaru 月時計 ~ ルナ・ダイアル 東方紅魔郷 ~ the Embodiment of Scarlet Devil Sakuya Izayoi Touhou Project ATC All Around The World
BeatmapID:937995
BeatmapSetID:435387

[Difficulty]
HPDrainRate:8.5
CircleSize:4
OverallDifficulty:8.5
ApproachRate:5
SliderMultiplier:1.4
SliderTickRate:1

[Events]
//Background and Video events
0,0,"BGair.jpg",0,0
//Break Periods
//Storyboard Layer 0 (Background)
//Storyboard Layer 1 (Fail)
//Storyboard Layer 2 (Pass)
//Storyboard Layer 3 (Foreground)
//Storyboard Layer 4 (Overlay)
//Storyboard Sound Samples

[TimingPoints]
1310,220.588235294118,4,2,0,42,1,0

[HitObjects]
64,192,1309,5,0,0:0:0:0:
192,192,1378,1,0,0:0:0:0:
320,192,1447,1,0,0:0:0:0:
448,192,1516,1,0,0:0:0:0:
64,192,1571,1,0,0:0:0:0:
192,192,1627,1,0,0:0:0:0:
320,192,1696,1,0,0:0:0:0:
192,192,1751,1,0,0:0:0:0:
448,192,1751,1,0,0:0:0:0:
64,192,1751,1,0,0:0:0:0:
448,192,1971,1,0,0:0:0:0:
448,192,2082,1,0,0:0:0:0:
64,192,2192,1,0,0:0:0:0:
192,192,2192,1,0,0:0:0:0:
64,192,2302,1,0,0:0:0:0:
320,192,2302,1,0,0:0:0:0:
448,192,2412,1,0,0:0:0:0:
64,192,2412,1,0,0:0:0:0:
320,192,2523,1,0,0:0:0:0:
448,192,2523,1,0,0:0:0:0:
192,192,2523,1,0,0:0:0:0:
448,192,2743,1,0,0:0:0:0:
192,192,2743,1,0,0:0:0:0:
320,192,2854,1,0,0:0:0:0:
192,192,2854,1,0,0:0:0:0:
320,192,2964,1,0,0:0:0:0:
64,192,2964,1,0,0:0:0:0:
448,192,2964,1,0,0:0:0:0:
192,192,3074,1,0,0:0:0:0:
448,192,3185,1,0,0:0:0:0:
320,192,3185,1,0,0:0:0:0:
192,192,3295,1,0,0:0:0:0:
64,192,3295,1,0,0:0:0:0:
320,192,3405,1,0,0:0:0:0:
448,192,3515,1,0,0:0:0:0:
64,192,3515,1,0,0:0:0:0:
448,192,3626,1,0,0:0:0:0:
320,192,3736,1,0,0:0:0:0:
192,192,3736,1,0,0:0:0:0:
448,192,3846,1,0,0:0:0:0:
192,192,3846,1,0,0:0:0:0:
64,192,3846,1,0,0:0:0:0:
448,192,4067,1,0,0:0:0:0:
320,192,4067,1,0,0:0:0:0:
64,192,4067,1,0,0:0:0:0:
448,192,4177,1,0,0:0:0:0:
192,192,4287,1,0,0:0:0:0:
320,192,4287,1,0,0:0:0:0:
320,192,4398,1,0,0:0:0:0:
192,192,4398,1,0,0:0:0:0:
64,192,4398,1,0,0:0:0:0:
448,192,4398,1,0,0:0:0:0:
64,192,4618,1,0,0:0:0:0:
448,192,4729,1,0,0:0:0:0:
320,192,4729,1,0,0:0:0:0:
192,192,4839,1,0,0:0:0:0:
192,192,4949,1,0,0:0:0:0:
320,192,5060,1,0,0:0:0:0:
448,192,5060,1,0,0:0:0:0:
64,192,5060,1,0,0:0:0:0:
192,192,5170,1,0,0:0:0:0:
320,192,5280,1,0,0:0:0:0:
448,192,5390,1,0,0:0:0:0:
192,192,5390,1,0,0:0:0:0:
64,192,5390,1,0,0:0:0:0:
64,192,5611,1,0,0:0:0:0:
320,192,5611,1,0,0:0:0:0:
320,192,5721,1,0,0:0:0:0:
192,192,5832,1,0,0:0:0:0:
64,192,5942,1,0,0:0:0:0:
448,192,5942,1,0,0:0:0:0:
320,192,5942,1,0,0:0:0:0:
192,192,6052,1,0,0:0:0:0:
320,192,6162,1,0,0:0:0:0:
448,192,6273,1,0,0:0:0:0:
192,192,6273,1,0,0:0:0:0:
64,192,6273,1,0,0:0:0:0:
320,192,6493,1,0,0:0:0:0:
64,192,6493,1,0,0:0:0:0:
448,192,6604,1,0,0:0:0:0:
64,192,6714,1,0,0:0:0:0:
192,192,6714,1,0,0:0:0:0:
320,192,6824,1,0,0:0:0:0:
448,192,6824,1,0,0:0:0:0:
192,192,6935,1,0,0:0:0:0:
64,192,7045,1,0,0:0:0:0:
448,192,7045,1,0,0:0:0:0:
448,192,7155,1,0,0:0:0:0:
192,192,7155,1,0,0:0:0:0:
448,192,7376,1,0,0:0:0:0:
320,192,7376,1,0,0:0:0:0:
192,192,7486,1,0,0:0:0:0:
320,192,7596,1,0,0:0:0:0:
192,192,7596,1,0,0:0:0:0:
64,192,7707,1,0,0:0:0:0:
320,192,7817,1,0,0:0:0:0:
448,192,7817,1,0,0:0:0:0:
192,192,7927,1,0,0:0:0:0:
64,192,7927,1,0,0:0:0:0:
448,192,7927,1,0,0:0:0:0:
448,192,8148,1,0,0:0:0:0:
448,192,8368,1,0,0:0:0:0:
64,192,8368,1,0,0:0:0:0:
192,192,8479,1,0,0:0:0:0:
320,192,8589,1,0,0:0:0:0:
448,192,8589,1,0,0:0:0:0:
448,192,8699,1,0,0:0:0:0:
448,192,8920,1,0,0:0:0:0:
192,192,8920,1,0,0:0:0:0:
448,192,9030,1,0,0:0:0:0:
320,192,9030,1,0,0:0:0:0:
192,192,9140,1,0,0:0:0:0:
64,192,9140,1,0,0:0:0:0:
64,192,9361,1,0,0:0:0:0:
320,192,9361,1,0,0:0:0:0:
192,192,9471,1,0,0:0:0:0:
448,192,9471,1,0,0:0:0:0:
448,192,9582,1,0,0:0:0:0:
320,192,9582,1,0,0:0:0:0:
192,192,9692,1,0,0:0:0:0:
64,192,9692,1,0,0:0:0:0:
320,192,9692,1,0,0:0:0:0:
448,192,9802,1,0,0:0:0:0:
320,192,9912,1,0,0:0:0:0:
192,192,10023,1,0,0:0:0:0:
64,192,10023,1,0,0:0:0:0:
448,192,10023,1,0,0:0:0:0:
448,192,10243,1,0,0:0:0:0:
320,192,10243,1,0,0:0:0:0:
64,192,10243,1,0,0:0:0:0:
320,192,10354,1,0,0:0:0:0:
64,192,10464,1,0,0:0:0:0:
192,192,10464,1,0,0:0:0:0:
448,192,10574,1,0,0:0:0:0:
64,192,10574,1,0,0:0:0:0:
192,192,10574,1,0,0:0:0:0:
320,192,10795,1,0,0:0:0:0:
320,192,10905,1,0,0:0:0:0:
448,192,10905,1,0,0:0:0:0:
192,192,11015,1,0,0:0:0:0:
448,192,11015,1,0,0:0:0:0:
192,192,11126,1,0,0:0:0:0:
64,192,11126,1,0,0:0:0:0:
64,192,11236,1,0,0:0:0:0:
320,192,11236,1,0,0:0:0:0:
448,192,11236,1,0,0:0:0:0:
192,192,11346,1,0,0:0:0:0:
320,192,11457,1,0,0:0:0:0:
448,192,11567,1,0,0:0:0:0:
192,192,11567,1,0,0:0:0:0:
448,192,11787,1,0,0:0:0:0:
64,192,11787,1,0,0:0:0:0:
192,192,11898,1,0,0:0:0:0:
320,192,12008,1,0,0:0:0:0:
64,192,12008,1,0,0:0:0:0:
192,192,12118,1,0,0:0:0:0:
320,192,12118,1,0,0:0:0:0:
448,192,12118,1,0,0:0:0:0:
448,192,12339,1,0,0:0:0:0:
320,192,12339,1,0,0:0:0:0:
64,192,12449,1,0,0:0:0:0:
192,192,12449,1,0,0:0:0:0:
320,192,12449,1,0,0:0:0:0:
64,192,12670,1,0,0:0:0:0:
320,192,12670,1,0,0:0:0:0:
192,192,12780,1,0,0:0:0:0:
192,192,12890,1,0,0:0:0:0:
64,192,12890,1,0,0:0:0:0:
320,192,13001,1,0,0:0:0:0:
448,192,13001,1,0,0:0:0:0:
192,192,13111,1,0,0:0:0:0:
320,192,13111,1,0,0:0:0:0:
64,192,13221,1,0,0:0:0:0:
192,192,13221,1,0,0:0:0:0:
320,192,13332,1,0,0:0:0:0:
448,192,13332,1,0,0:0:0:0:
448,192,13442,1,0,0:0:0:0:
448,192,13552,1,0,0:0:0:0:
64,192,13552,1,0,0:0:0:0:
192,192,13662,1,0,0:0:0:0:
192,192,13773,1,0,0:0:0:0:
320,192,13773,1,0,0:0:0:0:
448,192,13883,1,0,0:0:0:0:
64,192,13993,1,0,0:0:0:0:
192,192,13993,1,0,0:0:0:0:
320,192,14104,1,0,0:0:0:0:
448,192,14104,1,0,0:0:0:0:
192,192,14104,1,0,0:0:0:0:
448,192,14545,1,0,0:0:0:0:
64,192,14545,1,0,0:0:0:0:
448,192,14655,1,0,0:0:0:0:
64,192,14655,1,0,0:0:0:0:
192,192,14655,1,0,0:0:0:0:
320,192,14655,1,0,0:0:0:0:
448,192,14986,1,0,0:0:0:0:
64,192,14986,1,0,0:0:0:0:
320,192,15096,1,0,0:0:0:0:
192,192,15207,1,0,0:0:0:0:
320,192,15317,1,0,0:0:0:0:
448,192,15317,1,0,0:0:0:0:
64,192,15427,1,0,0:0:0:0:
192,192,15427,1,0,0:0:0:0:
320,192,15537,1,0,0:0:0:0:
448,192,15648,1,0,0:0:0:0:
320,192,15758,1,0,0:0:0:0:
192,192,15758,1,0,0:0:0:0:
192,192,15979,1,0,0:0:0:0:
192,192,16089,1,0,0:0:0:0:
448,192,16199,1,0,0:0:0:0:
320,192,16199,1,0,0:0:0:0:
192,192,16310,1,0,0:0:0:0:
64,192,16420,1,0,0:0:0:0:
448,192,16420,1,0,0:0:0:0:
320,192,16530,1,0,0:0:0:0:
192,192,16640,1,0,0:0:0:0:
64,192,16640,1,0,0:0:0:0:
320,192,16751,1,0,0:0:0:0:
192,192,16861,1,0,0:0:0:0:
448,192,16861,1,0,0:0:0:0:
64,192,16971,1,0,0:0:0:0:
320,192,16971,1,0,0:0:0:0:
448,192,17082,1,0,0:0:0:0:
192,192,17192,1,0,0:0:0:0:
64,192,17192,1,0,0:0:0:0:
448,192,17302,1,0,0:0:0:0:
192,192,17302,1,0,0:0:0:0:
320,192,17523,1,0,0:0:0:0:
192,192,17633,1,0,0:0:0:0:
448,192,17633,1,0,0:0:0:0:
192,192,17743,1,0,0:0:0:0:
320,192,17743,1,0,0:0:0:0:
64,192,17854,1,0,0:0:0:0:
448,192,17854,1,0,0:0:0:0:
320,192,17854,1,0,0:0:0:0:
192,192,17964,1,0,0:0:0:0:
64,192,17964,1,0,0:0:0:0:
320,192,18074,1,0,0:0:0:0:
448,192,18185,1,0,0:0:0:0:
192,192,18185,1,0,0:0:0:0:
448,192,18405,1,0,0:0:0:0:
320,192,18405,1,0,0:0:0:0:
448,192,18515,1,0,0:0:0:0:
192,192,18515,1,0,0:0:0:0:
192,192,18626,1,0,0:0:0:0:
64,192,18626,1,0,0:0:0:0:
448,192,18846,1,0,0:0:0:0:
192,192,18846,1,0,0:0:0:0:
320,192,18957,1,0,0:0:0:0:
192,192,18957,1,0,0:0:0:0:
64,192,19067,1,0,0:0:0:0:
320,192,19067,1,0,0:0:0:0:
448,192,19067,1,0,0:0:0:0:
192,192,19287,1,0,0:0:0:0:
320,192,19398,1,0,0:0:0:0:
448,192,19398,1,0,0:0:0:0:
192,192,19508,1,0,0:0:0:0:
64,192,19618,1,0,0:0:0:0:
448,192,19618,1,0,0:0:0:0:
320,192,19729,1,0,0:0:0:0:
192,192,19729,1,0,0:0:0:0:
64,192,19839,1,0,0:0:0:0:
320,192,19949,1,0,0:0:0:0:
192,192,19949,1,0,0:0:0:0:
64,192,20060,1,0,0:0:0:0:
448,192,20060,1,0,0:0:0:0:
320,192,20170,1,0,0:0:0:0:
192,192,20280,1,0,0:0:0:0:
64,192,20280,1,0,0:0:0:0:
448,192,20280,1,0,0:0:0:0:
320,192,20390,1,0,0:0:0:0:
192,192,20501,1,0,0:0:0:0:
64,192,20611,1,0,0:0:0:0:
320,192,20611,1,0,0:0:0:0:
448,192,20611,1,0,0:0:0:0:
192,192,20721,1,0,0:0:0:0:
64,192,20832,1,0,0:0:0:0:
192,192,20942,1,0,0:0:0:0:
320,192,20942,1,0,0:0:0:0:
448,192,20942,1,0,0:0:0:0:
64,192,21052,1,0,0:0:0:0:
192,192,21162,1,0,0:0:0:0:
320,192,21273,1,0,0:0:0:0:
448,192,21273,1,0,0:0:0:0:
64,192,21383,1,0,0:0:0:0:
192,192,21383,1,0,0:0:0:0:
320,192,21493,1,0,0:0:0:0:
448,192,21604,1,0,0:0:0:0:
320,192,21714,1,0,0:0:0:0:
192,192,21714,1,0,0:0:0:0:
192,192,21935,1,0,0:0:0:0:
192,192,22045,1,0,0:0:0:0:
448,192,22155,1,0,0:0:0:0:
320,192,22155,1,0,0:0:0:0:
192,192,22265,1,0,0:0:0:0:
64,192,22376,1,0,0:0:0:0:
448,192,22376,1,0,0:0:0:0:
320,192,22486,1,0,0:0:0:0:
192,192,22596,1,0,0:0:0:0:
64,192,22596,1,0,0:0:0:0:
320,192,22707,1,0,0:0:0:0:
192,192,22817,1,0,0:0:0:0:
448,192,22817,1,0,0:0:0:0:
64,192,22927,1,0,0:0:0:0:
320,192,22927,1,0,0:0:0:0:
448,192,23037,1,0,0:0:0:0:
192,192,23148,1,0,0:0:0:0:
64,192,23148,1,0,0:0:0:0:
448,192,23258,1,0,0:0:0:0:
192,192,23258,1,0,0:0:0:0:
448,192,23479,1,0,0:0:0:0:
192,192,23479,1,0,0:0:0:0:
320,192,23534,1,0,0:0:0:0:
64,192,23589,1,0,0:0:0:0:
448,192,23589,1,0,0:0:0:0:
192,192,23699,1,0,0:0:0:0:
320,192,23699,1,0,0:0:0:0:
64,192,23810,1,0,0:0:0:0:
448,192,23810,1,0,0:0:0:0:
320,192,23810,1,0,0:0:0:0:
192,192,23920,1,0,0:0:0:0:
64,192,23920,1,0,0:0:0:0:
320,192,24030,1,0,0:0:0:0:
448,192,24140,1,0,0:0:0:0:
192,192,24140,1,0,0:0:0:0:
192,192,24251,1,0,0:0:0:0:
448,192,24361,1,0,0:0:0:0:
320,192,24361,1,0,0:0:0:0:
448,192,24471,1,0,0:0:0:0:
192,192,24471,1,0,0:0:0:0:
64,192,24471,1,0,0:0:0:0:
320,192,24582,1,0,0:0:0:0:
192,192,24692,1,0,0:0:0:0:
448,192,24802,1,0,0:0:0:0:
320,192,24802,1,0,0:0:0:0:
192,192,24912,1,0,0:0:0:0:
64,192,25023,1,0,0:0:0:0:
320,192,25023,1,0,0:0:0:0:
448,192,25023,1,0,0:0:0:0:
192,192,25133,1,0,0:0:0:0:
192,192,25243,1,0,0:0:0:0:
320,192,25354,1,0,0:0:0:0:
448,192,25354,1,0,0:0:0:0:
64,192,25354,1,0,0:0:0:0:
192,192,25464,1,0,0:0:0:0:
320,192,25574,1,0,0:0:0:0:
448,192,25574,1,0,0:0:0:0:
192,192,25685,1,0,0:0:0:0:
320,192,25795,1,0,0:0:0:0:
64,192,25795,1,0,0:0:0:0:
192,192,25905,1,0,0:0:0:0:
448,192,26015,1,0,0:0:0:0:
192,192,26015,1,0,0:0:0:0:
448,192,26126,1,0,0:0:0:0:
320,192,26126,1,0,0:0:0:0:
448,192,26346,1,0,0:0:0:0:
320,192,26457,1,0,0:0:0:0:
192,192,26457,1,0,0:0:0:0:
64,192,26567,1,0,0:0:0:0:
448,192,26677,1,0,0:0:0:0:
320,192,26677,1,0,0:0:0:0:
192,192,26787,1,0,0:0:0:0:
64,192,26787,1,0,0:0:0:0:
64,192,26898,1,0,0:0:0:0:
448,192,26898,1,0,0:0:0:0:
192,192,27008,1,0,0:0:0:0:
320,192,27118,1,0,0:0:0:0:
448,192,27118,1,0,0:0:0:0:
64,192,27118,1,0,0:0:0:0:
448,192,27449,1,0,0:0:0:0:
192,192,27449,1,0,0:0:0:0:
64,192,27449,1,0,0:0:0:0:
320,192,27560,1,0,0:0:0:0:
192,192,27670,1,0,0:0:0:0:
64,192,27670,1,0,0:0:0:0:
320,192,27780,1,0,0:0:0:0:
448,192,27780,1,0,0:0:0:0:
192,192,27780,1,0,0:0:0:0:
64,192,28001,1,0,0:0:0:0:
448,192,28111,1,0,0:0:0:0:
448,192,28221,1,0,0:0:0:0:
448,192,28332,1,0,0:0:0:0:
192,192,28442,1,0,0:0:0:0:
192,192,28552,1,0,0:0:0:0:
320,192,28607,1,0,0:0:0:0:
64,192,28662,1,0,0:0:0:0:
448,192,28662,1,0,0:0:0:0:
192,192,28773,1,0,0:0:0:0:
320,192,28883,1,0,0:0:0:0:
192,192,28993,1,0,0:0:0:0:
64,192,28993,1,0,0:0:0:0:
448,192,29104,1,0,0:0:0:0:
320,192,29104,1,0,0:0:0:0:
192,192,29214,1,0,0:0:0:0:
64,192,29324,1,0,0:0:0:0:
192,192,29435,1,0,0:0:0:0:
320,192,29435,1,0,0:0:0:0:
320,192,29655,1,0,0:0:0:0:
320,192,29765,1,0,0:0:0:0:
64,192,29876,1,0,0:0:0:0:
192,192,29876,1,0,0:0:0:0:
320,192,29986,1,0,0:0:0:0:
448,192,30096,1,0,0:0:0:0:
64,192,30096,1,0,0:0:0:0:
192,192,30207,1,0,0:0:0:0:
320,192,30317,1,0,0:0:0:0:
448,192,30317,1,0,0:0:0:0:
192,192,30427,1,0,0:0:0:0:
320,192,30537,1,0,0:0:0:0:
64,192,30537,1,0,0:0:0:0:
448,192,30648,1,0,0:0:0:0:
192,192,30648,1,0,0:0:0:0:
64,192,30758,1,0,0:0:0:0:
320,192,30868,1,0,0:0:0:0:
448,192,30868,1,0,0:0:0:0:
64,192,30979,1,0,0:0:0:0:
320,192,30979,1,0,0:0:0:0:
192,192,31199,1,0,0:0:0:0:
320,192,31310,1,0,0:0:0:0:
64,192,31310,1,0,0:0:0:0:
320,192,31420,1,0,0:0:0:0:
192,192,31420,1,0,0:0:0:0:
448,192,31530,1,0,0:0:0:0:
64,192,31530,1,0,0:0:0:0:
192,192,31530,1,0,0:0:0:0:
320,192,31640,1,0,0:0:0:0:
448,192,31640,1,0,0:0:0:0:
192,192,31751,1,0,0:0:0:0:
64,192,31751,1,0,0:0:0:0:
448,192,31861,1,0,0:0:0:0:
192,192,31861,1,0,0:0:0:0:
320,192,31971,1,0,0:0:0:0:
64,192,32082,1,0,0:0:0:0:
192,192,32082,1,0,0:0:0:0:
64,192,32192,1,0,0:0:0:0:
320,192,32192,1,0,0:0:0:0:
320,192,32302,1,0,0:0:0:0:
448,192,32302,1,0,0:0:0:0:
64,192,32523,1,0,0:0:0:0:
320,192,32523,1,0,0:0:0:0:
192,192,32633,1,0,0:0:0:0:
320,192,32633,1,0,0:0:0:0:
448,192,32743,1,0,0:0:0:0:
192,192,32743,1,0,0:0:0:0:
64,192,32743,1,0,0:0:0:0:
320,192,32964,1,0,0:0:0:0:
192,192,33074,1,0,0:0:0:0:
64,192,33074,1,0,0:0:0:0:
320,192,33185,1,0,0:0:0:0:
448,192,33295,1,0,0:0:0:0:
64,192,33295,1,0,0:0:0:0:
192,192,33405,1,0,0:0:0:0:
320,192,33405,1,0,0:0:0:0:
448,192,33515,1,0,0:0:0:0:
192,192,33626,1,0,0:0:0:0:
320,192,33626,1,0,0:0:0:0:
448,192,33736,1,0,0:0:0:0:
64,192,33736,1,0,0:0:0:0:
192,192,33846,1,0,0:0:0:0:
320,192,33957,1,0,0:0:0:0:
448,192,33957,1,0,0:0:0:0:
64,192,33957,1,0,0:0:0:0:
192,192,34067,1,0,0:0:0:0:
320,192,34177,1,0,0:0:0:0:
448,192,34287,1,0,0:0:0:0:
192,192,34287,1,0,0:0:0:0:
64,192,34287,1,0,0:0:0:0:
320,192,34398,1,0,0:0:0:0:
448,192,34508,1,0,0:0:0:0:
320,192,34618,1,0,0:0:0:0:
192,192,34618,1,0,0:0:0:0:
64,192,34618,1,0,0:0:0:0:
448,192,34729,1,0,0:0:0:0:
320,192,34839,1,0,0:0:0:0:
192,192,34949,1,0,0:0:0:0:
64,192,34949,1,0,0:0:0:0:
448,192,35060,1,0,0:0:0:0:
320,192,35060,1,0,0:0:0:0:
192,192,35170,1,0,0:0:0:0:
64,192,35280,1,0,0:0:0:0:
192,192,35390,1,0,0:0:0:0:
320,192,35390,1,0,0:0:0:0:
320,192,35611,1,0,0:0:0:0:
320,192,35721,1,0,0:0:0:0:
64,192,35832,1,0,0:0:0:0:
192,192,35832,1,0,0:0:0:0:
320,192,35942,1,0,0:0:0:0:
448,192,36052,5,0,0:0:0:0:
64,192,36052,1,0,0:0:0:0:
192,192,36162,1,0,0:0:0:0:
320,192,36273,1,0,0:0:0:0:
448,192,36273,1,0,0:0:0:0:
192,192,36383,1,0,0:0:0:0:
320,192,36493,1,0,0:0:0:0:
64,192,36493,1,0,0:0:0:0:
448,192,36604,1,0,0:0:0:0:
192,192,36604,1,0,0:0:0:0:
64,192,36714,1,0,0:0:0:0:
320,192,36824,1,0,0:0:0:0:
448,192,36824,1,0,0:0:0:0:
64,192,36935,1,0,0:0:0:0:
320,192,36935,1,0,0:0:0:0:
64,192,37155,5,0,0:0:0:0:
448,192,37155,1,0,0:0:0:0:
320,192,37210,1,0,0:0:0:0:
64,192,37265,1,0,0:0:0:0:
192,192,37265,1,0,0:0:0:0:
320,192,37376,1,0,0:0:0:0:
448,192,37376,1,0,0:0:0:0:
64,192,37486,1,0,0:0:0:0:
192,192,37486,1,0,0:0:0:0:
448,192,37486,1,0,0:0:0:0:
320,192,37596,1,0,0:0:0:0:
192,192,37707,1,0,0:0:0:0:
64,192,37817,1,0,0:0:0:0:
320,192,37817,1,0,0:0:0:0:
448,192,37817,1,0,0:0:0:0:
192,192,37927,1,0,0:0:0:0:
64,192,38037,1,0,0:0:0:0:
192,192,38148,1,0,0:0:0:0:
320,192,38148,1,0,0:0:0:0:
448,192,38148,1,0,0:0:0:0:
64,192,38258,1,0,0:0:0:0:
448,192,38368,1,0,0:0:0:0:
192,192,38479,1,0,0:0:0:0:
64,192,38479,1,0,0:0:0:0:
320,192,38479,1,0,0:0:0:0:
448,192,38589,1,0,0:0:0:0:
320,192,38699,1,0,0:0:0:0:
64,192,38810,1,0,0:0:0:0:
448,192,38810,1,0,0:0:0:0:
192,192,38810,1,0,0:0:0:0:
320,192,38920,1,0,0:0:0:0:
192,192,39030,1,0,0:0:0:0:
64,192,39140,1,0,0:0:0:0:
320,192,39140,1,0,0:0:0:0:
448,192,39140,1,0,0:0:0:0:
192,192,39251,1,0,0:0:0:0:
64,192,39361,1,0,0:0:0:0:
192,192,39471,1,0,0:0:0:0:
320,192,39471,1,0,0:0:0:0:
448,192,39471,1,0,0:0:0:0:
64,192,39582,1,0,0:0:0:0:
64,192,39692,1,0,0:0:0:0:
320,192,39802,1,0,0:0:0:0:
192,192,39912,1,0,0:0:0:0:
64,192,39912,1,0,0:0:0:0:
320,192,39912,1,0,0:0:0:0:
448,192,39912,1,0,0:0:0:0:
192,192,40133,1,0,0:0:0:0:
448,192,40243,1,0,0:0:0:0:
320,192,40243,1,0,0:0:0:0:
192,192,40243,1,0,0:0:0:0:
64,192,40243,1,0,0:0:0:0:
448,192,40464,1,0,0:0:0:0:
320,192,40574,1,0,0:0:0:0:
192,192,40574,1,0,0:0:0:0:
64,192,40574,1,0,0:0:0:0:
320,192,40685,1,0,0:0:0:0:
192,192,40685,1,0,0:0:0:0:
64,192,40685,1,0,0:0:0:0:
192,192,40795,1,0,0:0:0:0:
64,192,40905,1,0,0:0:0:0:
320,192,40905,1,0,0:0:0:0:
448,192,40905,1,0,0:0:0:0:
448,192,41015,1,0,0:0:0:0:
448,192,41126,1,0,0:0:0:0:
192,192,41236,1,0,0:0:0:0:
64,192,41236,1,0,0:0:0:0:
320,192,41236,1,0,0:0:0:0:
320,192,41346,1,0,0:0:0:0:
192,192,41346,1,0,0:0:0:0:
64,192,41346,1,0,0:0:0:0:
192,192,41457,1,0,0:0:0:0:
64,192,41567,1,0,0:0:0:0:
320,192,41567,1,0,0:0:0:0:
448,192,41567,1,0,0:0:0:0:
320,192,41677,1,0,0:0:0:0:
320,192,41787,1,0,0:0:0:0:
192,192,41898,1,0,0:0:0:0:
448,192,41898,1,0,0:0:0:0:
64,192,41898,1,0,0:0:0:0:
64,192,42008,1,0,0:0:0:0:
192,192,42118,1,0,0:0:0:0:
320,192,42118,1,0,0:0:0:0:
448,192,42118,1,0,0:0:0:0:
320,192,42229,1,0,0:0:0:0:
64,192,42339,1,0,0:0:0:0:
192,192,42339,1,0,0:0:0:0:
448,192,42339,1,0,0:0:0:0:
448,192,42449,1,0,0:0:0:0:
320,192,42560,1,0,0:0:0:0:
192,192,42560,1,0,0:0:0:0:
64,192,42560,1,0,0:0:0:0:
64,192,42670,1,0,0:0:0:0:
64,192,42780,1,0,0:0:0:0:
192,192,42890,1,0,0:0:0:0:
448,192,42890,1,0,0:0:0:0:
320,192,42890,1,0,0:0:0:0:
320,192,43001,1,0,0:0:0:0:
448,192,43111,1,0,0:0:0:0:
64,192,43111,1,0,0:0:0:0:
192,192,43111,1,0,0:0:0:0:
320,192,43111,1,0,0:0:0:0:
192,192,43221,1,0,0:0:0:0:
64,192,43332,1,0,0:0:0:0:
320,192,43332,1,0,0:0:0:0:
192,192,43332,1,0,0:0:0:0:
448,192,43332,1,0,0:0:0:0:
448,192,43552,1,0,0:0:0:0:
192,192,43552,1,0,0:0:0:0:
448,192,43662,1,0,0:0:0:0:
192,192,43773,1,0,0:0:0:0:
64,192,43773,1,0,0:0:0:0:
192,192,43883,1,0,0:0:0:0:
320,192,43883,1,0,0:0:0:0:
448,192,43883,1,0,0:0:0:0:
64,192,43993,1,0,0:0:0:0:
320,192,44104,1,0,0:0:0:0:
192,192,44214,1,0,0:0:0:0:
64,192,44214,1,0,0:0:0:0:
320,192,44324,1,0,0:0:0:0:
448,192,44324,1,0,0:0:0:0:
64,192,44435,1,0,0:0:0:0:
192,192,44545,1,0,0:0:0:0:
448,192,44545,1,0,0:0:0:0:
448,192,44655,1,0,0:0:0:0:
448,192,44765,1,0,0:0:0:0:
64,192,44876,1,0,0:0:0:0:
192,192,44876,1,0,0:0:0:0:
320,192,44986,1,0,0:0:0:0:
448,192,44986,1,0,0:0:0:0:
192,192,45096,1,0,0:0:0:0:
64,192,45207,1,0,0:0:0:0:
448,192,45207,1,0,0:0:0:0:
192,192,45317,1,0,0:0:0:0:
320,192,45427,1,0,0:0:0:0:
448,192,45537,1,0,0:0:0:0:
320,192,45648,1,0,0:0:0:0:
192,192,45758,1,0,0:0:0:0:
64,192,45868,1,0,0:0:0:0:
320,192,45868,1,0,0:0:0:0:
320,192,45979,1,0,0:0:0:0:
64,192,45979,1,0,0:0:0:0:
192,192,46089,1,0,0:0:0:0:
320,192,46089,1,0,0:0:0:0:
448,192,46089,1,0,0:0:0:0:
192,192,46199,1,0,0:0:0:0:
320,192,46199,1,0,0:0:0:0:
448,192,46199,1,0,0:0:0:0:
448,192,46310,1,0,0:0:0:0:
320,192,46420,1,0,0:0:0:0:
192,192,46420,1,0,0:0:0:0:
64,192,46420,1,0,0:0:0:0:
64,192,46530,1,0,0:0:0:0:
64,192,46640,1,0,0:0:0:0:
320,192,46751,1,0,0:0:0:0:
448,192,46751,1,0,0:0:0:0:
192,192,46751,1,0,0:0:0:0:
448,192,46861,1,0,0:0:0:0:
320,192,46861,1,0,0:0:0:0:
192,192,46861,1,0,0:0:0:0:
448,192,46971,1,0,0:0:0:0:
320,192,47082,1,0,0:0:0:0:
192,192,47082,1,0,0:0:0:0:
64,192,47082,1,0,0:0:0:0:
192,192,47192,1,0,0:0:0:0:
192,192,47302,1,0,0:0:0:0:
64,192,47412,1,0,0:0:0:0:
320,192,47412,1,0,0:0:0:0:
448,192,47412,1,0,0:0:0:0:
448,192,47523,1,0,0:0:0:0:
320,192,47633,1,0,0:0:0:0:
192,192,47633,1,0,0:0:0:0:
64,192,47633,1,0,0:0:0:0:
192,192,47743,1,0,0:0:0:0:
64,192,47854,1,0,0:0:0:0:
320,192,47854,1,0,0:0:0:0:
448,192,47854,1,0,0:0:0:0:
320,192,47964,1,0,0:0:0:0:
448,192,48074,1,0,0:0:0:0:
192,192,48074,1,0,0:0:0:0:
64,192,48074,1,0,0:0:0:0:
320,192,48185,1,0,0:0:0:0:
320,192,48295,1,0,0:0:0:0:
448,192,48405,1,0,0:0:0:0:
64,192,48405,1,0,0:0:0:0:
192,192,48405,1,0,0:0:0:0:
192,192,48515,1,0,0:0:0:0:
64,192,48626,1,0,0:0:0:0:
448,192,48626,1,0,0:0:0:0:
192,192,48626,1,0,0:0:0:0:
320,192,48626,1,0,0:0:0:0:
64,192,48736,1,0,0:0:0:0:
64,192,48846,1,0,0:0:0:0:
192,192,48846,1,0,0:0:0:0:
320,192,48846,1,0,0:0:0:0:
448,192,48846,1,0,0:0:0:0:
320,192,49067,1,0,0:0:0:0:
64,192,49067,1,0,0:0:0:0:
320,192,49177,1,0,0:0:0:0:
192,192,49287,1,0,0:0:0:0:
448,192,49287,1,0,0:0:0:0:
192,192,49398,1,0,0:0:0:0:
448,192,49398,1,0,0:0:0:0:
64,192,49398,1,0,0:0:0:0:
320,192,49508,1,0,0:0:0:0:
64,192,49618,1,0,0:0:0:0:
448,192,49729,1,0,0:0:0:0:
192,192,49839,1,0,0:0:0:0:
320,192,49949,1,0,0:0:0:0:
64,192,50060,1,0,0:0:0:0:
448,192,50170,1,0,0:0:0:0:
320,192,50170,1,0,0:0:0:0:
192,192,50280,1,0,0:0:0:0:
192,192,50390,1,0,0:0:0:0:
64,192,50501,1,0,0:0:0:0:
320,192,50501,1,0,0:0:0:0:
448,192,50501,1,0,0:0:0:0:
448,192,50611,1,0,0:0:0:0:
64,192,50611,1,0,0:0:0:0:
320,192,50721,1,0,0:0:0:0:
320,192,50832,1,0,0:0:0:0:
448,192,50832,1,0,0:0:0:0:
192,192,50832,1,0,0:0:0:0:
64,192,50832,1,0,0:0:0:0:
64,192,50942,1,0,0:0:0:0:
192,192,51052,1,0,0:0:0:0:
320,192,51162,1,0,0:0:0:0:
448,192,51162,1,0,0:0:0:0:
64,192,51162,1,0,0:0:0:0:
320,192,51273,1,0,0:0:0:0:
448,192,51273,1,0,0:0:0:0:
64,192,51273,1,0,0:0:0:0:
320,192,51383,1,0,0:0:0:0:
192,192,51493,1,0,0:0:0:0:
64,192,51493,1,0,0:0:0:0:
448,192,51493,1,0,0:0:0:0:
192,192,51604,1,0,0:0:0:0:
192,192,51714,1,0,0:0:0:0:
64,192,51824,1,0,0:0:0:0:
320,192,51824,1,0,0:0:0:0:
448,192,51824,1,0,0:0:0:0:
64,192,51935,1,0,0:0:0:0:
320,192,51935,1,0,0:0:0:0:
448,192,51935,1,0,0:0:0:0:
320,192,52045,1,0,0:0:0:0:
64,192,52155,1,0,0:0:0:0:
192,192,52155,1,0,0:0:0:0:
448,192,52155,1,0,0:0:0:0:
64,192,52265,1,0,0:0:0:0:
64,192,52376,1,0,0:0:0:0:
192,192,52486,1,0,0:0:0:0:
320,192,52486,1,0,0:0:0:0:
448,192,52486,1,0,0:0:0:0:
192,192,52596,1,0,0:0:0:0:
320,192,52707,1,0,0:0:0:0:
64,192,52707,1,0,0:0:0:0:
448,192,52707,1,0,0:0:0:0:
320,192,52817,1,0,0:0:0:0:
64,192,52927,1,0,0:0:0:0:
192,192,52927,1,0,0:0:0:0:
448,192,52927,1,0,0:0:0:0:
448,192,53037,1,0,0:0:0:0:
64,192,53148,1,0,0:0:0:0:
192,192,53148,1,0,0:0:0:0:
320,192,53148,1,0,0:0:0:0:
64,192,53258,1,0,0:0:0:0:
320,192,53258,1,0,0:0:0:0:
192,192,53258,1,0,0:0:0:0:
64,192,53368,1,0,0:0:0:0:
320,192,53479,1,0,0:0:0:0:
448,192,53479,1,0,0:0:0:0:
192,192,53479,1,0,0:0:0:0:
320,192,53589,1,0,0:0:0:0:
64,192,53699,1,0,0:0:0:0:
192,192,53699,1,0,0:0:0:0:
320,192,53699,1,0,0:0:0:0:
448,192,53699,1,0,0:0:0:0:
64,192,53920,1,0,0:0:0:0:
320,192,53920,1,0,0:0:0:0:
448,192,53920,1,0,0:0:0:0:
192,192,53920,1,0,0:0:0:0:
64,192,54030,1,0,0:0:0:0:
192,192,54140,1,0,0:0:0:0:
320,192,54140,1,0,0:0:0:0:
320,192,54251,1,0,0:0:0:0:
192,192,54361,1,0,0:0:0:0:
448,192,54361,1,0,0:0:0:0:
192,192,54471,1,0,0:0:0:0:
64,192,54471,1,0,0:0:0:0:
320,192,54471,1,0,0:0:0:0:
448,192,54582,1,0,0:0:0:0:
320,192,54692,1,0,0:0:0:0:
64,192,54802,1,0,0:0:0:0:
192,192,54912,1,0,0:0:0:0:
320,192,55023,1,0,0:0:0:0:
448,192,55133,1,0,0:0:0:0:
192,192,55133,1,0,0:0:0:0:
192,192,55243,1,0,0:0:0:0:
192,192,55354,1,0,0:0:0:0:
320,192,55464,1,0,0:0:0:0:
448,192,55464,1,0,0:0:0:0:
192,192,55574,1,0,0:0:0:0:
64,192,55574,1,0,0:0:0:0:
320,192,55685,1,0,0:0:0:0:
448,192,55795,1,0,0:0:0:0:
64,192,55795,1,0,0:0:0:0:
192,192,55905,1,0,0:0:0:0:
64,192,55905,1,0,0:0:0:0:
320,192,56015,1,0,0:0:0:0:
448,192,56015,1,0,0:0:0:0:
192,192,56126,1,0,0:0:0:0:
320,192,56236,1,0,0:0:0:0:
448,192,56346,1,0,0:0:0:0:
64,192,56457,1,0,0:0:0:0:
320,192,56457,1,0,0:0:0:0:
64,192,56567,1,0,0:0:0:0:
320,192,56567,1,0,0:0:0:0:
448,192,56677,1,0,0:0:0:0:
64,192,56677,1,0,0:0:0:0:
192,192,56677,1,0,0:0:0:0:
64,192,56787,1,0,0:0:0:0:
192,192,56787,1,0,0:0:0:0:
448,192,56787,1,0,0:0:0:0:
320,192,57008,1,0,0:0:0:0:
192,192,57229,1,0,0:0:0:0:
64,192,57339,1,0,0:0:0:0:
320,192,57339,1,0,0:0:0:0:
448,192,57339,1,0,0:0:0:0:
320,192,57449,1,0,0:0:0:0:
448,192,57449,1,0,0:0:0:0:
64,192,57449,1,0,0:0:0:0:
192,192,57670,1,0,0:0:0:0:
64,192,57890,1,0,0:0:0:0:
192,192,58001,1,0,0:0:0:0:
320,192,58001,1,0,0:0:0:0:
448,192,58001,1,0,0:0:0:0:
192,192,58111,1,0,0:0:0:0:
320,192,58111,1,0,0:0:0:0:
448,192,58111,1,0,0:0:0:0:
448,192,58332,1,0,0:0:0:0:
192,192,58552,1,0,0:0:0:0:
64,192,58662,1,0,0:0:0:0:
320,192,58662,1,0,0:0:0:0:
448,192,58662,1,0,0:0:0:0:
320,192,58773,1,0,0:0:0:0:
448,192,58773,1,0,0:0:0:0:
64,192,58773,1,0,0:0:0:0:
192,192,58883,1,0,0:0:0:0:
192,192,58993,1,0,0:0:0:0:
320,192,58993,1,0,0:0:0:0:
448,192,59104,1,0,0:0:0:0:
64,192,59214,1,0,0:0:0:0:
320,192,59214,1,0,0:0:0:0:
64,192,59324,1,0,0:0:0:0:
448,192,59324,1,0,0:0:0:0:
192,192,59324,1,0,0:0:0:0:
64,192,59435,1,0,0:0:0:0:
192,192,59435,1,0,0:0:0:0:
448,192,59435,1,0,0:0:0:0:
320,192,59545,1,0,0:0:0:0:
448,192,59655,1,0,0:0:0:0:
320,192,59655,1,0,0:0:0:0:
64,192,59765,1,0,0:0:0:0:
192,192,59876,1,0,0:0:0:0:
448,192,59876,1,0,0:0:0:0:
192,192,59986,1,0,0:0:0:0:
64,192,59986,1,0,0:0:0:0:
320,192,59986,1,0,0:0:0:0:
320,192,60096,1,0,0:0:0:0:
192,192,60096,1,0,0:0:0:0:
64,192,60096,1,0,0:0:0:0:
448,192,60207,1,0,0:0:0:0:
192,192,60317,1,0,0:0:0:0:
320,192,60317,1,0,0:0:0:0:
192,192,60427,1,0,0:0:0:0:
320,192,60537,1,0,0:0:0:0:
64,192,60648,1,0,0:0:0:0:
448,192,60648,1,0,0:0:0:0:
320,192,60648,1,0,0:0:0:0:
192,192,60758,1,0,0:0:0:0:
192,192,60868,1,0,0:0:0:0:
64,192,60979,1,0,0:0:0:0:
448,192,60979,1,0,0:0:0:0:
192,192,60979,1,0,0:0:0:0:
320,192,61089,1,0,0:0:0:0:
320,192,61199,1,0,0:0:0:0:
64,192,61310,1,0,0:0:0:0:
448,192,61310,1,0,0:0:0:0:
320,192,61310,1,0,0:0:0:0:
192,192,61310,1,0,0:0:0:0:
320,192,61530,1,0,0:0:0:0:
192,192,61530,1,0,0:0:0:0:
192,192,61640,1,0,0:0:0:0:
320,192,61640,1,0,0:0:0:0:
320,192,61751,1,0,0:0:0:0:
192,192,61751,1,0,0:0:0:0:
320,192,61861,1,0,0:0:0:0:
192,192,61861,1,0,0:0:0:0:
448,192,61971,1,0,0:0:0:0:
320,192,61971,1,0,0:0:0:0:
192,192,62082,1,0,0:0:0:0:
64,192,62082,1,0,0:0:0:0:
320,192,62192,1,0,0:0:0:0:
192,192,62192,1,0,0:0:0:0:
64,192,62192,1,0,0:0:0:0:
192,192,62412,1,0,0:0:0:0:
448,192,62412,1,0,0:0:0:0:
64,192,62633,1,0,0:0:0:0:
192,192,62633,1,0,0:0:0:0:
320,192,62743,1,0,0:0:0:0:
192,192,62854,1,0,0:0:0:0:
448,192,62854,1,0,0:0:0:0:
64,192,62964,1,0,0:0:0:0:
320,192,63074,1,0,0:0:0:0:
448,192,63074,1,0,0:0:0:0:
192,192,63295,1,0,0:0:0:0:
320,192,63295,1,0,0:0:0:0:
448,192,63405,1,0,0:0:0:0:
192,192,63515,1,0,0:0:0:0:
64,192,63515,1,0,0:0:0:0:
64,192,63736,1,0,0:0:0:0:
320,192,63736,1,0,0:0:0:0:
320,192,63957,1,0,0:0:0:0:
448,192,63957,1,0,0:0:0:0:
192,192,64177,1,0,0:0:0:0:
64,192,64177,1,0,0:0:0:0:
320,192,64398,1,0,0:0:0:0:
448,192,64398,1,0,0:0:0:0:
192,192,64618,1,0,0:0:0:0:
448,192,64618,1,0,0:0:0:0:
320,192,64729,1,0,0:0:0:0:
192,192,64839,1,0,0:0:0:0:
64,192,64839,1,0,0:0:0:0:
192,192,65060,1,0,0:0:0:0:
448,192,65060,1,0,0:0:0:0:
64,192,65170,1,0,0:0:0:0:
320,192,65280,1,0,0:0:0:0:
448,192,65280,1,0,0:0:0:0:
192,192,65501,1,0,0:0:0:0:
64,192,65501,1,0,0:0:0:0:
64,192,65721,1,0,0:0:0:0:
320,192,65721,1,0,0:0:0:0:
320,192,65942,1,0,0:0:0:0:
448,192,65942,1,0,0:0:0:0:
192,192,66052,1,0,0:0:0:0:
448,192,66162,1,0,0:0:0:0:
192,192,66162,1,0,0:0:0:0:
320,192,66273,1,0,0:0:0:0:
320,192,66383,1,0,0:0:0:0:
64,192,66383,1,0,0:0:0:0:
64,192,66604,1,0,0:0:0:0:
192,192,66604,1,0,0:0:0:0:
192,192,66824,1,0,0:0:0:0:
448,192,66824,1,0,0:0:0:0:
320,192,66935,1,0,0:0:0:0:
64,192,67045,1,0,0:0:0:0:
448,192,67045,1,0,0:0:0:0:
192,192,67265,1,0,0:0:0:0:
64,192,67265,1,0,0:0:0:0:
192,192,67486,1,0,0:0:0:0:
448,192,67486,1,0,0:0:0:0:
320,192,67707,5,0,0:0:0:0:
448,192,67707,1,0,0:0:0:0:
448,192,67927,1,0,0:0:0:0:
64,192,67927,1,0,0:0:0:0:
192,192,68037,1,0,0:0:0:0:
320,192,68148,1,0,0:0:0:0:
448,192,68148,1,0,0:0:0:0:
64,192,68258,1,0,0:0:0:0:
192,192,68368,1,0,0:0:0:0:
448,192,68368,1,0,0:0:0:0:
192,192,68589,1,0,0:0:0:0:
64,192,68589,1,0,0:0:0:0:
192,192,68699,1,0,0:0:0:0:
64,192,68699,1,0,0:0:0:0:
320,192,68810,5,0,0:0:0:0:
192,192,68883,1,0,0:0:0:0:
64,192,68957,1,0,0:0:0:0:
320,192,69030,1,0,0:0:0:0:
448,192,69030,1,0,0:0:0:0:
192,192,69104,1,0,0:0:0:0:
64,192,69104,1,0,0:0:0:0:
320,192,69177,1,0,0:0:0:0:
448,192,69177,1,0,0:0:0:0:
192,192,69251,1,0,0:0:0:0:
64,192,69251,1,0,0:0:0:0:
448,192,69251,1,0,0:0:0:0:
320,192,69324,1,0,0:0:0:0:
192,192,69398,1,0,0:0:0:0:
448,192,69471,1,0,0:0:0:0:
320,192,69471,1,0,0:0:0:0:
192,192,69545,1,0,0:0:0:0:
64,192,69618,1,0,0:0:0:0:
448,192,69692,1,0,0:0:0:0:
320,192,69692,1,0,0:0:0:0:
192,192,69765,1,0,0:0:0:0:
320,192,69839,1,0,0:0:0:0:
64,192,69912,1,0,0:0:0:0:
448,192,69912,1,0,0:0:0:0:
192,192,69986,1,0,0:0:0:0:
320,192,70060,1,0,0:0:0:0:
448,192,70133,1,0,0:0:0:0:
192,192,70133,1,0,0:0:0:0:
64,192,70207,1,0,0:0:0:0:
320,192,70280,1,0,0:0:0:0:
192,192,70354,1,0,0:0:0:0:
64,192,70354,1,0,0:0:0:0:
320,192,70427,1,0,0:0:0:0:
192,192,70501,1,0,0:0:0:0:
64,192,70574,1,0,0:0:0:0:
448,192,70574,1,0,0:0:0:0:
192,192,70648,1,0,0:0:0:0:
320,192,70721,1,0,0:0:0:0:
448,192,70795,1,0,0:0:0:0:
192,192,70795,1,0,0:0:0:0:
320,192,70868,1,0,0:0:0:0:
448,192,70942,1,0,0:0:0:0:
64,192,71015,1,0,0:0:0:0:
192,192,71015,1,0,0:0:0:0:
320,192,71089,1,0,0:0:0:0:
192,192,71162,1,0,0:0:0:0:
64,192,71236,1,0,0:0:0:0:
448,192,71236,1,0,0:0:0:0:
320,192,71310,1,0,0:0:0:0:
192,192,71383,1,0,0:0:0:0:
320,192,71457,1,0,0:0:0:0:
64,192,71457,1,0,0:0:0:0:
448,192,71530,1,0,0:0:0:0:
192,192,71604,1,0,0:0:0:0:
320,192,71677,1,0,0:0:0:0:
448,192,71677,1,0,0:0:0:0:
64,192,71751,1,0,0:0:0:0:
192,192,71824,1,0,0:0:0:0:
448,192,71898,1,0,0:0:0:0:
320,192,71898,1,0,0:0:0:0:
192,192,71971,1,0,0:0:0:0:
64,192,72045,1,0,0:0:0:0:
448,192,72118,1,0,0:0:0:0:
320,192,72118,1,0,0:0:0:0:
192,192,72192,1,0,0:0:0:0:
320,192,72265,1,0,0:0:0:0:
64,192,72339,1,0,0:0:0:0:
192,192,72339,1,0,0:0:0:0:
320,192,72560,1,0,0:0:0:0:
448,192,72560,1,0,0:0:0:0:
320,192,72670,1,0,0:0:0:0:
448,192,72670,1,0,0:0:0:0:
192,192,72780,1,0,0:0:0:0:
64,192,72780,1,0,0:0:0:0:
320,192,72780,1,0,0:0:0:0:
448,192,72890,1,0,0:0:0:0:
320,192,73001,1,0,0:0:0:0:
192,192,73001,1,0,0:0:0:0:
320,192,73111,1,0,0:0:0:0:
448,192,73111,1,0,0:0:0:0:
64,192,73221,1,0,0:0:0:0:
192,192,73221,1,0,0:0:0:0:
320,192,73332,1,0,0:0:0:0:
64,192,73442,1,0,0:0:0:0:
448,192,73442,1,0,0:0:0:0:
192,192,73552,1,0,0:0:0:0:
320,192,73662,1,0,0:0:0:0:
448,192,73662,1,0,0:0:0:0:
192,192,73773,1,0,0:0:0:0:
320,192,73883,1,0,0:0:0:0:
64,192,73883,1,0,0:0:0:0:
448,192,73993,1,0,0:0:0:0:
448,192,74104,1,0,0:0:0:0:
320,192,74104,1,0,0:0:0:0:
192,192,74214,1,0,0:0:0:0:
64,192,74324,1,0,0:0:0:0:
320,192,74324,1,0,0:0:0:0:
320,192,74435,1,0,0:0:0:0:
64,192,74435,1,0,0:0:0:0:
64,192,74545,1,0,0:0:0:0:
192,192,74545,1,0,0:0:0:0:
448,192,74545,1,0,0:0:0:0:
320,192,74655,1,0,0:0:0:0:
64,192,74765,1,0,0:0:0:0:
192,192,74765,1,0,0:0:0:0:
448,192,74876,1,0,0:0:0:0:
320,192,74986,1,0,0:0:0:0:
64,192,74986,1,0,0:0:0:0:
192,192,75096,1,0,0:0:0:0:
448,192,75207,1,0,0:0:0:0:
64,192,75207,1,0,0:0:0:0:
320,192,75317,1,0,0:0:0:0:
64,192,75317,1,0,0:0:0:0:
192,192,75427,1,0,0:0:0:0:
448,192,75427,1,0,0:0:0:0:
320,192,75427,1,0,0:0:0:0:
64,192,75537,1,0,0:0:0:0:
192,192,75648,1,0,0:0:0:0:
320,192,75648,1,0,0:0:0:0:
320,192,75758,1,0,0:0:0:0:
448,192,75758,1,0,0:0:0:0:
64,192,75868,1,0,0:0:0:0:
192,192,75979,1,0,0:0:0:0:
320,192,75979,1,0,0:0:0:0:
192,192,76089,1,0,0:0:0:0:
448,192,76089,1,0,0:0:0:0:
320,192,76199,1,0,0:0:0:0:
64,192,76199,1,0,0:0:0:0:
64,192,76310,1,0,0:0:0:0:
192,192,76310,1,0,0:0:0:0:
448,192,76310,1,0,0:0:0:0:
320,192,76383,1,0,0:0:0:0:
448,192,76457,1,0,0:0:0:0:
192,192,76530,1,0,0:0:0:0:
64,192,76604,1,0,0:0:0:0:
448,192,76640,1,0,0:0:0:0:
320,192,76640,1,0,0:0:0:0:
192,192,76677,1,0,0:0:0:0:
320,192,76751,1,0,0:0:0:0:
448,192,76824,1,0,0:0:0:0:
192,192,76898,1,0,0:0:0:0:
320,192,76971,1,0,0:0:0:0:
448,192,76971,1,0,0:0:0:0:
64,192,76971,1,0,0:0:0:0:
192,192,77045,1,0,0:0:0:0:
320,192,77118,1,0,0:0:0:0:
448,192,77192,128,0,77412:0:0:0:0:
64,192,77192,1,0,0:0:0:0:
192,192,77192,1,0,0:0:0:0:
192,192,77412,1,0,0:0:0:0:
320,192,77486,1,0,0:0:0:0:
192,192,77560,1,0,0:0:0:0:
64,192,77633,1,0,0:0:0:0:
448,192,77707,1,0,0:0:0:0:
64,192,77780,1,0,0:0:0:0:
448,192,77854,1,0,0:0:0:0:
64,192,77927,1,0,0:0:0:0:
448,192,78001,1,0,0:0:0:0:
64,192,78074,1,0,0:0:0:0:
320,192,78074,1,0,0:0:0:0:
192,192,78074,1,0,0:0:0:0:
192,192,78295,1,0,0:0:0:0:
192,192,78515,1,0,0:0:0:0:
64,192,78515,1,0,0:0:0:0:
320,192,78626,1,0,0:0:0:0:
448,192,78736,1,0,0:0:0:0:
64,192,78736,1,0,0:0:0:0:
192,192,78846,1,0,0:0:0:0:
448,192,78846,1,0,0:0:0:0:
448,192,79067,1,0,0:0:0:0:
320,192,79067,1,0,0:0:0:0:
192,192,79177,1,0,0:0:0:0:
64,192,79177,1,0,0:0:0:0:
64,192,79287,1,0,0:0:0:0:
320,192,79287,1,0,0:0:0:0:
64,192,79508,1,0,0:0:0:0:
192,192,79508,1,0,0:0:0:0:
448,192,79618,1,0,0:0:0:0:
192,192,79618,1,0,0:0:0:0:
320,192,79729,1,0,0:0:0:0:
448,192,79839,1,0,0:0:0:0:
192,192,79839,1,0,0:0:0:0:
64,192,79839,1,0,0:0:0:0:
320,192,79949,1,0,0:0:0:0:
192,192,80060,1,0,0:0:0:0:
192,192,80170,1,0,0:0:0:0:
448,192,80170,1,0,0:0:0:0:
448,192,80390,1,0,0:0:0:0:
64,192,80390,1,0,0:0:0:0:
448,192,80501,1,0,0:0:0:0:
320,192,80611,1,0,0:0:0:0:
192,192,80611,1,0,0:0:0:0:
192,192,80721,1,0,0:0:0:0:
64,192,80721,1,0,0:0:0:0:
448,192,80721,1,0,0:0:0:0:
192,192,80942,1,0,0:0:0:0:
64,192,81052,1,0,0:0:0:0:
320,192,81052,1,0,0:0:0:0:
448,192,81162,1,0,0:0:0:0:
320,192,81162,1,0,0:0:0:0:
192,192,81273,1,0,0:0:0:0:
64,192,81273,1,0,0:0:0:0:
320,192,81383,1,0,0:0:0:0:
64,192,81383,1,0,0:0:0:0:
448,192,81383,1,0,0:0:0:0:
192,192,81493,1,0,0:0:0:0:
320,192,81604,1,0,0:0:0:0:
320,192,81714,1,0,0:0:0:0:
64,192,81714,1,0,0:0:0:0:
192,192,81935,1,0,0:0:0:0:
448,192,81935,1,0,0:0:0:0:
192,192,82045,1,0,0:0:0:0:
320,192,82155,1,0,0:0:0:0:
64,192,82155,1,0,0:0:0:0:
192,192,82265,1,0,0:0:0:0:
320,192,82265,1,0,0:0:0:0:
448,192,82265,1,0,0:0:0:0:
64,192,82486,1,0,0:0:0:0:
64,192,82596,1,0,0:0:0:0:
320,192,82596,1,0,0:0:0:0:
192,192,82817,1,0,0:0:0:0:
64,192,82817,1,0,0:0:0:0:
192,192,82927,1,0,0:0:0:0:
320,192,83037,1,0,0:0:0:0:
64,192,83037,1,0,0:0:0:0:
192,192,83148,1,0,0:0:0:0:
320,192,83148,1,0,0:0:0:0:
448,192,83148,1,0,0:0:0:0:
64,192,83258,1,0,0:0:0:0:
192,192,83368,1,0,0:0:0:0:
448,192,83479,1,0,0:0:0:0:
192,192,83479,1,0,0:0:0:0:
320,192,83589,1,0,0:0:0:0:
320,192,83699,1,0,0:0:0:0:
448,192,83699,1,0,0:0:0:0:
64,192,83810,1,0,0:0:0:0:
64,192,83920,1,0,0:0:0:0:
320,192,83920,1,0,0:0:0:0:
192,192,84030,1,0,0:0:0:0:
448,192,84030,1,0,0:0:0:0:
320,192,84140,1,0,0:0:0:0:
192,192,84251,1,0,0:0:0:0:
64,192,84251,1,0,0:0:0:0:
448,192,84251,1,0,0:0:0:0:
320,192,84251,1,0,0:0:0:0:
192,192,84471,1,0,0:0:0:0:
448,192,84471,1,0,0:0:0:0:
64,192,84692,1,0,0:0:0:0:
448,192,84692,1,0,0:0:0:0:
192,192,84802,1,0,0:0:0:0:
320,192,84802,1,0,0:0:0:0:
448,192,84912,1,0,0:0:0:0:
64,192,84912,1,0,0:0:0:0:
448,192,85023,1,0,0:0:0:0:
192,192,85023,1,0,0:0:0:0:
320,192,85243,1,0,0:0:0:0:
448,192,85243,1,0,0:0:0:0:
64,192,85354,1,0,0:0:0:0:
320,192,85354,1,0,0:0:0:0:
192,192,85464,1,0,0:0:0:0:
64,192,85464,1,0,0:0:0:0:
64,192,85685,1,0,0:0:0:0:
192,192,85685,1,0,0:0:0:0:
320,192,85795,1,0,0:0:0:0:
448,192,85795,1,0,0:0:0:0:
192,192,85905,1,0,0:0:0:0:
64,192,85905,1,0,0:0:0:0:
320,192,86015,1,0,0:0:0:0:
64,192,86015,1,0,0:0:0:0:
448,192,86015,1,0,0:0:0:0:
192,192,86126,1,0,0:0:0:0:
320,192,86236,1,0,0:0:0:0:
448,192,86236,1,0,0:0:0:0:
192,192,86346,1,0,0:0:0:0:
448,192,86346,1,0,0:0:0:0:
64,192,86567,1,0,0:0:0:0:
448,192,86567,1,0,0:0:0:0:
64,192,86677,1,0,0:0:0:0:
320,192,86787,1,0,0:0:0:0:
192,192,86787,1,0,0:0:0:0:
64,192,86898,1,0,0:0:0:0:
448,192,86898,1,0,0:0:0:0:
320,192,86898,1,0,0:0:0:0:
192,192,87118,1,0,0:0:0:0:
192,192,87229,1,0,0:0:0:0:
64,192,87229,1,0,0:0:0:0:
448,192,87339,1,0,0:0:0:0:
320,192,87339,1,0,0:0:0:0:
320,192,87449,1,0,0:0:0:0:
192,192,87449,1,0,0:0:0:0:
64,192,87560,1,0,0:0:0:0:
192,192,87560,1,0,0:0:0:0:
448,192,87560,1,0,0:0:0:0:
320,192,87670,1,0,0:0:0:0:
192,192,87780,1,0,0:0:0:0:
64,192,87780,1,0,0:0:0:0:
64,192,87890,1,0,0:0:0:0:
448,192,87890,1,0,0:0:0:0:
320,192,88111,1,0,0:0:0:0:
192,192,88111,1,0,0:0:0:0:
320,192,88221,1,0,0:0:0:0:
192,192,88332,1,0,0:0:0:0:
64,192,88332,1,0,0:0:0:0:
64,192,88442,5,0,0:0:0:0:
320,192,88442,1,0,0:0:0:0:
448,192,88442,1,0,0:0:0:0:
192,192,88552,5,0,0:0:0:0:
320,192,88552,1,0,0:0:0:0:
64,192,88662,1,0,0:0:0:0:
320,192,88773,1,0,0:0:0:0:
448,192,88773,1,0,0:0:0:0:
448,192,88993,1,0,0:0:0:0:
192,192,88993,1,0,0:0:0:0:
320,192,89104,1,0,0:0:0:0:
192,192,89214,1,0,0:0:0:0:
320,192,89324,5,0,0:0:0:0:
448,192,89324,1,0,0:0:0:0:
64,192,89324,1,0,0:0:0:0:
192,192,89435,1,0,0:0:0:0:
320,192,89545,1,0,0:0:0:0:
64,192,89655,1,0,0:0:0:0:
192,192,89655,1,0,0:0:0:0:
448,192,89655,1,0,0:0:0:0:
320,192,89765,1,0,0:0:0:0:
64,192,89876,1,0,0:0:0:0:
448,192,89876,1,0,0:0:0:0:
192,192,89986,1,0,0:0:0:0:
448,192,90096,1,0,0:0:0:0:
320,192,90096,1,0,0:0:0:0:
192,192,90207,1,0,0:0:0:0:
64,192,90317,1,0,0:0:0:0:
320,192,90317,1,0,0:0:0:0:
192,192,90427,1,0,0:0:0:0:
320,192,90427,1,0,0:0:0:0:
448,192,90427,1,0,0:0:0:0:
320,192,90648,1,0,0:0:0:0:
64,192,90758,1,0,0:0:0:0:
192,192,90758,1,0,0:0:0:0:
448,192,90758,1,0,0:0:0:0:
320,192,90868,1,0,0:0:0:0:
64,192,90979,1,0,0:0:0:0:
448,192,90979,1,0,0:0:0:0:
192,192,91089,1,0,0:0:0:0:
448,192,91199,1,0,0:0:0:0:
320,192,91199,1,0,0:0:0:0:
192,192,91310,1,0,0:0:0:0:
64,192,91420,1,0,0:0:0:0:
320,192,91420,1,0,0:0:0:0:
192,192,91530,1,0,0:0:0:0:
320,192,91530,1,0,0:0:0:0:
448,192,91530,1,0,0:0:0:0:
320,192,91751,1,0,0:0:0:0:
64,192,91861,1,0,0:0:0:0:
192,192,91861,1,0,0:0:0:0:
448,192,91861,1,0,0:0:0:0:
320,192,91971,1,0,0:0:0:0:
64,192,92082,1,0,0:0:0:0:
448,192,92082,1,0,0:0:0:0:
192,192,92192,1,0,0:0:0:0:
448,192,92302,1,0,0:0:0:0:
320,192,92302,1,0,0:0:0:0:
192,192,92412,1,0,0:0:0:0:
64,192,92523,1,0,0:0:0:0:
320,192,92523,1,0,0:0:0:0:
192,192,92633,1,0,0:0:0:0:
320,192,92633,1,0,0:0:0:0:
448,192,92633,1,0,0:0:0:0:
320,192,92854,1,0,0:0:0:0:
448,192,92964,1,0,0:0:0:0:
192,192,92964,1,0,0:0:0:0:
64,192,92964,1,0,0:0:0:0:
320,192,93074,1,0,0:0:0:0:
448,192,93185,1,0,0:0:0:0:
64,192,93185,1,0,0:0:0:0:
192,192,93295,1,0,0:0:0:0:
320,192,93405,1,0,0:0:0:0:
448,192,93405,1,0,0:0:0:0:
192,192,93515,1,0,0:0:0:0:
320,192,93626,5,0,0:0:0:0:
64,192,93626,1,0,0:0:0:0:
448,192,93736,1,0,0:0:0:0:
192,192,93736,1,0,0:0:0:0:
64,192,93736,1,0,0:0:0:0:
320,192,93846,1,0,0:0:0:0:
192,192,93957,1,0,0:0:0:0:
192,192,94067,1,0,0:0:0:0:
64,192,94067,1,0,0:0:0:0:
448,192,94067,1,0,0:0:0:0:
320,192,94177,1,0,0:0:0:0:
192,192,94287,1,0,0:0:0:0:
64,192,94398,1,0,0:0:0:0:
192,192,94398,1,0,0:0:0:0:
448,192,94398,1,0,0:0:0:0:
320,192,94508,1,0,0:0:0:0:
192,192,94618,1,0,0:0:0:0:
448,192,94729,128,0,94949:0:0:0:0:
64,192,94729,128,0,94949:0:0:0:0:
192,192,94729,128,0,94949:0:0:0:0:
