osu file format v14

[General]
AudioFilename: hamsin.mp3
AudioLeadIn: 0
PreviewTime: 6445
Countdown: 0
SampleSet: Soft
StackLeniency: 0.7
Mode: 3
LetterboxInBreaks: 0
SpecialStyle: 0
WidescreenStoryboard: 0

[Editor]
Bookmarks: 6445,25645,32045,44845,57645,70445,76845,83245,96045,108845,121645,134445
DistanceSpacing: 1.2
BeatDivisor: 4
GridSize: 8
TimelineZoom: 2.2

[Metadata]
Title:Wh1teh Pack #1
TitleUnicode:Wh1teh Pack #1
Artist:Various Artists
ArtistUnicode:Various Artists
Creator:Wh1teh
Version:Makou - Hamsin
Source:
Tags:Jacks Jumpstream Technical Speed Fennec Fallacy osu!mania 4K World Cup 2018 Quarterfinals MWC18 Soreption Deterioration of Minds DJ SHARPNEL Jea SHARPNELSOUND Strangeprogram Dougal & Gammer Guitar Hero goreshit MATZcore Katanagatari Taku Iwasaki Douse Konna no ga Suki desho? mommy AIRSHAVER Niko Initial D Night of Fire ゆうゆ Yuuyu Scrap Syndrome HALLEY LABS JACKALQ​~​1​.​EXE infected by ROTTEEN​.​DM Infinite Memory Overwrite hapi Hatsune Miku's Head Exercises Atama no Taisou DM Ashura memeMAX deltaMAX DanceDanceRevolution DDR C-CLAYS VaizravaNa 虎柄の毘沙門天 東方星蓮船 ~ Undefined Fantastic Object Shou Toramaru 月時計 ~ ルナ・ダイアル 東方紅魔郷 ~ the Embodiment of Scarlet Devil Sakuya Izayoi Touhou Project ATC All Around The World
BeatmapID:937994
BeatmapSetID:435387

[Difficulty]
HPDrainRate:8.5
CircleSize:4
OverallDifficulty:8.5
ApproachRate:5
SliderMultiplier:1.4
SliderTickRate:1

[Events]
//Background and Video events
0,0,"BGhamsin.jpg",0,0
//Break Periods
//Storyboard Layer 0 (Background)
//Storyboard Layer 1 (Fail)
//Storyboard Layer 2 (Pass)
//Storyboard Layer 3 (Foreground)
//Storyboard Layer 4 (Overlay)
//Storyboard Sound Samples

[TimingPoints]
45,400,4,2,0,42,1,0

[HitObjects]
448,192,45,5,0,0:0:0:0:
320,192,145,1,0,0:0:0:0:
192,192,245,1,0,0:0:0:0:
448,192,345,1,0,0:0:0:0:
320,192,445,1,0,0:0:0:0:
64,192,545,1,0,0:0:0:0:
192,192,645,1,0,0:0:0:0:
320,192,745,1,0,0:0:0:0:
64,192,845,1,0,0:0:0:0:
192,192,945,1,0,0:0:0:0:
448,192,1045,1,0,0:0:0:0:
192,192,1145,1,0,0:0:0:0:
320,192,1245,1,0,0:0:0:0:
64,192,1345,1,0,0:0:0:0:
320,192,1445,1,0,0:0:0:0:
448,192,1545,1,0,0:0:0:0:
320,192,1645,1,0,0:0:0:0:
192,192,1745,1,0,0:0:0:0:
320,192,1845,1,0,0:0:0:0:
64,192,1945,1,0,0:0:0:0:
192,192,2045,1,0,0:0:0:0:
64,192,2145,1,0,0:0:0:0:
448,192,2245,128,0,2345:0:0:0:0:
192,192,2345,1,0,0:0:0:0:
320,192,2445,1,0,0:0:0:0:
192,192,2545,1,0,0:0:0:0:
64,192,2645,1,0,0:0:0:0:
320,192,2745,1,0,0:0:0:0:
192,192,2845,1,0,0:0:0:0:
448,192,2945,1,0,0:0:0:0:
320,192,3045,1,0,0:0:0:0:
192,192,3145,1,0,0:0:0:0:
320,192,3245,1,0,0:0:0:0:
64,192,3345,1,0,0:0:0:0:
192,192,3445,1,0,0:0:0:0:
320,192,3545,1,0,0:0:0:0:
64,192,3645,1,0,0:0:0:0:
192,192,3745,1,0,0:0:0:0:
320,192,3845,1,0,0:0:0:0:
64,192,3945,1,0,0:0:0:0:
448,192,4045,1,0,0:0:0:0:
320,192,4145,1,0,0:0:0:0:
192,192,4245,1,0,0:0:0:0:
320,192,4345,1,0,0:0:0:0:
192,192,4445,1,0,0:0:0:0:
64,192,4545,1,0,0:0:0:0:
320,192,4645,1,0,0:0:0:0:
192,192,4745,1,0,0:0:0:0:
448,192,4795,5,0,0:0:0:0:
320,192,4845,1,0,0:0:0:0:
64,192,4895,1,0,0:0:0:0:
192,192,4945,1,0,0:0:0:0:
320,192,4995,1,0,0:0:0:0:
64,192,5045,1,0,0:0:0:0:
192,192,5111,1,0,0:0:0:0:
448,192,5195,1,0,0:0:0:0:
320,192,5245,1,0,0:0:0:0:
320,192,5345,1,0,0:0:0:0:
192,192,5445,1,0,0:0:0:0:
64,192,5545,1,0,0:0:0:0:
192,192,5645,1,0,0:0:0:0:
320,192,5645,1,0,0:0:0:0:
320,192,5745,1,0,0:0:0:0:
192,192,5745,1,0,0:0:0:0:
448,192,5845,1,0,0:0:0:0:
448,192,5945,1,0,0:0:0:0:
448,192,6045,1,0,0:0:0:0:
448,192,6145,1,0,0:0:0:0:
192,192,6245,1,0,0:0:0:0:
192,192,6345,1,0,0:0:0:0:
64,192,6445,1,0,0:0:0:0:
448,192,6445,1,0,0:0:0:0:
320,192,6445,1,0,0:0:0:0:
192,192,6445,1,0,0:0:0:0:
320,192,6545,1,0,0:0:0:0:
192,192,6645,1,0,0:0:0:0:
192,192,6745,1,0,0:0:0:0:
64,192,6845,1,0,0:0:0:0:
320,192,6845,1,0,0:0:0:0:
448,192,6845,1,0,0:0:0:0:
320,192,6945,1,0,0:0:0:0:
192,192,7045,1,0,0:0:0:0:
320,192,7145,1,0,0:0:0:0:
448,192,7145,1,0,0:0:0:0:
64,192,7245,1,0,0:0:0:0:
192,192,7245,1,0,0:0:0:0:
192,192,7345,1,0,0:0:0:0:
448,192,7445,1,0,0:0:0:0:
64,192,7545,1,0,0:0:0:0:
320,192,7645,1,0,0:0:0:0:
448,192,7645,1,0,0:0:0:0:
192,192,7645,1,0,0:0:0:0:
320,192,7745,1,0,0:0:0:0:
448,192,7845,1,0,0:0:0:0:
192,192,7845,1,0,0:0:0:0:
64,192,7945,1,0,0:0:0:0:
320,192,8045,1,0,0:0:0:0:
448,192,8045,1,0,0:0:0:0:
192,192,8145,1,0,0:0:0:0:
64,192,8245,1,0,0:0:0:0:
192,192,8295,1,0,0:0:0:0:
320,192,8345,1,0,0:0:0:0:
448,192,8395,1,0,0:0:0:0:
64,192,8445,1,0,0:0:0:0:
192,192,8445,1,0,0:0:0:0:
448,192,8495,1,0,0:0:0:0:
320,192,8545,1,0,0:0:0:0:
448,192,8645,1,0,0:0:0:0:
448,192,8745,1,0,0:0:0:0:
448,192,8845,1,0,0:0:0:0:
64,192,8845,1,0,0:0:0:0:
192,192,8945,1,0,0:0:0:0:
320,192,9045,1,0,0:0:0:0:
448,192,9045,1,0,0:0:0:0:
64,192,9045,1,0,0:0:0:0:
192,192,9145,1,0,0:0:0:0:
64,192,9145,1,0,0:0:0:0:
320,192,9245,1,0,0:0:0:0:
448,192,9245,1,0,0:0:0:0:
64,192,9345,1,0,0:0:0:0:
192,192,9445,1,0,0:0:0:0:
448,192,9445,1,0,0:0:0:0:
320,192,9445,1,0,0:0:0:0:
448,192,9545,1,0,0:0:0:0:
320,192,9545,1,0,0:0:0:0:
192,192,9645,1,0,0:0:0:0:
64,192,9645,1,0,0:0:0:0:
64,192,9745,1,0,0:0:0:0:
64,192,9845,1,0,0:0:0:0:
64,192,9945,1,0,0:0:0:0:
192,192,10045,1,0,0:0:0:0:
320,192,10045,1,0,0:0:0:0:
448,192,10045,1,0,0:0:0:0:
320,192,10145,1,0,0:0:0:0:
192,192,10245,1,0,0:0:0:0:
64,192,10245,1,0,0:0:0:0:
320,192,10345,1,0,0:0:0:0:
448,192,10445,1,0,0:0:0:0:
320,192,10495,1,0,0:0:0:0:
192,192,10545,1,0,0:0:0:0:
64,192,10595,1,0,0:0:0:0:
320,192,10645,1,0,0:0:0:0:
192,192,10695,1,0,0:0:0:0:
64,192,10745,1,0,0:0:0:0:
320,192,10845,1,0,0:0:0:0:
448,192,10845,1,0,0:0:0:0:
64,192,10845,1,0,0:0:0:0:
448,192,10945,1,0,0:0:0:0:
448,192,11045,1,0,0:0:0:0:
192,192,11145,1,0,0:0:0:0:
64,192,11145,1,0,0:0:0:0:
320,192,11245,1,0,0:0:0:0:
448,192,11245,1,0,0:0:0:0:
320,192,11345,1,0,0:0:0:0:
64,192,11445,1,0,0:0:0:0:
64,192,11545,1,0,0:0:0:0:
192,192,11545,1,0,0:0:0:0:
448,192,11645,1,0,0:0:0:0:
320,192,11645,1,0,0:0:0:0:
64,192,11695,1,0,0:0:0:0:
192,192,11745,1,0,0:0:0:0:
320,192,11795,1,0,0:0:0:0:
448,192,11845,1,0,0:0:0:0:
192,192,11945,1,0,0:0:0:0:
64,192,11945,1,0,0:0:0:0:
448,192,12045,1,0,0:0:0:0:
320,192,12045,1,0,0:0:0:0:
64,192,12095,1,0,0:0:0:0:
192,192,12145,1,0,0:0:0:0:
320,192,12245,1,0,0:0:0:0:
448,192,12245,1,0,0:0:0:0:
192,192,12245,1,0,0:0:0:0:
64,192,12345,1,0,0:0:0:0:
448,192,12445,1,0,0:0:0:0:
320,192,12445,1,0,0:0:0:0:
64,192,12495,1,0,0:0:0:0:
320,192,12545,1,0,0:0:0:0:
64,192,12595,1,0,0:0:0:0:
320,192,12645,1,0,0:0:0:0:
448,192,12645,1,0,0:0:0:0:
448,192,12745,128,0,12845:0:0:0:0:
64,192,12845,1,0,0:0:0:0:
192,192,12895,1,0,0:0:0:0:
320,192,12945,1,0,0:0:0:0:
448,192,12995,1,0,0:0:0:0:
64,192,13045,1,0,0:0:0:0:
192,192,13145,1,0,0:0:0:0:
64,192,13245,1,0,0:0:0:0:
448,192,13245,1,0,0:0:0:0:
320,192,13245,1,0,0:0:0:0:
192,192,13295,1,0,0:0:0:0:
320,192,13345,1,0,0:0:0:0:
192,192,13395,1,0,0:0:0:0:
448,192,13445,1,0,0:0:0:0:
320,192,13495,1,0,0:0:0:0:
64,192,13545,1,0,0:0:0:0:
192,192,13595,1,0,0:0:0:0:
320,192,13645,1,0,0:0:0:0:
448,192,13645,1,0,0:0:0:0:
64,192,13745,1,0,0:0:0:0:
64,192,13845,1,0,0:0:0:0:
192,192,13945,1,0,0:0:0:0:
320,192,14045,1,0,0:0:0:0:
448,192,14045,1,0,0:0:0:0:
64,192,14045,1,0,0:0:0:0:
192,192,14145,1,0,0:0:0:0:
320,192,14245,1,0,0:0:0:0:
64,192,14345,1,0,0:0:0:0:
192,192,14445,1,0,0:0:0:0:
448,192,14445,1,0,0:0:0:0:
320,192,14545,1,0,0:0:0:0:
192,192,14645,1,0,0:0:0:0:
64,192,14745,1,0,0:0:0:0:
320,192,14845,1,0,0:0:0:0:
448,192,14845,1,0,0:0:0:0:
192,192,14845,1,0,0:0:0:0:
192,192,14945,1,0,0:0:0:0:
448,192,15045,128,0,15145:0:0:0:0:
192,192,15145,1,0,0:0:0:0:
192,192,15245,1,0,0:0:0:0:
64,192,15245,1,0,0:0:0:0:
320,192,15345,1,0,0:0:0:0:
448,192,15345,1,0,0:0:0:0:
320,192,15445,1,0,0:0:0:0:
192,192,15445,1,0,0:0:0:0:
64,192,15445,1,0,0:0:0:0:
192,192,15545,1,0,0:0:0:0:
192,192,15645,1,0,0:0:0:0:
448,192,15645,1,0,0:0:0:0:
320,192,15745,1,0,0:0:0:0:
64,192,15745,1,0,0:0:0:0:
192,192,15845,1,0,0:0:0:0:
320,192,15845,1,0,0:0:0:0:
448,192,15845,1,0,0:0:0:0:
64,192,15945,1,0,0:0:0:0:
192,192,15995,1,0,0:0:0:0:
320,192,16045,1,0,0:0:0:0:
448,192,16045,1,0,0:0:0:0:
448,192,16145,1,0,0:0:0:0:
192,192,16245,1,0,0:0:0:0:
320,192,16245,1,0,0:0:0:0:
64,192,16345,1,0,0:0:0:0:
320,192,16370,1,0,0:0:0:0:
64,192,16445,1,0,0:0:0:0:
448,192,16445,1,0,0:0:0:0:
320,192,16470,1,0,0:0:0:0:
192,192,16545,1,0,0:0:0:0:
448,192,16545,1,0,0:0:0:0:
64,192,16645,1,0,0:0:0:0:
320,192,16645,1,0,0:0:0:0:
192,192,16745,1,0,0:0:0:0:
448,192,16845,1,0,0:0:0:0:
320,192,16845,1,0,0:0:0:0:
64,192,16945,1,0,0:0:0:0:
448,192,17045,1,0,0:0:0:0:
320,192,17045,1,0,0:0:0:0:
64,192,17145,1,0,0:0:0:0:
320,192,17245,1,0,0:0:0:0:
192,192,17245,1,0,0:0:0:0:
448,192,17245,1,0,0:0:0:0:
64,192,17345,1,0,0:0:0:0:
64,192,17445,1,0,0:0:0:0:
320,192,17545,1,0,0:0:0:0:
448,192,17545,1,0,0:0:0:0:
192,192,17645,1,0,0:0:0:0:
448,192,17645,1,0,0:0:0:0:
64,192,17745,128,0,17845:0:0:0:0:
192,192,17845,128,0,17945:0:0:0:0:
320,192,17945,128,0,18045:0:0:0:0:
448,192,18045,128,0,18145:0:0:0:0:
64,192,18045,1,0,0:0:0:0:
192,192,18045,1,0,0:0:0:0:
64,192,18145,1,0,0:0:0:0:
64,192,18245,1,0,0:0:0:0:
320,192,18345,1,0,0:0:0:0:
448,192,18345,1,0,0:0:0:0:
192,192,18345,1,0,0:0:0:0:
64,192,18445,1,0,0:0:0:0:
320,192,18445,1,0,0:0:0:0:
192,192,18545,1,0,0:0:0:0:
320,192,18645,1,0,0:0:0:0:
448,192,18645,1,0,0:0:0:0:
192,192,18645,1,0,0:0:0:0:
320,192,18745,1,0,0:0:0:0:
192,192,18845,5,0,0:0:0:0:
64,192,18845,1,0,0:0:0:0:
448,192,18895,1,0,0:0:0:0:
192,192,18945,1,0,0:0:0:0:
448,192,18995,1,0,0:0:0:0:
64,192,19045,1,0,0:0:0:0:
192,192,19045,1,0,0:0:0:0:
64,192,19145,1,0,0:0:0:0:
448,192,19245,1,0,0:0:0:0:
64,192,19245,1,0,0:0:0:0:
320,192,19295,1,0,0:0:0:0:
192,192,19345,1,0,0:0:0:0:
64,192,19395,1,0,0:0:0:0:
448,192,19445,1,0,0:0:0:0:
320,192,19495,1,0,0:0:0:0:
192,192,19545,1,0,0:0:0:0:
192,192,19645,1,0,0:0:0:0:
320,192,19645,1,0,0:0:0:0:
448,192,19645,1,0,0:0:0:0:
320,192,19745,1,0,0:0:0:0:
64,192,19845,1,0,0:0:0:0:
448,192,19945,1,0,0:0:0:0:
320,192,19945,1,0,0:0:0:0:
448,192,20045,1,0,0:0:0:0:
192,192,20045,1,0,0:0:0:0:
320,192,20145,1,0,0:0:0:0:
192,192,20245,1,0,0:0:0:0:
64,192,20345,1,0,0:0:0:0:
320,192,20445,1,0,0:0:0:0:
448,192,20445,1,0,0:0:0:0:
192,192,20445,1,0,0:0:0:0:
320,192,20545,1,0,0:0:0:0:
192,192,20645,1,0,0:0:0:0:
64,192,20645,1,0,0:0:0:0:
192,192,20745,1,0,0:0:0:0:
320,192,20845,1,0,0:0:0:0:
448,192,20845,1,0,0:0:0:0:
192,192,20945,1,0,0:0:0:0:
64,192,21045,1,0,0:0:0:0:
192,192,21095,1,0,0:0:0:0:
320,192,21145,1,0,0:0:0:0:
448,192,21195,1,0,0:0:0:0:
64,192,21245,1,0,0:0:0:0:
192,192,21245,1,0,0:0:0:0:
320,192,21245,1,0,0:0:0:0:
192,192,21345,1,0,0:0:0:0:
320,192,21445,1,0,0:0:0:0:
320,192,21545,1,0,0:0:0:0:
320,192,21645,1,0,0:0:0:0:
448,192,21645,1,0,0:0:0:0:
64,192,21745,1,0,0:0:0:0:
64,192,21845,1,0,0:0:0:0:
192,192,21845,1,0,0:0:0:0:
320,192,21845,1,0,0:0:0:0:
192,192,21945,1,0,0:0:0:0:
320,192,21945,1,0,0:0:0:0:
448,192,22045,1,0,0:0:0:0:
320,192,22045,1,0,0:0:0:0:
448,192,22145,1,0,0:0:0:0:
320,192,22245,1,0,0:0:0:0:
192,192,22245,1,0,0:0:0:0:
64,192,22245,1,0,0:0:0:0:
192,192,22345,1,0,0:0:0:0:
64,192,22345,1,0,0:0:0:0:
320,192,22445,1,0,0:0:0:0:
448,192,22445,1,0,0:0:0:0:
448,192,22545,1,0,0:0:0:0:
192,192,22645,1,0,0:0:0:0:
192,192,22745,1,0,0:0:0:0:
320,192,22845,1,0,0:0:0:0:
448,192,22845,1,0,0:0:0:0:
64,192,22845,1,0,0:0:0:0:
448,192,22945,1,0,0:0:0:0:
192,192,23045,1,0,0:0:0:0:
320,192,23045,1,0,0:0:0:0:
320,192,23145,1,0,0:0:0:0:
64,192,23245,1,0,0:0:0:0:
448,192,23245,1,0,0:0:0:0:
192,192,23295,5,0,0:0:0:0:
320,192,23345,1,0,0:0:0:0:
64,192,23395,1,0,0:0:0:0:
192,192,23445,1,0,0:0:0:0:
448,192,23495,1,0,0:0:0:0:
320,192,23545,1,0,0:0:0:0:
192,192,23645,1,0,0:0:0:0:
64,192,23645,1,0,0:0:0:0:
320,192,23645,1,0,0:0:0:0:
64,192,23745,1,0,0:0:0:0:
320,192,23845,1,0,0:0:0:0:
192,192,23945,1,0,0:0:0:0:
64,192,24045,1,0,0:0:0:0:
448,192,24045,1,0,0:0:0:0:
320,192,24070,1,0,0:0:0:0:
192,192,24070,1,0,0:0:0:0:
448,192,24245,1,0,0:0:0:0:
64,192,24245,1,0,0:0:0:0:
320,192,24270,1,0,0:0:0:0:
192,192,24270,1,0,0:0:0:0:
448,192,24445,5,0,0:0:0:0:
320,192,24445,1,0,0:0:0:0:
192,192,24511,1,0,0:0:0:0:
64,192,24511,1,0,0:0:0:0:
320,192,24578,1,0,0:0:0:0:
448,192,24578,1,0,0:0:0:0:
192,192,24645,1,0,0:0:0:0:
64,192,24645,1,0,0:0:0:0:
320,192,24711,1,0,0:0:0:0:
448,192,24711,1,0,0:0:0:0:
192,192,24778,1,0,0:0:0:0:
64,192,24778,1,0,0:0:0:0:
448,192,24845,1,0,0:0:0:0:
320,192,24911,1,0,0:0:0:0:
192,192,24978,1,0,0:0:0:0:
320,192,25045,1,0,0:0:0:0:
192,192,25111,1,0,0:0:0:0:
320,192,25178,1,0,0:0:0:0:
448,192,25245,1,0,0:0:0:0:
320,192,25295,1,0,0:0:0:0:
64,192,25345,1,0,0:0:0:0:
192,192,25378,1,0,0:0:0:0:
448,192,25411,1,0,0:0:0:0:
320,192,25445,1,0,0:0:0:0:
192,192,25478,1,0,0:0:0:0:
64,192,25511,1,0,0:0:0:0:
320,192,25545,1,0,0:0:0:0:
448,192,25578,1,0,0:0:0:0:
192,192,25611,1,0,0:0:0:0:
64,192,25645,1,0,0:0:0:0:
448,192,25695,1,0,0:0:0:0:
320,192,25745,1,0,0:0:0:0:
192,192,25795,1,0,0:0:0:0:
64,192,25845,1,0,0:0:0:0:
192,192,25945,1,0,0:0:0:0:
64,192,26045,1,0,0:0:0:0:
448,192,26045,1,0,0:0:0:0:
320,192,26045,1,0,0:0:0:0:
192,192,26145,1,0,0:0:0:0:
448,192,26245,1,0,0:0:0:0:
320,192,26295,1,0,0:0:0:0:
64,192,26345,1,0,0:0:0:0:
192,192,26395,1,0,0:0:0:0:
320,192,26445,1,0,0:0:0:0:
448,192,26445,1,0,0:0:0:0:
64,192,26545,1,0,0:0:0:0:
64,192,26645,1,0,0:0:0:0:
192,192,26745,1,0,0:0:0:0:
320,192,26845,1,0,0:0:0:0:
448,192,26845,1,0,0:0:0:0:
64,192,26845,1,0,0:0:0:0:
192,192,26945,1,0,0:0:0:0:
320,192,27045,1,0,0:0:0:0:
64,192,27145,1,0,0:0:0:0:
192,192,27245,1,0,0:0:0:0:
448,192,27245,1,0,0:0:0:0:
320,192,27345,1,0,0:0:0:0:
192,192,27445,1,0,0:0:0:0:
64,192,27545,1,0,0:0:0:0:
320,192,27645,1,0,0:0:0:0:
448,192,27645,1,0,0:0:0:0:
192,192,27645,1,0,0:0:0:0:
192,192,27745,1,0,0:0:0:0:
448,192,27845,128,0,27945:0:0:0:0:
192,192,27945,1,0,0:0:0:0:
192,192,28045,1,0,0:0:0:0:
64,192,28045,1,0,0:0:0:0:
320,192,28145,1,0,0:0:0:0:
448,192,28145,1,0,0:0:0:0:
320,192,28245,1,0,0:0:0:0:
192,192,28245,1,0,0:0:0:0:
64,192,28245,1,0,0:0:0:0:
192,192,28345,1,0,0:0:0:0:
192,192,28445,1,0,0:0:0:0:
448,192,28445,1,0,0:0:0:0:
320,192,28545,1,0,0:0:0:0:
64,192,28545,1,0,0:0:0:0:
192,192,28645,1,0,0:0:0:0:
320,192,28645,1,0,0:0:0:0:
448,192,28645,1,0,0:0:0:0:
64,192,28745,1,0,0:0:0:0:
192,192,28795,1,0,0:0:0:0:
320,192,28845,1,0,0:0:0:0:
448,192,28845,1,0,0:0:0:0:
448,192,28945,1,0,0:0:0:0:
192,192,29045,1,0,0:0:0:0:
320,192,29045,1,0,0:0:0:0:
64,192,29145,1,0,0:0:0:0:
320,192,29170,1,0,0:0:0:0:
64,192,29245,1,0,0:0:0:0:
448,192,29245,1,0,0:0:0:0:
320,192,29270,1,0,0:0:0:0:
192,192,29345,1,0,0:0:0:0:
448,192,29345,1,0,0:0:0:0:
64,192,29445,1,0,0:0:0:0:
320,192,29445,1,0,0:0:0:0:
64,192,29545,1,0,0:0:0:0:
448,192,29645,1,0,0:0:0:0:
320,192,29645,1,0,0:0:0:0:
192,192,29745,1,0,0:0:0:0:
448,192,29845,1,0,0:0:0:0:
320,192,29845,1,0,0:0:0:0:
192,192,29945,1,0,0:0:0:0:
320,192,30045,1,0,0:0:0:0:
448,192,30045,1,0,0:0:0:0:
64,192,30045,1,0,0:0:0:0:
64,192,30145,5,0,0:0:0:0:
64,192,30245,1,0,0:0:0:0:
192,192,30345,1,0,0:0:0:0:
320,192,30445,1,0,0:0:0:0:
64,192,30545,128,0,30645:0:0:0:0:
192,192,30645,128,0,30745:0:0:0:0:
448,192,30645,1,0,0:0:0:0:
320,192,30745,128,0,30845:0:0:0:0:
448,192,30845,128,0,30945:0:0:0:0:
64,192,30945,1,0,0:0:0:0:
192,192,30945,1,0,0:0:0:0:
320,192,31045,1,0,0:0:0:0:
192,192,31145,1,0,0:0:0:0:
320,192,31245,5,0,0:0:0:0:
448,192,31245,1,0,0:0:0:0:
64,192,31245,1,0,0:0:0:0:
448,192,31345,1,0,0:0:0:0:
320,192,31345,1,0,0:0:0:0:
64,192,31345,1,0,0:0:0:0:
192,192,31445,1,0,0:0:0:0:
192,192,31545,1,0,0:0:0:0:
320,192,31645,5,0,0:0:0:0:
448,192,31645,1,0,0:0:0:0:
64,192,31645,1,0,0:0:0:0:
192,192,31745,1,0,0:0:0:0:
320,192,31745,1,0,0:0:0:0:
192,192,31845,1,0,0:0:0:0:
64,192,31845,1,0,0:0:0:0:
192,192,31945,1,0,0:0:0:0:
64,192,31945,1,0,0:0:0:0:
448,192,32045,1,0,0:0:0:0:
64,192,32045,1,0,0:0:0:0:
320,192,32095,1,0,0:0:0:0:
192,192,32145,1,0,0:0:0:0:
448,192,32195,1,0,0:0:0:0:
320,192,32245,1,0,0:0:0:0:
64,192,32295,1,0,0:0:0:0:
192,192,32345,1,0,0:0:0:0:
448,192,32445,1,0,0:0:0:0:
64,192,32445,1,0,0:0:0:0:
192,192,32445,1,0,0:0:0:0:
448,192,32545,1,0,0:0:0:0:
192,192,32645,1,0,0:0:0:0:
320,192,32745,1,0,0:0:0:0:
192,192,32845,1,0,0:0:0:0:
64,192,32845,1,0,0:0:0:0:
192,192,32945,1,0,0:0:0:0:
320,192,33045,1,0,0:0:0:0:
320,192,33145,1,0,0:0:0:0:
448,192,33245,1,0,0:0:0:0:
192,192,33245,1,0,0:0:0:0:
64,192,33245,1,0,0:0:0:0:
64,192,33345,1,0,0:0:0:0:
448,192,33445,1,0,0:0:0:0:
192,192,33545,1,0,0:0:0:0:
320,192,33645,1,0,0:0:0:0:
448,192,33645,1,0,0:0:0:0:
64,192,33745,1,0,0:0:0:0:
448,192,33845,1,0,0:0:0:0:
448,192,33945,1,0,0:0:0:0:
192,192,34045,1,0,0:0:0:0:
64,192,34045,1,0,0:0:0:0:
320,192,34045,1,0,0:0:0:0:
192,192,34145,1,0,0:0:0:0:
320,192,34245,1,0,0:0:0:0:
320,192,34345,1,0,0:0:0:0:
192,192,34445,1,0,0:0:0:0:
64,192,34445,1,0,0:0:0:0:
320,192,34545,1,0,0:0:0:0:
192,192,34645,1,0,0:0:0:0:
64,192,34645,1,0,0:0:0:0:
448,192,34645,1,0,0:0:0:0:
448,192,34745,1,0,0:0:0:0:
192,192,34845,1,0,0:0:0:0:
64,192,34845,1,0,0:0:0:0:
64,192,34945,1,0,0:0:0:0:
320,192,35045,1,0,0:0:0:0:
192,192,35045,1,0,0:0:0:0:
448,192,35045,1,0,0:0:0:0:
64,192,35145,1,0,0:0:0:0:
448,192,35245,1,0,0:0:0:0:
192,192,35245,1,0,0:0:0:0:
320,192,35345,1,0,0:0:0:0:
320,192,35445,1,0,0:0:0:0:
320,192,35545,1,0,0:0:0:0:
448,192,35645,1,0,0:0:0:0:
192,192,35645,1,0,0:0:0:0:
64,192,35645,1,0,0:0:0:0:
320,192,35745,1,0,0:0:0:0:
64,192,35845,1,0,0:0:0:0:
448,192,35945,1,0,0:0:0:0:
192,192,36045,1,0,0:0:0:0:
64,192,36045,1,0,0:0:0:0:
448,192,36145,1,0,0:0:0:0:
320,192,36245,1,0,0:0:0:0:
192,192,36345,1,0,0:0:0:0:
64,192,36445,1,0,0:0:0:0:
192,192,36445,1,0,0:0:0:0:
448,192,36445,1,0,0:0:0:0:
448,192,36545,1,0,0:0:0:0:
320,192,36645,1,0,0:0:0:0:
320,192,36745,1,0,0:0:0:0:
192,192,36845,1,0,0:0:0:0:
64,192,36845,1,0,0:0:0:0:
192,192,36945,5,0,0:0:0:0:
192,192,37045,1,0,0:0:0:0:
448,192,37145,1,0,0:0:0:0:
192,192,37245,1,0,0:0:0:0:
64,192,37245,1,0,0:0:0:0:
320,192,37345,1,0,0:0:0:0:
64,192,37445,1,0,0:0:0:0:
448,192,37545,1,0,0:0:0:0:
448,192,37645,1,0,0:0:0:0:
192,192,37645,1,0,0:0:0:0:
192,192,37745,1,0,0:0:0:0:
64,192,37845,1,0,0:0:0:0:
448,192,37845,1,0,0:0:0:0:
320,192,37845,1,0,0:0:0:0:
320,192,37945,1,0,0:0:0:0:
64,192,38045,5,0,0:0:0:0:
192,192,38045,1,0,0:0:0:0:
320,192,38095,1,0,0:0:0:0:
64,192,38145,1,0,0:0:0:0:
192,192,38195,1,0,0:0:0:0:
320,192,38245,1,0,0:0:0:0:
448,192,38245,1,0,0:0:0:0:
320,192,38345,1,0,0:0:0:0:
64,192,38445,1,0,0:0:0:0:
448,192,38445,1,0,0:0:0:0:
192,192,38495,1,0,0:0:0:0:
320,192,38545,1,0,0:0:0:0:
448,192,38595,1,0,0:0:0:0:
64,192,38645,1,0,0:0:0:0:
192,192,38695,1,0,0:0:0:0:
320,192,38745,1,0,0:0:0:0:
320,192,38845,1,0,0:0:0:0:
448,192,38845,1,0,0:0:0:0:
64,192,38845,1,0,0:0:0:0:
64,192,38945,1,0,0:0:0:0:
320,192,39045,1,0,0:0:0:0:
448,192,39145,1,0,0:0:0:0:
192,192,39245,1,0,0:0:0:0:
64,192,39245,1,0,0:0:0:0:
192,192,39345,1,0,0:0:0:0:
320,192,39445,1,0,0:0:0:0:
320,192,39545,1,0,0:0:0:0:
448,192,39645,1,0,0:0:0:0:
192,192,39645,1,0,0:0:0:0:
64,192,39645,1,0,0:0:0:0:
64,192,39745,1,0,0:0:0:0:
448,192,39845,1,0,0:0:0:0:
192,192,39945,1,0,0:0:0:0:
320,192,40045,1,0,0:0:0:0:
448,192,40045,1,0,0:0:0:0:
64,192,40145,1,0,0:0:0:0:
192,192,40245,1,0,0:0:0:0:
320,192,40345,1,0,0:0:0:0:
320,192,40445,1,0,0:0:0:0:
64,192,40445,1,0,0:0:0:0:
448,192,40445,1,0,0:0:0:0:
192,192,40545,1,0,0:0:0:0:
320,192,40645,1,0,0:0:0:0:
320,192,40745,1,0,0:0:0:0:
192,192,40845,1,0,0:0:0:0:
64,192,40845,1,0,0:0:0:0:
448,192,40945,1,0,0:0:0:0:
448,192,41045,1,0,0:0:0:0:
320,192,41045,1,0,0:0:0:0:
64,192,41045,1,0,0:0:0:0:
192,192,41145,1,0,0:0:0:0:
448,192,41245,1,0,0:0:0:0:
192,192,41245,1,0,0:0:0:0:
320,192,41345,1,0,0:0:0:0:
64,192,41445,1,0,0:0:0:0:
192,192,41445,1,0,0:0:0:0:
320,192,41445,1,0,0:0:0:0:
448,192,41545,1,0,0:0:0:0:
192,192,41645,1,0,0:0:0:0:
448,192,41645,1,0,0:0:0:0:
192,192,41745,1,0,0:0:0:0:
320,192,41845,1,0,0:0:0:0:
320,192,41945,1,0,0:0:0:0:
448,192,42045,1,0,0:0:0:0:
192,192,42045,1,0,0:0:0:0:
64,192,42045,1,0,0:0:0:0:
320,192,42145,1,0,0:0:0:0:
192,192,42245,1,0,0:0:0:0:
448,192,42345,1,0,0:0:0:0:
192,192,42445,1,0,0:0:0:0:
64,192,42445,1,0,0:0:0:0:
192,192,42545,1,0,0:0:0:0:
448,192,42645,1,0,0:0:0:0:
448,192,42745,1,0,0:0:0:0:
192,192,42845,1,0,0:0:0:0:
64,192,42845,1,0,0:0:0:0:
320,192,42845,1,0,0:0:0:0:
320,192,42945,1,0,0:0:0:0:
192,192,43045,1,0,0:0:0:0:
192,192,43145,1,0,0:0:0:0:
64,192,43245,1,0,0:0:0:0:
320,192,43245,1,0,0:0:0:0:
64,192,43345,1,0,0:0:0:0:
448,192,43445,1,0,0:0:0:0:
192,192,43445,1,0,0:0:0:0:
448,192,43545,1,0,0:0:0:0:
320,192,43645,1,0,0:0:0:0:
192,192,43645,1,0,0:0:0:0:
320,192,43745,1,0,0:0:0:0:
192,192,43845,1,0,0:0:0:0:
64,192,43845,1,0,0:0:0:0:
448,192,43945,1,0,0:0:0:0:
320,192,44045,1,0,0:0:0:0:
192,192,44045,1,0,0:0:0:0:
192,192,44145,1,0,0:0:0:0:
320,192,44145,1,0,0:0:0:0:
64,192,44245,1,0,0:0:0:0:
192,192,44295,1,0,0:0:0:0:
320,192,44345,1,0,0:0:0:0:
448,192,44395,1,0,0:0:0:0:
192,192,44445,1,0,0:0:0:0:
320,192,44495,1,0,0:0:0:0:
64,192,44545,1,0,0:0:0:0:
448,192,44595,1,0,0:0:0:0:
320,192,44645,1,0,0:0:0:0:
192,192,44695,1,0,0:0:0:0:
448,192,44745,1,0,0:0:0:0:
320,192,44795,1,0,0:0:0:0:
192,192,44845,1,0,0:0:0:0:
64,192,44845,1,0,0:0:0:0:
320,192,44895,1,0,0:0:0:0:
448,192,44945,1,0,0:0:0:0:
64,192,44995,1,0,0:0:0:0:
192,192,45045,1,0,0:0:0:0:
320,192,45095,1,0,0:0:0:0:
448,192,45145,1,0,0:0:0:0:
64,192,45245,1,0,0:0:0:0:
64,192,45345,1,0,0:0:0:0:
192,192,45445,1,0,0:0:0:0:
320,192,45445,1,0,0:0:0:0:
448,192,45545,1,0,0:0:0:0:
64,192,45645,1,0,0:0:0:0:
192,192,45645,1,0,0:0:0:0:
448,192,45645,1,0,0:0:0:0:
320,192,45745,1,0,0:0:0:0:
64,192,45845,1,0,0:0:0:0:
192,192,45845,1,0,0:0:0:0:
192,192,45945,1,0,0:0:0:0:
448,192,46045,1,0,0:0:0:0:
192,192,46145,1,0,0:0:0:0:
320,192,46245,1,0,0:0:0:0:
448,192,46245,1,0,0:0:0:0:
192,192,46345,1,0,0:0:0:0:
64,192,46445,1,0,0:0:0:0:
448,192,46445,1,0,0:0:0:0:
320,192,46545,1,0,0:0:0:0:
192,192,46645,1,0,0:0:0:0:
64,192,46645,1,0,0:0:0:0:
192,192,46745,1,0,0:0:0:0:
320,192,46745,1,0,0:0:0:0:
64,192,46845,1,0,0:0:0:0:
448,192,46945,1,0,0:0:0:0:
320,192,47045,1,0,0:0:0:0:
192,192,47045,1,0,0:0:0:0:
320,192,47145,1,0,0:0:0:0:
192,192,47245,1,0,0:0:0:0:
448,192,47245,1,0,0:0:0:0:
64,192,47245,1,0,0:0:0:0:
64,192,47345,1,0,0:0:0:0:
448,192,47445,1,0,0:0:0:0:
192,192,47445,1,0,0:0:0:0:
192,192,47545,1,0,0:0:0:0:
448,192,47645,1,0,0:0:0:0:
64,192,47645,1,0,0:0:0:0:
448,192,47745,1,0,0:0:0:0:
192,192,47845,1,0,0:0:0:0:
64,192,47845,1,0,0:0:0:0:
320,192,47845,1,0,0:0:0:0:
192,192,47945,1,0,0:0:0:0:
448,192,48045,1,0,0:0:0:0:
320,192,48045,1,0,0:0:0:0:
448,192,48145,1,0,0:0:0:0:
192,192,48245,1,0,0:0:0:0:
320,192,48245,1,0,0:0:0:0:
192,192,48345,1,0,0:0:0:0:
64,192,48445,1,0,0:0:0:0:
448,192,48445,1,0,0:0:0:0:
192,192,48545,1,0,0:0:0:0:
320,192,48645,1,0,0:0:0:0:
448,192,48645,1,0,0:0:0:0:
64,192,48745,1,0,0:0:0:0:
320,192,48845,1,0,0:0:0:0:
192,192,48845,1,0,0:0:0:0:
448,192,48845,1,0,0:0:0:0:
192,192,48945,1,0,0:0:0:0:
320,192,49045,1,0,0:0:0:0:
448,192,49045,1,0,0:0:0:0:
320,192,49145,1,0,0:0:0:0:
64,192,49245,1,0,0:0:0:0:
192,192,49245,1,0,0:0:0:0:
64,192,49345,1,0,0:0:0:0:
320,192,49445,1,0,0:0:0:0:
448,192,49445,1,0,0:0:0:0:
320,192,49545,1,0,0:0:0:0:
64,192,49645,1,0,0:0:0:0:
448,192,49645,1,0,0:0:0:0:
192,192,49745,1,0,0:0:0:0:
192,192,49845,1,0,0:0:0:0:
64,192,49845,1,0,0:0:0:0:
320,192,49945,1,0,0:0:0:0:
448,192,49945,1,0,0:0:0:0:
64,192,50045,1,0,0:0:0:0:
192,192,50095,1,0,0:0:0:0:
320,192,50145,1,0,0:0:0:0:
448,192,50195,1,0,0:0:0:0:
192,192,50245,1,0,0:0:0:0:
64,192,50245,1,0,0:0:0:0:
320,192,50345,1,0,0:0:0:0:
192,192,50445,1,0,0:0:0:0:
64,192,50445,1,0,0:0:0:0:
448,192,50445,1,0,0:0:0:0:
448,192,50545,1,0,0:0:0:0:
192,192,50645,1,0,0:0:0:0:
320,192,50645,1,0,0:0:0:0:
192,192,50745,1,0,0:0:0:0:
64,192,50745,1,0,0:0:0:0:
192,192,50845,1,0,0:0:0:0:
64,192,50845,1,0,0:0:0:0:
320,192,50895,1,0,0:0:0:0:
64,192,50945,1,0,0:0:0:0:
448,192,50945,1,0,0:0:0:0:
192,192,50995,1,0,0:0:0:0:
320,192,51045,1,0,0:0:0:0:
448,192,51045,1,0,0:0:0:0:
192,192,51145,1,0,0:0:0:0:
320,192,51145,1,0,0:0:0:0:
64,192,51245,1,0,0:0:0:0:
448,192,51245,1,0,0:0:0:0:
192,192,51295,1,0,0:0:0:0:
320,192,51345,1,0,0:0:0:0:
64,192,51395,1,0,0:0:0:0:
192,192,51445,1,0,0:0:0:0:
448,192,51495,1,0,0:0:0:0:
320,192,51545,1,0,0:0:0:0:
448,192,51645,1,0,0:0:0:0:
448,192,51745,1,0,0:0:0:0:
320,192,51845,1,0,0:0:0:0:
192,192,51845,1,0,0:0:0:0:
64,192,51945,1,0,0:0:0:0:
448,192,52045,1,0,0:0:0:0:
320,192,52045,1,0,0:0:0:0:
64,192,52045,1,0,0:0:0:0:
192,192,52145,1,0,0:0:0:0:
448,192,52245,1,0,0:0:0:0:
320,192,52245,1,0,0:0:0:0:
320,192,52345,1,0,0:0:0:0:
64,192,52445,1,0,0:0:0:0:
320,192,52545,1,0,0:0:0:0:
192,192,52645,1,0,0:0:0:0:
64,192,52645,1,0,0:0:0:0:
320,192,52745,1,0,0:0:0:0:
448,192,52845,1,0,0:0:0:0:
64,192,52845,1,0,0:0:0:0:
192,192,52945,1,0,0:0:0:0:
320,192,53045,1,0,0:0:0:0:
448,192,53045,1,0,0:0:0:0:
320,192,53145,1,0,0:0:0:0:
192,192,53145,1,0,0:0:0:0:
448,192,53245,1,0,0:0:0:0:
64,192,53345,1,0,0:0:0:0:
192,192,53445,1,0,0:0:0:0:
320,192,53445,1,0,0:0:0:0:
192,192,53545,1,0,0:0:0:0:
320,192,53645,1,0,0:0:0:0:
64,192,53645,1,0,0:0:0:0:
448,192,53645,1,0,0:0:0:0:
448,192,53745,1,0,0:0:0:0:
64,192,53845,1,0,0:0:0:0:
320,192,53845,1,0,0:0:0:0:
320,192,53945,1,0,0:0:0:0:
64,192,54045,1,0,0:0:0:0:
448,192,54045,1,0,0:0:0:0:
64,192,54145,1,0,0:0:0:0:
320,192,54245,1,0,0:0:0:0:
448,192,54245,1,0,0:0:0:0:
192,192,54245,1,0,0:0:0:0:
320,192,54345,1,0,0:0:0:0:
64,192,54445,1,0,0:0:0:0:
192,192,54445,1,0,0:0:0:0:
64,192,54545,1,0,0:0:0:0:
320,192,54645,1,0,0:0:0:0:
192,192,54645,1,0,0:0:0:0:
320,192,54745,1,0,0:0:0:0:
448,192,54845,1,0,0:0:0:0:
64,192,54845,1,0,0:0:0:0:
320,192,54945,1,0,0:0:0:0:
192,192,55045,1,0,0:0:0:0:
64,192,55045,1,0,0:0:0:0:
448,192,55145,1,0,0:0:0:0:
192,192,55245,1,0,0:0:0:0:
320,192,55245,1,0,0:0:0:0:
64,192,55245,1,0,0:0:0:0:
320,192,55345,1,0,0:0:0:0:
192,192,55445,1,0,0:0:0:0:
64,192,55445,1,0,0:0:0:0:
192,192,55545,1,0,0:0:0:0:
448,192,55645,1,0,0:0:0:0:
320,192,55645,1,0,0:0:0:0:
448,192,55745,5,0,0:0:0:0:
192,192,55845,1,0,0:0:0:0:
64,192,55845,1,0,0:0:0:0:
192,192,55945,1,0,0:0:0:0:
448,192,56045,1,0,0:0:0:0:
64,192,56045,1,0,0:0:0:0:
320,192,56145,1,0,0:0:0:0:
320,192,56245,1,0,0:0:0:0:
448,192,56245,1,0,0:0:0:0:
192,192,56345,1,0,0:0:0:0:
64,192,56345,1,0,0:0:0:0:
448,192,56445,1,0,0:0:0:0:
320,192,56495,1,0,0:0:0:0:
192,192,56545,1,0,0:0:0:0:
64,192,56595,1,0,0:0:0:0:
320,192,56645,1,0,0:0:0:0:
448,192,56645,1,0,0:0:0:0:
192,192,56745,1,0,0:0:0:0:
320,192,56845,5,0,0:0:0:0:
448,192,56845,1,0,0:0:0:0:
192,192,56895,1,0,0:0:0:0:
64,192,56895,1,0,0:0:0:0:
320,192,56945,1,0,0:0:0:0:
448,192,56945,1,0,0:0:0:0:
192,192,56995,1,0,0:0:0:0:
64,192,56995,1,0,0:0:0:0:
320,192,57045,1,0,0:0:0:0:
448,192,57045,1,0,0:0:0:0:
192,192,57145,1,0,0:0:0:0:
64,192,57145,1,0,0:0:0:0:
320,192,57245,1,0,0:0:0:0:
448,192,57245,1,0,0:0:0:0:
192,192,57295,1,0,0:0:0:0:
320,192,57345,1,0,0:0:0:0:
448,192,57345,1,0,0:0:0:0:
192,192,57395,1,0,0:0:0:0:
64,192,57445,1,0,0:0:0:0:
448,192,57445,1,0,0:0:0:0:
448,192,57545,1,0,0:0:0:0:
64,192,57545,1,0,0:0:0:0:
192,192,57645,1,0,0:0:0:0:
64,192,57645,1,0,0:0:0:0:
320,192,57645,1,0,0:0:0:0:
448,192,57645,1,0,0:0:0:0:
320,192,57745,1,0,0:0:0:0:
320,192,57845,1,0,0:0:0:0:
320,192,57945,1,0,0:0:0:0:
320,192,58045,1,0,0:0:0:0:
192,192,58045,1,0,0:0:0:0:
64,192,58045,1,0,0:0:0:0:
320,192,58145,1,0,0:0:0:0:
320,192,58245,1,0,0:0:0:0:
320,192,58345,1,0,0:0:0:0:
320,192,58445,1,0,0:0:0:0:
448,192,58445,1,0,0:0:0:0:
320,192,58545,1,0,0:0:0:0:
320,192,58645,1,0,0:0:0:0:
320,192,58745,1,0,0:0:0:0:
320,192,58845,1,0,0:0:0:0:
192,192,58845,1,0,0:0:0:0:
64,192,58845,1,0,0:0:0:0:
320,192,58945,1,0,0:0:0:0:
320,192,59045,1,0,0:0:0:0:
320,192,59145,1,0,0:0:0:0:
192,192,59245,1,0,0:0:0:0:
64,192,59245,1,0,0:0:0:0:
192,192,59345,1,0,0:0:0:0:
192,192,59445,1,0,0:0:0:0:
192,192,59545,1,0,0:0:0:0:
192,192,59645,1,0,0:0:0:0:
320,192,59645,1,0,0:0:0:0:
448,192,59645,1,0,0:0:0:0:
192,192,59745,1,0,0:0:0:0:
192,192,59845,1,0,0:0:0:0:
192,192,59945,1,0,0:0:0:0:
192,192,60045,1,0,0:0:0:0:
64,192,60045,1,0,0:0:0:0:
192,192,60145,1,0,0:0:0:0:
192,192,60245,1,0,0:0:0:0:
320,192,60245,1,0,0:0:0:0:
448,192,60245,1,0,0:0:0:0:
192,192,60345,1,0,0:0:0:0:
192,192,60445,1,0,0:0:0:0:
64,192,60445,1,0,0:0:0:0:
192,192,60545,1,0,0:0:0:0:
192,192,60645,1,0,0:0:0:0:
448,192,60645,1,0,0:0:0:0:
192,192,60745,1,0,0:0:0:0:
448,192,60845,1,0,0:0:0:0:
320,192,60845,1,0,0:0:0:0:
448,192,60945,1,0,0:0:0:0:
448,192,61045,1,0,0:0:0:0:
448,192,61145,1,0,0:0:0:0:
448,192,61245,1,0,0:0:0:0:
192,192,61245,1,0,0:0:0:0:
64,192,61245,1,0,0:0:0:0:
448,192,61345,1,0,0:0:0:0:
448,192,61445,1,0,0:0:0:0:
448,192,61545,1,0,0:0:0:0:
448,192,61645,1,0,0:0:0:0:
320,192,61645,1,0,0:0:0:0:
448,192,61745,1,0,0:0:0:0:
448,192,61845,1,0,0:0:0:0:
448,192,61945,1,0,0:0:0:0:
448,192,62045,1,0,0:0:0:0:
192,192,62045,1,0,0:0:0:0:
64,192,62045,1,0,0:0:0:0:
448,192,62145,1,0,0:0:0:0:
448,192,62245,1,0,0:0:0:0:
448,192,62345,1,0,0:0:0:0:
64,192,62445,1,0,0:0:0:0:
192,192,62445,1,0,0:0:0:0:
64,192,62545,1,0,0:0:0:0:
64,192,62645,1,0,0:0:0:0:
64,192,62745,1,0,0:0:0:0:
64,192,62845,1,0,0:0:0:0:
320,192,62845,1,0,0:0:0:0:
448,192,62845,1,0,0:0:0:0:
64,192,62945,1,0,0:0:0:0:
64,192,63045,1,0,0:0:0:0:
320,192,63045,1,0,0:0:0:0:
64,192,63145,1,0,0:0:0:0:
448,192,63145,1,0,0:0:0:0:
64,192,63245,1,0,0:0:0:0:
192,192,63245,1,0,0:0:0:0:
64,192,63345,1,0,0:0:0:0:
64,192,63445,1,0,0:0:0:0:
320,192,63445,1,0,0:0:0:0:
448,192,63445,1,0,0:0:0:0:
64,192,63545,1,0,0:0:0:0:
64,192,63645,1,0,0:0:0:0:
192,192,63645,1,0,0:0:0:0:
64,192,63745,1,0,0:0:0:0:
64,192,63845,1,0,0:0:0:0:
192,192,63845,1,0,0:0:0:0:
64,192,63945,1,0,0:0:0:0:
320,192,64045,1,0,0:0:0:0:
448,192,64045,1,0,0:0:0:0:
320,192,64145,1,0,0:0:0:0:
320,192,64245,1,0,0:0:0:0:
320,192,64345,1,0,0:0:0:0:
320,192,64445,1,0,0:0:0:0:
192,192,64445,1,0,0:0:0:0:
64,192,64445,1,0,0:0:0:0:
320,192,64545,1,0,0:0:0:0:
320,192,64645,1,0,0:0:0:0:
320,192,64745,1,0,0:0:0:0:
320,192,64845,1,0,0:0:0:0:
448,192,64845,1,0,0:0:0:0:
320,192,64945,1,0,0:0:0:0:
320,192,65045,1,0,0:0:0:0:
320,192,65145,1,0,0:0:0:0:
320,192,65245,1,0,0:0:0:0:
192,192,65245,1,0,0:0:0:0:
64,192,65245,1,0,0:0:0:0:
320,192,65345,1,0,0:0:0:0:
320,192,65445,1,0,0:0:0:0:
320,192,65545,1,0,0:0:0:0:
192,192,65645,1,0,0:0:0:0:
64,192,65645,1,0,0:0:0:0:
192,192,65745,1,0,0:0:0:0:
192,192,65845,1,0,0:0:0:0:
192,192,65945,1,0,0:0:0:0:
192,192,66045,1,0,0:0:0:0:
320,192,66045,1,0,0:0:0:0:
448,192,66045,1,0,0:0:0:0:
192,192,66145,1,0,0:0:0:0:
192,192,66245,1,0,0:0:0:0:
192,192,66345,1,0,0:0:0:0:
192,192,66445,1,0,0:0:0:0:
64,192,66445,1,0,0:0:0:0:
192,192,66545,1,0,0:0:0:0:
192,192,66645,1,0,0:0:0:0:
320,192,66645,1,0,0:0:0:0:
448,192,66645,1,0,0:0:0:0:
192,192,66745,1,0,0:0:0:0:
192,192,66845,1,0,0:0:0:0:
64,192,66845,1,0,0:0:0:0:
192,192,66945,1,0,0:0:0:0:
192,192,67045,1,0,0:0:0:0:
448,192,67045,1,0,0:0:0:0:
192,192,67145,1,0,0:0:0:0:
448,192,67245,1,0,0:0:0:0:
320,192,67245,1,0,0:0:0:0:
448,192,67345,1,0,0:0:0:0:
448,192,67445,1,0,0:0:0:0:
448,192,67545,1,0,0:0:0:0:
448,192,67645,1,0,0:0:0:0:
192,192,67645,1,0,0:0:0:0:
64,192,67645,1,0,0:0:0:0:
448,192,67745,1,0,0:0:0:0:
448,192,67845,1,0,0:0:0:0:
448,192,67945,1,0,0:0:0:0:
448,192,68045,1,0,0:0:0:0:
320,192,68045,1,0,0:0:0:0:
448,192,68145,1,0,0:0:0:0:
448,192,68245,1,0,0:0:0:0:
448,192,68345,1,0,0:0:0:0:
448,192,68445,1,0,0:0:0:0:
192,192,68445,1,0,0:0:0:0:
64,192,68445,1,0,0:0:0:0:
448,192,68545,1,0,0:0:0:0:
448,192,68645,1,0,0:0:0:0:
448,192,68745,1,0,0:0:0:0:
64,192,68845,1,0,0:0:0:0:
192,192,68878,1,0,0:0:0:0:
320,192,68911,1,0,0:0:0:0:
448,192,68945,1,0,0:0:0:0:
64,192,68978,1,0,0:0:0:0:
192,192,69011,1,0,0:0:0:0:
320,192,69045,1,0,0:0:0:0:
448,192,69078,1,0,0:0:0:0:
64,192,69111,1,0,0:0:0:0:
192,192,69145,1,0,0:0:0:0:
320,192,69178,1,0,0:0:0:0:
448,192,69211,1,0,0:0:0:0:
64,192,69245,1,0,0:0:0:0:
192,192,69278,1,0,0:0:0:0:
320,192,69311,1,0,0:0:0:0:
448,192,69345,1,0,0:0:0:0:
64,192,69378,1,0,0:0:0:0:
192,192,69411,1,0,0:0:0:0:
320,192,69445,1,0,0:0:0:0:
448,192,69478,1,0,0:0:0:0:
64,192,69511,1,0,0:0:0:0:
192,192,69545,1,0,0:0:0:0:
320,192,69578,1,0,0:0:0:0:
448,192,69611,1,0,0:0:0:0:
64,192,69645,1,0,0:0:0:0:
192,192,69678,1,0,0:0:0:0:
320,192,69711,1,0,0:0:0:0:
448,192,69745,1,0,0:0:0:0:
64,192,69778,1,0,0:0:0:0:
192,192,69811,1,0,0:0:0:0:
320,192,69845,1,0,0:0:0:0:
448,192,69878,1,0,0:0:0:0:
64,192,69911,1,0,0:0:0:0:
192,192,69945,1,0,0:0:0:0:
320,192,69978,1,0,0:0:0:0:
448,192,70011,1,0,0:0:0:0:
64,192,70045,1,0,0:0:0:0:
192,192,70078,1,0,0:0:0:0:
320,192,70111,1,0,0:0:0:0:
448,192,70145,1,0,0:0:0:0:
64,192,70178,1,0,0:0:0:0:
192,192,70211,1,0,0:0:0:0:
320,192,70245,1,0,0:0:0:0:
448,192,70278,1,0,0:0:0:0:
64,192,70311,1,0,0:0:0:0:
192,192,70345,1,0,0:0:0:0:
320,192,70378,1,0,0:0:0:0:
448,192,70411,1,0,0:0:0:0:
192,192,70445,1,0,0:0:0:0:
64,192,70445,1,0,0:0:0:0:
192,192,70545,1,0,0:0:0:0:
448,192,70545,1,0,0:0:0:0:
192,192,70645,1,0,0:0:0:0:
448,192,70645,1,0,0:0:0:0:
192,192,70745,1,0,0:0:0:0:
448,192,70745,1,0,0:0:0:0:
320,192,70845,1,0,0:0:0:0:
192,192,70845,1,0,0:0:0:0:
64,192,70845,1,0,0:0:0:0:
64,192,70945,1,0,0:0:0:0:
192,192,70945,1,0,0:0:0:0:
320,192,71045,1,0,0:0:0:0:
448,192,71045,1,0,0:0:0:0:
192,192,71145,1,0,0:0:0:0:
448,192,71145,1,0,0:0:0:0:
320,192,71245,1,0,0:0:0:0:
192,192,71245,1,0,0:0:0:0:
64,192,71245,1,0,0:0:0:0:
320,192,71345,1,0,0:0:0:0:
64,192,71345,1,0,0:0:0:0:
320,192,71445,1,0,0:0:0:0:
64,192,71445,1,0,0:0:0:0:
320,192,71545,1,0,0:0:0:0:
64,192,71545,1,0,0:0:0:0:
192,192,71645,1,0,0:0:0:0:
320,192,71645,1,0,0:0:0:0:
448,192,71645,1,0,0:0:0:0:
320,192,71745,1,0,0:0:0:0:
448,192,71745,1,0,0:0:0:0:
320,192,71845,1,0,0:0:0:0:
448,192,71845,1,0,0:0:0:0:
320,192,71945,1,0,0:0:0:0:
448,192,71945,1,0,0:0:0:0:
192,192,72045,1,0,0:0:0:0:
64,192,72045,1,0,0:0:0:0:
320,192,72045,1,0,0:0:0:0:
192,192,72145,1,0,0:0:0:0:
64,192,72145,1,0,0:0:0:0:
192,192,72245,1,0,0:0:0:0:
64,192,72245,1,0,0:0:0:0:
192,192,72345,1,0,0:0:0:0:
64,192,72345,1,0,0:0:0:0:
64,192,72445,1,0,0:0:0:0:
320,192,72445,1,0,0:0:0:0:
448,192,72445,1,0,0:0:0:0:
192,192,72545,1,0,0:0:0:0:
448,192,72545,1,0,0:0:0:0:
320,192,72645,1,0,0:0:0:0:
192,192,72645,1,0,0:0:0:0:
64,192,72745,1,0,0:0:0:0:
320,192,72745,1,0,0:0:0:0:
192,192,72845,1,0,0:0:0:0:
64,192,72845,1,0,0:0:0:0:
448,192,72845,1,0,0:0:0:0:
192,192,72945,1,0,0:0:0:0:
448,192,72945,1,0,0:0:0:0:
192,192,73045,1,0,0:0:0:0:
448,192,73045,1,0,0:0:0:0:
320,192,73045,1,0,0:0:0:0:
192,192,73145,1,0,0:0:0:0:
64,192,73145,1,0,0:0:0:0:
64,192,73245,1,0,0:0:0:0:
448,192,73245,1,0,0:0:0:0:
320,192,73245,1,0,0:0:0:0:
320,192,73345,1,0,0:0:0:0:
448,192,73345,1,0,0:0:0:0:
64,192,73445,1,0,0:0:0:0:
192,192,73445,1,0,0:0:0:0:
448,192,73445,1,0,0:0:0:0:
320,192,73545,1,0,0:0:0:0:
192,192,73545,1,0,0:0:0:0:
64,192,73645,1,0,0:0:0:0:
448,192,73645,1,0,0:0:0:0:
320,192,73645,1,0,0:0:0:0:
320,192,73745,1,0,0:0:0:0:
64,192,73745,1,0,0:0:0:0:
320,192,73845,1,0,0:0:0:0:
64,192,73845,1,0,0:0:0:0:
64,192,73945,1,0,0:0:0:0:
320,192,73945,1,0,0:0:0:0:
192,192,74045,1,0,0:0:0:0:
320,192,74045,1,0,0:0:0:0:
448,192,74045,1,0,0:0:0:0:
192,192,74145,1,0,0:0:0:0:
64,192,74145,1,0,0:0:0:0:
192,192,74245,1,0,0:0:0:0:
448,192,74245,1,0,0:0:0:0:
192,192,74345,1,0,0:0:0:0:
448,192,74345,1,0,0:0:0:0:
320,192,74445,1,0,0:0:0:0:
192,192,74445,1,0,0:0:0:0:
64,192,74445,1,0,0:0:0:0:
320,192,74545,1,0,0:0:0:0:
448,192,74545,1,0,0:0:0:0:
320,192,74645,1,0,0:0:0:0:
64,192,74645,1,0,0:0:0:0:
320,192,74745,1,0,0:0:0:0:
64,192,74745,1,0,0:0:0:0:
192,192,74845,1,0,0:0:0:0:
448,192,74845,1,0,0:0:0:0:
64,192,74845,1,0,0:0:0:0:
192,192,74945,1,0,0:0:0:0:
64,192,74945,1,0,0:0:0:0:
320,192,75045,1,0,0:0:0:0:
448,192,75045,1,0,0:0:0:0:
320,192,75145,1,0,0:0:0:0:
448,192,75145,1,0,0:0:0:0:
192,192,75245,1,0,0:0:0:0:
64,192,75245,1,0,0:0:0:0:
320,192,75245,1,0,0:0:0:0:
448,192,75245,1,0,0:0:0:0:
192,192,75345,1,0,0:0:0:0:
192,192,75445,1,0,0:0:0:0:
64,192,75545,1,0,0:0:0:0:
192,192,75545,1,0,0:0:0:0:
320,192,75545,1,0,0:0:0:0:
448,192,75545,1,0,0:0:0:0:
320,192,75645,1,0,0:0:0:0:
320,192,75745,1,0,0:0:0:0:
64,192,75845,1,0,0:0:0:0:
192,192,75845,1,0,0:0:0:0:
320,192,75845,1,0,0:0:0:0:
448,192,75845,1,0,0:0:0:0:
448,192,75945,1,0,0:0:0:0:
192,192,75945,1,0,0:0:0:0:
64,192,75945,1,0,0:0:0:0:
320,192,75945,1,0,0:0:0:0:
192,192,76045,1,0,0:0:0:0:
64,192,76045,1,0,0:0:0:0:
192,192,76145,1,0,0:0:0:0:
320,192,76145,1,0,0:0:0:0:
448,192,76145,1,0,0:0:0:0:
448,192,76245,1,0,0:0:0:0:
192,192,76345,1,0,0:0:0:0:
64,192,76345,1,0,0:0:0:0:
320,192,76345,1,0,0:0:0:0:
192,192,76445,1,0,0:0:0:0:
320,192,76545,1,0,0:0:0:0:
448,192,76545,1,0,0:0:0:0:
320,192,76645,1,0,0:0:0:0:
448,192,76645,1,0,0:0:0:0:
192,192,76645,1,0,0:0:0:0:
64,192,76645,1,0,0:0:0:0:
192,192,76745,1,0,0:0:0:0:
64,192,76845,1,0,0:0:0:0:
448,192,76845,1,0,0:0:0:0:
320,192,76845,1,0,0:0:0:0:
320,192,76945,1,0,0:0:0:0:
64,192,76945,1,0,0:0:0:0:
320,192,77045,1,0,0:0:0:0:
64,192,77045,1,0,0:0:0:0:
320,192,77145,1,0,0:0:0:0:
64,192,77145,1,0,0:0:0:0:
192,192,77245,1,0,0:0:0:0:
320,192,77245,1,0,0:0:0:0:
448,192,77245,1,0,0:0:0:0:
448,192,77345,1,0,0:0:0:0:
320,192,77345,1,0,0:0:0:0:
192,192,77445,1,0,0:0:0:0:
64,192,77445,1,0,0:0:0:0:
320,192,77545,1,0,0:0:0:0:
64,192,77545,1,0,0:0:0:0:
192,192,77645,1,0,0:0:0:0:
320,192,77645,1,0,0:0:0:0:
448,192,77645,1,0,0:0:0:0:
192,192,77745,1,0,0:0:0:0:
448,192,77745,1,0,0:0:0:0:
192,192,77845,1,0,0:0:0:0:
448,192,77845,1,0,0:0:0:0:
192,192,77945,1,0,0:0:0:0:
448,192,77945,1,0,0:0:0:0:
320,192,78045,1,0,0:0:0:0:
192,192,78045,1,0,0:0:0:0:
64,192,78045,1,0,0:0:0:0:
192,192,78145,1,0,0:0:0:0:
64,192,78145,1,0,0:0:0:0:
192,192,78245,1,0,0:0:0:0:
64,192,78245,1,0,0:0:0:0:
192,192,78345,1,0,0:0:0:0:
64,192,78345,1,0,0:0:0:0:
320,192,78445,1,0,0:0:0:0:
448,192,78445,1,0,0:0:0:0:
192,192,78445,1,0,0:0:0:0:
320,192,78545,1,0,0:0:0:0:
448,192,78545,1,0,0:0:0:0:
320,192,78645,1,0,0:0:0:0:
448,192,78645,1,0,0:0:0:0:
320,192,78745,1,0,0:0:0:0:
448,192,78745,1,0,0:0:0:0:
448,192,78845,1,0,0:0:0:0:
192,192,78845,1,0,0:0:0:0:
64,192,78845,1,0,0:0:0:0:
320,192,78945,1,0,0:0:0:0:
64,192,78945,1,0,0:0:0:0:
192,192,79045,1,0,0:0:0:0:
320,192,79045,1,0,0:0:0:0:
448,192,79145,1,0,0:0:0:0:
192,192,79145,1,0,0:0:0:0:
320,192,79245,1,0,0:0:0:0:
448,192,79245,1,0,0:0:0:0:
64,192,79245,1,0,0:0:0:0:
320,192,79345,1,0,0:0:0:0:
64,192,79345,1,0,0:0:0:0:
320,192,79445,1,0,0:0:0:0:
64,192,79445,1,0,0:0:0:0:
192,192,79445,1,0,0:0:0:0:
320,192,79545,1,0,0:0:0:0:
448,192,79545,1,0,0:0:0:0:
448,192,79645,1,0,0:0:0:0:
64,192,79645,1,0,0:0:0:0:
192,192,79645,1,0,0:0:0:0:
192,192,79745,1,0,0:0:0:0:
64,192,79745,1,0,0:0:0:0:
448,192,79845,1,0,0:0:0:0:
320,192,79845,1,0,0:0:0:0:
64,192,79845,1,0,0:0:0:0:
192,192,79945,1,0,0:0:0:0:
320,192,79945,1,0,0:0:0:0:
448,192,80045,1,0,0:0:0:0:
64,192,80045,1,0,0:0:0:0:
192,192,80045,1,0,0:0:0:0:
320,192,80045,1,0,0:0:0:0:
64,192,80145,1,0,0:0:0:0:
448,192,80145,1,0,0:0:0:0:
448,192,80245,1,0,0:0:0:0:
64,192,80245,1,0,0:0:0:0:
64,192,80345,1,0,0:0:0:0:
448,192,80345,1,0,0:0:0:0:
448,192,80445,1,0,0:0:0:0:
64,192,80445,1,0,0:0:0:0:
64,192,80545,5,0,0:0:0:0:
448,192,80545,1,0,0:0:0:0:
448,192,80645,1,0,0:0:0:0:
64,192,80645,1,0,0:0:0:0:
64,192,80745,1,0,0:0:0:0:
448,192,80745,1,0,0:0:0:0:
448,192,80845,1,0,0:0:0:0:
192,192,80845,1,0,0:0:0:0:
192,192,80945,1,0,0:0:0:0:
448,192,80945,1,0,0:0:0:0:
64,192,81045,1,0,0:0:0:0:
320,192,81045,1,0,0:0:0:0:
320,192,81145,1,0,0:0:0:0:
64,192,81145,1,0,0:0:0:0:
320,192,81245,1,0,0:0:0:0:
192,192,81245,1,0,0:0:0:0:
320,192,81345,1,0,0:0:0:0:
192,192,81345,1,0,0:0:0:0:
192,192,81445,1,0,0:0:0:0:
64,192,81445,1,0,0:0:0:0:
192,192,81545,5,0,0:0:0:0:
64,192,81545,1,0,0:0:0:0:
320,192,81645,5,0,0:0:0:0:
448,192,81645,1,0,0:0:0:0:
320,192,81745,1,0,0:0:0:0:
448,192,81745,1,0,0:0:0:0:
192,192,81845,1,0,0:0:0:0:
64,192,81845,1,0,0:0:0:0:
320,192,81911,1,0,0:0:0:0:
448,192,81911,1,0,0:0:0:0:
192,192,81978,1,0,0:0:0:0:
64,192,81978,1,0,0:0:0:0:
320,192,82045,1,0,0:0:0:0:
448,192,82045,1,0,0:0:0:0:
64,192,82095,1,0,0:0:0:0:
192,192,82145,1,0,0:0:0:0:
320,192,82195,1,0,0:0:0:0:
448,192,82195,1,0,0:0:0:0:
64,192,82245,1,0,0:0:0:0:
192,192,82245,1,0,0:0:0:0:
320,192,82295,1,0,0:0:0:0:
448,192,82345,1,0,0:0:0:0:
64,192,82378,1,0,0:0:0:0:
192,192,82411,1,0,0:0:0:0:
320,192,82445,1,0,0:0:0:0:
448,192,82478,1,0,0:0:0:0:
64,192,82511,1,0,0:0:0:0:
192,192,82545,1,0,0:0:0:0:
320,192,82578,1,0,0:0:0:0:
448,192,82611,1,0,0:0:0:0:
192,192,82645,1,0,0:0:0:0:
64,192,82678,1,0,0:0:0:0:
448,192,82711,1,0,0:0:0:0:
320,192,82745,1,0,0:0:0:0:
192,192,82778,1,0,0:0:0:0:
64,192,82811,1,0,0:0:0:0:
448,192,82845,1,0,0:0:0:0:
320,192,82870,1,0,0:0:0:0:
192,192,82895,1,0,0:0:0:0:
64,192,82920,1,0,0:0:0:0:
448,192,82945,1,0,0:0:0:0:
320,192,82978,1,0,0:0:0:0:
192,192,83011,1,0,0:0:0:0:
64,192,83045,1,0,0:0:0:0:
320,192,83095,1,0,0:0:0:0:
448,192,83120,1,0,0:0:0:0:
64,192,83145,1,0,0:0:0:0:
192,192,83170,1,0,0:0:0:0:
320,192,83195,1,0,0:0:0:0:
448,192,83220,1,0,0:0:0:0:
64,192,83245,1,0,0:0:0:0:
192,192,83245,1,0,0:0:0:0:
320,192,83378,1,0,0:0:0:0:
448,192,83511,1,0,0:0:0:0:
192,192,83645,1,0,0:0:0:0:
64,192,83645,1,0,0:0:0:0:
320,192,83778,1,0,0:0:0:0:
320,192,83911,1,0,0:0:0:0:
192,192,84045,1,0,0:0:0:0:
448,192,84045,1,0,0:0:0:0:
320,192,84178,1,0,0:0:0:0:
192,192,84311,1,0,0:0:0:0:
448,192,84311,1,0,0:0:0:0:
64,192,84445,1,0,0:0:0:0:
192,192,84445,1,0,0:0:0:0:
320,192,84578,1,0,0:0:0:0:
448,192,84711,1,0,0:0:0:0:
192,192,84845,1,0,0:0:0:0:
320,192,84845,1,0,0:0:0:0:
320,192,84978,1,0,0:0:0:0:
320,192,85111,1,0,0:0:0:0:
192,192,85245,1,0,0:0:0:0:
64,192,85245,1,0,0:0:0:0:
64,192,85378,1,0,0:0:0:0:
320,192,85511,1,0,0:0:0:0:
320,192,85645,1,0,0:0:0:0:
448,192,85645,1,0,0:0:0:0:
64,192,85778,1,0,0:0:0:0:
448,192,85911,1,0,0:0:0:0:
320,192,85911,1,0,0:0:0:0:
192,192,86045,1,0,0:0:0:0:
320,192,86045,1,0,0:0:0:0:
64,192,86178,1,0,0:0:0:0:
448,192,86311,1,0,0:0:0:0:
320,192,86445,1,0,0:0:0:0:
64,192,86445,1,0,0:0:0:0:
192,192,86578,1,0,0:0:0:0:
320,192,86711,1,0,0:0:0:0:
64,192,86711,1,0,0:0:0:0:
320,192,86845,1,0,0:0:0:0:
448,192,86845,1,0,0:0:0:0:
448,192,86978,1,0,0:0:0:0:
192,192,87111,1,0,0:0:0:0:
192,192,87245,1,0,0:0:0:0:
64,192,87245,1,0,0:0:0:0:
320,192,87378,1,0,0:0:0:0:
192,192,87511,1,0,0:0:0:0:
64,192,87511,1,0,0:0:0:0:
192,192,87645,1,0,0:0:0:0:
448,192,87645,1,0,0:0:0:0:
320,192,87778,1,0,0:0:0:0:
320,192,87911,1,0,0:0:0:0:
192,192,88045,1,0,0:0:0:0:
448,192,88045,1,0,0:0:0:0:
320,192,88178,1,0,0:0:0:0:
64,192,88178,1,0,0:0:0:0:
320,192,88311,1,0,0:0:0:0:
64,192,88311,1,0,0:0:0:0:
192,192,88445,1,0,0:0:0:0:
448,192,88445,1,0,0:0:0:0:
320,192,88578,1,0,0:0:0:0:
448,192,88578,1,0,0:0:0:0:
192,192,88711,1,0,0:0:0:0:
64,192,88711,1,0,0:0:0:0:
320,192,88845,1,0,0:0:0:0:
448,192,88845,1,0,0:0:0:0:
192,192,88945,1,0,0:0:0:0:
64,192,88945,1,0,0:0:0:0:
192,192,89045,1,0,0:0:0:0:
64,192,89045,1,0,0:0:0:0:
192,192,89145,1,0,0:0:0:0:
64,192,89145,1,0,0:0:0:0:
320,192,89245,1,0,0:0:0:0:
448,192,89245,1,0,0:0:0:0:
320,192,89345,1,0,0:0:0:0:
448,192,89345,1,0,0:0:0:0:
448,192,89445,1,0,0:0:0:0:
64,192,89445,1,0,0:0:0:0:
64,192,89545,1,0,0:0:0:0:
320,192,89545,1,0,0:0:0:0:
192,192,89645,1,0,0:0:0:0:
320,192,89645,1,0,0:0:0:0:
448,192,89645,1,0,0:0:0:0:
64,192,89778,1,0,0:0:0:0:
192,192,89911,1,0,0:0:0:0:
320,192,90045,1,0,0:0:0:0:
448,192,90045,1,0,0:0:0:0:
192,192,90178,1,0,0:0:0:0:
192,192,90311,1,0,0:0:0:0:
64,192,90445,1,0,0:0:0:0:
320,192,90445,1,0,0:0:0:0:
192,192,90578,1,0,0:0:0:0:
320,192,90711,1,0,0:0:0:0:
192,192,90711,1,0,0:0:0:0:
320,192,90845,1,0,0:0:0:0:
448,192,90845,1,0,0:0:0:0:
64,192,90978,1,0,0:0:0:0:
320,192,91111,1,0,0:0:0:0:
192,192,91245,1,0,0:0:0:0:
448,192,91245,1,0,0:0:0:0:
448,192,91378,1,0,0:0:0:0:
320,192,91511,1,0,0:0:0:0:
64,192,91511,1,0,0:0:0:0:
64,192,91645,1,0,0:0:0:0:
192,192,91645,1,0,0:0:0:0:
192,192,91778,1,0,0:0:0:0:
192,192,91911,1,0,0:0:0:0:
320,192,92045,1,0,0:0:0:0:
448,192,92045,1,0,0:0:0:0:
64,192,92178,1,0,0:0:0:0:
448,192,92311,1,0,0:0:0:0:
192,192,92311,1,0,0:0:0:0:
320,192,92445,1,0,0:0:0:0:
448,192,92445,1,0,0:0:0:0:
192,192,92578,1,0,0:0:0:0:
64,192,92711,1,0,0:0:0:0:
320,192,92845,1,0,0:0:0:0:
448,192,92845,1,0,0:0:0:0:
64,192,92978,1,0,0:0:0:0:
192,192,93111,1,0,0:0:0:0:
320,192,93111,1,0,0:0:0:0:
192,192,93245,1,0,0:0:0:0:
448,192,93245,1,0,0:0:0:0:
448,192,93378,1,0,0:0:0:0:
64,192,93511,1,0,0:0:0:0:
448,192,93645,1,0,0:0:0:0:
64,192,93645,1,0,0:0:0:0:
320,192,93778,1,0,0:0:0:0:
192,192,93911,1,0,0:0:0:0:
320,192,94045,1,0,0:0:0:0:
448,192,94045,1,0,0:0:0:0:
64,192,94178,1,0,0:0:0:0:
192,192,94311,1,0,0:0:0:0:
64,192,94311,1,0,0:0:0:0:
192,192,94445,1,0,0:0:0:0:
448,192,94445,1,0,0:0:0:0:
448,192,94578,1,0,0:0:0:0:
192,192,94711,1,0,0:0:0:0:
448,192,94711,1,0,0:0:0:0:
448,192,94845,1,0,0:0:0:0:
320,192,94978,1,0,0:0:0:0:
192,192,95111,1,0,0:0:0:0:
64,192,95111,1,0,0:0:0:0:
448,192,95245,1,0,0:0:0:0:
320,192,95245,1,0,0:0:0:0:
64,192,95345,1,0,0:0:0:0:
192,192,95345,1,0,0:0:0:0:
64,192,95445,1,0,0:0:0:0:
320,192,95445,1,0,0:0:0:0:
320,192,95545,1,0,0:0:0:0:
192,192,95545,1,0,0:0:0:0:
192,192,95645,1,0,0:0:0:0:
448,192,95645,1,0,0:0:0:0:
192,192,95745,1,0,0:0:0:0:
448,192,95745,1,0,0:0:0:0:
448,192,95845,1,0,0:0:0:0:
192,192,95845,1,0,0:0:0:0:
64,192,95945,1,0,0:0:0:0:
192,192,95945,1,0,0:0:0:0:
320,192,96045,1,0,0:0:0:0:
448,192,96045,1,0,0:0:0:0:
64,192,96145,1,0,0:0:0:0:
192,192,96245,1,0,0:0:0:0:
64,192,96345,1,0,0:0:0:0:
320,192,96445,1,0,0:0:0:0:
192,192,96545,1,0,0:0:0:0:
448,192,96645,1,0,0:0:0:0:
320,192,96745,1,0,0:0:0:0:
192,192,96845,1,0,0:0:0:0:
448,192,96945,1,0,0:0:0:0:
64,192,97045,1,0,0:0:0:0:
192,192,97145,1,0,0:0:0:0:
320,192,97245,1,0,0:0:0:0:
448,192,97345,1,0,0:0:0:0:
320,192,97445,1,0,0:0:0:0:
448,192,97545,1,0,0:0:0:0:
320,192,97645,1,0,0:0:0:0:
192,192,97745,1,0,0:0:0:0:
64,192,97845,1,0,0:0:0:0:
320,192,97945,1,0,0:0:0:0:
192,192,98045,1,0,0:0:0:0:
320,192,98145,1,0,0:0:0:0:
64,192,98245,1,0,0:0:0:0:
192,192,98345,1,0,0:0:0:0:
320,192,98445,1,0,0:0:0:0:
64,192,98545,1,0,0:0:0:0:
320,192,98645,1,0,0:0:0:0:
448,192,98745,1,0,0:0:0:0:
320,192,98845,1,0,0:0:0:0:
192,192,98845,1,0,0:0:0:0:
448,192,98945,1,0,0:0:0:0:
192,192,99045,1,0,0:0:0:0:
64,192,99045,1,0,0:0:0:0:
320,192,99145,1,0,0:0:0:0:
448,192,99245,1,0,0:0:0:0:
64,192,99245,1,0,0:0:0:0:
192,192,99345,1,0,0:0:0:0:
320,192,99445,1,0,0:0:0:0:
448,192,99545,1,0,0:0:0:0:
320,192,99645,1,0,0:0:0:0:
64,192,99745,1,0,0:0:0:0:
192,192,99845,1,0,0:0:0:0:
320,192,99945,1,0,0:0:0:0:
192,192,100045,1,0,0:0:0:0:
64,192,100145,1,0,0:0:0:0:
192,192,100245,1,0,0:0:0:0:
64,192,100345,1,0,0:0:0:0:
320,192,100445,1,0,0:0:0:0:
192,192,100545,1,0,0:0:0:0:
448,192,100645,1,0,0:0:0:0:
320,192,100745,1,0,0:0:0:0:
64,192,100845,1,0,0:0:0:0:
192,192,100945,1,0,0:0:0:0:
448,192,101045,1,0,0:0:0:0:
320,192,101145,1,0,0:0:0:0:
192,192,101245,1,0,0:0:0:0:
320,192,101345,1,0,0:0:0:0:
64,192,101445,1,0,0:0:0:0:
192,192,101545,1,0,0:0:0:0:
320,192,101645,1,0,0:0:0:0:
64,192,101745,1,0,0:0:0:0:
320,192,101845,1,0,0:0:0:0:
448,192,101945,1,0,0:0:0:0:
320,192,102045,1,0,0:0:0:0:
64,192,102045,1,0,0:0:0:0:
192,192,102145,1,0,0:0:0:0:
64,192,102245,1,0,0:0:0:0:
448,192,102245,1,0,0:0:0:0:
192,192,102345,1,0,0:0:0:0:
320,192,102445,1,0,0:0:0:0:
448,192,102445,1,0,0:0:0:0:
64,192,102545,1,0,0:0:0:0:
192,192,102645,1,0,0:0:0:0:
320,192,102745,1,0,0:0:0:0:
448,192,102845,1,0,0:0:0:0:
320,192,102945,1,0,0:0:0:0:
64,192,103045,1,0,0:0:0:0:
192,192,103145,1,0,0:0:0:0:
320,192,103245,1,0,0:0:0:0:
192,192,103345,1,0,0:0:0:0:
320,192,103445,1,0,0:0:0:0:
448,192,103545,1,0,0:0:0:0:
320,192,103645,1,0,0:0:0:0:
448,192,103745,1,0,0:0:0:0:
192,192,103845,1,0,0:0:0:0:
320,192,103945,1,0,0:0:0:0:
64,192,104045,1,0,0:0:0:0:
192,192,104145,1,0,0:0:0:0:
320,192,104245,1,0,0:0:0:0:
192,192,104345,1,0,0:0:0:0:
64,192,104445,1,0,0:0:0:0:
320,192,104545,1,0,0:0:0:0:
448,192,104645,1,0,0:0:0:0:
320,192,104745,1,0,0:0:0:0:
192,192,104845,1,0,0:0:0:0:
320,192,104945,1,0,0:0:0:0:
64,192,105045,1,0,0:0:0:0:
192,192,105145,1,0,0:0:0:0:
320,192,105245,1,0,0:0:0:0:
448,192,105245,1,0,0:0:0:0:
64,192,105345,1,0,0:0:0:0:
192,192,105445,1,0,0:0:0:0:
448,192,105445,1,0,0:0:0:0:
320,192,105545,1,0,0:0:0:0:
192,192,105645,1,0,0:0:0:0:
64,192,105645,1,0,0:0:0:0:
320,192,105745,1,0,0:0:0:0:
64,192,105845,1,0,0:0:0:0:
192,192,105945,1,0,0:0:0:0:
320,192,106045,1,0,0:0:0:0:
64,192,106145,1,0,0:0:0:0:
192,192,106245,1,0,0:0:0:0:
448,192,106345,1,0,0:0:0:0:
320,192,106445,1,0,0:0:0:0:
192,192,106545,1,0,0:0:0:0:
320,192,106645,1,0,0:0:0:0:
192,192,106745,1,0,0:0:0:0:
320,192,106845,1,0,0:0:0:0:
64,192,106945,1,0,0:0:0:0:
320,192,107045,1,0,0:0:0:0:
448,192,107145,1,0,0:0:0:0:
192,192,107245,1,0,0:0:0:0:
64,192,107245,1,0,0:0:0:0:
320,192,107345,1,0,0:0:0:0:
64,192,107445,1,0,0:0:0:0:
448,192,107445,1,0,0:0:0:0:
192,192,107545,1,0,0:0:0:0:
320,192,107545,1,0,0:0:0:0:
448,192,107645,1,0,0:0:0:0:
320,192,107695,1,0,0:0:0:0:
192,192,107745,1,0,0:0:0:0:
64,192,107795,1,0,0:0:0:0:
320,192,107845,1,0,0:0:0:0:
448,192,107945,1,0,0:0:0:0:
64,192,108045,1,0,0:0:0:0:
192,192,108095,1,0,0:0:0:0:
320,192,108145,1,0,0:0:0:0:
448,192,108195,1,0,0:0:0:0:
192,192,108245,1,0,0:0:0:0:
320,192,108345,1,0,0:0:0:0:
64,192,108445,1,0,0:0:0:0:
448,192,108445,1,0,0:0:0:0:
192,192,108495,1,0,0:0:0:0:
320,192,108545,1,0,0:0:0:0:
448,192,108595,1,0,0:0:0:0:
64,192,108645,1,0,0:0:0:0:
192,192,108695,1,0,0:0:0:0:
320,192,108745,1,0,0:0:0:0:
448,192,108795,1,0,0:0:0:0:
64,192,108845,128,0,110445:0:0:0:0:
320,192,108845,1,0,0:0:0:0:
192,192,108945,1,0,0:0:0:0:
320,192,109045,1,0,0:0:0:0:
448,192,109045,1,0,0:0:0:0:
192,192,109145,1,0,0:0:0:0:
320,192,109245,1,0,0:0:0:0:
448,192,109245,1,0,0:0:0:0:
192,192,109345,1,0,0:0:0:0:
320,192,109445,1,0,0:0:0:0:
448,192,109445,1,0,0:0:0:0:
192,192,109545,1,0,0:0:0:0:
448,192,109645,1,0,0:0:0:0:
320,192,109645,1,0,0:0:0:0:
192,192,109745,1,0,0:0:0:0:
320,192,109845,1,0,0:0:0:0:
448,192,109845,1,0,0:0:0:0:
192,192,109945,1,0,0:0:0:0:
320,192,110045,1,0,0:0:0:0:
448,192,110045,1,0,0:0:0:0:
192,192,110145,1,0,0:0:0:0:
320,192,110245,1,0,0:0:0:0:
448,192,110245,1,0,0:0:0:0:
192,192,110345,1,0,0:0:0:0:
320,192,110445,128,0,112045:0:0:0:0:
448,192,110445,1,0,0:0:0:0:
192,192,110545,1,0,0:0:0:0:
64,192,110645,1,0,0:0:0:0:
192,192,110745,1,0,0:0:0:0:
64,192,110845,1,0,0:0:0:0:
448,192,110845,1,0,0:0:0:0:
192,192,110945,1,0,0:0:0:0:
64,192,111045,1,0,0:0:0:0:
192,192,111145,1,0,0:0:0:0:
64,192,111245,1,0,0:0:0:0:
448,192,111245,1,0,0:0:0:0:
192,192,111345,1,0,0:0:0:0:
64,192,111445,1,0,0:0:0:0:
448,192,111445,1,0,0:0:0:0:
192,192,111545,1,0,0:0:0:0:
64,192,111645,1,0,0:0:0:0:
448,192,111645,1,0,0:0:0:0:
192,192,111745,1,0,0:0:0:0:
64,192,111845,1,0,0:0:0:0:
448,192,111845,1,0,0:0:0:0:
192,192,111945,1,0,0:0:0:0:
448,192,112045,128,0,113645:0:0:0:0:
64,192,112045,1,0,0:0:0:0:
320,192,112145,1,0,0:0:0:0:
64,192,112245,1,0,0:0:0:0:
192,192,112245,1,0,0:0:0:0:
320,192,112345,1,0,0:0:0:0:
192,192,112445,1,0,0:0:0:0:
64,192,112445,1,0,0:0:0:0:
320,192,112545,1,0,0:0:0:0:
192,192,112645,1,0,0:0:0:0:
64,192,112645,1,0,0:0:0:0:
320,192,112745,1,0,0:0:0:0:
192,192,112845,1,0,0:0:0:0:
64,192,112845,1,0,0:0:0:0:
320,192,112945,1,0,0:0:0:0:
192,192,113045,1,0,0:0:0:0:
64,192,113045,1,0,0:0:0:0:
320,192,113145,1,0,0:0:0:0:
192,192,113245,1,0,0:0:0:0:
64,192,113245,1,0,0:0:0:0:
320,192,113345,1,0,0:0:0:0:
192,192,113445,1,0,0:0:0:0:
64,192,113445,1,0,0:0:0:0:
320,192,113545,1,0,0:0:0:0:
192,192,113645,128,0,115245:0:0:0:0:
64,192,113645,1,0,0:0:0:0:
320,192,113745,1,0,0:0:0:0:
448,192,113845,1,0,0:0:0:0:
320,192,113945,1,0,0:0:0:0:
64,192,114045,1,0,0:0:0:0:
448,192,114045,1,0,0:0:0:0:
320,192,114145,1,0,0:0:0:0:
448,192,114245,1,0,0:0:0:0:
320,192,114345,1,0,0:0:0:0:
64,192,114345,1,0,0:0:0:0:
448,192,114445,1,0,0:0:0:0:
320,192,114445,1,0,0:0:0:0:
64,192,114545,1,0,0:0:0:0:
320,192,114645,1,0,0:0:0:0:
448,192,114645,1,0,0:0:0:0:
64,192,114745,1,0,0:0:0:0:
320,192,114845,1,0,0:0:0:0:
448,192,114845,1,0,0:0:0:0:
64,192,114945,1,0,0:0:0:0:
320,192,115045,1,0,0:0:0:0:
448,192,115045,1,0,0:0:0:0:
320,192,115145,1,0,0:0:0:0:
64,192,115245,128,0,116845:0:0:0:0:
448,192,115245,1,0,0:0:0:0:
192,192,115345,1,0,0:0:0:0:
320,192,115445,1,0,0:0:0:0:
448,192,115445,1,0,0:0:0:0:
192,192,115545,1,0,0:0:0:0:
320,192,115645,1,0,0:0:0:0:
448,192,115645,1,0,0:0:0:0:
192,192,115745,1,0,0:0:0:0:
320,192,115845,1,0,0:0:0:0:
448,192,115845,1,0,0:0:0:0:
192,192,115945,1,0,0:0:0:0:
320,192,116045,1,0,0:0:0:0:
448,192,116045,1,0,0:0:0:0:
192,192,116145,1,0,0:0:0:0:
320,192,116245,1,0,0:0:0:0:
448,192,116245,1,0,0:0:0:0:
192,192,116345,1,0,0:0:0:0:
320,192,116445,1,0,0:0:0:0:
448,192,116445,1,0,0:0:0:0:
192,192,116545,1,0,0:0:0:0:
320,192,116645,1,0,0:0:0:0:
448,192,116645,1,0,0:0:0:0:
192,192,116745,1,0,0:0:0:0:
448,192,116845,128,0,118445:0:0:0:0:
320,192,116845,1,0,0:0:0:0:
192,192,116945,1,0,0:0:0:0:
64,192,117045,1,0,0:0:0:0:
320,192,117145,1,0,0:0:0:0:
192,192,117245,1,0,0:0:0:0:
64,192,117245,1,0,0:0:0:0:
320,192,117345,1,0,0:0:0:0:
192,192,117445,1,0,0:0:0:0:
64,192,117545,1,0,0:0:0:0:
320,192,117645,1,0,0:0:0:0:
192,192,117645,1,0,0:0:0:0:
64,192,117745,1,0,0:0:0:0:
320,192,117845,1,0,0:0:0:0:
192,192,117845,1,0,0:0:0:0:
64,192,117945,1,0,0:0:0:0:
192,192,118045,1,0,0:0:0:0:
320,192,118045,1,0,0:0:0:0:
64,192,118145,1,0,0:0:0:0:
320,192,118245,1,0,0:0:0:0:
192,192,118245,1,0,0:0:0:0:
192,192,118345,1,0,0:0:0:0:
64,192,118445,1,0,0:0:0:0:
320,192,118445,128,0,120045:0:0:0:0:
448,192,118545,1,0,0:0:0:0:
64,192,118645,1,0,0:0:0:0:
192,192,118645,1,0,0:0:0:0:
448,192,118745,1,0,0:0:0:0:
64,192,118845,1,0,0:0:0:0:
192,192,118845,1,0,0:0:0:0:
448,192,118945,1,0,0:0:0:0:
192,192,119045,1,0,0:0:0:0:
64,192,119045,1,0,0:0:0:0:
448,192,119145,1,0,0:0:0:0:
192,192,119245,1,0,0:0:0:0:
64,192,119245,1,0,0:0:0:0:
448,192,119345,1,0,0:0:0:0:
192,192,119445,1,0,0:0:0:0:
64,192,119445,1,0,0:0:0:0:
448,192,119545,1,0,0:0:0:0:
192,192,119645,1,0,0:0:0:0:
64,192,119645,1,0,0:0:0:0:
448,192,119745,1,0,0:0:0:0:
192,192,119845,1,0,0:0:0:0:
64,192,119845,1,0,0:0:0:0:
448,192,119945,1,0,0:0:0:0:
192,192,120045,128,0,121245:0:0:0:0:
64,192,120045,1,0,0:0:0:0:
448,192,120145,1,0,0:0:0:0:
320,192,120245,1,0,0:0:0:0:
64,192,120345,1,0,0:0:0:0:
448,192,120445,1,0,0:0:0:0:
320,192,120445,1,0,0:0:0:0:
64,192,120545,1,0,0:0:0:0:
448,192,120645,1,0,0:0:0:0:
64,192,120745,1,0,0:0:0:0:
320,192,120845,1,0,0:0:0:0:
448,192,120845,1,0,0:0:0:0:
64,192,120945,1,0,0:0:0:0:
320,192,121045,1,0,0:0:0:0:
448,192,121045,1,0,0:0:0:0:
320,192,121245,5,0,0:0:0:0:
448,192,121245,1,0,0:0:0:0:
64,192,121245,1,0,0:0:0:0:
64,192,121445,1,0,0:0:0:0:
192,192,121445,1,0,0:0:0:0:
320,192,121445,1,0,0:0:0:0:
448,192,121445,1,0,0:0:0:0:
192,192,121645,5,0,0:0:0:0:
64,192,121645,1,0,0:0:0:0:
320,192,121645,1,0,0:0:0:0:
448,192,121645,1,0,0:0:0:0:
192,192,121745,1,0,0:0:0:0:
448,192,121745,1,0,0:0:0:0:
192,192,121845,1,0,0:0:0:0:
448,192,121845,1,0,0:0:0:0:
192,192,121945,1,0,0:0:0:0:
448,192,121945,1,0,0:0:0:0:
320,192,122045,1,0,0:0:0:0:
64,192,122045,1,0,0:0:0:0:
448,192,122045,1,0,0:0:0:0:
64,192,122145,1,0,0:0:0:0:
192,192,122145,1,0,0:0:0:0:
192,192,122245,1,0,0:0:0:0:
64,192,122245,1,0,0:0:0:0:
64,192,122345,1,0,0:0:0:0:
192,192,122345,1,0,0:0:0:0:
320,192,122445,1,0,0:0:0:0:
192,192,122445,1,0,0:0:0:0:
448,192,122445,1,0,0:0:0:0:
320,192,122545,1,0,0:0:0:0:
64,192,122545,1,0,0:0:0:0:
320,192,122645,1,0,0:0:0:0:
64,192,122645,1,0,0:0:0:0:
320,192,122745,1,0,0:0:0:0:
64,192,122745,1,0,0:0:0:0:
192,192,122845,1,0,0:0:0:0:
448,192,122845,1,0,0:0:0:0:
64,192,122845,1,0,0:0:0:0:
320,192,122945,1,0,0:0:0:0:
448,192,122945,1,0,0:0:0:0:
320,192,123045,1,0,0:0:0:0:
448,192,123045,1,0,0:0:0:0:
320,192,123145,1,0,0:0:0:0:
448,192,123145,1,0,0:0:0:0:
192,192,123245,1,0,0:0:0:0:
448,192,123245,1,0,0:0:0:0:
64,192,123245,1,0,0:0:0:0:
192,192,123345,1,0,0:0:0:0:
320,192,123345,1,0,0:0:0:0:
192,192,123445,1,0,0:0:0:0:
320,192,123445,1,0,0:0:0:0:
192,192,123545,1,0,0:0:0:0:
320,192,123545,1,0,0:0:0:0:
64,192,123645,1,0,0:0:0:0:
320,192,123645,1,0,0:0:0:0:
448,192,123645,1,0,0:0:0:0:
192,192,123745,1,0,0:0:0:0:
64,192,123745,1,0,0:0:0:0:
192,192,123845,1,0,0:0:0:0:
64,192,123845,1,0,0:0:0:0:
192,192,123945,1,0,0:0:0:0:
64,192,123945,1,0,0:0:0:0:
448,192,124045,1,0,0:0:0:0:
320,192,124045,1,0,0:0:0:0:
320,192,124145,1,0,0:0:0:0:
192,192,124145,1,0,0:0:0:0:
448,192,124245,1,0,0:0:0:0:
64,192,124245,1,0,0:0:0:0:
192,192,124245,1,0,0:0:0:0:
320,192,124345,1,0,0:0:0:0:
448,192,124345,1,0,0:0:0:0:
192,192,124445,1,0,0:0:0:0:
320,192,124445,1,0,0:0:0:0:
192,192,124545,1,0,0:0:0:0:
64,192,124545,1,0,0:0:0:0:
448,192,124645,1,0,0:0:0:0:
320,192,124645,1,0,0:0:0:0:
64,192,124645,1,0,0:0:0:0:
320,192,124745,1,0,0:0:0:0:
192,192,124745,1,0,0:0:0:0:
64,192,124845,1,0,0:0:0:0:
192,192,124845,1,0,0:0:0:0:
64,192,124945,1,0,0:0:0:0:
320,192,124945,1,0,0:0:0:0:
320,192,125045,1,0,0:0:0:0:
64,192,125045,1,0,0:0:0:0:
64,192,125145,1,0,0:0:0:0:
320,192,125145,1,0,0:0:0:0:
192,192,125245,1,0,0:0:0:0:
448,192,125245,1,0,0:0:0:0:
64,192,125245,1,0,0:0:0:0:
448,192,125345,1,0,0:0:0:0:
320,192,125345,1,0,0:0:0:0:
448,192,125445,1,0,0:0:0:0:
320,192,125445,1,0,0:0:0:0:
448,192,125545,1,0,0:0:0:0:
320,192,125545,1,0,0:0:0:0:
64,192,125645,1,0,0:0:0:0:
448,192,125645,1,0,0:0:0:0:
192,192,125645,1,0,0:0:0:0:
64,192,125745,1,0,0:0:0:0:
320,192,125745,1,0,0:0:0:0:
320,192,125845,1,0,0:0:0:0:
64,192,125845,1,0,0:0:0:0:
320,192,125945,1,0,0:0:0:0:
64,192,125945,1,0,0:0:0:0:
448,192,126045,1,0,0:0:0:0:
320,192,126045,1,0,0:0:0:0:
192,192,126045,1,0,0:0:0:0:
192,192,126145,1,0,0:0:0:0:
64,192,126145,1,0,0:0:0:0:
192,192,126245,1,0,0:0:0:0:
64,192,126245,1,0,0:0:0:0:
192,192,126345,1,0,0:0:0:0:
64,192,126345,1,0,0:0:0:0:
448,192,126445,1,0,0:0:0:0:
320,192,126445,1,0,0:0:0:0:
64,192,126445,1,0,0:0:0:0:
192,192,126545,1,0,0:0:0:0:
320,192,126545,1,0,0:0:0:0:
192,192,126645,1,0,0:0:0:0:
320,192,126645,1,0,0:0:0:0:
192,192,126745,1,0,0:0:0:0:
320,192,126745,1,0,0:0:0:0:
448,192,126845,1,0,0:0:0:0:
64,192,126845,1,0,0:0:0:0:
192,192,126845,1,0,0:0:0:0:
320,192,126945,1,0,0:0:0:0:
448,192,126945,1,0,0:0:0:0:
320,192,127045,1,0,0:0:0:0:
448,192,127045,1,0,0:0:0:0:
320,192,127145,1,0,0:0:0:0:
448,192,127145,1,0,0:0:0:0:
192,192,127245,1,0,0:0:0:0:
64,192,127245,1,0,0:0:0:0:
192,192,127345,1,0,0:0:0:0:
320,192,127345,1,0,0:0:0:0:
64,192,127445,1,0,0:0:0:0:
320,192,127445,1,0,0:0:0:0:
448,192,127445,1,0,0:0:0:0:
320,192,127545,1,0,0:0:0:0:
192,192,127545,1,0,0:0:0:0:
64,192,127645,1,0,0:0:0:0:
192,192,127645,1,0,0:0:0:0:
448,192,127745,1,0,0:0:0:0:
320,192,127745,1,0,0:0:0:0:
64,192,127845,1,0,0:0:0:0:
192,192,127845,1,0,0:0:0:0:
320,192,127945,1,0,0:0:0:0:
448,192,127945,1,0,0:0:0:0:
64,192,128045,1,0,0:0:0:0:
192,192,128045,1,0,0:0:0:0:
320,192,128045,1,0,0:0:0:0:
192,192,128145,1,0,0:0:0:0:
448,192,128145,1,0,0:0:0:0:
192,192,128245,1,0,0:0:0:0:
448,192,128245,1,0,0:0:0:0:
192,192,128345,1,0,0:0:0:0:
448,192,128345,1,0,0:0:0:0:
320,192,128445,1,0,0:0:0:0:
64,192,128445,1,0,0:0:0:0:
448,192,128445,1,0,0:0:0:0:
64,192,128545,1,0,0:0:0:0:
192,192,128545,1,0,0:0:0:0:
192,192,128645,1,0,0:0:0:0:
64,192,128645,1,0,0:0:0:0:
192,192,128745,1,0,0:0:0:0:
64,192,128745,1,0,0:0:0:0:
320,192,128845,1,0,0:0:0:0:
448,192,128845,1,0,0:0:0:0:
192,192,128845,1,0,0:0:0:0:
320,192,128945,1,0,0:0:0:0:
64,192,128945,1,0,0:0:0:0:
320,192,129045,1,0,0:0:0:0:
64,192,129045,1,0,0:0:0:0:
320,192,129145,1,0,0:0:0:0:
64,192,129145,1,0,0:0:0:0:
192,192,129245,1,0,0:0:0:0:
320,192,129245,1,0,0:0:0:0:
448,192,129245,1,0,0:0:0:0:
320,192,129345,1,0,0:0:0:0:
448,192,129345,1,0,0:0:0:0:
320,192,129445,1,0,0:0:0:0:
448,192,129445,1,0,0:0:0:0:
320,192,129545,1,0,0:0:0:0:
448,192,129545,1,0,0:0:0:0:
64,192,129645,1,0,0:0:0:0:
192,192,129645,1,0,0:0:0:0:
448,192,129645,1,0,0:0:0:0:
64,192,129745,1,0,0:0:0:0:
320,192,129745,1,0,0:0:0:0:
64,192,129845,1,0,0:0:0:0:
320,192,129845,1,0,0:0:0:0:
64,192,129945,1,0,0:0:0:0:
320,192,129945,1,0,0:0:0:0:
64,192,130045,1,0,0:0:0:0:
448,192,130045,1,0,0:0:0:0:
192,192,130045,1,0,0:0:0:0:
448,192,130145,1,0,0:0:0:0:
320,192,130145,1,0,0:0:0:0:
448,192,130245,1,0,0:0:0:0:
320,192,130245,1,0,0:0:0:0:
448,192,130345,1,0,0:0:0:0:
320,192,130345,1,0,0:0:0:0:
192,192,130445,1,0,0:0:0:0:
64,192,130445,1,0,0:0:0:0:
192,192,130545,1,0,0:0:0:0:
64,192,130545,1,0,0:0:0:0:
64,192,130645,1,0,0:0:0:0:
448,192,130645,1,0,0:0:0:0:
320,192,130645,1,0,0:0:0:0:
320,192,130745,1,0,0:0:0:0:
448,192,130745,1,0,0:0:0:0:
192,192,130845,1,0,0:0:0:0:
64,192,130845,1,0,0:0:0:0:
192,192,130945,1,0,0:0:0:0:
64,192,130945,1,0,0:0:0:0:
64,192,131045,1,0,0:0:0:0:
448,192,131045,1,0,0:0:0:0:
320,192,131045,1,0,0:0:0:0:
320,192,131145,1,0,0:0:0:0:
448,192,131145,1,0,0:0:0:0:
64,192,131245,1,0,0:0:0:0:
192,192,131245,1,0,0:0:0:0:
320,192,131245,1,0,0:0:0:0:
448,192,131245,1,0,0:0:0:0:
448,192,131345,1,0,0:0:0:0:
64,192,131345,1,0,0:0:0:0:
64,192,131445,1,0,0:0:0:0:
448,192,131445,1,0,0:0:0:0:
448,192,131545,1,0,0:0:0:0:
64,192,131545,1,0,0:0:0:0:
448,192,131645,1,0,0:0:0:0:
64,192,131645,1,0,0:0:0:0:
64,192,131745,1,0,0:0:0:0:
448,192,131745,1,0,0:0:0:0:
448,192,131845,1,0,0:0:0:0:
64,192,131845,1,0,0:0:0:0:
64,192,131945,1,0,0:0:0:0:
448,192,131945,1,0,0:0:0:0:
64,192,132045,1,0,0:0:0:0:
320,192,132045,1,0,0:0:0:0:
320,192,132145,1,0,0:0:0:0:
64,192,132145,1,0,0:0:0:0:
192,192,132245,1,0,0:0:0:0:
320,192,132245,1,0,0:0:0:0:
192,192,132345,1,0,0:0:0:0:
320,192,132345,1,0,0:0:0:0:
320,192,132445,1,0,0:0:0:0:
448,192,132445,1,0,0:0:0:0:
320,192,132545,1,0,0:0:0:0:
448,192,132545,1,0,0:0:0:0:
192,192,132645,1,0,0:0:0:0:
64,192,132645,1,0,0:0:0:0:
192,192,132745,1,0,0:0:0:0:
64,192,132745,1,0,0:0:0:0:
320,192,132845,5,0,0:0:0:0:
448,192,132845,1,0,0:0:0:0:
320,192,132945,1,0,0:0:0:0:
448,192,132945,1,0,0:0:0:0:
192,192,133045,1,0,0:0:0:0:
64,192,133045,1,0,0:0:0:0:
320,192,133111,1,0,0:0:0:0:
448,192,133111,1,0,0:0:0:0:
192,192,133178,1,0,0:0:0:0:
64,192,133178,1,0,0:0:0:0:
320,192,133245,1,0,0:0:0:0:
448,192,133245,1,0,0:0:0:0:
64,192,133295,1,0,0:0:0:0:
192,192,133345,1,0,0:0:0:0:
320,192,133395,1,0,0:0:0:0:
448,192,133395,1,0,0:0:0:0:
64,192,133445,1,0,0:0:0:0:
192,192,133445,1,0,0:0:0:0:
320,192,133495,1,0,0:0:0:0:
448,192,133545,1,0,0:0:0:0:
64,192,133578,1,0,0:0:0:0:
192,192,133611,1,0,0:0:0:0:
320,192,133645,1,0,0:0:0:0:
448,192,133678,1,0,0:0:0:0:
64,192,133711,1,0,0:0:0:0:
192,192,133745,1,0,0:0:0:0:
320,192,133778,1,0,0:0:0:0:
448,192,133811,1,0,0:0:0:0:
192,192,133845,1,0,0:0:0:0:
64,192,133878,1,0,0:0:0:0:
448,192,133911,1,0,0:0:0:0:
320,192,133945,1,0,0:0:0:0:
192,192,133978,1,0,0:0:0:0:
64,192,134011,1,0,0:0:0:0:
448,192,134045,1,0,0:0:0:0:
320,192,134070,1,0,0:0:0:0:
192,192,134095,1,0,0:0:0:0:
64,192,134120,1,0,0:0:0:0:
448,192,134145,1,0,0:0:0:0:
320,192,134178,1,0,0:0:0:0:
192,192,134211,1,0,0:0:0:0:
64,192,134245,1,0,0:0:0:0:
320,192,134295,1,0,0:0:0:0:
448,192,134320,1,0,0:0:0:0:
64,192,134345,1,0,0:0:0:0:
192,192,134370,1,0,0:0:0:0:
320,192,134395,1,0,0:0:0:0:
448,192,134420,1,0,0:0:0:0:
