osu file format v14

[General]
AudioFilename: around.mp3
AudioLeadIn: 0
PreviewTime: 66131
Countdown: 0
SampleSet: Soft
StackLeniency: 0.7
Mode: 3
LetterboxInBreaks: 0
SpecialStyle: 0
WidescreenStoryboard: 0

[Editor]
Bookmarks: 8176,22711,37257,51802,66348,80893,95439,109984,124530,139075,146348,155439,169984,184530,199075,213621
DistanceSpacing: 0.8
BeatDivisor: 4
GridSize: 16
TimelineZoom: 2.2

[Metadata]
Title:Wh1teh Pack #1
TitleUnicode:Wh1teh Pack #1
Artist:Various Artists
ArtistUnicode:Various Artists
Creator:Wh1teh
Version:ATC - Around the World
Source:
Tags:Jacks Jumpstream Technical Speed Fennec Fallacy osu!mania 4K World Cup 2018 Quarterfinals MWC18 Soreption Deterioration of Minds DJ SHARPNEL Jea SHARPNELSOUND Strangeprogram Dougal & Gammer Guitar Hero goreshit MATZcore Katanagatari Taku Iwasaki Douse Konna no ga Suki desho? mommy AIRSHAVER Niko Initial D Night of Fire ゆうゆ Yuuyu Scrap Syndrome HALLEY LABS JACKALQ​~​1​.​EXE infected by ROTTEEN​.​DM Infinite Memory Overwrite hapi Hatsune Miku's Head Exercises Atama no Taisou DM Ashura memeMAX deltaMAX DanceDanceRevolution DDR C-CLAYS VaizravaNa 虎柄の毘沙門天 東方星蓮船 ~ Undefined Fantastic Object Shou Toramaru 月時計 ~ ルナ・ダイアル 東方紅魔郷 ~ the Embodiment of Scarlet Devil Sakuya Izayoi Touhou Project ATC All Around The World
BeatmapID:937985
BeatmapSetID:435387

[Difficulty]
HPDrainRate:8.5
CircleSize:4
OverallDifficulty:8.5
ApproachRate:5
SliderMultiplier:1.4
SliderTickRate:1

[Events]
//Background and Video events
0,0,"BGaround.jpg",0,0
//Break Periods
//Storyboard Layer 0 (Background)
//Storyboard Layer 1 (Fail)
//Storyboard Layer 2 (Pass)
//Storyboard Layer 3 (Foreground)
//Storyboard Layer 4 (Overlay)
//Storyboard Sound Samples

[TimingPoints]
895.77956003998,454.545454545455,4,2,0,30,1,0

[HitObjects]
448,192,895,5,0,0:0:0:0:
320,192,1123,1,0,0:0:0:0:
192,192,1350,1,0,0:0:0:0:
320,192,1577,1,0,0:0:0:0:
192,192,1804,1,0,0:0:0:0:
64,192,2032,1,0,0:0:0:0:
192,192,2259,1,0,0:0:0:0:
320,192,2486,1,0,0:0:0:0:
448,192,2713,1,0,0:0:0:0:
192,192,2941,1,0,0:0:0:0:
320,192,3168,1,0,0:0:0:0:
448,192,3395,1,0,0:0:0:0:
64,192,3623,1,0,0:0:0:0:
448,192,3850,1,0,0:0:0:0:
320,192,4077,1,0,0:0:0:0:
192,192,4304,1,0,0:0:0:0:
448,192,4532,1,0,0:0:0:0:
64,192,4759,1,0,0:0:0:0:
192,192,4986,1,0,0:0:0:0:
448,192,5213,1,0,0:0:0:0:
320,192,5441,1,0,0:0:0:0:
64,192,5668,1,0,0:0:0:0:
192,192,5895,1,0,0:0:0:0:
320,192,6123,1,0,0:0:0:0:
448,192,6350,1,0,0:0:0:0:
192,192,6577,1,0,0:0:0:0:
320,192,6804,1,0,0:0:0:0:
192,192,7032,1,0,0:0:0:0:
448,192,7259,1,0,0:0:0:0:
64,192,7486,1,0,0:0:0:0:
192,192,7713,1,0,0:0:0:0:
320,192,7941,1,0,0:0:0:0:
448,192,7941,1,0,0:0:0:0:
192,192,8168,1,0,0:0:0:0:
448,192,8168,1,0,0:0:0:0:
64,192,8395,1,0,0:0:0:0:
192,192,8395,1,0,0:0:0:0:
64,192,8623,1,0,0:0:0:0:
320,192,8623,1,0,0:0:0:0:
320,192,8850,1,0,0:0:0:0:
448,192,8850,1,0,0:0:0:0:
64,192,9077,1,0,0:0:0:0:
448,192,9077,1,0,0:0:0:0:
192,192,9304,1,0,0:0:0:0:
320,192,9532,1,0,0:0:0:0:
448,192,9759,1,0,0:0:0:0:
64,192,9986,1,0,0:0:0:0:
448,192,10213,1,0,0:0:0:0:
192,192,10213,1,0,0:0:0:0:
320,192,10441,1,0,0:0:0:0:
448,192,10441,1,0,0:0:0:0:
64,192,10668,1,0,0:0:0:0:
192,192,10668,1,0,0:0:0:0:
192,192,10895,1,0,0:0:0:0:
320,192,10895,1,0,0:0:0:0:
64,192,11123,1,0,0:0:0:0:
320,192,11123,1,0,0:0:0:0:
192,192,11350,1,0,0:0:0:0:
448,192,11350,1,0,0:0:0:0:
320,192,11577,1,0,0:0:0:0:
448,192,11577,1,0,0:0:0:0:
64,192,11804,1,0,0:0:0:0:
192,192,11804,1,0,0:0:0:0:
64,192,12032,1,0,0:0:0:0:
320,192,12032,1,0,0:0:0:0:
64,192,12259,1,0,0:0:0:0:
448,192,12259,1,0,0:0:0:0:
320,192,12486,1,0,0:0:0:0:
448,192,12486,1,0,0:0:0:0:
64,192,12713,1,0,0:0:0:0:
320,192,12713,1,0,0:0:0:0:
192,192,12941,1,0,0:0:0:0:
320,192,13168,1,0,0:0:0:0:
448,192,13395,1,0,0:0:0:0:
192,192,13623,1,0,0:0:0:0:
64,192,13850,1,0,0:0:0:0:
320,192,13850,1,0,0:0:0:0:
64,192,14077,1,0,0:0:0:0:
192,192,14077,1,0,0:0:0:0:
192,192,14304,1,0,0:0:0:0:
448,192,14304,1,0,0:0:0:0:
64,192,14532,1,0,0:0:0:0:
448,192,14532,1,0,0:0:0:0:
448,192,14759,1,0,0:0:0:0:
320,192,14759,1,0,0:0:0:0:
64,192,14986,1,0,0:0:0:0:
320,192,14986,1,0,0:0:0:0:
192,192,15213,1,0,0:0:0:0:
64,192,15213,1,0,0:0:0:0:
192,192,15441,1,0,0:0:0:0:
448,192,15441,1,0,0:0:0:0:
320,192,15554,1,0,0:0:0:0:
192,192,15668,1,0,0:0:0:0:
64,192,15668,1,0,0:0:0:0:
448,192,15895,1,0,0:0:0:0:
320,192,15895,1,0,0:0:0:0:
192,192,16123,1,0,0:0:0:0:
448,192,16123,1,0,0:0:0:0:
64,192,16350,1,0,0:0:0:0:
192,192,16350,1,0,0:0:0:0:
448,192,16577,1,0,0:0:0:0:
320,192,16804,1,0,0:0:0:0:
192,192,17032,1,0,0:0:0:0:
320,192,17259,1,0,0:0:0:0:
64,192,17486,1,0,0:0:0:0:
448,192,17486,1,0,0:0:0:0:
192,192,17713,1,0,0:0:0:0:
448,192,17713,1,0,0:0:0:0:
192,192,17941,1,0,0:0:0:0:
320,192,17941,1,0,0:0:0:0:
64,192,18168,1,0,0:0:0:0:
192,192,18168,1,0,0:0:0:0:
320,192,18395,1,0,0:0:0:0:
448,192,18395,1,0,0:0:0:0:
192,192,18623,1,0,0:0:0:0:
64,192,18623,1,0,0:0:0:0:
192,192,18850,1,0,0:0:0:0:
448,192,18850,1,0,0:0:0:0:
64,192,19077,1,0,0:0:0:0:
320,192,19077,1,0,0:0:0:0:
192,192,19304,1,0,0:0:0:0:
320,192,19304,1,0,0:0:0:0:
448,192,19532,1,0,0:0:0:0:
192,192,19532,1,0,0:0:0:0:
64,192,19759,1,0,0:0:0:0:
448,192,19759,1,0,0:0:0:0:
320,192,19986,1,0,0:0:0:0:
64,192,19986,1,0,0:0:0:0:
192,192,20213,1,0,0:0:0:0:
320,192,20441,1,0,0:0:0:0:
448,192,20668,1,0,0:0:0:0:
64,192,20895,1,0,0:0:0:0:
192,192,21123,1,0,0:0:0:0:
320,192,21123,1,0,0:0:0:0:
448,192,21350,1,0,0:0:0:0:
192,192,21350,1,0,0:0:0:0:
64,192,21577,1,0,0:0:0:0:
448,192,21577,1,0,0:0:0:0:
64,192,21804,1,0,0:0:0:0:
320,192,21804,1,0,0:0:0:0:
192,192,22032,1,0,0:0:0:0:
320,192,22032,1,0,0:0:0:0:
320,192,22259,1,0,0:0:0:0:
448,192,22259,1,0,0:0:0:0:
192,192,22486,1,0,0:0:0:0:
64,192,22486,1,0,0:0:0:0:
64,192,22713,1,0,0:0:0:0:
192,192,22713,1,0,0:0:0:0:
320,192,22713,1,0,0:0:0:0:
448,192,22713,1,0,0:0:0:0:
192,192,22941,1,0,0:0:0:0:
448,192,23168,1,0,0:0:0:0:
320,192,23168,1,0,0:0:0:0:
192,192,23168,1,0,0:0:0:0:
64,192,23168,1,0,0:0:0:0:
448,192,23395,1,0,0:0:0:0:
448,192,23509,1,0,0:0:0:0:
448,192,23623,1,0,0:0:0:0:
320,192,23623,1,0,0:0:0:0:
192,192,23623,1,0,0:0:0:0:
64,192,23623,1,0,0:0:0:0:
64,192,24077,1,0,0:0:0:0:
192,192,24077,1,0,0:0:0:0:
320,192,24077,1,0,0:0:0:0:
448,192,24077,1,0,0:0:0:0:
320,192,24532,1,0,0:0:0:0:
448,192,24532,1,0,0:0:0:0:
192,192,24532,1,0,0:0:0:0:
64,192,24532,1,0,0:0:0:0:
192,192,24759,1,0,0:0:0:0:
64,192,24986,1,0,0:0:0:0:
192,192,24986,1,0,0:0:0:0:
320,192,24986,1,0,0:0:0:0:
448,192,24986,1,0,0:0:0:0:
320,192,25213,1,0,0:0:0:0:
448,192,25441,1,0,0:0:0:0:
320,192,25441,1,0,0:0:0:0:
192,192,25441,1,0,0:0:0:0:
64,192,25441,1,0,0:0:0:0:
448,192,25668,1,0,0:0:0:0:
64,192,25895,1,0,0:0:0:0:
192,192,25895,1,0,0:0:0:0:
320,192,25895,1,0,0:0:0:0:
448,192,25895,1,0,0:0:0:0:
320,192,26123,1,0,0:0:0:0:
448,192,26350,1,0,0:0:0:0:
320,192,26350,1,0,0:0:0:0:
192,192,26350,1,0,0:0:0:0:
64,192,26350,1,0,0:0:0:0:
64,192,26577,1,0,0:0:0:0:
448,192,26804,1,0,0:0:0:0:
320,192,26804,1,0,0:0:0:0:
192,192,26804,1,0,0:0:0:0:
64,192,26804,1,0,0:0:0:0:
192,192,27032,1,0,0:0:0:0:
192,192,27145,1,0,0:0:0:0:
64,192,27259,1,0,0:0:0:0:
192,192,27259,1,0,0:0:0:0:
320,192,27259,1,0,0:0:0:0:
448,192,27259,1,0,0:0:0:0:
448,192,27713,1,0,0:0:0:0:
320,192,27713,1,0,0:0:0:0:
192,192,27713,1,0,0:0:0:0:
64,192,27713,1,0,0:0:0:0:
64,192,28168,1,0,0:0:0:0:
192,192,28168,1,0,0:0:0:0:
320,192,28168,1,0,0:0:0:0:
448,192,28168,1,0,0:0:0:0:
448,192,28395,1,0,0:0:0:0:
448,192,28623,1,0,0:0:0:0:
320,192,28623,1,0,0:0:0:0:
192,192,28623,1,0,0:0:0:0:
64,192,28623,1,0,0:0:0:0:
192,192,28850,1,0,0:0:0:0:
64,192,29077,1,0,0:0:0:0:
192,192,29077,1,0,0:0:0:0:
320,192,29077,1,0,0:0:0:0:
448,192,29077,1,0,0:0:0:0:
320,192,29304,1,0,0:0:0:0:
448,192,29532,1,0,0:0:0:0:
320,192,29532,1,0,0:0:0:0:
192,192,29532,1,0,0:0:0:0:
64,192,29532,1,0,0:0:0:0:
64,192,29759,1,0,0:0:0:0:
448,192,29986,1,0,0:0:0:0:
320,192,29986,1,0,0:0:0:0:
192,192,29986,1,0,0:0:0:0:
64,192,29986,1,0,0:0:0:0:
192,192,30213,1,0,0:0:0:0:
448,192,30213,1,0,0:0:0:0:
64,192,30441,1,0,0:0:0:0:
192,192,30441,1,0,0:0:0:0:
320,192,30441,1,0,0:0:0:0:
448,192,30441,1,0,0:0:0:0:
320,192,30668,1,0,0:0:0:0:
192,192,30668,1,0,0:0:0:0:
320,192,30782,1,0,0:0:0:0:
448,192,30895,1,0,0:0:0:0:
320,192,30895,1,0,0:0:0:0:
192,192,30895,1,0,0:0:0:0:
64,192,30895,1,0,0:0:0:0:
192,192,31123,1,0,0:0:0:0:
448,192,31350,1,0,0:0:0:0:
320,192,31350,1,0,0:0:0:0:
192,192,31350,1,0,0:0:0:0:
64,192,31350,1,0,0:0:0:0:
320,192,31577,1,0,0:0:0:0:
64,192,31804,1,0,0:0:0:0:
192,192,31804,1,0,0:0:0:0:
320,192,31804,1,0,0:0:0:0:
448,192,31804,1,0,0:0:0:0:
64,192,32032,1,0,0:0:0:0:
320,192,32032,1,0,0:0:0:0:
448,192,32259,1,0,0:0:0:0:
320,192,32259,1,0,0:0:0:0:
192,192,32259,1,0,0:0:0:0:
64,192,32259,1,0,0:0:0:0:
448,192,32486,1,0,0:0:0:0:
64,192,32486,1,0,0:0:0:0:
64,192,32713,1,0,0:0:0:0:
192,192,32713,1,0,0:0:0:0:
320,192,32713,1,0,0:0:0:0:
448,192,32713,1,0,0:0:0:0:
192,192,32941,1,0,0:0:0:0:
448,192,32941,1,0,0:0:0:0:
448,192,33168,1,0,0:0:0:0:
320,192,33168,1,0,0:0:0:0:
192,192,33168,1,0,0:0:0:0:
64,192,33168,1,0,0:0:0:0:
320,192,33395,1,0,0:0:0:0:
448,192,33395,1,0,0:0:0:0:
64,192,33623,1,0,0:0:0:0:
192,192,33623,1,0,0:0:0:0:
320,192,33623,1,0,0:0:0:0:
448,192,33623,1,0,0:0:0:0:
192,192,33850,1,0,0:0:0:0:
64,192,33850,1,0,0:0:0:0:
448,192,34077,1,0,0:0:0:0:
320,192,34077,1,0,0:0:0:0:
64,192,34077,1,0,0:0:0:0:
192,192,34077,1,0,0:0:0:0:
192,192,34304,1,0,0:0:0:0:
320,192,34304,1,0,0:0:0:0:
192,192,34418,1,0,0:0:0:0:
448,192,34532,1,0,0:0:0:0:
320,192,34532,1,0,0:0:0:0:
192,192,34532,1,0,0:0:0:0:
64,192,34532,1,0,0:0:0:0:
448,192,34759,1,0,0:0:0:0:
64,192,34759,1,0,0:0:0:0:
64,192,34986,1,0,0:0:0:0:
192,192,34986,1,0,0:0:0:0:
320,192,34986,1,0,0:0:0:0:
448,192,34986,1,0,0:0:0:0:
192,192,35213,1,0,0:0:0:0:
320,192,35213,1,0,0:0:0:0:
448,192,35441,1,0,0:0:0:0:
320,192,35441,1,0,0:0:0:0:
64,192,35441,1,0,0:0:0:0:
192,192,35441,1,0,0:0:0:0:
320,192,35668,1,0,0:0:0:0:
448,192,35668,1,0,0:0:0:0:
64,192,35668,1,0,0:0:0:0:
448,192,35895,1,0,0:0:0:0:
192,192,35895,1,0,0:0:0:0:
64,192,35895,1,0,0:0:0:0:
192,192,36009,1,0,0:0:0:0:
64,192,36009,1,0,0:0:0:0:
320,192,36123,5,0,0:0:0:0:
448,192,36123,1,0,0:0:0:0:
320,192,36236,1,0,0:0:0:0:
448,192,36236,1,0,0:0:0:0:
64,192,36350,1,0,0:0:0:0:
192,192,36350,1,0,0:0:0:0:
448,192,36350,1,0,0:0:0:0:
192,192,36463,1,0,0:0:0:0:
64,192,36463,1,0,0:0:0:0:
64,192,36577,1,0,0:0:0:0:
320,192,36577,1,0,0:0:0:0:
448,192,36577,1,0,0:0:0:0:
320,192,36691,1,0,0:0:0:0:
448,192,36691,1,0,0:0:0:0:
192,192,36804,1,0,0:0:0:0:
448,192,36804,1,0,0:0:0:0:
64,192,36804,1,0,0:0:0:0:
320,192,37032,1,0,0:0:0:0:
64,192,37032,1,0,0:0:0:0:
192,192,37032,1,0,0:0:0:0:
448,192,37259,5,0,0:0:0:0:
320,192,37259,1,0,0:0:0:0:
192,192,37259,1,0,0:0:0:0:
64,192,37259,1,0,0:0:0:0:
448,192,37373,1,0,0:0:0:0:
320,192,37373,1,0,0:0:0:0:
192,192,37486,1,0,0:0:0:0:
64,192,37486,1,0,0:0:0:0:
448,192,37486,1,0,0:0:0:0:
64,192,37600,1,0,0:0:0:0:
320,192,37600,1,0,0:0:0:0:
448,192,37713,1,0,0:0:0:0:
320,192,37713,1,0,0:0:0:0:
192,192,37713,1,0,0:0:0:0:
64,192,37713,1,0,0:0:0:0:
448,192,37827,1,0,0:0:0:0:
192,192,37827,1,0,0:0:0:0:
192,192,37941,1,0,0:0:0:0:
320,192,37941,1,0,0:0:0:0:
64,192,37941,1,0,0:0:0:0:
64,192,38054,1,0,0:0:0:0:
448,192,38054,1,0,0:0:0:0:
320,192,38054,1,0,0:0:0:0:
64,192,38168,1,0,0:0:0:0:
192,192,38168,1,0,0:0:0:0:
448,192,38168,1,0,0:0:0:0:
192,192,38282,1,0,0:0:0:0:
448,192,38395,1,0,0:0:0:0:
320,192,38395,1,0,0:0:0:0:
320,192,38509,1,0,0:0:0:0:
192,192,38623,1,0,0:0:0:0:
64,192,38623,1,0,0:0:0:0:
448,192,38623,1,0,0:0:0:0:
64,192,38736,1,0,0:0:0:0:
448,192,38850,1,0,0:0:0:0:
192,192,38850,1,0,0:0:0:0:
448,192,38963,1,0,0:0:0:0:
320,192,39077,1,0,0:0:0:0:
192,192,39077,1,0,0:0:0:0:
64,192,39077,1,0,0:0:0:0:
192,192,39191,1,0,0:0:0:0:
320,192,39304,1,0,0:0:0:0:
64,192,39304,1,0,0:0:0:0:
448,192,39304,1,0,0:0:0:0:
192,192,39418,1,0,0:0:0:0:
320,192,39418,1,0,0:0:0:0:
448,192,39532,1,0,0:0:0:0:
320,192,39532,1,0,0:0:0:0:
192,192,39532,1,0,0:0:0:0:
64,192,39532,1,0,0:0:0:0:
448,192,39645,1,0,0:0:0:0:
64,192,39645,1,0,0:0:0:0:
64,192,39759,1,0,0:0:0:0:
320,192,39759,1,0,0:0:0:0:
192,192,39759,1,0,0:0:0:0:
320,192,39873,1,0,0:0:0:0:
448,192,39873,1,0,0:0:0:0:
448,192,39986,1,0,0:0:0:0:
320,192,39986,1,0,0:0:0:0:
192,192,39986,1,0,0:0:0:0:
64,192,39986,1,0,0:0:0:0:
192,192,40100,1,0,0:0:0:0:
64,192,40100,1,0,0:0:0:0:
320,192,40213,1,0,0:0:0:0:
64,192,40213,1,0,0:0:0:0:
448,192,40213,1,0,0:0:0:0:
320,192,40327,1,0,0:0:0:0:
192,192,40327,1,0,0:0:0:0:
64,192,40441,1,0,0:0:0:0:
192,192,40441,1,0,0:0:0:0:
320,192,40441,1,0,0:0:0:0:
448,192,40441,1,0,0:0:0:0:
192,192,40554,1,0,0:0:0:0:
448,192,40554,1,0,0:0:0:0:
320,192,40668,1,0,0:0:0:0:
64,192,40668,1,0,0:0:0:0:
448,192,40668,1,0,0:0:0:0:
64,192,40782,1,0,0:0:0:0:
192,192,40782,1,0,0:0:0:0:
448,192,40895,1,0,0:0:0:0:
320,192,40895,1,0,0:0:0:0:
192,192,40895,1,0,0:0:0:0:
64,192,40895,1,0,0:0:0:0:
320,192,41009,1,0,0:0:0:0:
448,192,41009,1,0,0:0:0:0:
64,192,41123,1,0,0:0:0:0:
448,192,41123,1,0,0:0:0:0:
192,192,41123,1,0,0:0:0:0:
64,192,41236,1,0,0:0:0:0:
320,192,41236,1,0,0:0:0:0:
448,192,41350,1,0,0:0:0:0:
320,192,41350,1,0,0:0:0:0:
192,192,41350,1,0,0:0:0:0:
64,192,41350,1,0,0:0:0:0:
448,192,41463,1,0,0:0:0:0:
192,192,41463,1,0,0:0:0:0:
448,192,41577,1,0,0:0:0:0:
64,192,41577,1,0,0:0:0:0:
320,192,41577,1,0,0:0:0:0:
64,192,41691,1,0,0:0:0:0:
192,192,41691,1,0,0:0:0:0:
320,192,41691,1,0,0:0:0:0:
64,192,41804,1,0,0:0:0:0:
448,192,41804,1,0,0:0:0:0:
192,192,41804,1,0,0:0:0:0:
448,192,41918,1,0,0:0:0:0:
192,192,42032,1,0,0:0:0:0:
64,192,42032,1,0,0:0:0:0:
192,192,42145,1,0,0:0:0:0:
320,192,42259,1,0,0:0:0:0:
64,192,42259,1,0,0:0:0:0:
448,192,42259,1,0,0:0:0:0:
320,192,42373,1,0,0:0:0:0:
448,192,42486,1,0,0:0:0:0:
192,192,42486,1,0,0:0:0:0:
448,192,42600,1,0,0:0:0:0:
320,192,42713,1,0,0:0:0:0:
192,192,42713,1,0,0:0:0:0:
64,192,42713,1,0,0:0:0:0:
64,192,42827,1,0,0:0:0:0:
320,192,42941,1,0,0:0:0:0:
192,192,42941,1,0,0:0:0:0:
448,192,42941,1,0,0:0:0:0:
192,192,43054,1,0,0:0:0:0:
320,192,43054,1,0,0:0:0:0:
448,192,43168,1,0,0:0:0:0:
320,192,43168,1,0,0:0:0:0:
192,192,43168,1,0,0:0:0:0:
64,192,43168,1,0,0:0:0:0:
448,192,43282,1,0,0:0:0:0:
320,192,43282,1,0,0:0:0:0:
64,192,43395,1,0,0:0:0:0:
192,192,43395,1,0,0:0:0:0:
320,192,43395,1,0,0:0:0:0:
192,192,43509,1,0,0:0:0:0:
64,192,43509,1,0,0:0:0:0:
448,192,43623,1,0,0:0:0:0:
320,192,43623,1,0,0:0:0:0:
192,192,43623,1,0,0:0:0:0:
64,192,43623,1,0,0:0:0:0:
192,192,43736,1,0,0:0:0:0:
448,192,43736,1,0,0:0:0:0:
64,192,43850,1,0,0:0:0:0:
320,192,43850,1,0,0:0:0:0:
448,192,43850,1,0,0:0:0:0:
64,192,43963,1,0,0:0:0:0:
320,192,43963,1,0,0:0:0:0:
448,192,44077,1,0,0:0:0:0:
320,192,44077,1,0,0:0:0:0:
64,192,44077,1,0,0:0:0:0:
192,192,44077,1,0,0:0:0:0:
192,192,44191,1,0,0:0:0:0:
320,192,44191,1,0,0:0:0:0:
192,192,44304,1,0,0:0:0:0:
64,192,44304,1,0,0:0:0:0:
448,192,44304,1,0,0:0:0:0:
448,192,44418,1,0,0:0:0:0:
64,192,44418,1,0,0:0:0:0:
64,192,44532,1,0,0:0:0:0:
192,192,44532,1,0,0:0:0:0:
320,192,44532,1,0,0:0:0:0:
448,192,44532,1,0,0:0:0:0:
320,192,44645,1,0,0:0:0:0:
448,192,44645,1,0,0:0:0:0:
192,192,44759,1,0,0:0:0:0:
64,192,44759,1,0,0:0:0:0:
448,192,44759,1,0,0:0:0:0:
320,192,44873,1,0,0:0:0:0:
192,192,44873,1,0,0:0:0:0:
64,192,44986,1,0,0:0:0:0:
192,192,44986,1,0,0:0:0:0:
320,192,44986,1,0,0:0:0:0:
448,192,44986,1,0,0:0:0:0:
64,192,45100,1,0,0:0:0:0:
448,192,45100,1,0,0:0:0:0:
320,192,45213,1,0,0:0:0:0:
192,192,45213,1,0,0:0:0:0:
64,192,45213,1,0,0:0:0:0:
192,192,45327,1,0,0:0:0:0:
320,192,45327,1,0,0:0:0:0:
448,192,45327,1,0,0:0:0:0:
192,192,45441,1,0,0:0:0:0:
64,192,45441,1,0,0:0:0:0:
448,192,45441,1,0,0:0:0:0:
64,192,45554,1,0,0:0:0:0:
448,192,45668,1,0,0:0:0:0:
192,192,45668,1,0,0:0:0:0:
192,192,45782,1,0,0:0:0:0:
64,192,45895,1,0,0:0:0:0:
320,192,45895,1,0,0:0:0:0:
448,192,45895,1,0,0:0:0:0:
320,192,46009,1,0,0:0:0:0:
448,192,46123,1,0,0:0:0:0:
192,192,46123,1,0,0:0:0:0:
448,192,46236,1,0,0:0:0:0:
64,192,46350,1,0,0:0:0:0:
192,192,46350,1,0,0:0:0:0:
320,192,46350,1,0,0:0:0:0:
192,192,46463,1,0,0:0:0:0:
64,192,46577,1,0,0:0:0:0:
320,192,46577,1,0,0:0:0:0:
448,192,46577,1,0,0:0:0:0:
64,192,46691,1,0,0:0:0:0:
192,192,46691,1,0,0:0:0:0:
448,192,46804,1,0,0:0:0:0:
320,192,46804,1,0,0:0:0:0:
192,192,46804,1,0,0:0:0:0:
64,192,46804,1,0,0:0:0:0:
320,192,46918,1,0,0:0:0:0:
448,192,46918,1,0,0:0:0:0:
64,192,47032,1,0,0:0:0:0:
192,192,47032,1,0,0:0:0:0:
320,192,47032,1,0,0:0:0:0:
192,192,47145,1,0,0:0:0:0:
448,192,47145,1,0,0:0:0:0:
448,192,47259,1,0,0:0:0:0:
320,192,47259,1,0,0:0:0:0:
192,192,47259,1,0,0:0:0:0:
64,192,47259,1,0,0:0:0:0:
320,192,47373,1,0,0:0:0:0:
64,192,47373,1,0,0:0:0:0:
320,192,47486,1,0,0:0:0:0:
192,192,47486,1,0,0:0:0:0:
448,192,47486,1,0,0:0:0:0:
64,192,47600,1,0,0:0:0:0:
448,192,47600,1,0,0:0:0:0:
64,192,47713,1,0,0:0:0:0:
192,192,47713,1,0,0:0:0:0:
320,192,47713,1,0,0:0:0:0:
448,192,47713,1,0,0:0:0:0:
320,192,47827,1,0,0:0:0:0:
192,192,47827,1,0,0:0:0:0:
192,192,47941,1,0,0:0:0:0:
64,192,47941,1,0,0:0:0:0:
448,192,47941,1,0,0:0:0:0:
320,192,48054,1,0,0:0:0:0:
448,192,48054,1,0,0:0:0:0:
64,192,48168,1,0,0:0:0:0:
192,192,48168,1,0,0:0:0:0:
320,192,48168,1,0,0:0:0:0:
448,192,48168,1,0,0:0:0:0:
192,192,48282,1,0,0:0:0:0:
64,192,48282,1,0,0:0:0:0:
320,192,48395,1,0,0:0:0:0:
64,192,48395,1,0,0:0:0:0:
448,192,48395,1,0,0:0:0:0:
192,192,48509,1,0,0:0:0:0:
448,192,48509,1,0,0:0:0:0:
64,192,48623,1,0,0:0:0:0:
192,192,48623,1,0,0:0:0:0:
320,192,48623,1,0,0:0:0:0:
448,192,48623,1,0,0:0:0:0:
320,192,48736,1,0,0:0:0:0:
192,192,48736,1,0,0:0:0:0:
320,192,48850,1,0,0:0:0:0:
64,192,48850,1,0,0:0:0:0:
448,192,48850,1,0,0:0:0:0:
64,192,48963,1,0,0:0:0:0:
192,192,48963,1,0,0:0:0:0:
448,192,48963,1,0,0:0:0:0:
320,192,49077,1,0,0:0:0:0:
192,192,49077,1,0,0:0:0:0:
64,192,49077,1,0,0:0:0:0:
192,192,49191,1,0,0:0:0:0:
320,192,49304,1,0,0:0:0:0:
448,192,49304,1,0,0:0:0:0:
448,192,49418,1,0,0:0:0:0:
320,192,49532,1,0,0:0:0:0:
192,192,49532,1,0,0:0:0:0:
64,192,49532,1,0,0:0:0:0:
192,192,49645,1,0,0:0:0:0:
64,192,49759,1,0,0:0:0:0:
320,192,49759,1,0,0:0:0:0:
320,192,49873,1,0,0:0:0:0:
64,192,49986,1,0,0:0:0:0:
192,192,49986,1,0,0:0:0:0:
448,192,49986,1,0,0:0:0:0:
192,192,50100,1,0,0:0:0:0:
64,192,50213,1,0,0:0:0:0:
320,192,50213,1,0,0:0:0:0:
448,192,50213,1,0,0:0:0:0:
192,192,50327,1,0,0:0:0:0:
64,192,50327,1,0,0:0:0:0:
448,192,50441,1,0,0:0:0:0:
320,192,50441,1,0,0:0:0:0:
192,192,50441,1,0,0:0:0:0:
64,192,50441,1,0,0:0:0:0:
320,192,50554,1,0,0:0:0:0:
64,192,50668,1,0,0:0:0:0:
192,192,50668,1,0,0:0:0:0:
320,192,50668,1,0,0:0:0:0:
448,192,50668,1,0,0:0:0:0:
448,192,50782,1,0,0:0:0:0:
192,192,50782,1,0,0:0:0:0:
448,192,50895,1,0,0:0:0:0:
320,192,50895,1,0,0:0:0:0:
192,192,50895,1,0,0:0:0:0:
64,192,50895,1,0,0:0:0:0:
64,192,51009,1,0,0:0:0:0:
64,192,51123,1,0,0:0:0:0:
192,192,51123,1,0,0:0:0:0:
320,192,51123,1,0,0:0:0:0:
448,192,51123,1,0,0:0:0:0:
320,192,51236,1,0,0:0:0:0:
448,192,51236,1,0,0:0:0:0:
64,192,51350,1,0,0:0:0:0:
192,192,51350,1,0,0:0:0:0:
320,192,51350,1,0,0:0:0:0:
448,192,51350,1,0,0:0:0:0:
192,192,51463,1,0,0:0:0:0:
320,192,51463,1,0,0:0:0:0:
64,192,51577,1,0,0:0:0:0:
320,192,51577,1,0,0:0:0:0:
192,192,51577,1,0,0:0:0:0:
448,192,51577,1,0,0:0:0:0:
64,192,51691,1,0,0:0:0:0:
448,192,51691,1,0,0:0:0:0:
192,192,51691,1,0,0:0:0:0:
64,192,51804,1,0,0:0:0:0:
192,192,51804,1,0,0:0:0:0:
320,192,51804,1,0,0:0:0:0:
448,192,51804,1,0,0:0:0:0:
320,192,51918,1,0,0:0:0:0:
192,192,52032,1,0,0:0:0:0:
64,192,52032,1,0,0:0:0:0:
192,192,52145,1,0,0:0:0:0:
64,192,52259,1,0,0:0:0:0:
320,192,52259,1,0,0:0:0:0:
448,192,52259,1,0,0:0:0:0:
320,192,52373,1,0,0:0:0:0:
192,192,52486,1,0,0:0:0:0:
448,192,52486,1,0,0:0:0:0:
448,192,52600,1,0,0:0:0:0:
448,192,52713,1,0,0:0:0:0:
320,192,52713,1,0,0:0:0:0:
192,192,52713,1,0,0:0:0:0:
64,192,52713,1,0,0:0:0:0:
192,192,52827,1,0,0:0:0:0:
320,192,52941,1,0,0:0:0:0:
64,192,52941,1,0,0:0:0:0:
64,192,53054,1,0,0:0:0:0:
192,192,53168,1,0,0:0:0:0:
320,192,53168,1,0,0:0:0:0:
448,192,53168,1,0,0:0:0:0:
320,192,53282,1,0,0:0:0:0:
192,192,53395,1,0,0:0:0:0:
448,192,53395,1,0,0:0:0:0:
192,192,53509,1,0,0:0:0:0:
448,192,53623,1,0,0:0:0:0:
320,192,53623,1,0,0:0:0:0:
192,192,53623,1,0,0:0:0:0:
64,192,53623,1,0,0:0:0:0:
448,192,53736,1,0,0:0:0:0:
192,192,53850,1,0,0:0:0:0:
64,192,53850,1,0,0:0:0:0:
192,192,53963,1,0,0:0:0:0:
448,192,54077,1,0,0:0:0:0:
64,192,54077,1,0,0:0:0:0:
320,192,54077,1,0,0:0:0:0:
320,192,54191,1,0,0:0:0:0:
192,192,54304,1,0,0:0:0:0:
448,192,54304,1,0,0:0:0:0:
192,192,54418,1,0,0:0:0:0:
320,192,54532,1,0,0:0:0:0:
448,192,54532,1,0,0:0:0:0:
192,192,54532,1,0,0:0:0:0:
64,192,54532,1,0,0:0:0:0:
64,192,54645,1,0,0:0:0:0:
320,192,54759,1,0,0:0:0:0:
448,192,54759,1,0,0:0:0:0:
448,192,54873,1,0,0:0:0:0:
64,192,54986,1,0,0:0:0:0:
192,192,54986,1,0,0:0:0:0:
320,192,54986,1,0,0:0:0:0:
320,192,55100,1,0,0:0:0:0:
64,192,55213,1,0,0:0:0:0:
192,192,55213,1,0,0:0:0:0:
448,192,55213,1,0,0:0:0:0:
192,192,55327,1,0,0:0:0:0:
64,192,55327,1,0,0:0:0:0:
448,192,55327,1,0,0:0:0:0:
448,192,55441,1,0,0:0:0:0:
320,192,55441,1,0,0:0:0:0:
192,192,55441,1,0,0:0:0:0:
64,192,55441,1,0,0:0:0:0:
192,192,55554,1,0,0:0:0:0:
320,192,55668,1,0,0:0:0:0:
448,192,55668,1,0,0:0:0:0:
448,192,55782,1,0,0:0:0:0:
192,192,55895,1,0,0:0:0:0:
64,192,55895,1,0,0:0:0:0:
320,192,55895,1,0,0:0:0:0:
64,192,56009,1,0,0:0:0:0:
192,192,56123,1,0,0:0:0:0:
448,192,56123,1,0,0:0:0:0:
448,192,56236,1,0,0:0:0:0:
448,192,56350,1,0,0:0:0:0:
320,192,56350,1,0,0:0:0:0:
192,192,56350,1,0,0:0:0:0:
64,192,56350,1,0,0:0:0:0:
320,192,56463,1,0,0:0:0:0:
192,192,56577,1,0,0:0:0:0:
64,192,56577,1,0,0:0:0:0:
192,192,56691,1,0,0:0:0:0:
64,192,56804,1,0,0:0:0:0:
320,192,56804,1,0,0:0:0:0:
448,192,56804,1,0,0:0:0:0:
448,192,56918,1,0,0:0:0:0:
192,192,57032,1,0,0:0:0:0:
320,192,57032,1,0,0:0:0:0:
192,192,57145,1,0,0:0:0:0:
448,192,57259,1,0,0:0:0:0:
320,192,57259,1,0,0:0:0:0:
192,192,57259,1,0,0:0:0:0:
64,192,57259,1,0,0:0:0:0:
320,192,57373,1,0,0:0:0:0:
64,192,57486,1,0,0:0:0:0:
192,192,57486,1,0,0:0:0:0:
64,192,57600,1,0,0:0:0:0:
320,192,57713,1,0,0:0:0:0:
448,192,57713,1,0,0:0:0:0:
192,192,57713,1,0,0:0:0:0:
192,192,57827,1,0,0:0:0:0:
64,192,57941,1,0,0:0:0:0:
448,192,57941,1,0,0:0:0:0:
448,192,58054,1,0,0:0:0:0:
448,192,58168,1,0,0:0:0:0:
320,192,58168,1,0,0:0:0:0:
192,192,58168,1,0,0:0:0:0:
64,192,58168,1,0,0:0:0:0:
64,192,58282,1,0,0:0:0:0:
320,192,58395,1,0,0:0:0:0:
192,192,58395,1,0,0:0:0:0:
320,192,58509,1,0,0:0:0:0:
192,192,58623,1,0,0:0:0:0:
64,192,58623,1,0,0:0:0:0:
448,192,58623,1,0,0:0:0:0:
192,192,58736,1,0,0:0:0:0:
64,192,58850,1,0,0:0:0:0:
448,192,58850,1,0,0:0:0:0:
320,192,58850,1,0,0:0:0:0:
448,192,58963,1,0,0:0:0:0:
64,192,58963,1,0,0:0:0:0:
320,192,58963,1,0,0:0:0:0:
64,192,59077,1,0,0:0:0:0:
192,192,59077,1,0,0:0:0:0:
448,192,59077,1,0,0:0:0:0:
320,192,59077,1,0,0:0:0:0:
320,192,59191,1,0,0:0:0:0:
192,192,59304,1,0,0:0:0:0:
64,192,59304,1,0,0:0:0:0:
64,192,59418,1,0,0:0:0:0:
192,192,59532,1,0,0:0:0:0:
320,192,59532,1,0,0:0:0:0:
448,192,59532,1,0,0:0:0:0:
192,192,59645,1,0,0:0:0:0:
320,192,59759,1,0,0:0:0:0:
448,192,59759,1,0,0:0:0:0:
448,192,59873,1,0,0:0:0:0:
448,192,59986,1,0,0:0:0:0:
320,192,59986,1,0,0:0:0:0:
192,192,59986,1,0,0:0:0:0:
64,192,59986,1,0,0:0:0:0:
192,192,60100,1,0,0:0:0:0:
64,192,60213,1,0,0:0:0:0:
320,192,60213,1,0,0:0:0:0:
320,192,60327,1,0,0:0:0:0:
192,192,60441,1,0,0:0:0:0:
64,192,60441,1,0,0:0:0:0:
448,192,60441,1,0,0:0:0:0:
64,192,60554,1,0,0:0:0:0:
192,192,60668,1,0,0:0:0:0:
320,192,60668,1,0,0:0:0:0:
320,192,60782,1,0,0:0:0:0:
448,192,60895,1,0,0:0:0:0:
320,192,60895,1,0,0:0:0:0:
192,192,60895,1,0,0:0:0:0:
64,192,60895,1,0,0:0:0:0:
192,192,61009,1,0,0:0:0:0:
448,192,61123,1,0,0:0:0:0:
64,192,61123,1,0,0:0:0:0:
64,192,61236,1,0,0:0:0:0:
192,192,61350,1,0,0:0:0:0:
320,192,61350,1,0,0:0:0:0:
448,192,61350,1,0,0:0:0:0:
320,192,61463,1,0,0:0:0:0:
192,192,61577,1,0,0:0:0:0:
64,192,61577,1,0,0:0:0:0:
64,192,61691,1,0,0:0:0:0:
448,192,61804,1,0,0:0:0:0:
320,192,61804,1,0,0:0:0:0:
192,192,61804,1,0,0:0:0:0:
64,192,61804,1,0,0:0:0:0:
320,192,61918,1,0,0:0:0:0:
192,192,62032,1,0,0:0:0:0:
448,192,62032,1,0,0:0:0:0:
192,192,62145,1,0,0:0:0:0:
64,192,62259,1,0,0:0:0:0:
320,192,62259,1,0,0:0:0:0:
448,192,62259,1,0,0:0:0:0:
448,192,62373,1,0,0:0:0:0:
64,192,62486,1,0,0:0:0:0:
192,192,62486,1,0,0:0:0:0:
320,192,62486,1,0,0:0:0:0:
320,192,62600,1,0,0:0:0:0:
192,192,62600,1,0,0:0:0:0:
64,192,62600,1,0,0:0:0:0:
448,192,62713,1,0,0:0:0:0:
320,192,62713,1,0,0:0:0:0:
192,192,62713,1,0,0:0:0:0:
64,192,62713,1,0,0:0:0:0:
448,192,62827,1,0,0:0:0:0:
64,192,62941,1,0,0:0:0:0:
320,192,62941,1,0,0:0:0:0:
64,192,63054,1,0,0:0:0:0:
192,192,63168,1,0,0:0:0:0:
320,192,63168,1,0,0:0:0:0:
448,192,63168,1,0,0:0:0:0:
320,192,63282,1,0,0:0:0:0:
192,192,63395,1,0,0:0:0:0:
448,192,63395,1,0,0:0:0:0:
192,192,63509,1,0,0:0:0:0:
448,192,63623,1,0,0:0:0:0:
320,192,63623,1,0,0:0:0:0:
64,192,63623,1,0,0:0:0:0:
192,192,63623,1,0,0:0:0:0:
448,192,63736,1,0,0:0:0:0:
192,192,63850,1,0,0:0:0:0:
64,192,63850,1,0,0:0:0:0:
192,192,63963,1,0,0:0:0:0:
64,192,64077,1,0,0:0:0:0:
320,192,64077,1,0,0:0:0:0:
448,192,64077,1,0,0:0:0:0:
320,192,64191,1,0,0:0:0:0:
192,192,64304,1,0,0:0:0:0:
448,192,64304,1,0,0:0:0:0:
192,192,64418,1,0,0:0:0:0:
448,192,64532,1,0,0:0:0:0:
320,192,64532,1,0,0:0:0:0:
192,192,64532,1,0,0:0:0:0:
64,192,64532,1,0,0:0:0:0:
320,192,64645,1,0,0:0:0:0:
448,192,64759,1,0,0:0:0:0:
192,192,64759,1,0,0:0:0:0:
64,192,64759,1,0,0:0:0:0:
192,192,64873,1,0,0:0:0:0:
64,192,64873,1,0,0:0:0:0:
64,192,64986,5,0,0:0:0:0:
192,192,64986,1,0,0:0:0:0:
320,192,64986,1,0,0:0:0:0:
448,192,65100,1,0,0:0:0:0:
320,192,65213,1,0,0:0:0:0:
448,192,65213,1,0,0:0:0:0:
192,192,65213,1,0,0:0:0:0:
448,192,65327,1,0,0:0:0:0:
320,192,65327,1,0,0:0:0:0:
64,192,65441,1,0,0:0:0:0:
192,192,65441,1,0,0:0:0:0:
320,192,65441,1,0,0:0:0:0:
192,192,65554,1,0,0:0:0:0:
64,192,65554,1,0,0:0:0:0:
320,192,65668,1,0,0:0:0:0:
448,192,65668,1,0,0:0:0:0:
64,192,65668,1,0,0:0:0:0:
192,192,65782,1,0,0:0:0:0:
320,192,65782,1,0,0:0:0:0:
64,192,65895,1,0,0:0:0:0:
448,192,65895,1,0,0:0:0:0:
192,192,65895,1,0,0:0:0:0:
320,192,65895,1,0,0:0:0:0:
192,192,66009,1,0,0:0:0:0:
320,192,66123,5,0,0:0:0:0:
448,192,66123,1,0,0:0:0:0:
320,192,66236,5,0,0:0:0:0:
448,192,66236,1,0,0:0:0:0:
64,192,66350,5,0,0:0:0:0:
192,192,66350,1,0,0:0:0:0:
320,192,66350,1,0,0:0:0:0:
320,192,66577,1,0,0:0:0:0:
192,192,66577,1,0,0:0:0:0:
64,192,66804,1,0,0:0:0:0:
320,192,66804,1,0,0:0:0:0:
448,192,66804,1,0,0:0:0:0:
192,192,67032,1,0,0:0:0:0:
448,192,67032,1,0,0:0:0:0:
192,192,67259,1,0,0:0:0:0:
64,192,67259,1,0,0:0:0:0:
320,192,67486,1,0,0:0:0:0:
192,192,67713,1,0,0:0:0:0:
64,192,67713,1,0,0:0:0:0:
448,192,67713,1,0,0:0:0:0:
320,192,67941,1,0,0:0:0:0:
192,192,68168,1,0,0:0:0:0:
64,192,68168,1,0,0:0:0:0:
320,192,68395,1,0,0:0:0:0:
448,192,68395,1,0,0:0:0:0:
448,192,68623,1,0,0:0:0:0:
192,192,68623,1,0,0:0:0:0:
64,192,68623,1,0,0:0:0:0:
320,192,68850,1,0,0:0:0:0:
192,192,68850,1,0,0:0:0:0:
192,192,69077,1,0,0:0:0:0:
448,192,69077,1,0,0:0:0:0:
64,192,69304,1,0,0:0:0:0:
320,192,69304,1,0,0:0:0:0:
192,192,69532,1,0,0:0:0:0:
448,192,69532,1,0,0:0:0:0:
320,192,69532,1,0,0:0:0:0:
64,192,69759,1,0,0:0:0:0:
192,192,69759,1,0,0:0:0:0:
320,192,69986,1,0,0:0:0:0:
448,192,69986,1,0,0:0:0:0:
192,192,70213,1,0,0:0:0:0:
64,192,70213,1,0,0:0:0:0:
192,192,70441,1,0,0:0:0:0:
448,192,70441,1,0,0:0:0:0:
320,192,70441,1,0,0:0:0:0:
64,192,70668,1,0,0:0:0:0:
320,192,70668,1,0,0:0:0:0:
192,192,70895,1,0,0:0:0:0:
448,192,70895,1,0,0:0:0:0:
320,192,71123,1,0,0:0:0:0:
192,192,71350,1,0,0:0:0:0:
64,192,71350,1,0,0:0:0:0:
448,192,71350,1,0,0:0:0:0:
320,192,71577,1,0,0:0:0:0:
192,192,71804,5,0,0:0:0:0:
448,192,71804,1,0,0:0:0:0:
320,192,72032,1,0,0:0:0:0:
448,192,72032,1,0,0:0:0:0:
192,192,72259,1,0,0:0:0:0:
320,192,72259,1,0,0:0:0:0:
64,192,72259,1,0,0:0:0:0:
192,192,72486,1,0,0:0:0:0:
448,192,72486,1,0,0:0:0:0:
64,192,72713,1,0,0:0:0:0:
320,192,72713,1,0,0:0:0:0:
192,192,72941,5,0,0:0:0:0:
64,192,72941,1,0,0:0:0:0:
192,192,73054,1,0,0:0:0:0:
64,192,73054,1,0,0:0:0:0:
192,192,73168,1,0,0:0:0:0:
64,192,73168,1,0,0:0:0:0:
192,192,73282,1,0,0:0:0:0:
64,192,73282,1,0,0:0:0:0:
320,192,73395,1,0,0:0:0:0:
448,192,73395,1,0,0:0:0:0:
192,192,73509,1,0,0:0:0:0:
64,192,73509,1,0,0:0:0:0:
320,192,73623,1,0,0:0:0:0:
192,192,73623,1,0,0:0:0:0:
64,192,73623,1,0,0:0:0:0:
448,192,73623,1,0,0:0:0:0:
320,192,73850,1,0,0:0:0:0:
448,192,73850,1,0,0:0:0:0:
192,192,74077,1,0,0:0:0:0:
448,192,74077,1,0,0:0:0:0:
64,192,74077,1,0,0:0:0:0:
320,192,74304,1,0,0:0:0:0:
64,192,74304,1,0,0:0:0:0:
320,192,74532,1,0,0:0:0:0:
448,192,74532,1,0,0:0:0:0:
192,192,74759,1,0,0:0:0:0:
64,192,74986,1,0,0:0:0:0:
320,192,74986,1,0,0:0:0:0:
448,192,74986,1,0,0:0:0:0:
192,192,75213,1,0,0:0:0:0:
320,192,75441,1,0,0:0:0:0:
448,192,75441,1,0,0:0:0:0:
192,192,75668,1,0,0:0:0:0:
320,192,75668,1,0,0:0:0:0:
64,192,75895,1,0,0:0:0:0:
192,192,75895,1,0,0:0:0:0:
448,192,75895,1,0,0:0:0:0:
192,192,76123,5,0,0:0:0:0:
320,192,76123,1,0,0:0:0:0:
64,192,76350,1,0,0:0:0:0:
320,192,76350,1,0,0:0:0:0:
192,192,76577,1,0,0:0:0:0:
64,192,76577,1,0,0:0:0:0:
320,192,76804,1,0,0:0:0:0:
448,192,76804,1,0,0:0:0:0:
320,192,77032,1,0,0:0:0:0:
64,192,77032,1,0,0:0:0:0:
448,192,77259,5,0,0:0:0:0:
320,192,77259,1,0,0:0:0:0:
192,192,77259,1,0,0:0:0:0:
64,192,77259,1,0,0:0:0:0:
64,192,77486,1,0,0:0:0:0:
192,192,77486,1,0,0:0:0:0:
448,192,77486,1,0,0:0:0:0:
448,192,77713,1,0,0:0:0:0:
320,192,77713,1,0,0:0:0:0:
64,192,77713,1,0,0:0:0:0:
192,192,77713,1,0,0:0:0:0:
64,192,77941,1,0,0:0:0:0:
192,192,77941,1,0,0:0:0:0:
320,192,77941,1,0,0:0:0:0:
320,192,78054,1,0,0:0:0:0:
448,192,78054,1,0,0:0:0:0:
192,192,78054,1,0,0:0:0:0:
64,192,78168,1,0,0:0:0:0:
320,192,78168,1,0,0:0:0:0:
448,192,78168,1,0,0:0:0:0:
192,192,78395,1,0,0:0:0:0:
448,192,78623,1,0,0:0:0:0:
64,192,78623,1,0,0:0:0:0:
192,192,78623,1,0,0:0:0:0:
320,192,78850,1,0,0:0:0:0:
448,192,79077,1,0,0:0:0:0:
64,192,79077,1,0,0:0:0:0:
320,192,79077,1,0,0:0:0:0:
192,192,79077,1,0,0:0:0:0:
192,192,79304,1,0,0:0:0:0:
320,192,79304,1,0,0:0:0:0:
192,192,79532,1,0,0:0:0:0:
448,192,79532,1,0,0:0:0:0:
64,192,79532,1,0,0:0:0:0:
64,192,79759,5,0,0:0:0:0:
192,192,79759,1,0,0:0:0:0:
320,192,79759,1,0,0:0:0:0:
320,192,79873,1,0,0:0:0:0:
320,192,79986,1,0,0:0:0:0:
192,192,79986,1,0,0:0:0:0:
64,192,79986,1,0,0:0:0:0:
320,192,80100,1,0,0:0:0:0:
320,192,80213,1,0,0:0:0:0:
192,192,80327,1,0,0:0:0:0:
320,192,80327,1,0,0:0:0:0:
64,192,80441,1,0,0:0:0:0:
448,192,80441,1,0,0:0:0:0:
448,192,80554,1,0,0:0:0:0:
64,192,80554,1,0,0:0:0:0:
192,192,80668,1,0,0:0:0:0:
320,192,80668,1,0,0:0:0:0:
448,192,80895,1,0,0:0:0:0:
320,192,80895,1,0,0:0:0:0:
192,192,80895,1,0,0:0:0:0:
64,192,80895,1,0,0:0:0:0:
64,192,81123,1,0,0:0:0:0:
448,192,81123,1,0,0:0:0:0:
64,192,81350,1,0,0:0:0:0:
192,192,81350,1,0,0:0:0:0:
320,192,81350,1,0,0:0:0:0:
448,192,81350,1,0,0:0:0:0:
64,192,81577,1,0,0:0:0:0:
320,192,81577,1,0,0:0:0:0:
64,192,81804,1,0,0:0:0:0:
192,192,81804,1,0,0:0:0:0:
320,192,81804,1,0,0:0:0:0:
448,192,81804,1,0,0:0:0:0:
320,192,82032,1,0,0:0:0:0:
448,192,82032,1,0,0:0:0:0:
448,192,82259,1,0,0:0:0:0:
320,192,82259,1,0,0:0:0:0:
192,192,82259,1,0,0:0:0:0:
64,192,82259,1,0,0:0:0:0:
192,192,82486,1,0,0:0:0:0:
192,192,82713,1,0,0:0:0:0:
64,192,82713,1,0,0:0:0:0:
320,192,82713,1,0,0:0:0:0:
448,192,82713,1,0,0:0:0:0:
320,192,82941,1,0,0:0:0:0:
64,192,82941,1,0,0:0:0:0:
448,192,83168,1,0,0:0:0:0:
320,192,83168,1,0,0:0:0:0:
192,192,83168,1,0,0:0:0:0:
64,192,83168,1,0,0:0:0:0:
192,192,83395,1,0,0:0:0:0:
448,192,83395,1,0,0:0:0:0:
64,192,83623,1,0,0:0:0:0:
192,192,83623,1,0,0:0:0:0:
320,192,83623,1,0,0:0:0:0:
448,192,83623,1,0,0:0:0:0:
64,192,83850,1,0,0:0:0:0:
192,192,83850,1,0,0:0:0:0:
448,192,84077,1,0,0:0:0:0:
320,192,84077,1,0,0:0:0:0:
192,192,84077,1,0,0:0:0:0:
64,192,84077,1,0,0:0:0:0:
192,192,84304,1,0,0:0:0:0:
320,192,84304,1,0,0:0:0:0:
64,192,84532,1,0,0:0:0:0:
192,192,84532,1,0,0:0:0:0:
320,192,84532,1,0,0:0:0:0:
448,192,84532,1,0,0:0:0:0:
448,192,84759,1,0,0:0:0:0:
64,192,84759,1,0,0:0:0:0:
64,192,84986,1,0,0:0:0:0:
192,192,84986,1,0,0:0:0:0:
320,192,84986,1,0,0:0:0:0:
448,192,84986,1,0,0:0:0:0:
192,192,85213,1,0,0:0:0:0:
64,192,85213,1,0,0:0:0:0:
448,192,85441,1,0,0:0:0:0:
320,192,85441,1,0,0:0:0:0:
192,192,85441,1,0,0:0:0:0:
64,192,85441,1,0,0:0:0:0:
320,192,85668,1,0,0:0:0:0:
448,192,85668,1,0,0:0:0:0:
64,192,85895,1,0,0:0:0:0:
192,192,85895,1,0,0:0:0:0:
320,192,85895,1,0,0:0:0:0:
448,192,85895,1,0,0:0:0:0:
192,192,86123,1,0,0:0:0:0:
448,192,86350,1,0,0:0:0:0:
320,192,86350,1,0,0:0:0:0:
192,192,86350,1,0,0:0:0:0:
64,192,86350,1,0,0:0:0:0:
64,192,86577,1,0,0:0:0:0:
320,192,86577,1,0,0:0:0:0:
64,192,86804,1,0,0:0:0:0:
192,192,86804,1,0,0:0:0:0:
320,192,86804,1,0,0:0:0:0:
448,192,86804,1,0,0:0:0:0:
320,192,87032,1,0,0:0:0:0:
192,192,87032,1,0,0:0:0:0:
448,192,87259,1,0,0:0:0:0:
320,192,87259,1,0,0:0:0:0:
192,192,87259,1,0,0:0:0:0:
64,192,87259,1,0,0:0:0:0:
192,192,87486,1,0,0:0:0:0:
448,192,87486,1,0,0:0:0:0:
64,192,87713,1,0,0:0:0:0:
192,192,87713,1,0,0:0:0:0:
320,192,87713,1,0,0:0:0:0:
448,192,87713,1,0,0:0:0:0:
448,192,87941,1,0,0:0:0:0:
320,192,87941,1,0,0:0:0:0:
192,192,88054,1,0,0:0:0:0:
64,192,88168,1,0,0:0:0:0:
192,192,88168,1,0,0:0:0:0:
320,192,88168,1,0,0:0:0:0:
448,192,88168,1,0,0:0:0:0:
320,192,88395,1,0,0:0:0:0:
64,192,88395,1,0,0:0:0:0:
448,192,88623,1,0,0:0:0:0:
320,192,88623,1,0,0:0:0:0:
192,192,88623,1,0,0:0:0:0:
64,192,88623,1,0,0:0:0:0:
192,192,88850,1,0,0:0:0:0:
320,192,88850,1,0,0:0:0:0:
64,192,89077,1,0,0:0:0:0:
192,192,89077,1,0,0:0:0:0:
320,192,89077,1,0,0:0:0:0:
448,192,89077,1,0,0:0:0:0:
64,192,89304,1,0,0:0:0:0:
64,192,89532,1,0,0:0:0:0:
192,192,89532,1,0,0:0:0:0:
320,192,89532,1,0,0:0:0:0:
448,192,89532,1,0,0:0:0:0:
320,192,89759,1,0,0:0:0:0:
448,192,89986,1,0,0:0:0:0:
320,192,89986,1,0,0:0:0:0:
192,192,89986,1,0,0:0:0:0:
64,192,89986,1,0,0:0:0:0:
448,192,90213,1,0,0:0:0:0:
192,192,90213,1,0,0:0:0:0:
64,192,90441,1,0,0:0:0:0:
192,192,90441,1,0,0:0:0:0:
320,192,90441,1,0,0:0:0:0:
448,192,90441,1,0,0:0:0:0:
64,192,90668,1,0,0:0:0:0:
448,192,90668,1,0,0:0:0:0:
448,192,90895,1,0,0:0:0:0:
320,192,90895,1,0,0:0:0:0:
192,192,90895,1,0,0:0:0:0:
64,192,90895,1,0,0:0:0:0:
320,192,91123,1,0,0:0:0:0:
64,192,91123,1,0,0:0:0:0:
64,192,91350,1,0,0:0:0:0:
192,192,91350,1,0,0:0:0:0:
320,192,91350,1,0,0:0:0:0:
448,192,91350,1,0,0:0:0:0:
192,192,91577,1,0,0:0:0:0:
64,192,91577,1,0,0:0:0:0:
448,192,91804,1,0,0:0:0:0:
320,192,91804,1,0,0:0:0:0:
192,192,91804,1,0,0:0:0:0:
64,192,91804,1,0,0:0:0:0:
320,192,92032,1,0,0:0:0:0:
448,192,92032,1,0,0:0:0:0:
64,192,92259,1,0,0:0:0:0:
192,192,92259,1,0,0:0:0:0:
448,192,92259,1,0,0:0:0:0:
320,192,92259,1,0,0:0:0:0:
320,192,92486,1,0,0:0:0:0:
192,192,92486,1,0,0:0:0:0:
64,192,92713,1,0,0:0:0:0:
192,192,92713,1,0,0:0:0:0:
320,192,92713,1,0,0:0:0:0:
448,192,92713,1,0,0:0:0:0:
64,192,92941,1,0,0:0:0:0:
448,192,92941,1,0,0:0:0:0:
448,192,93168,1,0,0:0:0:0:
320,192,93168,1,0,0:0:0:0:
192,192,93168,1,0,0:0:0:0:
64,192,93168,1,0,0:0:0:0:
320,192,93395,1,0,0:0:0:0:
192,192,93395,1,0,0:0:0:0:
64,192,93623,1,0,0:0:0:0:
192,192,93623,1,0,0:0:0:0:
448,192,93623,1,0,0:0:0:0:
320,192,93623,1,0,0:0:0:0:
192,192,93850,1,0,0:0:0:0:
64,192,93850,1,0,0:0:0:0:
448,192,93850,1,0,0:0:0:0:
64,192,94077,1,0,0:0:0:0:
320,192,94077,1,0,0:0:0:0:
448,192,94077,1,0,0:0:0:0:
320,192,94191,1,0,0:0:0:0:
448,192,94191,1,0,0:0:0:0:
192,192,94304,5,0,0:0:0:0:
64,192,94304,1,0,0:0:0:0:
192,192,94418,1,0,0:0:0:0:
64,192,94418,1,0,0:0:0:0:
448,192,94532,1,0,0:0:0:0:
320,192,94532,1,0,0:0:0:0:
64,192,94532,1,0,0:0:0:0:
320,192,94645,1,0,0:0:0:0:
448,192,94645,1,0,0:0:0:0:
448,192,94759,1,0,0:0:0:0:
192,192,94759,1,0,0:0:0:0:
64,192,94759,1,0,0:0:0:0:
192,192,94873,1,0,0:0:0:0:
64,192,94873,1,0,0:0:0:0:
320,192,94986,1,0,0:0:0:0:
64,192,94986,1,0,0:0:0:0:
448,192,94986,1,0,0:0:0:0:
192,192,95213,1,0,0:0:0:0:
448,192,95213,1,0,0:0:0:0:
320,192,95213,1,0,0:0:0:0:
64,192,95441,5,0,0:0:0:0:
192,192,95441,1,0,0:0:0:0:
320,192,95441,1,0,0:0:0:0:
448,192,95441,1,0,0:0:0:0:
64,192,95554,1,0,0:0:0:0:
192,192,95554,1,0,0:0:0:0:
320,192,95668,1,0,0:0:0:0:
448,192,95668,1,0,0:0:0:0:
64,192,95668,1,0,0:0:0:0:
448,192,95782,1,0,0:0:0:0:
192,192,95782,1,0,0:0:0:0:
448,192,95895,1,0,0:0:0:0:
192,192,95895,1,0,0:0:0:0:
64,192,95895,1,0,0:0:0:0:
64,192,96009,1,0,0:0:0:0:
320,192,96009,1,0,0:0:0:0:
320,192,96123,1,0,0:0:0:0:
192,192,96123,1,0,0:0:0:0:
448,192,96123,1,0,0:0:0:0:
448,192,96236,1,0,0:0:0:0:
64,192,96236,1,0,0:0:0:0:
192,192,96236,1,0,0:0:0:0:
448,192,96350,1,0,0:0:0:0:
320,192,96350,1,0,0:0:0:0:
320,192,96463,1,0,0:0:0:0:
64,192,96577,1,0,0:0:0:0:
192,192,96577,1,0,0:0:0:0:
192,192,96691,1,0,0:0:0:0:
320,192,96804,1,0,0:0:0:0:
448,192,96804,1,0,0:0:0:0:
448,192,96918,1,0,0:0:0:0:
64,192,97032,1,0,0:0:0:0:
320,192,97032,1,0,0:0:0:0:
64,192,97145,1,0,0:0:0:0:
192,192,97259,1,0,0:0:0:0:
448,192,97259,1,0,0:0:0:0:
192,192,97373,1,0,0:0:0:0:
320,192,97486,1,0,0:0:0:0:
448,192,97486,1,0,0:0:0:0:
64,192,97486,1,0,0:0:0:0:
320,192,97600,1,0,0:0:0:0:
192,192,97600,1,0,0:0:0:0:
64,192,97713,1,0,0:0:0:0:
192,192,97713,1,0,0:0:0:0:
448,192,97713,1,0,0:0:0:0:
64,192,97827,1,0,0:0:0:0:
448,192,97827,1,0,0:0:0:0:
448,192,97941,1,0,0:0:0:0:
192,192,97941,1,0,0:0:0:0:
320,192,97941,1,0,0:0:0:0:
192,192,98054,1,0,0:0:0:0:
64,192,98054,1,0,0:0:0:0:
64,192,98168,1,0,0:0:0:0:
192,192,98168,1,0,0:0:0:0:
320,192,98168,1,0,0:0:0:0:
320,192,98282,1,0,0:0:0:0:
448,192,98282,1,0,0:0:0:0:
192,192,98395,1,0,0:0:0:0:
448,192,98395,1,0,0:0:0:0:
64,192,98395,1,0,0:0:0:0:
192,192,98509,1,0,0:0:0:0:
320,192,98509,1,0,0:0:0:0:
448,192,98623,1,0,0:0:0:0:
320,192,98623,1,0,0:0:0:0:
192,192,98623,1,0,0:0:0:0:
320,192,98736,1,0,0:0:0:0:
64,192,98736,1,0,0:0:0:0:
192,192,98850,1,0,0:0:0:0:
448,192,98850,1,0,0:0:0:0:
64,192,98850,1,0,0:0:0:0:
448,192,98963,1,0,0:0:0:0:
320,192,98963,1,0,0:0:0:0:
64,192,99077,1,0,0:0:0:0:
192,192,99077,1,0,0:0:0:0:
320,192,99077,1,0,0:0:0:0:
192,192,99191,1,0,0:0:0:0:
64,192,99191,1,0,0:0:0:0:
448,192,99304,1,0,0:0:0:0:
64,192,99304,1,0,0:0:0:0:
320,192,99304,1,0,0:0:0:0:
448,192,99418,1,0,0:0:0:0:
192,192,99418,1,0,0:0:0:0:
64,192,99532,1,0,0:0:0:0:
448,192,99532,1,0,0:0:0:0:
192,192,99532,1,0,0:0:0:0:
64,192,99645,1,0,0:0:0:0:
320,192,99645,1,0,0:0:0:0:
64,192,99759,1,0,0:0:0:0:
448,192,99759,1,0,0:0:0:0:
192,192,99759,1,0,0:0:0:0:
448,192,99873,1,0,0:0:0:0:
320,192,99873,1,0,0:0:0:0:
192,192,99873,1,0,0:0:0:0:
64,192,99986,1,0,0:0:0:0:
320,192,99986,1,0,0:0:0:0:
64,192,100100,1,0,0:0:0:0:
320,192,100213,1,0,0:0:0:0:
448,192,100213,1,0,0:0:0:0:
320,192,100327,1,0,0:0:0:0:
192,192,100441,1,0,0:0:0:0:
448,192,100441,1,0,0:0:0:0:
192,192,100554,1,0,0:0:0:0:
64,192,100668,1,0,0:0:0:0:
320,192,100668,1,0,0:0:0:0:
64,192,100782,1,0,0:0:0:0:
320,192,100895,1,0,0:0:0:0:
448,192,100895,1,0,0:0:0:0:
448,192,101009,1,0,0:0:0:0:
192,192,101123,1,0,0:0:0:0:
320,192,101123,1,0,0:0:0:0:
64,192,101123,1,0,0:0:0:0:
320,192,101236,1,0,0:0:0:0:
192,192,101236,1,0,0:0:0:0:
64,192,101350,1,0,0:0:0:0:
320,192,101350,1,0,0:0:0:0:
448,192,101350,1,0,0:0:0:0:
64,192,101463,1,0,0:0:0:0:
192,192,101463,1,0,0:0:0:0:
448,192,101577,1,0,0:0:0:0:
320,192,101577,1,0,0:0:0:0:
192,192,101577,1,0,0:0:0:0:
320,192,101691,1,0,0:0:0:0:
448,192,101691,1,0,0:0:0:0:
64,192,101804,1,0,0:0:0:0:
192,192,101804,1,0,0:0:0:0:
448,192,101804,1,0,0:0:0:0:
320,192,101918,1,0,0:0:0:0:
64,192,101918,1,0,0:0:0:0:
448,192,102032,1,0,0:0:0:0:
192,192,102032,1,0,0:0:0:0:
64,192,102032,1,0,0:0:0:0:
448,192,102145,1,0,0:0:0:0:
192,192,102145,1,0,0:0:0:0:
64,192,102259,1,0,0:0:0:0:
192,192,102259,1,0,0:0:0:0:
448,192,102259,1,0,0:0:0:0:
320,192,102373,1,0,0:0:0:0:
192,192,102373,1,0,0:0:0:0:
320,192,102486,1,0,0:0:0:0:
448,192,102486,1,0,0:0:0:0:
64,192,102486,1,0,0:0:0:0:
64,192,102600,1,0,0:0:0:0:
448,192,102600,1,0,0:0:0:0:
448,192,102713,1,0,0:0:0:0:
320,192,102713,1,0,0:0:0:0:
192,192,102713,1,0,0:0:0:0:
192,192,102827,1,0,0:0:0:0:
64,192,102827,1,0,0:0:0:0:
320,192,102941,1,0,0:0:0:0:
448,192,102941,1,0,0:0:0:0:
64,192,102941,1,0,0:0:0:0:
192,192,103054,1,0,0:0:0:0:
320,192,103054,1,0,0:0:0:0:
448,192,103168,1,0,0:0:0:0:
64,192,103168,1,0,0:0:0:0:
192,192,103168,1,0,0:0:0:0:
448,192,103282,1,0,0:0:0:0:
64,192,103282,1,0,0:0:0:0:
192,192,103395,1,0,0:0:0:0:
320,192,103395,1,0,0:0:0:0:
448,192,103395,1,0,0:0:0:0:
320,192,103509,1,0,0:0:0:0:
192,192,103509,1,0,0:0:0:0:
64,192,103509,1,0,0:0:0:0:
448,192,103623,1,0,0:0:0:0:
192,192,103623,1,0,0:0:0:0:
448,192,103736,1,0,0:0:0:0:
64,192,103850,1,0,0:0:0:0:
320,192,103850,1,0,0:0:0:0:
320,192,103963,1,0,0:0:0:0:
448,192,104077,1,0,0:0:0:0:
192,192,104077,1,0,0:0:0:0:
192,192,104191,1,0,0:0:0:0:
64,192,104304,1,0,0:0:0:0:
320,192,104304,1,0,0:0:0:0:
64,192,104418,1,0,0:0:0:0:
448,192,104532,1,0,0:0:0:0:
320,192,104532,1,0,0:0:0:0:
320,192,104645,1,0,0:0:0:0:
448,192,104759,1,0,0:0:0:0:
192,192,104759,1,0,0:0:0:0:
64,192,104759,1,0,0:0:0:0:
448,192,104873,1,0,0:0:0:0:
320,192,104873,1,0,0:0:0:0:
448,192,104986,1,0,0:0:0:0:
320,192,104986,1,0,0:0:0:0:
192,192,104986,1,0,0:0:0:0:
192,192,105100,1,0,0:0:0:0:
64,192,105100,1,0,0:0:0:0:
448,192,105213,1,0,0:0:0:0:
320,192,105213,1,0,0:0:0:0:
64,192,105213,1,0,0:0:0:0:
320,192,105327,1,0,0:0:0:0:
64,192,105327,1,0,0:0:0:0:
64,192,105441,1,0,0:0:0:0:
192,192,105441,1,0,0:0:0:0:
448,192,105441,1,0,0:0:0:0:
192,192,105554,1,0,0:0:0:0:
448,192,105554,1,0,0:0:0:0:
192,192,105668,1,0,0:0:0:0:
320,192,105668,1,0,0:0:0:0:
64,192,105668,1,0,0:0:0:0:
448,192,105782,1,0,0:0:0:0:
64,192,105782,1,0,0:0:0:0:
448,192,105895,1,0,0:0:0:0:
320,192,105895,1,0,0:0:0:0:
192,192,105895,1,0,0:0:0:0:
320,192,106009,1,0,0:0:0:0:
448,192,106009,1,0,0:0:0:0:
448,192,106123,1,0,0:0:0:0:
64,192,106123,1,0,0:0:0:0:
192,192,106123,1,0,0:0:0:0:
64,192,106236,1,0,0:0:0:0:
192,192,106236,1,0,0:0:0:0:
64,192,106350,1,0,0:0:0:0:
320,192,106350,1,0,0:0:0:0:
448,192,106350,1,0,0:0:0:0:
448,192,106463,1,0,0:0:0:0:
192,192,106463,1,0,0:0:0:0:
192,192,106577,1,0,0:0:0:0:
448,192,106577,1,0,0:0:0:0:
64,192,106577,1,0,0:0:0:0:
320,192,106691,1,0,0:0:0:0:
64,192,106691,1,0,0:0:0:0:
448,192,106804,1,0,0:0:0:0:
64,192,106804,1,0,0:0:0:0:
320,192,106804,1,0,0:0:0:0:
192,192,106918,1,0,0:0:0:0:
320,192,106918,1,0,0:0:0:0:
192,192,107032,1,0,0:0:0:0:
448,192,107032,1,0,0:0:0:0:
64,192,107032,1,0,0:0:0:0:
448,192,107145,1,0,0:0:0:0:
320,192,107145,1,0,0:0:0:0:
64,192,107145,1,0,0:0:0:0:
192,192,107259,1,0,0:0:0:0:
448,192,107259,1,0,0:0:0:0:
448,192,107373,1,0,0:0:0:0:
192,192,107486,1,0,0:0:0:0:
64,192,107486,1,0,0:0:0:0:
64,192,107600,1,0,0:0:0:0:
320,192,107713,1,0,0:0:0:0:
448,192,107713,1,0,0:0:0:0:
320,192,107827,1,0,0:0:0:0:
448,192,107941,1,0,0:0:0:0:
192,192,107941,1,0,0:0:0:0:
192,192,108054,1,0,0:0:0:0:
320,192,108168,1,0,0:0:0:0:
64,192,108168,1,0,0:0:0:0:
320,192,108282,1,0,0:0:0:0:
448,192,108395,1,0,0:0:0:0:
192,192,108395,1,0,0:0:0:0:
64,192,108395,1,0,0:0:0:0:
320,192,108509,1,0,0:0:0:0:
448,192,108509,1,0,0:0:0:0:
64,192,108623,1,0,0:0:0:0:
192,192,108623,1,0,0:0:0:0:
448,192,108623,1,0,0:0:0:0:
192,192,108736,1,0,0:0:0:0:
64,192,108736,1,0,0:0:0:0:
448,192,108850,5,0,0:0:0:0:
320,192,108850,1,0,0:0:0:0:
64,192,108850,1,0,0:0:0:0:
320,192,108963,1,0,0:0:0:0:
448,192,108963,1,0,0:0:0:0:
64,192,109077,1,0,0:0:0:0:
192,192,109077,1,0,0:0:0:0:
320,192,109077,1,0,0:0:0:0:
448,192,109191,1,0,0:0:0:0:
64,192,109191,1,0,0:0:0:0:
448,192,109304,1,0,0:0:0:0:
320,192,109304,1,0,0:0:0:0:
192,192,109304,1,0,0:0:0:0:
192,192,109418,1,0,0:0:0:0:
64,192,109418,1,0,0:0:0:0:
448,192,109532,1,0,0:0:0:0:
320,192,109532,1,0,0:0:0:0:
64,192,109532,1,0,0:0:0:0:
448,192,109645,1,0,0:0:0:0:
320,192,109645,1,0,0:0:0:0:
448,192,109759,1,0,0:0:0:0:
192,192,109759,1,0,0:0:0:0:
64,192,109759,1,0,0:0:0:0:
320,192,109873,1,0,0:0:0:0:
192,192,109873,1,0,0:0:0:0:
64,192,109986,5,0,0:0:0:0:
320,192,109986,1,0,0:0:0:0:
192,192,109986,1,0,0:0:0:0:
448,192,109986,1,0,0:0:0:0:
64,192,110100,1,0,0:0:0:0:
192,192,110100,1,0,0:0:0:0:
320,192,110213,1,0,0:0:0:0:
448,192,110213,1,0,0:0:0:0:
64,192,110213,1,0,0:0:0:0:
448,192,110327,1,0,0:0:0:0:
192,192,110327,1,0,0:0:0:0:
64,192,110441,1,0,0:0:0:0:
192,192,110441,1,0,0:0:0:0:
320,192,110441,1,0,0:0:0:0:
448,192,110441,1,0,0:0:0:0:
64,192,110554,1,0,0:0:0:0:
320,192,110554,1,0,0:0:0:0:
320,192,110668,1,0,0:0:0:0:
192,192,110668,1,0,0:0:0:0:
448,192,110668,1,0,0:0:0:0:
448,192,110782,1,0,0:0:0:0:
64,192,110782,1,0,0:0:0:0:
192,192,110782,1,0,0:0:0:0:
448,192,110895,1,0,0:0:0:0:
320,192,110895,1,0,0:0:0:0:
64,192,110895,1,0,0:0:0:0:
320,192,111009,1,0,0:0:0:0:
64,192,111123,1,0,0:0:0:0:
192,192,111123,1,0,0:0:0:0:
192,192,111236,1,0,0:0:0:0:
320,192,111350,1,0,0:0:0:0:
448,192,111350,1,0,0:0:0:0:
64,192,111350,1,0,0:0:0:0:
448,192,111463,1,0,0:0:0:0:
64,192,111577,1,0,0:0:0:0:
320,192,111577,1,0,0:0:0:0:
64,192,111691,1,0,0:0:0:0:
192,192,111804,1,0,0:0:0:0:
320,192,111804,1,0,0:0:0:0:
448,192,111804,1,0,0:0:0:0:
320,192,111918,1,0,0:0:0:0:
192,192,112032,1,0,0:0:0:0:
448,192,112032,1,0,0:0:0:0:
64,192,112032,1,0,0:0:0:0:
320,192,112145,1,0,0:0:0:0:
192,192,112145,1,0,0:0:0:0:
64,192,112259,1,0,0:0:0:0:
192,192,112259,1,0,0:0:0:0:
320,192,112259,1,0,0:0:0:0:
448,192,112259,1,0,0:0:0:0:
64,192,112373,1,0,0:0:0:0:
448,192,112373,1,0,0:0:0:0:
448,192,112486,1,0,0:0:0:0:
192,192,112486,1,0,0:0:0:0:
320,192,112486,1,0,0:0:0:0:
192,192,112600,1,0,0:0:0:0:
64,192,112600,1,0,0:0:0:0:
64,192,112713,1,0,0:0:0:0:
192,192,112713,1,0,0:0:0:0:
320,192,112713,1,0,0:0:0:0:
448,192,112713,1,0,0:0:0:0:
320,192,112827,1,0,0:0:0:0:
448,192,112827,1,0,0:0:0:0:
192,192,112941,1,0,0:0:0:0:
448,192,112941,1,0,0:0:0:0:
64,192,112941,1,0,0:0:0:0:
192,192,113054,1,0,0:0:0:0:
320,192,113054,1,0,0:0:0:0:
448,192,113168,1,0,0:0:0:0:
320,192,113168,1,0,0:0:0:0:
192,192,113168,1,0,0:0:0:0:
64,192,113168,1,0,0:0:0:0:
320,192,113282,1,0,0:0:0:0:
64,192,113282,1,0,0:0:0:0:
192,192,113395,1,0,0:0:0:0:
448,192,113395,1,0,0:0:0:0:
64,192,113395,1,0,0:0:0:0:
448,192,113509,1,0,0:0:0:0:
320,192,113509,1,0,0:0:0:0:
64,192,113623,1,0,0:0:0:0:
192,192,113623,1,0,0:0:0:0:
320,192,113623,1,0,0:0:0:0:
448,192,113623,1,0,0:0:0:0:
192,192,113736,1,0,0:0:0:0:
64,192,113736,1,0,0:0:0:0:
448,192,113850,1,0,0:0:0:0:
64,192,113850,1,0,0:0:0:0:
320,192,113850,1,0,0:0:0:0:
448,192,113963,1,0,0:0:0:0:
192,192,113963,1,0,0:0:0:0:
64,192,114077,1,0,0:0:0:0:
192,192,114077,1,0,0:0:0:0:
320,192,114077,1,0,0:0:0:0:
448,192,114077,1,0,0:0:0:0:
64,192,114191,1,0,0:0:0:0:
320,192,114191,1,0,0:0:0:0:
64,192,114304,1,0,0:0:0:0:
448,192,114304,1,0,0:0:0:0:
192,192,114304,1,0,0:0:0:0:
448,192,114418,1,0,0:0:0:0:
320,192,114418,1,0,0:0:0:0:
192,192,114418,1,0,0:0:0:0:
448,192,114532,1,0,0:0:0:0:
64,192,114532,1,0,0:0:0:0:
320,192,114532,1,0,0:0:0:0:
64,192,114645,1,0,0:0:0:0:
320,192,114759,1,0,0:0:0:0:
448,192,114759,1,0,0:0:0:0:
320,192,114873,1,0,0:0:0:0:
192,192,114986,1,0,0:0:0:0:
448,192,114986,1,0,0:0:0:0:
64,192,114986,1,0,0:0:0:0:
192,192,115100,1,0,0:0:0:0:
64,192,115213,1,0,0:0:0:0:
320,192,115213,1,0,0:0:0:0:
64,192,115327,1,0,0:0:0:0:
192,192,115441,1,0,0:0:0:0:
320,192,115441,1,0,0:0:0:0:
448,192,115441,1,0,0:0:0:0:
448,192,115554,1,0,0:0:0:0:
192,192,115668,1,0,0:0:0:0:
320,192,115668,1,0,0:0:0:0:
64,192,115668,1,0,0:0:0:0:
320,192,115782,1,0,0:0:0:0:
192,192,115782,1,0,0:0:0:0:
64,192,115895,1,0,0:0:0:0:
192,192,115895,1,0,0:0:0:0:
320,192,115895,1,0,0:0:0:0:
448,192,115895,1,0,0:0:0:0:
64,192,116009,1,0,0:0:0:0:
192,192,116009,1,0,0:0:0:0:
448,192,116123,1,0,0:0:0:0:
320,192,116123,1,0,0:0:0:0:
192,192,116123,1,0,0:0:0:0:
320,192,116236,1,0,0:0:0:0:
448,192,116236,1,0,0:0:0:0:
64,192,116350,1,0,0:0:0:0:
192,192,116350,1,0,0:0:0:0:
320,192,116350,1,0,0:0:0:0:
448,192,116350,1,0,0:0:0:0:
320,192,116463,1,0,0:0:0:0:
64,192,116463,1,0,0:0:0:0:
448,192,116577,1,0,0:0:0:0:
192,192,116577,1,0,0:0:0:0:
64,192,116577,1,0,0:0:0:0:
448,192,116691,1,0,0:0:0:0:
192,192,116691,1,0,0:0:0:0:
64,192,116804,1,0,0:0:0:0:
192,192,116804,1,0,0:0:0:0:
448,192,116804,1,0,0:0:0:0:
320,192,116804,1,0,0:0:0:0:
320,192,116918,1,0,0:0:0:0:
192,192,116918,1,0,0:0:0:0:
320,192,117032,1,0,0:0:0:0:
448,192,117032,1,0,0:0:0:0:
64,192,117032,1,0,0:0:0:0:
64,192,117145,1,0,0:0:0:0:
448,192,117145,1,0,0:0:0:0:
448,192,117259,1,0,0:0:0:0:
320,192,117259,1,0,0:0:0:0:
192,192,117259,1,0,0:0:0:0:
64,192,117259,1,0,0:0:0:0:
192,192,117373,1,0,0:0:0:0:
64,192,117373,1,0,0:0:0:0:
320,192,117486,1,0,0:0:0:0:
448,192,117486,1,0,0:0:0:0:
64,192,117486,1,0,0:0:0:0:
192,192,117600,1,0,0:0:0:0:
320,192,117600,1,0,0:0:0:0:
448,192,117713,1,0,0:0:0:0:
320,192,117713,1,0,0:0:0:0:
192,192,117713,1,0,0:0:0:0:
64,192,117713,1,0,0:0:0:0:
448,192,117827,1,0,0:0:0:0:
64,192,117827,1,0,0:0:0:0:
192,192,117941,1,0,0:0:0:0:
320,192,117941,1,0,0:0:0:0:
448,192,117941,1,0,0:0:0:0:
320,192,118054,1,0,0:0:0:0:
192,192,118054,1,0,0:0:0:0:
64,192,118054,1,0,0:0:0:0:
320,192,118168,1,0,0:0:0:0:
448,192,118168,1,0,0:0:0:0:
64,192,118168,1,0,0:0:0:0:
448,192,118282,1,0,0:0:0:0:
64,192,118395,1,0,0:0:0:0:
320,192,118395,1,0,0:0:0:0:
320,192,118509,1,0,0:0:0:0:
448,192,118623,1,0,0:0:0:0:
192,192,118623,1,0,0:0:0:0:
64,192,118623,1,0,0:0:0:0:
192,192,118736,1,0,0:0:0:0:
64,192,118850,1,0,0:0:0:0:
320,192,118850,1,0,0:0:0:0:
64,192,118963,1,0,0:0:0:0:
448,192,119077,1,0,0:0:0:0:
320,192,119077,1,0,0:0:0:0:
192,192,119077,1,0,0:0:0:0:
320,192,119191,1,0,0:0:0:0:
448,192,119304,1,0,0:0:0:0:
192,192,119304,1,0,0:0:0:0:
64,192,119304,1,0,0:0:0:0:
448,192,119418,1,0,0:0:0:0:
320,192,119418,1,0,0:0:0:0:
64,192,119532,1,0,0:0:0:0:
192,192,119532,1,0,0:0:0:0:
320,192,119532,1,0,0:0:0:0:
448,192,119532,1,0,0:0:0:0:
192,192,119645,1,0,0:0:0:0:
64,192,119645,1,0,0:0:0:0:
448,192,119759,1,0,0:0:0:0:
320,192,119759,1,0,0:0:0:0:
192,192,119759,1,0,0:0:0:0:
320,192,119873,1,0,0:0:0:0:
64,192,119873,1,0,0:0:0:0:
64,192,119986,1,0,0:0:0:0:
192,192,119986,1,0,0:0:0:0:
320,192,119986,1,0,0:0:0:0:
448,192,119986,1,0,0:0:0:0:
192,192,120100,1,0,0:0:0:0:
448,192,120100,1,0,0:0:0:0:
192,192,120213,1,0,0:0:0:0:
320,192,120213,1,0,0:0:0:0:
64,192,120213,1,0,0:0:0:0:
448,192,120327,1,0,0:0:0:0:
64,192,120327,1,0,0:0:0:0:
448,192,120441,1,0,0:0:0:0:
320,192,120441,1,0,0:0:0:0:
192,192,120441,1,0,0:0:0:0:
64,192,120441,1,0,0:0:0:0:
192,192,120554,1,0,0:0:0:0:
320,192,120554,1,0,0:0:0:0:
320,192,120668,1,0,0:0:0:0:
448,192,120668,1,0,0:0:0:0:
64,192,120668,1,0,0:0:0:0:
192,192,120782,1,0,0:0:0:0:
64,192,120782,1,0,0:0:0:0:
448,192,120895,1,0,0:0:0:0:
320,192,120895,1,0,0:0:0:0:
192,192,120895,1,0,0:0:0:0:
64,192,120895,1,0,0:0:0:0:
320,192,121009,1,0,0:0:0:0:
448,192,121009,1,0,0:0:0:0:
192,192,121123,1,0,0:0:0:0:
448,192,121123,1,0,0:0:0:0:
64,192,121123,1,0,0:0:0:0:
320,192,121236,1,0,0:0:0:0:
64,192,121236,1,0,0:0:0:0:
448,192,121350,1,0,0:0:0:0:
320,192,121350,1,0,0:0:0:0:
192,192,121350,1,0,0:0:0:0:
64,192,121350,1,0,0:0:0:0:
192,192,121463,1,0,0:0:0:0:
320,192,121463,1,0,0:0:0:0:
192,192,121577,1,0,0:0:0:0:
448,192,121577,1,0,0:0:0:0:
64,192,121577,1,0,0:0:0:0:
448,192,121691,1,0,0:0:0:0:
320,192,121691,1,0,0:0:0:0:
64,192,121691,1,0,0:0:0:0:
192,192,121804,1,0,0:0:0:0:
320,192,121804,1,0,0:0:0:0:
448,192,121804,1,0,0:0:0:0:
320,192,121918,1,0,0:0:0:0:
192,192,122032,1,0,0:0:0:0:
64,192,122032,1,0,0:0:0:0:
64,192,122145,1,0,0:0:0:0:
192,192,122259,1,0,0:0:0:0:
320,192,122259,1,0,0:0:0:0:
448,192,122259,1,0,0:0:0:0:
320,192,122373,1,0,0:0:0:0:
448,192,122486,1,0,0:0:0:0:
192,192,122486,1,0,0:0:0:0:
192,192,122600,1,0,0:0:0:0:
448,192,122713,1,0,0:0:0:0:
320,192,122713,1,0,0:0:0:0:
64,192,122713,1,0,0:0:0:0:
192,192,122941,1,0,0:0:0:0:
64,192,122941,1,0,0:0:0:0:
320,192,122941,1,0,0:0:0:0:
64,192,123168,1,0,0:0:0:0:
320,192,123168,1,0,0:0:0:0:
448,192,123168,1,0,0:0:0:0:
448,192,123395,1,0,0:0:0:0:
192,192,123395,1,0,0:0:0:0:
64,192,123395,1,0,0:0:0:0:
192,192,123623,1,0,0:0:0:0:
320,192,123623,1,0,0:0:0:0:
448,192,123623,1,0,0:0:0:0:
448,192,123850,1,0,0:0:0:0:
64,192,123850,1,0,0:0:0:0:
320,192,123850,1,0,0:0:0:0:
448,192,124077,1,0,0:0:0:0:
192,192,124077,1,0,0:0:0:0:
64,192,124077,1,0,0:0:0:0:
192,192,124191,1,0,0:0:0:0:
448,192,124304,1,0,0:0:0:0:
320,192,124304,1,0,0:0:0:0:
64,192,124304,1,0,0:0:0:0:
320,192,124418,1,0,0:0:0:0:
448,192,124418,1,0,0:0:0:0:
64,192,124418,1,0,0:0:0:0:
448,192,124532,1,0,0:0:0:0:
320,192,124532,1,0,0:0:0:0:
192,192,124532,1,0,0:0:0:0:
64,192,124532,1,0,0:0:0:0:
192,192,124645,1,0,0:0:0:0:
320,192,124759,1,0,0:0:0:0:
448,192,124759,1,0,0:0:0:0:
320,192,124873,1,0,0:0:0:0:
448,192,124986,1,0,0:0:0:0:
192,192,124986,1,0,0:0:0:0:
64,192,124986,1,0,0:0:0:0:
192,192,125100,1,0,0:0:0:0:
320,192,125213,1,0,0:0:0:0:
64,192,125213,1,0,0:0:0:0:
64,192,125327,1,0,0:0:0:0:
64,192,125441,1,0,0:0:0:0:
192,192,125441,1,0,0:0:0:0:
320,192,125441,1,0,0:0:0:0:
448,192,125441,1,0,0:0:0:0:
320,192,125554,1,0,0:0:0:0:
192,192,125668,1,0,0:0:0:0:
448,192,125668,1,0,0:0:0:0:
448,192,125782,1,0,0:0:0:0:
320,192,125895,1,0,0:0:0:0:
192,192,125895,1,0,0:0:0:0:
64,192,125895,1,0,0:0:0:0:
192,192,126009,1,0,0:0:0:0:
320,192,126123,1,0,0:0:0:0:
64,192,126123,1,0,0:0:0:0:
320,192,126236,1,0,0:0:0:0:
64,192,126350,1,0,0:0:0:0:
192,192,126350,1,0,0:0:0:0:
320,192,126350,1,0,0:0:0:0:
448,192,126350,1,0,0:0:0:0:
64,192,126463,1,0,0:0:0:0:
320,192,126577,1,0,0:0:0:0:
448,192,126577,1,0,0:0:0:0:
320,192,126691,1,0,0:0:0:0:
64,192,126804,1,0,0:0:0:0:
448,192,126804,1,0,0:0:0:0:
192,192,126804,1,0,0:0:0:0:
192,192,126918,1,0,0:0:0:0:
320,192,127032,1,0,0:0:0:0:
64,192,127032,1,0,0:0:0:0:
320,192,127145,1,0,0:0:0:0:
192,192,127259,1,0,0:0:0:0:
64,192,127259,1,0,0:0:0:0:
320,192,127259,1,0,0:0:0:0:
448,192,127259,1,0,0:0:0:0:
448,192,127373,1,0,0:0:0:0:
192,192,127486,1,0,0:0:0:0:
64,192,127486,1,0,0:0:0:0:
64,192,127600,1,0,0:0:0:0:
448,192,127713,1,0,0:0:0:0:
320,192,127713,1,0,0:0:0:0:
192,192,127713,1,0,0:0:0:0:
192,192,127827,1,0,0:0:0:0:
448,192,127941,1,0,0:0:0:0:
320,192,127941,1,0,0:0:0:0:
64,192,127941,1,0,0:0:0:0:
320,192,128054,1,0,0:0:0:0:
448,192,128054,1,0,0:0:0:0:
64,192,128054,1,0,0:0:0:0:
64,192,128168,1,0,0:0:0:0:
192,192,128168,1,0,0:0:0:0:
320,192,128168,1,0,0:0:0:0:
448,192,128168,1,0,0:0:0:0:
320,192,128282,1,0,0:0:0:0:
192,192,128395,1,0,0:0:0:0:
64,192,128395,1,0,0:0:0:0:
64,192,128509,1,0,0:0:0:0:
320,192,128623,1,0,0:0:0:0:
448,192,128623,1,0,0:0:0:0:
192,192,128623,1,0,0:0:0:0:
448,192,128736,1,0,0:0:0:0:
320,192,128850,1,0,0:0:0:0:
64,192,128850,1,0,0:0:0:0:
64,192,128963,1,0,0:0:0:0:
64,192,129077,1,0,0:0:0:0:
192,192,129077,1,0,0:0:0:0:
320,192,129077,1,0,0:0:0:0:
448,192,129077,1,0,0:0:0:0:
192,192,129191,1,0,0:0:0:0:
320,192,129304,1,0,0:0:0:0:
448,192,129304,1,0,0:0:0:0:
320,192,129418,1,0,0:0:0:0:
448,192,129532,1,0,0:0:0:0:
192,192,129532,1,0,0:0:0:0:
64,192,129532,1,0,0:0:0:0:
64,192,129645,1,0,0:0:0:0:
320,192,129759,1,0,0:0:0:0:
192,192,129759,1,0,0:0:0:0:
320,192,129873,1,0,0:0:0:0:
64,192,129986,1,0,0:0:0:0:
192,192,129986,1,0,0:0:0:0:
320,192,129986,1,0,0:0:0:0:
448,192,129986,1,0,0:0:0:0:
192,192,130100,1,0,0:0:0:0:
448,192,130213,1,0,0:0:0:0:
320,192,130213,1,0,0:0:0:0:
448,192,130327,1,0,0:0:0:0:
192,192,130441,1,0,0:0:0:0:
64,192,130441,1,0,0:0:0:0:
320,192,130441,1,0,0:0:0:0:
320,192,130554,1,0,0:0:0:0:
448,192,130668,1,0,0:0:0:0:
64,192,130668,1,0,0:0:0:0:
64,192,130782,1,0,0:0:0:0:
64,192,130895,1,0,0:0:0:0:
192,192,130895,1,0,0:0:0:0:
320,192,130895,1,0,0:0:0:0:
448,192,130895,1,0,0:0:0:0:
448,192,131009,1,0,0:0:0:0:
192,192,131123,1,0,0:0:0:0:
320,192,131123,1,0,0:0:0:0:
192,192,131236,1,0,0:0:0:0:
320,192,131350,1,0,0:0:0:0:
448,192,131350,1,0,0:0:0:0:
64,192,131350,1,0,0:0:0:0:
320,192,131463,1,0,0:0:0:0:
448,192,131577,1,0,0:0:0:0:
64,192,131577,1,0,0:0:0:0:
192,192,131577,1,0,0:0:0:0:
64,192,131691,1,0,0:0:0:0:
448,192,131691,1,0,0:0:0:0:
192,192,131691,1,0,0:0:0:0:
448,192,131804,1,0,0:0:0:0:
320,192,131804,1,0,0:0:0:0:
64,192,131804,1,0,0:0:0:0:
192,192,131804,1,0,0:0:0:0:
192,192,131918,1,0,0:0:0:0:
320,192,132032,1,0,0:0:0:0:
448,192,132032,1,0,0:0:0:0:
448,192,132145,1,0,0:0:0:0:
320,192,132259,1,0,0:0:0:0:
192,192,132259,1,0,0:0:0:0:
64,192,132259,1,0,0:0:0:0:
320,192,132373,1,0,0:0:0:0:
192,192,132486,1,0,0:0:0:0:
64,192,132486,1,0,0:0:0:0:
64,192,132600,1,0,0:0:0:0:
64,192,132713,1,0,0:0:0:0:
192,192,132713,1,0,0:0:0:0:
320,192,132713,1,0,0:0:0:0:
448,192,132713,1,0,0:0:0:0:
320,192,132827,1,0,0:0:0:0:
448,192,132941,1,0,0:0:0:0:
192,192,132941,1,0,0:0:0:0:
192,192,133054,1,0,0:0:0:0:
320,192,133168,1,0,0:0:0:0:
448,192,133168,1,0,0:0:0:0:
64,192,133168,1,0,0:0:0:0:
448,192,133282,1,0,0:0:0:0:
320,192,133395,1,0,0:0:0:0:
192,192,133395,1,0,0:0:0:0:
192,192,133509,1,0,0:0:0:0:
64,192,133623,1,0,0:0:0:0:
192,192,133623,1,0,0:0:0:0:
320,192,133623,1,0,0:0:0:0:
448,192,133623,1,0,0:0:0:0:
320,192,133736,1,0,0:0:0:0:
64,192,133850,1,0,0:0:0:0:
448,192,133850,1,0,0:0:0:0:
448,192,133963,1,0,0:0:0:0:
320,192,134077,1,0,0:0:0:0:
192,192,134077,1,0,0:0:0:0:
64,192,134077,1,0,0:0:0:0:
192,192,134191,1,0,0:0:0:0:
320,192,134304,1,0,0:0:0:0:
448,192,134304,1,0,0:0:0:0:
448,192,134418,1,0,0:0:0:0:
64,192,134532,1,0,0:0:0:0:
192,192,134532,1,0,0:0:0:0:
320,192,134532,1,0,0:0:0:0:
448,192,134532,1,0,0:0:0:0:
192,192,134645,1,0,0:0:0:0:
320,192,134759,1,0,0:0:0:0:
64,192,134759,1,0,0:0:0:0:
320,192,134873,1,0,0:0:0:0:
448,192,134986,1,0,0:0:0:0:
192,192,134986,1,0,0:0:0:0:
64,192,134986,1,0,0:0:0:0:
64,192,135100,1,0,0:0:0:0:
448,192,135213,1,0,0:0:0:0:
320,192,135213,1,0,0:0:0:0:
192,192,135213,1,0,0:0:0:0:
192,192,135327,1,0,0:0:0:0:
320,192,135327,1,0,0:0:0:0:
448,192,135327,1,0,0:0:0:0:
64,192,135441,1,0,0:0:0:0:
192,192,135441,1,0,0:0:0:0:
320,192,135441,1,0,0:0:0:0:
448,192,135441,1,0,0:0:0:0:
64,192,135554,1,0,0:0:0:0:
448,192,135668,1,0,0:0:0:0:
192,192,135668,1,0,0:0:0:0:
448,192,135782,1,0,0:0:0:0:
320,192,135895,1,0,0:0:0:0:
192,192,135895,1,0,0:0:0:0:
64,192,135895,1,0,0:0:0:0:
192,192,136009,1,0,0:0:0:0:
320,192,136123,1,0,0:0:0:0:
64,192,136123,1,0,0:0:0:0:
320,192,136236,1,0,0:0:0:0:
64,192,136350,1,0,0:0:0:0:
192,192,136350,1,0,0:0:0:0:
448,192,136350,1,0,0:0:0:0:
320,192,136350,1,0,0:0:0:0:
64,192,136463,1,0,0:0:0:0:
320,192,136577,1,0,0:0:0:0:
448,192,136577,1,0,0:0:0:0:
320,192,136691,1,0,0:0:0:0:
448,192,136804,1,0,0:0:0:0:
192,192,136804,1,0,0:0:0:0:
64,192,136804,1,0,0:0:0:0:
192,192,136918,1,0,0:0:0:0:
320,192,137032,1,0,0:0:0:0:
64,192,137032,1,0,0:0:0:0:
320,192,137145,1,0,0:0:0:0:
64,192,137259,1,0,0:0:0:0:
192,192,137259,1,0,0:0:0:0:
320,192,137259,1,0,0:0:0:0:
448,192,137259,1,0,0:0:0:0:
192,192,137373,1,0,0:0:0:0:
64,192,137486,1,0,0:0:0:0:
320,192,137486,1,0,0:0:0:0:
448,192,137486,1,0,0:0:0:0:
320,192,137600,1,0,0:0:0:0:
448,192,137600,1,0,0:0:0:0:
448,192,137713,5,0,0:0:0:0:
320,192,137713,1,0,0:0:0:0:
192,192,137713,1,0,0:0:0:0:
64,192,137827,1,0,0:0:0:0:
192,192,137941,1,0,0:0:0:0:
64,192,137941,1,0,0:0:0:0:
320,192,137941,1,0,0:0:0:0:
64,192,138054,1,0,0:0:0:0:
192,192,138054,1,0,0:0:0:0:
448,192,138168,1,0,0:0:0:0:
320,192,138168,1,0,0:0:0:0:
192,192,138168,1,0,0:0:0:0:
320,192,138282,1,0,0:0:0:0:
448,192,138282,1,0,0:0:0:0:
192,192,138395,1,0,0:0:0:0:
64,192,138395,1,0,0:0:0:0:
448,192,138395,1,0,0:0:0:0:
192,192,138509,1,0,0:0:0:0:
320,192,138509,1,0,0:0:0:0:
64,192,138623,1,0,0:0:0:0:
448,192,138623,1,0,0:0:0:0:
320,192,138623,1,0,0:0:0:0:
320,192,138736,1,0,0:0:0:0:
192,192,138850,1,0,0:0:0:0:
64,192,138850,1,0,0:0:0:0:
448,192,138850,1,0,0:0:0:0:
192,192,138963,1,0,0:0:0:0:
64,192,138963,1,0,0:0:0:0:
448,192,139077,5,0,0:0:0:0:
320,192,139077,1,0,0:0:0:0:
192,192,139077,1,0,0:0:0:0:
64,192,139077,1,0,0:0:0:0:
192,192,139304,1,0,0:0:0:0:
320,192,139532,1,0,0:0:0:0:
448,192,139759,1,0,0:0:0:0:
64,192,139986,1,0,0:0:0:0:
192,192,140213,1,0,0:0:0:0:
448,192,140441,1,0,0:0:0:0:
320,192,140668,1,0,0:0:0:0:
64,192,140668,1,0,0:0:0:0:
192,192,140895,1,0,0:0:0:0:
448,192,140895,1,0,0:0:0:0:
320,192,141123,1,0,0:0:0:0:
448,192,141123,1,0,0:0:0:0:
192,192,141350,1,0,0:0:0:0:
64,192,141350,1,0,0:0:0:0:
320,192,141577,1,0,0:0:0:0:
448,192,141577,1,0,0:0:0:0:
64,192,141804,1,0,0:0:0:0:
192,192,141804,1,0,0:0:0:0:
320,192,142032,1,0,0:0:0:0:
448,192,142259,1,0,0:0:0:0:
64,192,142259,1,0,0:0:0:0:
192,192,142486,1,0,0:0:0:0:
320,192,142486,1,0,0:0:0:0:
64,192,142713,1,0,0:0:0:0:
192,192,142713,1,0,0:0:0:0:
320,192,142941,1,0,0:0:0:0:
448,192,143168,1,0,0:0:0:0:
64,192,143168,1,0,0:0:0:0:
320,192,143395,1,0,0:0:0:0:
64,192,143623,1,0,0:0:0:0:
448,192,143623,1,0,0:0:0:0:
192,192,143850,1,0,0:0:0:0:
448,192,144077,1,0,0:0:0:0:
64,192,144077,1,0,0:0:0:0:
320,192,144304,1,0,0:0:0:0:
64,192,144532,1,0,0:0:0:0:
448,192,144532,1,0,0:0:0:0:
192,192,144759,1,0,0:0:0:0:
320,192,144986,1,0,0:0:0:0:
64,192,144986,128,0,146350:0:0:0:0:
448,192,145213,1,0,0:0:0:0:
192,192,145441,1,0,0:0:0:0:
448,192,145668,1,0,0:0:0:0:
320,192,145895,1,0,0:0:0:0:
448,192,146123,1,0,0:0:0:0:
192,192,146123,1,0,0:0:0:0:
320,192,146350,1,0,0:0:0:0:
448,192,146350,1,0,0:0:0:0:
192,192,146577,1,0,0:0:0:0:
320,192,146804,1,0,0:0:0:0:
448,192,146804,1,0,0:0:0:0:
64,192,147032,1,0,0:0:0:0:
320,192,147032,1,0,0:0:0:0:
192,192,147259,1,0,0:0:0:0:
448,192,147486,1,0,0:0:0:0:
192,192,147713,1,0,0:0:0:0:
64,192,147713,1,0,0:0:0:0:
192,192,147941,1,0,0:0:0:0:
448,192,147941,1,0,0:0:0:0:
64,192,148168,1,0,0:0:0:0:
448,192,148168,1,0,0:0:0:0:
320,192,148395,1,0,0:0:0:0:
448,192,148623,1,0,0:0:0:0:
192,192,148623,1,0,0:0:0:0:
448,192,148850,1,0,0:0:0:0:
320,192,148850,1,0,0:0:0:0:
64,192,149077,1,0,0:0:0:0:
448,192,149077,1,0,0:0:0:0:
192,192,149304,1,0,0:0:0:0:
448,192,149532,1,0,0:0:0:0:
320,192,149532,1,0,0:0:0:0:
192,192,149759,1,0,0:0:0:0:
64,192,149759,1,0,0:0:0:0:
192,192,149986,5,0,0:0:0:0:
320,192,149986,1,0,0:0:0:0:
448,192,149986,1,0,0:0:0:0:
64,192,149986,1,0,0:0:0:0:
320,192,150213,1,0,0:0:0:0:
64,192,150213,1,0,0:0:0:0:
320,192,150441,1,0,0:0:0:0:
448,192,150441,1,0,0:0:0:0:
192,192,150668,1,0,0:0:0:0:
64,192,150668,1,0,0:0:0:0:
192,192,150895,1,0,0:0:0:0:
320,192,150895,1,0,0:0:0:0:
192,192,151123,1,0,0:0:0:0:
448,192,151123,1,0,0:0:0:0:
64,192,151350,1,0,0:0:0:0:
320,192,151350,1,0,0:0:0:0:
320,192,151577,5,0,0:0:0:0:
448,192,151577,1,0,0:0:0:0:
320,192,151691,1,0,0:0:0:0:
448,192,151691,1,0,0:0:0:0:
320,192,151804,1,0,0:0:0:0:
448,192,151804,1,0,0:0:0:0:
320,192,151918,1,0,0:0:0:0:
448,192,151918,1,0,0:0:0:0:
192,192,152145,1,0,0:0:0:0:
64,192,152145,1,0,0:0:0:0:
192,192,152259,1,0,0:0:0:0:
64,192,152259,1,0,0:0:0:0:
64,192,152373,1,0,0:0:0:0:
192,192,152373,1,0,0:0:0:0:
320,192,152600,1,0,0:0:0:0:
448,192,152600,1,0,0:0:0:0:
320,192,152713,1,0,0:0:0:0:
448,192,152713,1,0,0:0:0:0:
320,192,152827,1,0,0:0:0:0:
448,192,152827,1,0,0:0:0:0:
192,192,153054,1,0,0:0:0:0:
320,192,153054,1,0,0:0:0:0:
192,192,153168,1,0,0:0:0:0:
64,192,153168,1,0,0:0:0:0:
320,192,153225,1,0,0:0:0:0:
448,192,153225,1,0,0:0:0:0:
192,192,153282,1,0,0:0:0:0:
64,192,153282,1,0,0:0:0:0:
320,192,153338,1,0,0:0:0:0:
448,192,153338,1,0,0:0:0:0:
192,192,153395,1,0,0:0:0:0:
64,192,153395,1,0,0:0:0:0:
320,192,153452,1,0,0:0:0:0:
448,192,153452,1,0,0:0:0:0:
192,192,153509,1,0,0:0:0:0:
64,192,153509,1,0,0:0:0:0:
320,192,153566,1,0,0:0:0:0:
448,192,153566,1,0,0:0:0:0:
64,192,153623,1,0,0:0:0:0:
192,192,153623,1,0,0:0:0:0:
448,192,153850,1,0,0:0:0:0:
64,192,154304,1,0,0:0:0:0:
448,192,154759,1,0,0:0:0:0:
448,192,155441,5,0,0:0:0:0:
192,192,155441,1,0,0:0:0:0:
320,192,155441,1,0,0:0:0:0:
64,192,155441,1,0,0:0:0:0:
448,192,155554,1,0,0:0:0:0:
320,192,155554,1,0,0:0:0:0:
192,192,155668,1,0,0:0:0:0:
64,192,155668,1,0,0:0:0:0:
448,192,155668,1,0,0:0:0:0:
64,192,155782,1,0,0:0:0:0:
320,192,155782,1,0,0:0:0:0:
64,192,155895,1,0,0:0:0:0:
320,192,155895,1,0,0:0:0:0:
448,192,155895,1,0,0:0:0:0:
448,192,156009,1,0,0:0:0:0:
192,192,156009,1,0,0:0:0:0:
192,192,156123,1,0,0:0:0:0:
320,192,156123,1,0,0:0:0:0:
64,192,156123,1,0,0:0:0:0:
64,192,156236,1,0,0:0:0:0:
448,192,156236,1,0,0:0:0:0:
320,192,156236,1,0,0:0:0:0:
64,192,156350,1,0,0:0:0:0:
192,192,156350,1,0,0:0:0:0:
192,192,156463,1,0,0:0:0:0:
448,192,156577,1,0,0:0:0:0:
320,192,156577,1,0,0:0:0:0:
320,192,156691,1,0,0:0:0:0:
192,192,156804,1,0,0:0:0:0:
64,192,156804,1,0,0:0:0:0:
64,192,156918,1,0,0:0:0:0:
448,192,157032,1,0,0:0:0:0:
192,192,157032,1,0,0:0:0:0:
448,192,157145,1,0,0:0:0:0:
320,192,157259,1,0,0:0:0:0:
64,192,157259,1,0,0:0:0:0:
320,192,157373,1,0,0:0:0:0:
192,192,157486,1,0,0:0:0:0:
64,192,157486,1,0,0:0:0:0:
448,192,157486,1,0,0:0:0:0:
192,192,157600,1,0,0:0:0:0:
320,192,157600,1,0,0:0:0:0:
448,192,157713,1,0,0:0:0:0:
320,192,157713,1,0,0:0:0:0:
64,192,157713,1,0,0:0:0:0:
448,192,157827,1,0,0:0:0:0:
64,192,157827,1,0,0:0:0:0:
64,192,157941,1,0,0:0:0:0:
320,192,157941,1,0,0:0:0:0:
192,192,157941,1,0,0:0:0:0:
320,192,158054,1,0,0:0:0:0:
448,192,158054,1,0,0:0:0:0:
448,192,158168,1,0,0:0:0:0:
320,192,158168,1,0,0:0:0:0:
192,192,158168,1,0,0:0:0:0:
192,192,158282,1,0,0:0:0:0:
64,192,158282,1,0,0:0:0:0:
320,192,158395,1,0,0:0:0:0:
64,192,158395,1,0,0:0:0:0:
448,192,158395,1,0,0:0:0:0:
320,192,158509,1,0,0:0:0:0:
192,192,158509,1,0,0:0:0:0:
64,192,158623,1,0,0:0:0:0:
192,192,158623,1,0,0:0:0:0:
320,192,158623,1,0,0:0:0:0:
192,192,158736,1,0,0:0:0:0:
448,192,158736,1,0,0:0:0:0:
320,192,158850,1,0,0:0:0:0:
64,192,158850,1,0,0:0:0:0:
448,192,158850,1,0,0:0:0:0:
64,192,158963,1,0,0:0:0:0:
192,192,158963,1,0,0:0:0:0:
448,192,159077,1,0,0:0:0:0:
320,192,159077,1,0,0:0:0:0:
192,192,159077,1,0,0:0:0:0:
320,192,159191,1,0,0:0:0:0:
448,192,159191,1,0,0:0:0:0:
64,192,159304,1,0,0:0:0:0:
448,192,159304,1,0,0:0:0:0:
192,192,159304,1,0,0:0:0:0:
64,192,159418,1,0,0:0:0:0:
320,192,159418,1,0,0:0:0:0:
448,192,159532,1,0,0:0:0:0:
64,192,159532,1,0,0:0:0:0:
320,192,159532,1,0,0:0:0:0:
448,192,159645,1,0,0:0:0:0:
192,192,159645,1,0,0:0:0:0:
448,192,159759,1,0,0:0:0:0:
64,192,159759,1,0,0:0:0:0:
320,192,159759,1,0,0:0:0:0:
64,192,159873,1,0,0:0:0:0:
192,192,159873,1,0,0:0:0:0:
320,192,159873,1,0,0:0:0:0:
448,192,159986,1,0,0:0:0:0:
192,192,159986,1,0,0:0:0:0:
448,192,160100,1,0,0:0:0:0:
192,192,160213,1,0,0:0:0:0:
64,192,160213,1,0,0:0:0:0:
192,192,160327,1,0,0:0:0:0:
320,192,160441,1,0,0:0:0:0:
64,192,160441,1,0,0:0:0:0:
320,192,160554,1,0,0:0:0:0:
448,192,160668,1,0,0:0:0:0:
192,192,160668,1,0,0:0:0:0:
448,192,160782,1,0,0:0:0:0:
192,192,160895,1,0,0:0:0:0:
64,192,160895,1,0,0:0:0:0:
64,192,161009,1,0,0:0:0:0:
320,192,161123,1,0,0:0:0:0:
192,192,161123,1,0,0:0:0:0:
448,192,161123,1,0,0:0:0:0:
192,192,161236,1,0,0:0:0:0:
320,192,161236,1,0,0:0:0:0:
448,192,161350,1,0,0:0:0:0:
192,192,161350,1,0,0:0:0:0:
64,192,161350,1,0,0:0:0:0:
448,192,161463,1,0,0:0:0:0:
320,192,161463,1,0,0:0:0:0:
64,192,161577,1,0,0:0:0:0:
192,192,161577,1,0,0:0:0:0:
320,192,161577,1,0,0:0:0:0:
192,192,161691,1,0,0:0:0:0:
64,192,161691,1,0,0:0:0:0:
448,192,161804,1,0,0:0:0:0:
320,192,161804,1,0,0:0:0:0:
64,192,161804,1,0,0:0:0:0:
192,192,161918,1,0,0:0:0:0:
448,192,161918,1,0,0:0:0:0:
64,192,162032,1,0,0:0:0:0:
320,192,162032,1,0,0:0:0:0:
448,192,162032,1,0,0:0:0:0:
64,192,162145,1,0,0:0:0:0:
320,192,162145,1,0,0:0:0:0:
448,192,162259,1,0,0:0:0:0:
320,192,162259,1,0,0:0:0:0:
64,192,162259,1,0,0:0:0:0:
192,192,162373,1,0,0:0:0:0:
320,192,162373,1,0,0:0:0:0:
192,192,162486,1,0,0:0:0:0:
64,192,162486,1,0,0:0:0:0:
448,192,162486,1,0,0:0:0:0:
448,192,162600,1,0,0:0:0:0:
64,192,162600,1,0,0:0:0:0:
64,192,162713,1,0,0:0:0:0:
192,192,162713,1,0,0:0:0:0:
320,192,162713,1,0,0:0:0:0:
320,192,162827,1,0,0:0:0:0:
448,192,162827,1,0,0:0:0:0:
192,192,162941,1,0,0:0:0:0:
64,192,162941,1,0,0:0:0:0:
448,192,162941,1,0,0:0:0:0:
320,192,163054,1,0,0:0:0:0:
192,192,163054,1,0,0:0:0:0:
64,192,163168,1,0,0:0:0:0:
448,192,163168,1,0,0:0:0:0:
320,192,163168,1,0,0:0:0:0:
64,192,163282,1,0,0:0:0:0:
448,192,163282,1,0,0:0:0:0:
320,192,163395,1,0,0:0:0:0:
192,192,163395,1,0,0:0:0:0:
64,192,163395,1,0,0:0:0:0:
192,192,163509,1,0,0:0:0:0:
320,192,163509,1,0,0:0:0:0:
448,192,163509,1,0,0:0:0:0:
64,192,163623,1,0,0:0:0:0:
320,192,163623,1,0,0:0:0:0:
64,192,163736,1,0,0:0:0:0:
448,192,163850,1,0,0:0:0:0:
192,192,163850,1,0,0:0:0:0:
192,192,163963,1,0,0:0:0:0:
64,192,164077,1,0,0:0:0:0:
320,192,164077,1,0,0:0:0:0:
320,192,164191,1,0,0:0:0:0:
448,192,164304,1,0,0:0:0:0:
192,192,164304,1,0,0:0:0:0:
448,192,164418,1,0,0:0:0:0:
64,192,164532,1,0,0:0:0:0:
192,192,164532,1,0,0:0:0:0:
192,192,164645,1,0,0:0:0:0:
64,192,164759,1,0,0:0:0:0:
320,192,164759,1,0,0:0:0:0:
448,192,164759,1,0,0:0:0:0:
64,192,164873,1,0,0:0:0:0:
192,192,164873,1,0,0:0:0:0:
64,192,164986,1,0,0:0:0:0:
192,192,164986,1,0,0:0:0:0:
320,192,164986,1,0,0:0:0:0:
320,192,165100,1,0,0:0:0:0:
448,192,165100,1,0,0:0:0:0:
64,192,165213,1,0,0:0:0:0:
192,192,165213,1,0,0:0:0:0:
448,192,165213,1,0,0:0:0:0:
192,192,165327,1,0,0:0:0:0:
448,192,165327,1,0,0:0:0:0:
448,192,165441,1,0,0:0:0:0:
320,192,165441,1,0,0:0:0:0:
64,192,165441,1,0,0:0:0:0:
320,192,165554,1,0,0:0:0:0:
64,192,165554,1,0,0:0:0:0:
320,192,165668,1,0,0:0:0:0:
192,192,165668,1,0,0:0:0:0:
448,192,165668,1,0,0:0:0:0:
64,192,165782,1,0,0:0:0:0:
448,192,165782,1,0,0:0:0:0:
64,192,165895,1,0,0:0:0:0:
192,192,165895,1,0,0:0:0:0:
320,192,165895,1,0,0:0:0:0:
192,192,166009,1,0,0:0:0:0:
64,192,166009,1,0,0:0:0:0:
64,192,166123,1,0,0:0:0:0:
448,192,166123,1,0,0:0:0:0:
320,192,166123,1,0,0:0:0:0:
448,192,166236,1,0,0:0:0:0:
320,192,166236,1,0,0:0:0:0:
448,192,166350,1,0,0:0:0:0:
192,192,166350,1,0,0:0:0:0:
64,192,166350,1,0,0:0:0:0:
64,192,166463,1,0,0:0:0:0:
320,192,166463,1,0,0:0:0:0:
320,192,166577,1,0,0:0:0:0:
64,192,166577,1,0,0:0:0:0:
448,192,166577,1,0,0:0:0:0:
192,192,166691,1,0,0:0:0:0:
448,192,166691,1,0,0:0:0:0:
64,192,166804,1,0,0:0:0:0:
448,192,166804,1,0,0:0:0:0:
192,192,166804,1,0,0:0:0:0:
320,192,166918,1,0,0:0:0:0:
192,192,166918,1,0,0:0:0:0:
320,192,167032,1,0,0:0:0:0:
64,192,167032,1,0,0:0:0:0:
448,192,167032,1,0,0:0:0:0:
64,192,167145,1,0,0:0:0:0:
192,192,167145,1,0,0:0:0:0:
448,192,167145,1,0,0:0:0:0:
320,192,167259,1,0,0:0:0:0:
64,192,167259,1,0,0:0:0:0:
64,192,167373,1,0,0:0:0:0:
320,192,167486,1,0,0:0:0:0:
448,192,167486,1,0,0:0:0:0:
448,192,167600,1,0,0:0:0:0:
192,192,167713,1,0,0:0:0:0:
64,192,167713,1,0,0:0:0:0:
192,192,167827,1,0,0:0:0:0:
64,192,167941,1,0,0:0:0:0:
320,192,167941,1,0,0:0:0:0:
320,192,168054,1,0,0:0:0:0:
192,192,168168,1,0,0:0:0:0:
448,192,168168,1,0,0:0:0:0:
192,192,168282,1,0,0:0:0:0:
64,192,168395,1,0,0:0:0:0:
320,192,168395,1,0,0:0:0:0:
448,192,168395,1,0,0:0:0:0:
192,192,168509,1,0,0:0:0:0:
64,192,168509,1,0,0:0:0:0:
448,192,168623,1,0,0:0:0:0:
320,192,168623,1,0,0:0:0:0:
64,192,168623,1,0,0:0:0:0:
320,192,168736,1,0,0:0:0:0:
448,192,168736,1,0,0:0:0:0:
64,192,168850,1,0,0:0:0:0:
192,192,168850,1,0,0:0:0:0:
448,192,168850,1,0,0:0:0:0:
192,192,168963,1,0,0:0:0:0:
64,192,168963,1,0,0:0:0:0:
448,192,169077,1,0,0:0:0:0:
320,192,169077,1,0,0:0:0:0:
192,192,169077,1,0,0:0:0:0:
64,192,169191,1,0,0:0:0:0:
448,192,169191,1,0,0:0:0:0:
64,192,169304,1,0,0:0:0:0:
192,192,169304,1,0,0:0:0:0:
320,192,169304,1,0,0:0:0:0:
320,192,169418,1,0,0:0:0:0:
448,192,169418,1,0,0:0:0:0:
64,192,169532,1,0,0:0:0:0:
192,192,169532,1,0,0:0:0:0:
448,192,169532,1,0,0:0:0:0:
64,192,169645,1,0,0:0:0:0:
192,192,169645,1,0,0:0:0:0:
64,192,169759,1,0,0:0:0:0:
320,192,169759,1,0,0:0:0:0:
448,192,169759,1,0,0:0:0:0:
448,192,169873,1,0,0:0:0:0:
320,192,169873,1,0,0:0:0:0:
64,192,169986,5,0,0:0:0:0:
448,192,169986,1,0,0:0:0:0:
320,192,169986,1,0,0:0:0:0:
192,192,169986,1,0,0:0:0:0:
192,192,170100,1,0,0:0:0:0:
64,192,170100,1,0,0:0:0:0:
64,192,170213,1,0,0:0:0:0:
448,192,170213,1,0,0:0:0:0:
320,192,170213,1,0,0:0:0:0:
192,192,170327,1,0,0:0:0:0:
448,192,170327,1,0,0:0:0:0:
320,192,170441,1,0,0:0:0:0:
448,192,170441,1,0,0:0:0:0:
64,192,170441,1,0,0:0:0:0:
192,192,170441,1,0,0:0:0:0:
320,192,170554,1,0,0:0:0:0:
64,192,170554,1,0,0:0:0:0:
448,192,170668,1,0,0:0:0:0:
192,192,170668,1,0,0:0:0:0:
320,192,170668,1,0,0:0:0:0:
192,192,170782,1,0,0:0:0:0:
64,192,170782,1,0,0:0:0:0:
448,192,170782,1,0,0:0:0:0:
64,192,170895,1,0,0:0:0:0:
320,192,170895,1,0,0:0:0:0:
448,192,170895,1,0,0:0:0:0:
320,192,171009,1,0,0:0:0:0:
192,192,171123,1,0,0:0:0:0:
64,192,171123,1,0,0:0:0:0:
192,192,171236,1,0,0:0:0:0:
64,192,171350,1,0,0:0:0:0:
448,192,171350,1,0,0:0:0:0:
320,192,171350,1,0,0:0:0:0:
448,192,171463,1,0,0:0:0:0:
320,192,171577,1,0,0:0:0:0:
64,192,171577,1,0,0:0:0:0:
64,192,171691,1,0,0:0:0:0:
448,192,171804,1,0,0:0:0:0:
320,192,171804,1,0,0:0:0:0:
192,192,171804,1,0,0:0:0:0:
320,192,171918,1,0,0:0:0:0:
64,192,172032,1,0,0:0:0:0:
448,192,172032,1,0,0:0:0:0:
192,192,172032,1,0,0:0:0:0:
192,192,172145,1,0,0:0:0:0:
320,192,172145,1,0,0:0:0:0:
320,192,172259,1,0,0:0:0:0:
448,192,172259,1,0,0:0:0:0:
64,192,172259,1,0,0:0:0:0:
192,192,172259,1,0,0:0:0:0:
448,192,172373,1,0,0:0:0:0:
64,192,172373,1,0,0:0:0:0:
320,192,172486,1,0,0:0:0:0:
192,192,172486,1,0,0:0:0:0:
448,192,172486,1,0,0:0:0:0:
64,192,172600,1,0,0:0:0:0:
192,192,172600,1,0,0:0:0:0:
320,192,172713,1,0,0:0:0:0:
448,192,172713,1,0,0:0:0:0:
64,192,172713,1,0,0:0:0:0:
192,192,172713,1,0,0:0:0:0:
448,192,172827,1,0,0:0:0:0:
320,192,172827,1,0,0:0:0:0:
64,192,172941,1,0,0:0:0:0:
448,192,172941,1,0,0:0:0:0:
192,192,172941,1,0,0:0:0:0:
320,192,173054,1,0,0:0:0:0:
192,192,173054,1,0,0:0:0:0:
192,192,173168,1,0,0:0:0:0:
64,192,173168,1,0,0:0:0:0:
448,192,173168,1,0,0:0:0:0:
320,192,173168,1,0,0:0:0:0:
64,192,173282,1,0,0:0:0:0:
320,192,173282,1,0,0:0:0:0:
64,192,173395,1,0,0:0:0:0:
448,192,173395,1,0,0:0:0:0:
192,192,173395,1,0,0:0:0:0:
320,192,173509,1,0,0:0:0:0:
448,192,173509,1,0,0:0:0:0:
320,192,173623,1,0,0:0:0:0:
448,192,173623,1,0,0:0:0:0:
64,192,173623,1,0,0:0:0:0:
192,192,173623,1,0,0:0:0:0:
64,192,173736,1,0,0:0:0:0:
192,192,173736,1,0,0:0:0:0:
320,192,173850,1,0,0:0:0:0:
64,192,173850,1,0,0:0:0:0:
448,192,173850,1,0,0:0:0:0:
192,192,173963,1,0,0:0:0:0:
448,192,173963,1,0,0:0:0:0:
320,192,174077,1,0,0:0:0:0:
448,192,174077,1,0,0:0:0:0:
64,192,174077,1,0,0:0:0:0:
192,192,174077,1,0,0:0:0:0:
320,192,174191,1,0,0:0:0:0:
64,192,174191,1,0,0:0:0:0:
192,192,174304,1,0,0:0:0:0:
448,192,174304,1,0,0:0:0:0:
64,192,174304,1,0,0:0:0:0:
192,192,174418,1,0,0:0:0:0:
320,192,174418,1,0,0:0:0:0:
448,192,174418,1,0,0:0:0:0:
320,192,174532,1,0,0:0:0:0:
64,192,174532,1,0,0:0:0:0:
448,192,174532,1,0,0:0:0:0:
64,192,174645,1,0,0:0:0:0:
448,192,174759,1,0,0:0:0:0:
320,192,174759,1,0,0:0:0:0:
320,192,174873,1,0,0:0:0:0:
64,192,174986,1,0,0:0:0:0:
448,192,174986,1,0,0:0:0:0:
192,192,174986,1,0,0:0:0:0:
192,192,175100,1,0,0:0:0:0:
320,192,175213,1,0,0:0:0:0:
64,192,175213,1,0,0:0:0:0:
64,192,175327,1,0,0:0:0:0:
448,192,175441,1,0,0:0:0:0:
320,192,175441,1,0,0:0:0:0:
192,192,175441,1,0,0:0:0:0:
448,192,175554,1,0,0:0:0:0:
64,192,175668,1,0,0:0:0:0:
320,192,175668,1,0,0:0:0:0:
192,192,175668,1,0,0:0:0:0:
192,192,175782,1,0,0:0:0:0:
320,192,175782,1,0,0:0:0:0:
320,192,175895,1,0,0:0:0:0:
448,192,175895,1,0,0:0:0:0:
64,192,175895,1,0,0:0:0:0:
192,192,175895,1,0,0:0:0:0:
192,192,176009,1,0,0:0:0:0:
64,192,176009,1,0,0:0:0:0:
192,192,176123,1,0,0:0:0:0:
320,192,176123,1,0,0:0:0:0:
448,192,176123,1,0,0:0:0:0:
448,192,176236,1,0,0:0:0:0:
320,192,176236,1,0,0:0:0:0:
320,192,176350,1,0,0:0:0:0:
448,192,176350,1,0,0:0:0:0:
64,192,176350,1,0,0:0:0:0:
192,192,176350,1,0,0:0:0:0:
64,192,176463,1,0,0:0:0:0:
320,192,176463,1,0,0:0:0:0:
64,192,176577,1,0,0:0:0:0:
192,192,176577,1,0,0:0:0:0:
448,192,176577,1,0,0:0:0:0:
192,192,176691,1,0,0:0:0:0:
448,192,176691,1,0,0:0:0:0:
448,192,176804,1,0,0:0:0:0:
320,192,176804,1,0,0:0:0:0:
64,192,176804,1,0,0:0:0:0:
192,192,176804,1,0,0:0:0:0:
192,192,176918,1,0,0:0:0:0:
320,192,176918,1,0,0:0:0:0:
64,192,177032,1,0,0:0:0:0:
448,192,177032,1,0,0:0:0:0:
320,192,177032,1,0,0:0:0:0:
448,192,177145,1,0,0:0:0:0:
64,192,177145,1,0,0:0:0:0:
192,192,177259,1,0,0:0:0:0:
64,192,177259,1,0,0:0:0:0:
448,192,177259,1,0,0:0:0:0:
320,192,177259,1,0,0:0:0:0:
64,192,177373,1,0,0:0:0:0:
192,192,177373,1,0,0:0:0:0:
64,192,177486,1,0,0:0:0:0:
448,192,177486,1,0,0:0:0:0:
320,192,177486,1,0,0:0:0:0:
320,192,177600,1,0,0:0:0:0:
192,192,177600,1,0,0:0:0:0:
192,192,177713,1,0,0:0:0:0:
64,192,177713,1,0,0:0:0:0:
448,192,177713,1,0,0:0:0:0:
320,192,177713,1,0,0:0:0:0:
64,192,177827,1,0,0:0:0:0:
448,192,177827,1,0,0:0:0:0:
448,192,177941,1,0,0:0:0:0:
320,192,177941,1,0,0:0:0:0:
192,192,177941,1,0,0:0:0:0:
64,192,178054,1,0,0:0:0:0:
192,192,178054,1,0,0:0:0:0:
320,192,178054,1,0,0:0:0:0:
64,192,178168,1,0,0:0:0:0:
448,192,178168,1,0,0:0:0:0:
320,192,178168,1,0,0:0:0:0:
448,192,178282,1,0,0:0:0:0:
320,192,178395,1,0,0:0:0:0:
64,192,178395,1,0,0:0:0:0:
320,192,178509,1,0,0:0:0:0:
64,192,178623,1,0,0:0:0:0:
192,192,178623,1,0,0:0:0:0:
448,192,178623,1,0,0:0:0:0:
192,192,178736,1,0,0:0:0:0:
320,192,178850,1,0,0:0:0:0:
64,192,178850,1,0,0:0:0:0:
64,192,178963,1,0,0:0:0:0:
192,192,179077,1,0,0:0:0:0:
320,192,179077,1,0,0:0:0:0:
448,192,179077,1,0,0:0:0:0:
320,192,179191,1,0,0:0:0:0:
64,192,179304,1,0,0:0:0:0:
192,192,179304,1,0,0:0:0:0:
448,192,179304,1,0,0:0:0:0:
320,192,179418,1,0,0:0:0:0:
448,192,179418,1,0,0:0:0:0:
320,192,179532,1,0,0:0:0:0:
448,192,179532,1,0,0:0:0:0:
64,192,179532,1,0,0:0:0:0:
192,192,179532,1,0,0:0:0:0:
64,192,179645,1,0,0:0:0:0:
192,192,179645,1,0,0:0:0:0:
192,192,179759,1,0,0:0:0:0:
320,192,179759,1,0,0:0:0:0:
448,192,179759,1,0,0:0:0:0:
64,192,179873,1,0,0:0:0:0:
320,192,179873,1,0,0:0:0:0:
320,192,179986,1,0,0:0:0:0:
448,192,179986,1,0,0:0:0:0:
64,192,179986,1,0,0:0:0:0:
192,192,179986,1,0,0:0:0:0:
448,192,180100,1,0,0:0:0:0:
192,192,180100,1,0,0:0:0:0:
64,192,180213,1,0,0:0:0:0:
320,192,180213,1,0,0:0:0:0:
192,192,180213,1,0,0:0:0:0:
64,192,180327,1,0,0:0:0:0:
448,192,180327,1,0,0:0:0:0:
192,192,180441,1,0,0:0:0:0:
64,192,180441,1,0,0:0:0:0:
448,192,180441,1,0,0:0:0:0:
320,192,180441,1,0,0:0:0:0:
320,192,180554,1,0,0:0:0:0:
192,192,180554,1,0,0:0:0:0:
64,192,180668,1,0,0:0:0:0:
448,192,180668,1,0,0:0:0:0:
320,192,180668,1,0,0:0:0:0:
64,192,180782,1,0,0:0:0:0:
192,192,180782,1,0,0:0:0:0:
192,192,180895,1,0,0:0:0:0:
64,192,180895,1,0,0:0:0:0:
448,192,180895,1,0,0:0:0:0:
320,192,180895,1,0,0:0:0:0:
448,192,181009,1,0,0:0:0:0:
320,192,181009,1,0,0:0:0:0:
64,192,181123,1,0,0:0:0:0:
448,192,181123,1,0,0:0:0:0:
192,192,181123,1,0,0:0:0:0:
64,192,181236,1,0,0:0:0:0:
320,192,181236,1,0,0:0:0:0:
192,192,181350,1,0,0:0:0:0:
64,192,181350,1,0,0:0:0:0:
448,192,181350,1,0,0:0:0:0:
320,192,181350,1,0,0:0:0:0:
320,192,181463,1,0,0:0:0:0:
192,192,181463,1,0,0:0:0:0:
64,192,181577,1,0,0:0:0:0:
448,192,181577,1,0,0:0:0:0:
192,192,181577,1,0,0:0:0:0:
64,192,181691,1,0,0:0:0:0:
320,192,181691,1,0,0:0:0:0:
448,192,181691,1,0,0:0:0:0:
448,192,181804,1,0,0:0:0:0:
320,192,181804,1,0,0:0:0:0:
192,192,181804,1,0,0:0:0:0:
320,192,181918,1,0,0:0:0:0:
64,192,182032,1,0,0:0:0:0:
192,192,182032,1,0,0:0:0:0:
64,192,182145,1,0,0:0:0:0:
448,192,182259,1,0,0:0:0:0:
320,192,182259,1,0,0:0:0:0:
192,192,182259,1,0,0:0:0:0:
320,192,182373,1,0,0:0:0:0:
192,192,182486,1,0,0:0:0:0:
448,192,182486,1,0,0:0:0:0:
192,192,182600,1,0,0:0:0:0:
64,192,182713,1,0,0:0:0:0:
320,192,182713,1,0,0:0:0:0:
448,192,182713,1,0,0:0:0:0:
192,192,182713,1,0,0:0:0:0:
320,192,182827,1,0,0:0:0:0:
64,192,182941,1,0,0:0:0:0:
192,192,182941,1,0,0:0:0:0:
448,192,182941,1,0,0:0:0:0:
448,192,183054,1,0,0:0:0:0:
320,192,183054,1,0,0:0:0:0:
320,192,183168,1,0,0:0:0:0:
448,192,183168,1,0,0:0:0:0:
64,192,183168,1,0,0:0:0:0:
192,192,183168,1,0,0:0:0:0:
192,192,183282,1,0,0:0:0:0:
192,192,183395,1,0,0:0:0:0:
64,192,183395,1,0,0:0:0:0:
448,192,183395,1,0,0:0:0:0:
320,192,183395,1,0,0:0:0:0:
320,192,183509,1,0,0:0:0:0:
64,192,183509,1,0,0:0:0:0:
320,192,183623,1,0,0:0:0:0:
448,192,183623,1,0,0:0:0:0:
64,192,183623,1,0,0:0:0:0:
192,192,183623,1,0,0:0:0:0:
448,192,183736,1,0,0:0:0:0:
192,192,183850,1,0,0:0:0:0:
64,192,183850,1,0,0:0:0:0:
448,192,183850,1,0,0:0:0:0:
320,192,183850,1,0,0:0:0:0:
64,192,183963,1,0,0:0:0:0:
192,192,183963,1,0,0:0:0:0:
192,192,184077,1,0,0:0:0:0:
64,192,184077,1,0,0:0:0:0:
448,192,184077,1,0,0:0:0:0:
320,192,184077,1,0,0:0:0:0:
192,192,184191,1,0,0:0:0:0:
320,192,184191,1,0,0:0:0:0:
320,192,184304,1,0,0:0:0:0:
64,192,184304,1,0,0:0:0:0:
448,192,184304,1,0,0:0:0:0:
320,192,184418,1,0,0:0:0:0:
64,192,184418,1,0,0:0:0:0:
448,192,184418,1,0,0:0:0:0:
64,192,184532,5,0,0:0:0:0:
320,192,184532,1,0,0:0:0:0:
192,192,184532,1,0,0:0:0:0:
448,192,184532,1,0,0:0:0:0:
64,192,184645,1,0,0:0:0:0:
192,192,184645,1,0,0:0:0:0:
320,192,184759,1,0,0:0:0:0:
448,192,184759,1,0,0:0:0:0:
64,192,184759,1,0,0:0:0:0:
448,192,184873,1,0,0:0:0:0:
192,192,184873,1,0,0:0:0:0:
64,192,184986,1,0,0:0:0:0:
192,192,184986,1,0,0:0:0:0:
320,192,184986,1,0,0:0:0:0:
448,192,184986,1,0,0:0:0:0:
64,192,185100,1,0,0:0:0:0:
320,192,185100,1,0,0:0:0:0:
320,192,185213,1,0,0:0:0:0:
192,192,185213,1,0,0:0:0:0:
448,192,185213,1,0,0:0:0:0:
448,192,185327,1,0,0:0:0:0:
64,192,185327,1,0,0:0:0:0:
192,192,185327,1,0,0:0:0:0:
448,192,185441,1,0,0:0:0:0:
320,192,185441,1,0,0:0:0:0:
64,192,185441,1,0,0:0:0:0:
320,192,185554,1,0,0:0:0:0:
448,192,185554,1,0,0:0:0:0:
64,192,185668,1,0,0:0:0:0:
192,192,185668,1,0,0:0:0:0:
192,192,185782,1,0,0:0:0:0:
320,192,185782,1,0,0:0:0:0:
320,192,185895,1,0,0:0:0:0:
448,192,185895,1,0,0:0:0:0:
64,192,185895,1,0,0:0:0:0:
448,192,186009,1,0,0:0:0:0:
192,192,186009,1,0,0:0:0:0:
64,192,186123,1,0,0:0:0:0:
320,192,186123,1,0,0:0:0:0:
64,192,186236,1,0,0:0:0:0:
448,192,186236,1,0,0:0:0:0:
192,192,186350,1,0,0:0:0:0:
320,192,186350,1,0,0:0:0:0:
448,192,186350,1,0,0:0:0:0:
320,192,186463,1,0,0:0:0:0:
64,192,186463,1,0,0:0:0:0:
192,192,186577,1,0,0:0:0:0:
448,192,186577,1,0,0:0:0:0:
64,192,186577,1,0,0:0:0:0:
320,192,186691,1,0,0:0:0:0:
192,192,186691,1,0,0:0:0:0:
64,192,186804,1,0,0:0:0:0:
192,192,186804,1,0,0:0:0:0:
320,192,186804,1,0,0:0:0:0:
448,192,186804,1,0,0:0:0:0:
64,192,186918,1,0,0:0:0:0:
448,192,186918,1,0,0:0:0:0:
448,192,187032,1,0,0:0:0:0:
192,192,187032,1,0,0:0:0:0:
320,192,187032,1,0,0:0:0:0:
192,192,187145,1,0,0:0:0:0:
64,192,187145,1,0,0:0:0:0:
64,192,187259,1,0,0:0:0:0:
192,192,187259,1,0,0:0:0:0:
320,192,187259,1,0,0:0:0:0:
448,192,187259,1,0,0:0:0:0:
320,192,187373,1,0,0:0:0:0:
448,192,187373,1,0,0:0:0:0:
192,192,187486,1,0,0:0:0:0:
448,192,187486,1,0,0:0:0:0:
64,192,187486,1,0,0:0:0:0:
192,192,187600,1,0,0:0:0:0:
320,192,187600,1,0,0:0:0:0:
448,192,187713,1,0,0:0:0:0:
320,192,187713,1,0,0:0:0:0:
192,192,187713,1,0,0:0:0:0:
64,192,187713,1,0,0:0:0:0:
320,192,187827,1,0,0:0:0:0:
64,192,187827,1,0,0:0:0:0:
192,192,187941,1,0,0:0:0:0:
448,192,187941,1,0,0:0:0:0:
64,192,187941,1,0,0:0:0:0:
448,192,188054,1,0,0:0:0:0:
320,192,188054,1,0,0:0:0:0:
64,192,188168,1,0,0:0:0:0:
192,192,188168,1,0,0:0:0:0:
320,192,188168,1,0,0:0:0:0:
448,192,188168,1,0,0:0:0:0:
192,192,188282,1,0,0:0:0:0:
64,192,188282,1,0,0:0:0:0:
448,192,188395,1,0,0:0:0:0:
64,192,188395,1,0,0:0:0:0:
320,192,188395,1,0,0:0:0:0:
448,192,188509,1,0,0:0:0:0:
192,192,188509,1,0,0:0:0:0:
64,192,188623,1,0,0:0:0:0:
192,192,188623,1,0,0:0:0:0:
320,192,188623,1,0,0:0:0:0:
448,192,188623,1,0,0:0:0:0:
64,192,188736,1,0,0:0:0:0:
320,192,188736,1,0,0:0:0:0:
64,192,188850,1,0,0:0:0:0:
448,192,188850,1,0,0:0:0:0:
192,192,188850,1,0,0:0:0:0:
448,192,188963,1,0,0:0:0:0:
320,192,188963,1,0,0:0:0:0:
192,192,188963,1,0,0:0:0:0:
448,192,189077,1,0,0:0:0:0:
64,192,189077,1,0,0:0:0:0:
320,192,189077,1,0,0:0:0:0:
64,192,189191,1,0,0:0:0:0:
192,192,189191,1,0,0:0:0:0:
320,192,189304,1,0,0:0:0:0:
448,192,189304,1,0,0:0:0:0:
320,192,189418,1,0,0:0:0:0:
448,192,189418,1,0,0:0:0:0:
192,192,189532,1,0,0:0:0:0:
448,192,189532,1,0,0:0:0:0:
64,192,189532,1,0,0:0:0:0:
192,192,189645,1,0,0:0:0:0:
64,192,189759,1,0,0:0:0:0:
320,192,189759,1,0,0:0:0:0:
64,192,189873,1,0,0:0:0:0:
192,192,189986,1,0,0:0:0:0:
320,192,189986,1,0,0:0:0:0:
448,192,189986,1,0,0:0:0:0:
448,192,190100,1,0,0:0:0:0:
192,192,190213,1,0,0:0:0:0:
320,192,190213,1,0,0:0:0:0:
64,192,190213,1,0,0:0:0:0:
320,192,190327,1,0,0:0:0:0:
192,192,190327,1,0,0:0:0:0:
64,192,190441,1,0,0:0:0:0:
192,192,190441,1,0,0:0:0:0:
320,192,190441,1,0,0:0:0:0:
448,192,190441,1,0,0:0:0:0:
64,192,190554,1,0,0:0:0:0:
192,192,190554,1,0,0:0:0:0:
448,192,190668,1,0,0:0:0:0:
320,192,190668,1,0,0:0:0:0:
192,192,190668,1,0,0:0:0:0:
320,192,190782,1,0,0:0:0:0:
448,192,190782,1,0,0:0:0:0:
64,192,190895,1,0,0:0:0:0:
192,192,190895,1,0,0:0:0:0:
320,192,190895,1,0,0:0:0:0:
448,192,190895,1,0,0:0:0:0:
320,192,191009,1,0,0:0:0:0:
64,192,191009,1,0,0:0:0:0:
448,192,191123,1,0,0:0:0:0:
192,192,191123,1,0,0:0:0:0:
64,192,191123,1,0,0:0:0:0:
448,192,191236,1,0,0:0:0:0:
192,192,191236,1,0,0:0:0:0:
64,192,191350,1,0,0:0:0:0:
192,192,191350,1,0,0:0:0:0:
448,192,191350,1,0,0:0:0:0:
320,192,191350,1,0,0:0:0:0:
320,192,191463,1,0,0:0:0:0:
192,192,191463,1,0,0:0:0:0:
320,192,191577,1,0,0:0:0:0:
448,192,191577,1,0,0:0:0:0:
64,192,191577,1,0,0:0:0:0:
64,192,191691,1,0,0:0:0:0:
448,192,191691,1,0,0:0:0:0:
448,192,191804,1,0,0:0:0:0:
320,192,191804,1,0,0:0:0:0:
192,192,191804,1,0,0:0:0:0:
64,192,191804,1,0,0:0:0:0:
192,192,191918,1,0,0:0:0:0:
64,192,191918,1,0,0:0:0:0:
320,192,192032,1,0,0:0:0:0:
448,192,192032,1,0,0:0:0:0:
64,192,192032,1,0,0:0:0:0:
192,192,192145,1,0,0:0:0:0:
320,192,192145,1,0,0:0:0:0:
448,192,192259,1,0,0:0:0:0:
320,192,192259,1,0,0:0:0:0:
192,192,192259,1,0,0:0:0:0:
64,192,192259,1,0,0:0:0:0:
448,192,192373,1,0,0:0:0:0:
64,192,192373,1,0,0:0:0:0:
192,192,192486,1,0,0:0:0:0:
320,192,192486,1,0,0:0:0:0:
448,192,192486,1,0,0:0:0:0:
320,192,192600,1,0,0:0:0:0:
192,192,192600,1,0,0:0:0:0:
64,192,192600,1,0,0:0:0:0:
320,192,192713,1,0,0:0:0:0:
448,192,192713,1,0,0:0:0:0:
64,192,192713,1,0,0:0:0:0:
448,192,192827,1,0,0:0:0:0:
64,192,192941,1,0,0:0:0:0:
320,192,192941,1,0,0:0:0:0:
320,192,193054,1,0,0:0:0:0:
448,192,193168,1,0,0:0:0:0:
192,192,193168,1,0,0:0:0:0:
64,192,193168,1,0,0:0:0:0:
192,192,193282,1,0,0:0:0:0:
64,192,193395,1,0,0:0:0:0:
320,192,193395,1,0,0:0:0:0:
64,192,193509,1,0,0:0:0:0:
448,192,193623,1,0,0:0:0:0:
320,192,193623,1,0,0:0:0:0:
192,192,193623,1,0,0:0:0:0:
320,192,193736,1,0,0:0:0:0:
448,192,193850,1,0,0:0:0:0:
192,192,193850,1,0,0:0:0:0:
64,192,193850,1,0,0:0:0:0:
448,192,193963,1,0,0:0:0:0:
320,192,193963,1,0,0:0:0:0:
64,192,194077,1,0,0:0:0:0:
192,192,194077,1,0,0:0:0:0:
320,192,194077,1,0,0:0:0:0:
448,192,194077,1,0,0:0:0:0:
192,192,194191,1,0,0:0:0:0:
64,192,194191,1,0,0:0:0:0:
448,192,194304,1,0,0:0:0:0:
320,192,194304,1,0,0:0:0:0:
192,192,194304,1,0,0:0:0:0:
320,192,194418,1,0,0:0:0:0:
64,192,194418,1,0,0:0:0:0:
64,192,194532,1,0,0:0:0:0:
192,192,194532,1,0,0:0:0:0:
320,192,194532,1,0,0:0:0:0:
448,192,194532,1,0,0:0:0:0:
192,192,194645,1,0,0:0:0:0:
448,192,194645,1,0,0:0:0:0:
192,192,194759,1,0,0:0:0:0:
320,192,194759,1,0,0:0:0:0:
64,192,194759,1,0,0:0:0:0:
448,192,194873,1,0,0:0:0:0:
64,192,194873,1,0,0:0:0:0:
448,192,194986,1,0,0:0:0:0:
320,192,194986,1,0,0:0:0:0:
192,192,194986,1,0,0:0:0:0:
64,192,194986,1,0,0:0:0:0:
192,192,195100,1,0,0:0:0:0:
320,192,195100,1,0,0:0:0:0:
320,192,195213,1,0,0:0:0:0:
448,192,195213,1,0,0:0:0:0:
64,192,195213,1,0,0:0:0:0:
192,192,195327,1,0,0:0:0:0:
64,192,195327,1,0,0:0:0:0:
448,192,195441,1,0,0:0:0:0:
320,192,195441,1,0,0:0:0:0:
192,192,195441,1,0,0:0:0:0:
64,192,195441,1,0,0:0:0:0:
320,192,195554,1,0,0:0:0:0:
448,192,195554,1,0,0:0:0:0:
192,192,195668,1,0,0:0:0:0:
448,192,195668,1,0,0:0:0:0:
64,192,195668,1,0,0:0:0:0:
320,192,195782,1,0,0:0:0:0:
64,192,195782,1,0,0:0:0:0:
448,192,195895,1,0,0:0:0:0:
320,192,195895,1,0,0:0:0:0:
192,192,195895,1,0,0:0:0:0:
64,192,195895,1,0,0:0:0:0:
192,192,196009,1,0,0:0:0:0:
320,192,196009,1,0,0:0:0:0:
192,192,196123,1,0,0:0:0:0:
448,192,196123,1,0,0:0:0:0:
64,192,196123,1,0,0:0:0:0:
448,192,196236,1,0,0:0:0:0:
320,192,196236,1,0,0:0:0:0:
64,192,196236,1,0,0:0:0:0:
192,192,196350,1,0,0:0:0:0:
320,192,196350,1,0,0:0:0:0:
448,192,196350,1,0,0:0:0:0:
320,192,196463,1,0,0:0:0:0:
192,192,196577,1,0,0:0:0:0:
64,192,196577,1,0,0:0:0:0:
64,192,196691,1,0,0:0:0:0:
192,192,196804,1,0,0:0:0:0:
320,192,196804,1,0,0:0:0:0:
448,192,196804,1,0,0:0:0:0:
320,192,196918,1,0,0:0:0:0:
448,192,197032,1,0,0:0:0:0:
192,192,197032,1,0,0:0:0:0:
192,192,197145,1,0,0:0:0:0:
448,192,197259,1,0,0:0:0:0:
320,192,197259,1,0,0:0:0:0:
64,192,197259,1,0,0:0:0:0:
320,192,197373,1,0,0:0:0:0:
448,192,197486,1,0,0:0:0:0:
192,192,197486,1,0,0:0:0:0:
64,192,197486,1,0,0:0:0:0:
320,192,197600,1,0,0:0:0:0:
448,192,197600,1,0,0:0:0:0:
64,192,197713,1,0,0:0:0:0:
192,192,197713,1,0,0:0:0:0:
320,192,197713,1,0,0:0:0:0:
448,192,197713,1,0,0:0:0:0:
192,192,197827,1,0,0:0:0:0:
448,192,197941,1,0,0:0:0:0:
320,192,197941,1,0,0:0:0:0:
192,192,197941,1,0,0:0:0:0:
64,192,197941,1,0,0:0:0:0:
64,192,198054,1,0,0:0:0:0:
320,192,198054,1,0,0:0:0:0:
64,192,198168,1,0,0:0:0:0:
192,192,198168,1,0,0:0:0:0:
320,192,198168,1,0,0:0:0:0:
448,192,198168,1,0,0:0:0:0:
448,192,198282,1,0,0:0:0:0:
448,192,198395,1,0,0:0:0:0:
320,192,198395,1,0,0:0:0:0:
192,192,198395,1,0,0:0:0:0:
64,192,198395,1,0,0:0:0:0:
192,192,198509,1,0,0:0:0:0:
64,192,198509,1,0,0:0:0:0:
448,192,198623,1,0,0:0:0:0:
320,192,198623,1,0,0:0:0:0:
192,192,198623,1,0,0:0:0:0:
64,192,198623,1,0,0:0:0:0:
320,192,198736,1,0,0:0:0:0:
192,192,198736,1,0,0:0:0:0:
448,192,198850,1,0,0:0:0:0:
192,192,198850,1,0,0:0:0:0:
320,192,198850,1,0,0:0:0:0:
64,192,198850,1,0,0:0:0:0:
448,192,198963,1,0,0:0:0:0:
64,192,198963,1,0,0:0:0:0:
320,192,198963,1,0,0:0:0:0:
192,192,198963,1,0,0:0:0:0:
448,192,199077,5,0,0:0:0:0:
64,192,199077,1,0,0:0:0:0:
192,192,199077,1,0,0:0:0:0:
320,192,199077,1,0,0:0:0:0:
448,192,199304,1,0,0:0:0:0:
192,192,199532,1,0,0:0:0:0:
320,192,199759,1,0,0:0:0:0:
192,192,199986,1,0,0:0:0:0:
64,192,200213,1,0,0:0:0:0:
192,192,200441,1,0,0:0:0:0:
320,192,200668,1,0,0:0:0:0:
448,192,200895,1,0,0:0:0:0:
192,192,201123,1,0,0:0:0:0:
320,192,201350,1,0,0:0:0:0:
448,192,201577,1,0,0:0:0:0:
64,192,201804,1,0,0:0:0:0:
448,192,202032,1,0,0:0:0:0:
320,192,202259,1,0,0:0:0:0:
192,192,202486,1,0,0:0:0:0:
448,192,202713,1,0,0:0:0:0:
64,192,202941,1,0,0:0:0:0:
192,192,203168,1,0,0:0:0:0:
448,192,203395,1,0,0:0:0:0:
320,192,203623,1,0,0:0:0:0:
64,192,203850,1,0,0:0:0:0:
192,192,204077,1,0,0:0:0:0:
320,192,204304,1,0,0:0:0:0:
448,192,204532,1,0,0:0:0:0:
192,192,204759,1,0,0:0:0:0:
320,192,204986,1,0,0:0:0:0:
192,192,205213,1,0,0:0:0:0:
448,192,205441,1,0,0:0:0:0:
64,192,205668,1,0,0:0:0:0:
192,192,205895,1,0,0:0:0:0:
320,192,206123,1,0,0:0:0:0:
448,192,206350,5,0,0:0:0:0:
192,192,206577,1,0,0:0:0:0:
320,192,206804,1,0,0:0:0:0:
192,192,207032,1,0,0:0:0:0:
320,192,207259,1,0,0:0:0:0:
448,192,207486,1,0,0:0:0:0:
320,192,207713,1,0,0:0:0:0:
192,192,207941,1,0,0:0:0:0:
64,192,208168,1,0,0:0:0:0:
320,192,208395,1,0,0:0:0:0:
192,192,208623,1,0,0:0:0:0:
64,192,208850,1,0,0:0:0:0:
448,192,209077,1,0,0:0:0:0:
64,192,209304,1,0,0:0:0:0:
192,192,209532,1,0,0:0:0:0:
320,192,209759,1,0,0:0:0:0:
64,192,209986,1,0,0:0:0:0:
448,192,210213,1,0,0:0:0:0:
320,192,210441,1,0,0:0:0:0:
64,192,210668,1,0,0:0:0:0:
192,192,210895,1,0,0:0:0:0:
448,192,211123,1,0,0:0:0:0:
320,192,211350,1,0,0:0:0:0:
192,192,211577,1,0,0:0:0:0:
64,192,211804,1,0,0:0:0:0:
320,192,212032,1,0,0:0:0:0:
192,192,212259,1,0,0:0:0:0:
320,192,212486,1,0,0:0:0:0:
64,192,212713,1,0,0:0:0:0:
320,192,212941,1,0,0:0:0:0:
192,192,213168,1,0,0:0:0:0:
448,192,213395,1,0,0:0:0:0:
