osu file format v14

[General]
AudioFilename: anime_ban.mp3
AudioLeadIn: 0
PreviewTime: 44717
Countdown: 0
SampleSet: Normal
StackLeniency: 0.7
Mode: 0
LetterboxInBreaks: 0
WidescreenStoryboard: 1

[Editor]
Bookmarks: 13551,27884,34884,38217,42884,49550,66884,68217,69550,70884,72217,73550,74884,76217,77550
DistanceSpacing: 1.5
BeatDivisor: 4
GridSize: 4
TimelineZoom: 1.7

[Metadata]
Title:Various Feruver Maps
TitleUnicode:Various Feruver Maps
Artist:Various Artists
ArtistUnicode:Various Artists
Creator:Feruver
Version:~ Anime Ban ~
Source:Various Animes
Tags:マギ ending tv size Little Lince Cosmico ShogunMoon Waku Doormat My Angel Kanan Time Capsule CloudSplash16
BeatmapID:1724071
BeatmapSetID:822606

[Difficulty]
HPDrainRate:5
CircleSize:3.8
OverallDifficulty:9
ApproachRate:9.4
SliderMultiplier:1.70000000596046
SliderTickRate:1

[Events]
//Background and Video events
0,0,"Aladdin.(Magi).full.1419902.jpg",0,0
//Break Periods
//Storyboard Layer 0 (Background)
//Storyboard Layer 1 (Fail)
//Storyboard Layer 2 (Pass)
//Storyboard Layer 3 (Foreground)
//Storyboard Sound Samples

[TimingPoints]
1551,333.333333333333,4,1,7,40,1,0
1551,-133.333333333333,4,1,7,40,0,0
7550,-100,4,1,7,5,0,0
7717,-86.9565217391304,4,1,7,70,0,0
13551,-117.647058823529,4,1,7,60,0,0
34884,-133.333333333333,4,1,7,60,0,0
40217,-111.111111111111,4,1,7,60,0,0
42884,-100,4,1,7,60,0,0
43134,-100,4,1,7,5,0,0
43217,-100,4,1,7,60,0,0
44384,-100,4,1,7,70,0,0
44884,-100,4,1,7,60,0,0
45050,-100,4,1,7,5,0,0
45217,-100,4,1,7,60,0,0
45384,-100,4,1,7,5,0,0
45550,-90.9090909090909,4,1,7,80,0,1
46384,-90.9090909090909,4,1,7,5,0,1
46467,-90.9090909090909,4,1,7,80,0,1
46467,-90.9090909090909,4,1,7,80,0,1
46717,-90.9090909090909,4,1,7,5,0,1
46800,-90.9090909090909,4,1,7,80,0,1
47717,-90.9090909090909,4,1,7,5,0,1
47800,-90.9090909090909,4,1,7,80,0,1
48050,-90.9090909090909,4,1,7,5,0,1
48134,-90.9090909090909,4,1,7,80,0,1
49050,-90.9090909090909,4,1,7,5,0,1
49134,-90.9090909090909,4,1,7,80,0,1
49384,-90.9090909090909,4,1,7,5,0,1
49467,-90.9090909090909,4,1,7,80,0,1
50384,-90.9090909090909,4,1,7,5,0,1
50467,-90.9090909090909,4,1,7,80,0,1
50717,-90.9090909090909,4,1,7,5,0,1
50800,-90.9090909090909,4,1,7,80,0,1
51050,-90.9090909090909,4,1,7,5,0,1
51134,-90.9090909090909,4,1,7,80,0,1
51384,-90.9090909090909,4,1,7,5,0,1
51467,-90.9090909090909,4,1,7,80,0,1
51717,-90.9090909090909,4,1,7,5,0,1
51800,-90.9090909090909,4,1,7,80,0,1
52050,-90.9090909090909,4,1,7,5,0,1
52134,-90.9090909090909,4,1,7,80,0,1
53050,-90.9090909090909,4,1,7,5,0,1
53134,-90.9090909090909,4,1,7,80,0,1
53384,-90.9090909090909,4,1,7,5,0,1
53467,-90.9090909090909,4,1,7,80,0,1
53717,-90.9090909090909,4,1,7,5,0,1
53800,-90.9090909090909,4,1,7,80,0,1
54384,-90.9090909090909,4,1,7,5,0,1
54467,-90.9090909090909,4,1,7,80,0,1
57050,-90.9090909090909,4,1,7,5,0,1
57134,-90.9090909090909,4,1,7,80,0,1
57384,-90.9090909090909,4,1,7,5,0,1
57467,-90.9090909090909,4,1,7,80,0,1
58384,-90.9090909090909,4,1,7,5,0,1
58467,-90.9090909090909,4,1,7,80,0,1
58717,-90.9090909090909,4,1,7,5,0,1
58800,-90.9090909090909,4,1,7,80,0,1
59050,-90.9090909090909,4,1,7,5,0,1
59134,-90.9090909090909,4,1,7,80,0,1
59384,-90.9090909090909,4,1,7,5,0,1
59467,-90.9090909090909,4,1,7,80,0,1
59717,-90.9090909090909,4,1,7,5,0,1
59800,-90.9090909090909,4,1,7,80,0,1
59800,-90.9090909090909,4,1,7,80,0,1
60050,-90.9090909090909,4,1,7,5,0,1
60134,-90.9090909090909,4,1,7,80,0,1
61717,-90.9090909090909,4,1,7,5,0,1
61800,-90.9090909090909,4,1,7,80,0,1
62050,-90.9090909090909,4,1,7,5,0,1
62134,-90.9090909090909,4,1,7,80,0,1
62384,-90.9090909090909,4,1,7,5,0,1
62467,-90.9090909090909,4,1,7,80,0,1
62717,-90.9090909090909,4,1,7,5,0,1
62800,-90.9090909090909,4,1,7,80,0,1
64217,-90.9090909090909,4,3,7,80,0,0
65550,-90.9090909090909,4,1,7,60,0,0
66384,-90.9090909090909,4,1,7,5,0,0
66467,-90.9090909090909,4,1,7,80,0,0
66717,-90.9090909090909,4,1,7,5,0,0
66800,-90.9090909090909,4,1,7,80,0,0
66884,-90.9090909090909,4,1,7,80,0,1
71717,-90.9090909090909,4,1,7,5,0,1
71800,-90.9090909090909,4,1,7,80,0,1
72050,-90.9090909090909,4,1,7,5,0,1
72134,-90.9090909090909,4,1,7,80,0,1
75050,-90.9090909090909,4,1,7,5,0,1
75134,-90.9090909090909,4,1,7,80,0,1
75717,-90.9090909090909,4,1,7,5,0,1
75800,-90.9090909090909,4,1,7,80,0,1
82884,-133.333333333333,4,1,7,30,0,0
85217,-133.333333333333,4,1,7,20,0,0
85884,-100,4,1,7,15,0,0
86550,-100,4,1,7,10,0,0
86884,-100,4,1,7,5,0,0

[Colours]
Combo1 : 234,210,115
Combo2 : 55,155,255
Combo3 : 207,207,207

[HitObjects]
89,68,884,5,0,2:1:0:0:
267,70,1217,1,0,2:1:0:0:
149,169,1551,6,0,P|166:200|269:251,1,127.500005310774,0|0,2:1|2:1,2:1:0:0:
329,177,2217,2,0,P|334:135|295:41,1,127.500005310774,0|0,2:1|2:1,2:1:0:0:
192,143,2884,2,0,P|169:169|139:273,1,127.500005310774,0|0,2:1|2:1,2:1:0:0:
312,262,3550,5,0,2:1:0:0:
445,140,3884,1,0,2:1:0:0:
315,110,4217,2,0,P|275:119|170:117,1,127.500005310774,0|0,2:1|2:1,2:1:0:0:
55,169,4884,2,0,P|66:212|134:284,1,127.500005310774,0|0,2:1|2:1,2:1:0:0:
253,182,5550,1,0,2:1:0:0:
256,192,5634,12,0,7550,2:1:0:0:
110,84,7717,5,8,2:1:0:0:
110,84,7800,1,8,2:1:0:0:
110,84,7884,2,0,P|114:142|138:185,1,97.7500022071598,8|0,2:1|2:1,2:1:0:0:
276,120,8217,5,8,2:1:0:0:
448,217,8384,1,0,2:1:0:0:
258,50,8550,1,0,2:1:0:0:
277,295,8717,2,0,P|232:277|195:232,1,97.7500022071598,8|0,2:1|2:1,2:1:0:0:
67,151,9050,1,0,2:1:0:0:
198,75,9217,1,0,0:0:0:0:
274,240,9384,2,0,P|339:242|367:216,1,97.7500022071598,8|0,2:1|2:1,2:1:0:0:
219,118,9717,1,0,0:0:0:0:
83,241,9883,1,0,2:1:0:0:
288,309,10050,2,0,P|338:312|395:295,1,97.7500022071598,8|0,2:1|2:1,2:1:0:0:
385,69,10384,5,0,2:1:0:0:
197,178,10551,1,0,2:1:0:0:
412,86,10717,1,0,2:1:0:0:
284,122,10884,5,8,0:0:0:0:
428,209,11050,2,0,P|385:254|339:272,1,97.7500022071598,8|0,2:1|2:1,2:1:0:0:
129,253,11384,2,8,P|89:212|66:172,1,97.7500022071598,8|0,2:1|2:1,2:1:0:0:
209,176,11716,2,0,L|109:81,1,97.7500022071598,8|0,2:1|2:1,2:1:0:0:
286,107,12050,2,0,L|199:35,1,97.7500022071598,8|0,2:1|2:1,2:1:0:0:
376,48,12383,2,0,L|283:-8,1,97.7500022071598,8|0,2:1|2:1,2:1:0:0:
309,167,12716,6,0,P|314:232|301:293,1,97.7500022071598,8|0,2:1|2:1,2:1:0:0:
135,288,13050,1,8,2:1:0:0:
74,128,13217,2,0,P|122:92|228:94,1,146.62500331074,8|0,2:1|2:1,2:1:0:0:
230,100,13550,6,0,P|232:165|229:223,1,97.7500022071598,8|0,2:1|2:1,2:1:0:0:
314,316,13884,1,8,2:1:0:0:
430,214,14050,2,0,P|414:167|376:128,1,72.250001631379,0|0,2:1|2:1,2:1:0:0:
224,121,14384,1,0,2:1:0:0:
367,32,14550,1,8,2:1:0:0:
313,177,14717,2,0,P|277:212|159:226,1,144.500003262758,0|0,2:1|2:1,2:1:0:0:
116,123,15217,5,8,2:1:0:0:
286,41,15384,1,0,2:1:0:0:
142,20,15550,1,0,2:1:0:0:
231,181,15717,1,0,2:1:0:0:
386,79,15884,1,8,2:1:0:0:
426,223,16050,6,0,P|390:265|283:261,1,144.500003262758,0|0,2:1|2:1,2:1:0:0:
177,167,16550,1,8,2:1:0:0:
133,272,16717,1,0,2:1:0:0:
27,146,16884,1,0,2:1:0:0:
72,288,17050,1,0,2:1:0:0:
42,79,17217,1,8,2:1:0:0:
199,174,17384,2,0,P|247:174|283:145,1,72.250001631379,0|0,2:1|2:1,2:1:0:0:
376,81,17717,1,0,2:1:0:0:
377,237,17884,6,0,P|369:283|344:318,1,72.250001631379,8|0,2:1|2:1,2:1:0:0:
135,293,18217,1,8,2:1:0:0:
233,175,18384,1,0,2:1:0:0:
62,154,18550,2,8,P|75:98|161:67,1,144.500003262758,8|0,2:1|2:1,2:1:0:0:
114,204,19217,5,8,2:1:0:0:
327,143,19384,1,0,2:1:0:0:
245,259,19550,2,0,P|204:288|162:298,1,72.250001631379,0|0,2:1|2:1,2:1:0:0:
124,158,19884,2,0,P|107:115|103:80,1,72.250001631379,8|0,2:1|2:1,2:1:0:0:
294,66,20217,2,0,P|339:53|381:54,1,72.250001631379,0|0,2:1|2:1,2:1:0:0:
280,206,20550,1,8,2:1:0:0:
92,204,20717,2,0,P|73:169|145:112,1,144.500003262758,0|0,2:1|2:1,2:1:0:0:
212,237,21217,5,8,2:1:0:0:
343,178,21384,2,0,P|347:136|332:87,1,72.250001631379,0|0,2:1|2:1,2:1:0:0:
228,73,21717,1,0,2:1:0:0:
74,185,21884,1,8,2:1:0:0:
136,23,22050,1,0,2:1:0:0:
203,180,22217,1,0,2:1:0:0:
31,74,22384,1,0,2:1:0:0:
228,73,22550,1,8,2:1:0:0:
104,229,22717,6,0,P|131:261|186:283,1,72.250001631379,0|0,2:1|2:1,2:1:0:0:
307,273,23050,1,0,2:1:0:0:
367,104,23217,1,8,2:1:0:0:
367,104,23300,1,8,2:1:0:0:
367,104,23384,2,0,P|308:99|275:97,1,72.250001631379,8|0,2:1|2:1,2:1:0:0:
87,90,23717,1,0,2:1:0:0:
186,267,23884,1,8,2:1:0:0:
212,44,24050,1,0,2:1:0:0:
324,177,24217,6,0,P|352:208|346:333,1,144.500003262758,0|8,2:1|2:1,2:1:0:0:
236,265,24717,2,0,L|140:283,1,72.250001631379,0|0,2:1|2:1,2:1:0:0:
75,174,25050,1,0,2:1:0:0:
189,67,25217,1,8,2:1:0:0:
277,153,25384,2,0,P|333:139|402:55,1,144.500003262758,0|0,2:1|2:1,2:1:0:0:
334,236,25884,6,0,P|293:258|253:260,1,72.250001631379,8|0,2:1|2:1,2:1:0:0:
91,253,26217,1,0,2:1:0:0:
227,157,26384,1,0,2:1:0:0:
80,124,26550,1,8,2:1:0:0:
227,258,26717,2,0,P|278:273|356:196,1,144.500003262758,0|0,2:1|2:1,2:1:0:0:
259,141,27217,5,8,2:1:0:0:
62,208,27384,1,0,2:1:0:0:
200,74,27550,1,0,2:1:0:0:
1,72,27717,1,0,2:1:0:0:
195,201,27884,1,8,2:1:0:0:
281,87,28050,2,0,P|334:65|417:96,1,144.500003262758,0|0,2:1|2:1,2:1:0:0:
432,187,28550,2,0,L|425:274,1,72.250001631379,8|0,2:1|2:1,2:1:0:0:
329,237,28884,1,8,2:1:0:0:
209,276,29050,6,0,L|132:295,1,72.250001631379,0|8,2:1|2:1,2:1:0:0:
90,206,29384,2,0,L|18:162,1,72.250001631379,0|0,2:1|2:1,2:1:0:0:
204,200,29717,1,0,2:1:0:0:
141,69,29884,6,0,P|189:66|282:132,1,144.500003262758,8|0,2:1|2:1,2:1:0:0:
322,217,30384,2,0,P|307:256|273:293,1,72.250001631379,0|8,2:1|2:1,2:1:0:0:
160,307,30717,1,0,2:1:0:0:
282,190,30884,1,0,2:1:0:0:
89,184,31050,2,0,P|67:133|65:100,1,72.250001631379,0|8,2:1|2:1,2:1:0:0:
205,89,31384,2,0,P|231:143|207:236,1,144.500003262758,0|0,2:1|2:1,2:1:0:0:
369,151,31884,5,8,2:1:0:0:
220,189,32050,2,0,P|168:175|137:146,1,72.250001631379,0|0,2:1|2:1,2:1:0:0:
261,49,32384,5,0,2:1:0:0:
313,222,32550,1,8,2:1:0:0:
377,42,32717,1,0,2:1:0:0:
183,178,32884,1,0,2:1:0:0:
440,124,33050,1,0,2:1:0:0:
172,57,33217,1,8,2:1:0:0:
256,252,33384,2,0,P|327:279|381:214,1,144.500003262758,0|0,2:1|2:1,2:1:0:0:
318,178,33884,1,8,2:1:0:0:
139,137,34050,5,8,2:1:0:0:
139,137,34134,1,8,2:1:0:0:
139,137,34217,2,0,P|108:194|103:220,1,72.250001631379,8|0,2:1|2:1,2:1:0:0:
142,338,34550,1,0,2:1:0:0:
292,195,34717,1,0,2:1:0:0:
85,117,34884,6,0,P|129:85|212:85,1,127.500005310774,8|0,2:1|2:1,2:1:0:0:
175,179,35384,2,0,P|213:197|247:195,1,63.7500026553869,0|8,2:1|2:1,2:1:0:0:
334,297,35884,2,0,P|355:263|352:166,1,127.500005310774,0|8,2:1|2:1,2:1:0:0:
256,133,36384,1,0,0:0:0:0:
150,178,36550,2,0,B|127:208|81:266|71:296,2,127.500005310774,0|8|0,2:1|2:1|2:1,2:1:0:0:
235,148,37384,1,0,0:0:0:0:
193,59,37550,2,0,P|234:47|314:90,1,127.500005310774,8|0,2:1|2:1,2:1:0:0:
228,155,38050,1,0,0:0:0:0:
171,246,38217,2,0,P|152:288|103:362,1,127.500005310774,8|0,2:1|2:1,2:1:0:0:
200,293,38717,2,0,P|244:277|268:251,1,63.7500026553869,0|8,2:1|2:1,2:1:0:0:
293,174,39050,6,0,P|323:153|423:143,1,127.500005310774,0|0,2:1|2:1,2:1:0:0:
434,220,39550,2,0,P|405:249|382:259,1,63.7500026553869,8|0,2:1|2:1,2:1:0:0:
154,280,39884,1,8,2:1:0:0:
292,148,40050,1,8,2:1:0:0:
85,72,40217,1,8,2:1:0:0:
73,255,40550,6,0,P|118:266|230:207,1,152.999995867252,8|0,2:1|2:1,2:1:0:0:
144,164,41050,2,0,P|177:131|223:111,1,76.499997933626,0|8,2:1|2:1,2:1:0:0:
241,237,41384,1,0,2:1:0:0:
329,135,41550,2,0,P|358:181|359:289,1,152.999995867252,0|8,2:1|2:1,2:1:0:0:
267,321,42050,1,0,2:1:0:0:
152,256,42217,2,0,B|195:230|195:230|167:210|164:117,1,152.999995867252,0|8,2:1|2:1,2:1:0:0:
321,152,42717,1,0,2:1:0:0:
154,79,42884,6,0,P|120:120|106:214,1,127.500000447035,0|0,2:1|2:1,2:1:0:0:
103,191,43217,1,8,2:1:0:0:
415,306,43384,2,0,P|436:270|428:126,1,170.000000596046,0|0,2:1|2:1,2:1:0:0:
278,201,43884,1,8,2:1:0:0:
194,83,44050,2,0,P|138:104|91:209,1,170.000000596046,0|0,2:1|2:1,2:1:0:0:
282,144,44550,1,8,2:1:0:0:
391,51,44717,1,0,2:1:0:0:
434,183,44884,6,0,P|418:229|382:268,1,85.000000298023,2|0,2:1|2:1,2:1:0:0:
255,243,45217,2,0,P|206:233|171:207,1,85.000000298023,2|0,2:1|2:1,2:1:0:0:
184,65,45550,2,0,P|244:59|359:115,1,187.000006362438,6|8,2:1|2:1,2:1:0:0:
231,176,46050,1,0,2:1:0:0:
321,283,46217,2,0,P|275:327|228:340,1,93.500003181219,2|0,2:1|2:1,2:1:0:0:
106,213,46550,2,0,P|70:153|66:117,1,93.500003181219,10|0,2:1|2:1,2:1:0:0:
277,50,46884,6,0,P|352:82|438:171,1,187.000006362438,2|8,2:1|2:1,2:1:0:0:
271,185,47384,1,0,2:1:0:0:
135,182,47550,2,0,P|107:145|83:95,1,93.500003181219,2|0,2:1|2:1,2:1:0:0:
58,244,47884,2,0,P|81:288|121:329,1,93.500003181219,10|0,2:1|2:1,2:1:0:0:
344,278,48217,6,0,P|357:222|310:82,1,187.000006362438,2|8,2:1|2:1,2:1:0:0:
256,197,48717,1,0,2:1:0:0:
177,125,48884,2,0,P|134:161|77:172,1,93.500003181219,2|0,2:1|2:1,2:1:0:0:
127,42,49217,2,0,P|202:25|247:27,1,93.500003181219,10|0,2:1|2:1,2:1:0:0:
381,51,49550,6,0,P|405:115|376:255,1,187.000006362438,2|8,2:1|2:1,2:1:0:0:
298,139,50050,1,0,2:1:0:0:
129,147,50217,2,0,L|94:54,1,93.500003181219,2|0,2:1|2:1,2:1:0:0:
22,175,50550,2,0,L|72:297,1,93.500003181219,10|0,2:1|2:1,2:1:0:0:
258,312,50884,6,0,P|326:318|371:309,1,93.500003181219,2|0,2:1|2:1,2:1:0:0:
379,179,51217,2,0,P|311:163|251:170,1,93.500003181219,10|0,2:1|2:1,2:1:0:0:
218,346,51550,2,0,P|279:361|333:357,1,93.500003181219,2|0,2:1|2:1,2:1:0:0:
407,106,51884,2,0,P|357:86|295:85,1,93.500003181219,10|0,2:1|2:1,2:1:0:0:
204,165,52217,5,2,2:1:0:0:
74,248,52384,1,0,2:1:0:0:
258,268,52550,5,10,2:1:0:0:
133,364,52717,1,0,2:1:0:0:
410,285,52884,6,0,L|408:170,1,93.500003181219,2|0,2:1|2:1,2:1:0:0:
368,56,53217,2,0,P|315:75|252:116,1,93.500003181219,10|0,2:1|2:1,2:1:0:0:
100,231,53550,6,0,P|135:262|191:278,1,93.500003181219,2|0,2:1|2:1,2:1:0:0:
285,161,53884,1,10,2:1:0:0:
205,32,54050,1,0,2:1:0:0:
113,167,54217,6,0,P|129:213|166:244,1,93.500003181219,2|0,2:1|2:1,2:1:0:0:
298,136,54550,1,10,2:1:0:0:
349,17,54717,1,0,2:1:0:0:
484,154,54884,6,0,P|435:220|321:263,1,187.000006362438,2|8,2:1|2:1,2:1:0:0:
140,243,55384,1,8,2:1:0:0:
140,243,55467,1,8,2:1:0:0:
140,243,55550,1,10,2:1:0:0:
199,85,55717,1,8,2:1:0:0:
323,177,55884,2,0,P|379:145|423:92,1,93.500003181219,10|0,2:1|2:1,2:1:0:0:
310,37,56217,6,2,P|249:35|106:115,1,187.000006362438,6|10,2:1|2:1,2:1:0:0:
264,146,56717,1,0,2:1:0:0:
199,271,56884,2,0,P|153:301|95:305,1,93.500003181219,2|0,2:1|2:1,2:1:0:0:
325,257,57217,2,0,P|363:216|434:194,1,93.500003181219,8|0,2:1|2:1,2:1:0:0:
389,81,57550,6,0,P|326:60|199:89,1,187.000006362438,2|8,2:1|2:1,2:1:0:0:
308,177,58050,1,0,2:1:0:0:
93,225,58217,2,0,P|66:283|38:315,1,93.500003181219,2|0,2:1|2:1,2:1:0:0:
197,198,58550,2,0,P|214:125|251:92,1,93.500003181219,10|0,2:1|2:1,2:1:0:0:
456,70,58884,6,0,L|380:136,1,93.500003181219,2|0,2:1|2:1,2:1:0:0:
440,243,59217,2,0,L|523:160,1,93.500003181219,10|0,2:1|2:1,2:1:0:0:
210,81,59550,2,0,L|306:150,1,93.500003181219,2|0,2:1|2:1,2:1:0:0:
261,288,59884,2,0,L|163:198,1,93.500003181219,10|0,2:1|2:1,2:1:0:0:
78,92,60217,2,0,P|55:156|61:294,1,187.000006362438,2|8,2:1|2:1,2:1:0:0:
215,168,60717,5,0,2:1:0:0:
321,102,60884,2,0,P|370:57|404:49,1,93.500003181219,2|0,2:1|2:1,2:1:0:0:
476,137,61217,2,0,P|433:167|391:178,1,93.500003181219,10|0,2:1|2:1,2:1:0:0:
142,71,61550,2,0,P|124:128|110:182,1,93.500003181219,2|0,2:1|2:1,2:1:0:0:
214,328,61884,2,0,P|231:261|235:223,1,93.500003181219,10|0,2:1|2:1,2:1:0:0:
393,72,62217,6,0,P|325:99|296:122,1,93.500003181219,2|0,2:1|2:1,2:1:0:0:
154,332,62550,2,0,P|214:291|229:269,1,93.500003181219,10|0,2:1|2:1,2:1:0:0:
70,82,62884,2,0,P|137:107|232:193,1,187.000006362438,2|10,2:1|2:1,2:1:0:0:
85,232,63384,1,2,2:1:0:0:
196,82,63550,2,0,P|258:60|302:67,1,93.500003181219,2|0,2:1|2:1,2:1:0:0:
294,215,63884,1,10,2:1:0:0:
104,120,64050,1,2,2:1:0:0:
355,55,64217,6,0,P|387:107|393:252,1,187.000006362438,0|8,2:1|2:1,2:1:0:0:
323,318,64717,6,0,P|219:344|118:306,1,187.000006362438,0|0,2:1|2:1,2:1:0:0:
73,239,65217,6,0,P|71:189|146:42,1,187.000006362438,8|0,2:1|2:1,2:1:0:0:
263,165,65717,1,0,2:1:0:0:
340,31,65884,1,0,2:1:0:0:
462,160,66050,1,0,2:1:0:0:
359,286,66217,6,0,P|309:318|257:322,1,93.500003181219,2|0,2:1|2:1,2:1:0:0:
178,192,66550,2,0,P|158:145|157:101,1,93.500003181219,2|0,2:1|2:1,2:1:0:0:
432,45,66884,5,10,2:1:0:0:
389,199,67050,1,0,2:1:0:0:
254,48,67217,5,10,2:1:0:0:
285,225,67384,1,0,2:1:0:0:
103,74,67550,5,10,2:1:0:0:
139,234,67717,1,0,2:1:0:0:
36,163,67884,5,8,2:1:0:0:
233,264,68051,1,0,2:1:0:0:
263,84,68217,5,10,2:1:0:0:
139,234,68384,1,0,2:1:0:0:
373,279,68550,5,8,2:1:0:0:
201,134,68717,1,0,2:1:0:0:
182,330,68884,5,10,2:1:0:0:
325,153,69050,1,0,2:1:0:0:
134,20,69217,5,10,2:1:0:0:
195,204,69384,1,0,2:1:0:0:
439,141,69550,5,10,2:1:0:0:
279,60,69717,1,0,2:1:0:0:
202,220,69884,5,10,2:1:0:0:
352,127,70050,1,0,2:1:0:0:
457,285,70217,5,10,2:1:0:0:
281,203,70384,1,0,2:1:0:0:
193,355,70550,5,10,2:1:0:0:
404,273,70717,1,0,2:1:0:0:
420,123,70884,6,10,P|384:72|245:51,1,187.000006362438,10|8,2:1|2:1,2:1:0:0:
311,192,71384,1,0,2:1:0:0:
96,328,71550,6,0,P|81:272|90:232,1,93.500003181219,10|0,2:1|2:1,2:1:0:0:
213,68,71884,2,0,P|225:129|210:191,1,93.500003181219,10|0,2:1|2:1,2:1:0:0:
63,259,72217,5,10,2:1:0:0:
240,323,72384,1,0,2:1:0:0:
347,168,72550,5,10,2:1:0:0:
134,278,72717,1,0,2:1:0:0:
58,106,72884,5,10,2:1:0:0:
280,186,73050,1,0,2:1:0:0:
363,24,73217,5,10,2:1:0:0:
108,132,73384,1,0,2:1:0:0:
153,336,73550,5,10,2:1:0:0:
272,182,73717,1,0,2:1:0:0:
288,341,73884,5,10,2:1:0:0:
161,164,74050,1,0,2:1:0:0:
358,57,74217,5,10,2:1:0:0:
222,207,74384,1,0,2:1:0:0:
184,49,74550,5,10,2:1:0:0:
340,217,74717,1,0,2:1:0:0:
136,67,74884,6,0,P|99:121|97:164,1,93.500003181219,10|0,2:1|2:1,2:1:0:0:
169,284,75217,1,10,2:1:0:0:
318,136,75384,1,0,2:1:0:0:
297,339,75550,6,0,P|250:291|237:251,1,93.500003181219,10|0,2:1|2:1,2:1:0:0:
238,130,75884,1,10,2:1:0:0:
427,180,76050,1,0,2:1:0:0:
156,58,76217,6,0,P|124:104|128:156,1,93.500003181219,10|0,2:1|2:1,2:1:0:0:
231,305,76550,2,0,P|259:246|263:207,1,93.500003181219,8|0,2:1|2:1,2:1:0:0:
390,73,76884,5,10,2:1:0:0:
390,73,76967,1,8,2:1:0:0:
390,73,77050,1,8,2:1:0:0:
225,168,77217,2,0,P|155:190|154:77,1,187.000006362438,10|10,2:1|2:1,2:1:0:0:
271,19,77717,1,0,2:1:0:0:
406,216,77884,5,10,2:1:0:0:
200,164,78050,1,0,2:1:0:0:
356,83,78217,5,10,2:1:0:0:
396,290,78384,1,0,2:1:0:0:
129,277,78550,5,10,2:1:0:0:
118,81,78717,1,0,2:1:0:0:
318,68,78884,5,10,2:1:0:0:
118,81,79050,1,0,2:1:0:0:
341,265,79217,5,8,2:1:0:0:
318,68,79384,1,0,2:1:0:0:
92,280,79550,5,10,2:1:0:0:
341,265,79717,1,0,2:1:0:0:
74,59,79884,5,10,2:1:0:0:
92,280,80050,1,0,2:1:0:0:
357,43,80217,5,10,2:1:0:0:
74,59,80384,1,0,2:1:0:0:
386,267,80550,5,10,2:1:0:0:
357,43,80717,1,0,2:1:0:0:
55,283,80884,5,10,2:1:0:0:
386,267,81050,1,0,2:1:0:0:
36,46,81217,5,10,2:1:0:0:
55,283,81384,1,0,2:1:0:0:
397,22,81550,5,10,2:1:0:0:
36,46,81717,1,0,2:1:0:0:
425,262,81884,5,8,2:1:0:0:
397,22,82050,1,0,2:1:0:0:
145,171,82217,6,0,P|140:245|158:292,1,93.500003181219,10|0,2:1|2:1,2:1:0:0:
414,201,82550,2,0,P|418:127|401:84,1,93.500003181219,10|0,2:1|2:1,2:1:0:0:
294,166,82884,6,0,P|263:194|192:245,1,127.500005310774,2|2,2:1|2:1,2:1:0:0:
59,145,83550,2,2,P|90:101|178:81,1,127.500005310774,2|2,2:1|2:1,2:1:0:0:
175,224,84217,2,2,P|214:241|301:215,1,127.500005310774,2|2,2:1|2:1,2:1:0:0:
369,150,84717,1,2,2:1:0:0:
253,94,84884,2,2,P|203:78|130:123,1,127.500005310774,2|2,2:1|2:1,2:1:0:0:
222,205,85384,1,2,2:1:0:0:
256,192,85467,12,0,86550,2:1:0:0:
