osu file format v14

[General]
AudioFilename: only_my_railgun_euro.mp3
AudioLeadIn: 2000
PreviewTime: 11842
Countdown: 0
SampleSet: None
StackLeniency: 0.7
Mode: 0
LetterboxInBreaks: 0
WidescreenStoryboard: 1

[Editor]
Bookmarks: 5842,10875,12423,27907,66617
DistanceSpacing: 1
BeatDivisor: 4
GridSize: 8
TimelineZoom: 1

[Metadata]
Title:Various Feruver Maps
TitleUnicode:Various Feruver Maps
Artist:Various Artists
ArtistUnicode:Various Artists
Creator:Feruver
Version:Only My Railgun Eurobeat
Source:Various Animes
Tags:tv size [kirisame-marisa] kirisame-marisa yia beatcharger youtube eurobeat
BeatmapID:1724076
BeatmapSetID:822606

[Difficulty]
HPDrainRate:5.5
CircleSize:3.9
OverallDifficulty:8
ApproachRate:9.3
SliderMultiplier:2.5
SliderTickRate:1

[Events]
//Background and Video events
0,0,"charg.jpg",0,0
//Break Periods
2,40494,45159
//Storyboard Layer 0 (Background)
//Storyboard Layer 1 (Fail)
//Storyboard Layer 2 (Pass)
//Storyboard Layer 3 (Foreground)
//Storyboard Sound Samples

[TimingPoints]
36,387.096774193548,4,1,0,70,1,0
5746,-100,4,1,0,80,0,0
6326,-100,4,1,6,80,0,0
11649,-100,4,2,0,80,0,0
12326,-83.3333333333333,4,1,0,80,0,0
40294,-100,4,2,6,50,0,0
40390,-100,4,2,6,60,0,0
45617,-100,4,1,0,80,0,0
46294,-83.3333333333333,4,1,0,80,0,0
64197,-200,4,1,0,80,0,0
64971,-133.333333333333,4,1,0,80,0,0
65842,-83.3333333333333,4,2,0,80,0,0
66520,-76.9230769230769,4,1,0,80,0,0
66616,-76.9230769230769,4,1,0,80,0,1
66713,-76.9230769230769,4,1,0,80,0,0
93471,-100,4,1,0,80,0,0
94487,-83.3333333333333,4,1,0,80,0,1
94584,-83.3333333333333,4,1,0,80,0,0
112294,-83.3333333333333,4,1,0,70,0,0
112488,-83.3333333333333,4,1,0,50,0,0
112681,-83.3333333333333,4,1,0,40,0,0
112875,-83.3333333333333,4,1,0,30,0,0
113068,-83.3333333333333,4,2,0,5,0,0

[Colours]
Combo1 : 5,5,240
Combo2 : 176,230,255

[HitObjects]
96,64,36,5,0,0:0:0:0:
288,72,326,1,0,0:0:0:0:
288,72,423,1,0,0:0:0:0:
408,160,616,1,0,0:0:0:0:
408,160,713,1,0,0:0:0:0:
376,264,1003,1,0,0:0:0:0:
304,328,1197,6,0,L|224:328,1,62.5
240,256,1390,2,0,L|160:256,1,62.5
184,184,1584,2,0,L|120:184,1,62.5
48,120,1777,1,0,0:0:0:0:
240,48,1971,5,0,0:0:0:0:
328,64,2165,1,0,0:0:0:0:
328,64,2261,1,0,0:0:0:0:
200,192,2552,1,0,0:0:0:0:
144,136,2745,2,0,P|128:112|96:104,1,62.5
160,256,2939,2,0,P|144:280|152:312,1,62.5
272,176,3132,2,0,P|296:160|336:168,1,62.5
200,192,3326,1,0,0:0:0:0:
408,56,3519,5,0,0:0:0:0:
488,152,3713,1,0,0:0:0:0:
488,152,3810,1,0,0:0:0:0:
440,304,4100,1,0,0:0:0:0:
296,296,4294,5,0,0:0:0:0:
272,296,4390,1,0,0:0:0:0:
248,296,4487,1,0,0:0:0:0:
224,296,4584,1,0,0:0:0:0:
200,296,4681,1,0,0:0:0:0:
168,296,4777,1,0,0:0:0:0:
144,296,4874,1,0,0:0:0:0:
112,80,5068,5,0,0:0:0:0:
248,88,5261,1,0,0:0:0:0:
248,88,5358,1,0,0:0:0:0:
72,200,5648,1,0,0:0:0:0:
192,192,5842,5,0,0:0:0:0:
216,192,5939,1,0,0:0:0:0:
248,200,6035,1,0,0:0:0:0:
272,216,6132,1,0,0:0:0:0:
296,240,6229,1,0,0:0:0:0:
392,336,6423,1,2,0:0:0:0:
408,200,6616,6,0,B|440:120|440:120|424:72,1,125,0|2,0:0|0:0,0:0:0:0:
344,112,7003,2,2,P|240:144|200:144,1,125,0|2,0:0|0:0,0:0:0:0:
64,184,7390,6,0,L|64:256,3,62.5,0|0|2|0,0:0|0:0|0:0|0:0,0:0:0:0:
64,246,7777,2,0,B|160:248|160:248|232:232,1,125,0|2,0:0|0:0,0:0:0:0:
288,280,8165,2,0,P|224:312|152:320,1,125,0|2,0:0|0:0,0:0:0:0:
171,320,8455,2,0,L|96:320,1,62.5
136,56,8745,6,0,P|176:112|192:176,1,125,2|0,0:0|0:0,0:0:0:0:
191,165,9035,2,0,L|144:232,1,62.5,0|2,0:0|0:0,0:0:0:0:
288,112,9229,2,0,L|320:192,1,62.5
344,40,9423,2,0,L|400:96,1,62.5,0|2,0:0|0:0,0:0:0:0:
496,232,9713,6,0,P|416:272|360:288,1,125,0|2,0:0|0:0,0:0:0:0:
382,282,10003,2,0,L|304:288,1,62.5
176,272,10197,1,0,0:0:0:0:
152,256,10294,1,2,0:0:0:0:
128,232,10390,1,0,0:0:0:0:
112,200,10487,6,0,L|112:152,8,31.25,0|0|0|2|0|0|0|0|0,0:0|0:0|0:0|0:0|0:0|0:0|0:0|0:0|0:0,0:0:0:0:
152,56,11842,5,0,0:0:0:0:
384,152,12035,1,0,0:0:0:0:
352,384,12229,1,0,0:0:0:0:
168,304,12423,2,0,P|144:224|136:152,1,149.999995422363,6|0,0:0|0:0,0:0:0:0:
136,158,12713,1,0,0:0:0:0:
136,158,12810,1,2,0:0:0:0:
280,168,13003,1,0,0:0:0:0:
384,48,13197,6,0,P|439:119|439:215,1,149.999995422363,6|0,0:0|0:0,0:0:0:0:
448,200,13487,1,0,0:0:0:0:
416,224,13584,1,2,0:0:0:0:
224,72,13777,2,0,P|168:144|168:248,1,149.999995422363,0|6,0:0|0:0,0:0:0:0:
158,200,14068,2,0,L|64:200,1,74.9999977111817
83,200,14261,1,0,0:0:0:0:
83,200,14358,1,2,0:0:0:0:
128,320,14552,2,0,B|224:296|224:296|304:232,1,149.999995422363,0|2,0:0|0:0,0:0:0:0:
224,96,14939,6,0,P|144:120|72:168,1,149.999995422363,0|2,0:0|0:0,0:0:0:0:
192,208,15326,1,0,0:0:0:0:
456,96,15519,2,0,P|448:248|312:352,1,299.999990844727,2|2,0:0|0:0,0:0:0:0:
264,320,16100,2,0,P|192:280|152:208,1,149.999995422363,0|2,0:0|0:0,0:0:0:0:
120,96,16487,2,0,P|216:72|312:72,1,149.999995422363,0|2,0:0|0:0,0:0:0:0:
240,144,16874,2,0,B|272:168|232:224|296:296,1,149.999995422363,0|2,0:0|0:0,0:0:0:0:
320,280,17165,2,0,B|400:232|400:232|432:120,1,149.999995422363
408,160,17455,2,0,B|360:88|360:88|264:56,1,149.999995422363,2|2,0:0|0:0,0:0:0:0:
120,64,17842,5,2,0:0:0:0:
48,112,17939,1,0,0:0:0:0:
0,184,18035,1,2,0:0:0:0:
8,272,18132,1,0,0:0:0:0:
64,336,18229,1,2,0:0:0:0:
144,352,18326,1,0,0:0:0:0:
232,352,18423,1,2,0:0:0:0:
312,328,18519,1,0,0:0:0:0:
368,264,18616,1,2,0:0:0:0:
488,240,18810,6,0,P|480:272|416:304,2,74.9999977111817,0|0|2,0:0|0:0|0:0,0:0:0:0:
416,232,19197,2,0,B|320:224|320:224|224:224,1,149.999995422363,0|2,0:0|0:0,0:0:0:0:
248,224,19487,2,0,L|168:232,2,74.9999977111817
160,48,19777,2,0,B|264:88|264:88|360:88,1,149.999995422363,2|0,0:0|0:0,0:0:0:0:
464,96,20165,2,0,B|456:176|456:176|392:232,1,149.999995422363,2|0,0:0|0:0,0:0:0:0:
392,224,20455,2,0,B|384:232|384:232|400:224|400:224|304:256,1,74.9999977111817,0|2,0:0|0:0,0:0:0:0:
288,360,20745,1,0,0:0:0:0:
160,288,20939,6,0,P|88:224|64:144,1,149.999995422363,2|0,0:0|0:0,0:0:0:0:
120,56,21326,2,0,P|168:128|184:208,1,149.999995422363,2|0,0:0|0:0,0:0:0:0:
336,360,21713,2,0,P|400:248|400:176,1,149.999995422363,2|0,0:0|0:0,0:0:0:0:
400,56,22100,2,0,P|312:48|224:56,2,149.999995422363,2|0|2,0:0|0:0|0:0,0:0:0:0:
200,208,22681,2,0,P|320:224|376:200,2,149.999995422363,0|2|0,0:0|0:0|0:0,0:0:0:0:
72,80,23261,5,2,0:0:0:0:
96,104,23358,1,0,0:0:0:0:
128,120,23455,1,0,0:0:0:0:
168,128,23552,1,0,0:0:0:0:
240,208,23648,5,2,0:0:0:0:
208,232,23745,1,0,0:0:0:0:
168,248,23842,1,0,0:0:0:0:
128,256,23939,1,0,0:0:0:0:
264,336,24035,5,2,0:0:0:0:
296,312,24132,1,0,0:0:0:0:
320,280,24229,1,0,0:0:0:0:
344,248,24326,1,0,0:0:0:0:
336,120,24423,5,2,0:0:0:0:
296,104,24519,1,0,0:0:0:0:
256,96,24616,1,0,0:0:0:0:
216,96,24713,1,0,0:0:0:0:
56,176,24810,6,0,P|120:216|224:224,1,149.999995422363,2|0,0:0|0:0,0:0:0:0:
200,224,25100,2,0,L|216:144,1,74.9999977111817,0|2,0:0|0:0,0:0:0:0:
472,144,25390,2,0,B|440:224|440:224|336:248,1,149.999995422363,0|2,0:0|0:0,0:0:0:0:
376,240,25681,2,0,L|432:320,1,74.9999977111817
224,288,25971,2,0,P|144:208|136:120,1,149.999995422363,2|0,0:0|0:0,0:0:0:0:
134,175,26261,2,0,L|160:80,1,74.9999977111817,0|2,0:0|0:0,0:0:0:0:
280,112,26552,2,0,L|216:48,1,74.9999977111817
376,104,26842,2,0,L|352:24,1,74.9999977111817
160,192,27326,6,0,L|112:192,11,37.4999988555909
168,80,28100,1,0,0:0:0:0:
312,88,28294,2,0,P|392:104|456:176,1,149.999995422363
352,168,28681,2,0,L|240:304,1,149.999995422363
88,320,29068,5,0,0:0:0:0:
64,280,29165,1,0,0:0:0:0:
56,232,29261,1,0,0:0:0:0:
64,184,29358,1,0,0:0:0:0:
72,152,29455,2,0,P|144:120|248:96,1,149.999995422363
256,96,29745,1,0,0:0:0:0:
272,200,29939,2,0,P|216:272|200:288,1,74.9999977111817
424,240,30229,5,0,0:0:0:0:
440,192,30326,1,0,0:0:0:0:
448,136,30423,1,0,0:0:0:0:
232,64,30616,5,0,0:0:0:0:
184,96,30713,1,0,0:0:0:0:
160,152,30810,1,0,0:0:0:0:
144,312,31003,6,0,P|288:312|344:272,1,149.999995422363
304,296,31294,2,0,L|328:216,1,74.9999977111817
112,176,31584,2,0,P|176:112|256:96,1,149.999995422363
248,128,31874,2,0,L|336:128,1,74.9999977111817
336,200,32068,2,0,L|432:200,1,74.9999977111817
448,224,32261,1,0,0:0:0:0:
440,264,32358,2,0,B|416:336|416:336|304:352,1,149.999995422363
160,288,32745,2,0,L|64:288,2,74.9999977111817
120,152,33132,1,0,0:0:0:0:
256,40,33326,5,0,0:0:0:0:
296,72,33423,1,0,0:0:0:0:
320,112,33519,1,0,0:0:0:0:
336,160,33616,1,0,0:0:0:0:
336,208,33713,6,0,L|336:264,8,37.4999988555909
152,312,34487,6,0,L|64:336,2,74.9999977111817
96,208,34874,1,0,0:0:0:0:
176,56,35261,5,0,0:0:0:0:
224,80,35358,1,0,0:0:0:0:
256,112,35455,2,0,P|320:168|360:248,1,149.999995422363
344,328,35842,2,0,L|240:328,1,74.9999977111817
224,248,36132,2,0,L|144:248,1,74.9999977111817
88,104,36423,2,0,P|176:80|408:96,1,299.999990844727
480,192,37197,6,0,P|408:224|328:232,1,149.999995422363
337,232,37487,1,0,0:0:0:0:
208,248,37681,2,0,L|288:296,1,74.9999977111817
64,240,37971,2,0,P|88:160|136:112,1,149.999995422363
133,113,38261,1,0,0:0:0:0:
160,192,38455,2,0,P|168:240|152:304,1,74.9999977111817
256,360,38745,6,0,P|320:256|320:184,1,149.999995422363
323,230,39035,1,0,0:0:0:0:
480,160,39229,2,0,L|528:240,1,74.9999977111817
256,48,39519,5,0,0:0:0:0:
144,64,39616,1,0,0:0:0:0:
72,128,39713,1,0,0:0:0:0:
72,232,39810,1,0,0:0:0:0:
136,296,39906,1,0,0:0:0:0:
240,280,40003,1,0,0:0:0:0:
312,208,40100,1,0,0:0:0:0:
392,144,40197,1,0,0:0:0:0:
488,136,40294,1,0,0:0:0:0:
0,0,45713,5,0,0:0:0:0:
512,384,46100,5,0,0:0:0:0:
120,136,46487,6,0,P|208:112|288:112,1,149.999995422363
432,184,46874,2,0,L|392:248,1,74.9999977111817
296,296,47068,2,0,L|208:312,1,74.9999977111817
112,312,47261,1,0,0:0:0:0:
120,152,47455,6,0,B|208:88|208:88|304:88,1,149.999995422363
272,96,47745,2,0,L|368:96,1,74.9999977111817
480,176,47939,2,0,P|408:224|360:232,1,74.9999977111817
168,352,48229,6,0,P|136:256|128:144,1,149.999995422363
128,200,48519,2,0,P|152:128|168:96,1,74.9999977111817
240,32,48713,2,0,L|272:104,1,74.9999977111817
496,312,49003,6,0,P|376:320|320:304,1,149.999995422363
440,104,49294,2,0,L|520:152,1,74.9999977111817
496,176,49487,1,0,0:0:0:0:
456,208,49584,2,0,P|360:192|200:64,2,299.999990844727
312,296,50552,1,0,0:0:0:0:
88,224,50745,6,0,B|152:296|152:296|160:376,1,149.999995422363
144,56,51132,2,0,B|240:64|336:64|432:128,1,299.999990844727
248,152,51713,1,0,0:0:0:0:
400,232,51906,2,0,P|272:288|112:256,1,299.999990844727
72,64,52681,6,0,L|176:56,1,74.9999977111817
320,88,52874,2,0,L|208:136,1,74.9999977111817
80,184,53068,2,0,L|184:208,1,74.9999977111817
176,216,53261,2,0,B|288:248|288:248|480:176,1,299.999990844727
360,352,53842,2,0,P|312:280|296:160,1,149.999995422363
456,24,54229,6,0,B|512:120|512:120|288:144,1,299.999990844727
192,64,54810,2,0,L|224:144,1,74.9999977111817
128,296,55584,6,0,L|208:280,1,74.9999977111817
224,272,55777,2,0,P|304:208|320:120,1,149.999995422363
136,80,56165,2,0,P|96:168|112:232,1,149.999995422363
288,64,56552,2,0,L|400:80,1,74.9999977111817
392,96,56745,2,0,B|472:208|472:208|488:256,1,149.999995422363
336,288,57132,1,0,0:0:0:0:
96,64,57326,5,0,0:0:0:0:
112,240,57519,1,0,0:0:0:0:
352,64,57713,1,0,0:0:0:0:
48,152,57906,1,0,0:0:0:0:
488,168,58100,1,0,0:0:0:0:
64,136,58874,6,0,L|176:176,1,74.9999977111817
160,176,59068,2,0,B|136:264|136:264|80:328,1,149.999995422363
104,328,59358,2,0,L|184:336,1,74.9999977111817
208,344,59552,1,0,0:0:0:0:
488,128,59842,6,0,P|432:208|344:208,1,149.999995422363
184,160,60229,2,0,B|272:224|272:224|208:288,1,149.999995422363
32,352,60810,6,0,P|104:264|112:160,1,149.999995422363
113,230,61100,1,0,0:0:0:0:
88,48,61777,5,0,0:0:0:0:
240,72,61971,2,0,B|400:120|416:144|456:296,1,299.999990844727
352,336,62552,2,0,P|264:312|192:240,1,149.999995422363
88,136,62939,2,0,L|176:112,1,74.9999977111817
368,232,63326,5,0,0:0:0:0:
368,144,63519,2,0,B|336:72|336:72|240:48|240:48|328:152,1,299.999990844727
64,56,64100,1,0,0:0:0:0:
112,80,64197,1,0,0:0:0:0:
160,88,64294,2,0,B|232:80|288:48|328:48|360:64|384:88,1,218.75
368,128,65068,6,0,P|384:184|336:240,1,93.7500035762788
320,336,65358,2,0,P|264:280|272:240,1,93.7500035762788
200,128,65648,2,0,P|272:144|288:192,1,93.7500035762788
264,272,66035,5,0,0:0:0:0:
280,160,66229,1,0,0:0:0:0:
368,216,66423,1,0,0:0:0:0:
160,312,66616,6,0,P|112:208|120:104,1,162.499992561341,2|0,0:0|0:0,0:0:0:0:
104,128,66906,1,0,0:0:0:0:
360,40,67197,5,0,0:0:0:0:
488,192,67390,2,0,P|352:280|312:280,1,162.499992561341,2|0,0:0|0:0,0:0:0:0:
344,280,67681,2,0,L|248:280,1,81.2499962806703,0|2,0:0|0:0,0:0:0:0:
80,168,67971,5,0,0:0:0:0:
240,40,68165,2,0,B|320:136|320:136|312:240,1,162.499992561341,2|0,0:0|0:0,0:0:0:0:
312,200,68455,2,0,L|184:216,1,81.2499962806703,0|2,0:0|0:0,0:0:0:0:
104,344,68745,5,0,0:0:0:0:
392,288,68939,1,2,0:0:0:0:
96,200,69132,1,0,0:0:0:0:
392,144,69326,1,2,0:0:0:0:
104,72,69519,1,0,0:0:0:0:
416,40,69713,6,0,B|488:176|488:176|464:272|432:304|336:320,1,324.999985122681,2|2,0:0|0:0,0:0:0:0:
488,184,70294,1,0,0:0:0:0:
128,64,70487,2,0,P|96:192|112:256,1,162.499992561341,2|0,0:0|0:0,0:0:0:0:
304,248,70874,2,0,P|336:128|328:48,1,162.499992561341,2|0,0:0|0:0,0:0:0:0:
112,336,71261,6,0,P|208:288|312:152,1,243.749988842011,2|0,0:0|0:0,0:0:0:0:
296,186,71648,2,0,P|320:72|384:32,1,162.499992561341,2|0,0:0|0:0,0:0:0:0:
488,176,72035,5,2,0:0:0:0:
416,232,72132,1,2,0:0:0:0:
336,288,72229,1,2,0:0:0:0:
256,336,72326,1,2,0:0:0:0:
248,216,72423,1,2,0:0:0:0:
248,112,72519,1,2,0:0:0:0:
248,16,72616,1,2,0:0:0:0:
136,64,72713,1,2,0:0:0:0:
144,184,72810,6,0,P|232:168|344:128,1,162.499992561341,2|0,0:0|0:0,0:0:0:0:
320,144,73100,1,0,0:0:0:0:
432,224,73390,2,0,P|328:272|264:280,1,162.499992561341,0|2,0:0|0:0,0:0:0:0:
256,288,73681,2,0,P|200:208|232:128,1,162.499992561341
88,32,74165,2,0,P|48:128|32:232,1,162.499992561341,0|2,0:0|0:0,0:0:0:0:
40,208,74455,2,0,L|232:208,1,162.499992561341
104,48,74939,1,0,0:0:0:0:
224,240,75132,5,2,0:0:0:0:
304,120,75325,1,2,0:0:0:0:
304,312,75519,1,2,0:0:0:0:
224,72,75713,1,2,0:0:0:0:
304,216,75906,2,0,P|176:160|80:160,1,162.499992561341
496,56,76294,2,0,P|544:144|520:248,1,162.499992561341,2|0,0:0|0:0,0:0:0:0:
384,352,76681,2,0,P|448:280|472:176,1,162.499992561341
288,192,77068,5,2,0:0:0:0:
288,192,77261,1,0,0:0:0:0:
136,64,77455,5,2,0:0:0:0:
104,96,77552,1,0,0:0:0:0:
80,144,77648,1,0,0:0:0:0:
72,192,77745,1,0,0:0:0:0:
168,160,77842,5,2,0:0:0:0:
248,112,77939,5,0,0:0:0:0:
272,144,78036,1,2,0:0:0:0:
432,240,78132,1,0,0:0:0:0:
384,264,78229,1,0,0:0:0:0:
336,280,78326,1,0,0:0:0:0:
280,296,78423,1,0,0:0:0:0:
216,296,78519,1,0,0:0:0:0:
160,280,78616,1,0,0:0:0:0:
112,240,78713,1,0,0:0:0:0:
80,176,78810,1,0,0:0:0:0:
80,96,78906,1,0,0:0:0:0:
96,24,79003,6,0,B|192:40|192:40|280:88,1,162.499992561341
280,104,79294,1,0,0:0:0:0:
472,176,79584,6,0,P|384:232|304:240,1,162.499992561341
144,144,79971,2,0,L|40:152,1,81.2499962806703
112,336,80358,2,0,P|232:272|296:208,1,162.499992561341
384,48,80745,2,0,L|400:136,1,81.2499962806703
176,168,81132,5,2,0:0:0:0:
352,216,81326,1,2,0:0:0:0:
112,80,81519,1,2,0:0:0:0:
464,144,81713,1,2,0:0:0:0:
176,16,81906,1,2,0:0:0:0:
512,8,82100,1,2,0:0:0:0:
104,192,82487,6,2,B|208:272|328:296|432:256,1,324.999985122681
216,104,83261,1,2,0:0:0:0:
480,264,83648,6,0,P|384:184|336:96,1,162.499992561341,2|0,0:0|0:0,0:0:0:0:
352,144,83939,2,0,P|288:88|128:56,1,243.749988842011,2|0,0:0|0:0,0:0:0:0:
32,152,84423,5,2,0:0:0:0:
32,232,84519,1,2,0:0:0:0:
96,288,84616,1,2,0:0:0:0:
176,296,84713,1,2,0:0:0:0:
208,208,84810,1,2,0:0:0:0:
232,104,84906,1,2,0:0:0:0:
248,16,85003,1,2,0:0:0:0:
344,48,85100,1,2,0:0:0:0:
416,88,85197,6,0,B|496:136|496:136|384:176,1,162.499992561341,2|0,0:0|0:0,0:0:0:0:
416,176,85487,2,0,P|384:192|352:272,1,81.2499962806703,2|0,0:0|0:0,0:0:0:0:
264,344,85777,6,0,P|224:256|224:176,1,162.499992561341,2|0,0:0|0:0,0:0:0:0:
200,104,86165,2,0,P|160:112|136:176,1,81.2499962806703,2|0,0:0|0:0,0:0:0:0:
448,312,86552,2,0,P|416:224|416:104,1,162.499992561341,2|0,0:0|0:0,0:0:0:0:
400,48,86939,2,0,L|304:56,1,81.2499962806703,2|0,0:0|0:0,0:0:0:0:
136,304,87326,5,0,0:0:0:0:
232,272,87519,1,2,0:0:0:0:
312,200,87713,1,0,0:0:0:0:
344,96,87906,1,2,0:0:0:0:
344,0,88100,1,0,0:0:0:0:
120,128,88294,6,2,P|216:168|480:120,1,324.999985122681
416,288,88874,2,0,P|352:224|328:144,1,162.499992561341,0|2,0:0|0:0,0:0:0:0:
408,192,89261,2,0,P|320:224|240:208,1,162.499992561341,0|2,0:0|0:0,0:0:0:0:
336,80,89648,1,0,0:0:0:0:
280,336,89842,5,2,0:0:0:0:
272,336,89939,1,0,0:0:0:0:
264,336,90035,1,0,0:0:0:0:
256,336,90132,1,0,0:0:0:0:
240,336,90229,5,2,0:0:0:0:
216,336,90326,1,0,0:0:0:0:
200,328,90423,1,0,0:0:0:0:
184,320,90519,1,0,0:0:0:0:
168,304,90616,5,2,0:0:0:0:
152,288,90713,1,0,0:0:0:0:
136,264,90810,1,0,0:0:0:0:
120,232,90906,1,0,0:0:0:0:
112,192,91003,5,2,0:0:0:0:
120,152,91100,1,0,0:0:0:0:
144,112,91197,1,0,0:0:0:0:
192,72,91294,1,0,0:0:0:0:
240,72,91390,6,0,P|352:88|424:144,1,162.499992561341,2|0,0:0|0:0,0:0:0:0:
416,136,91681,1,0,0:0:0:0:
384,272,91971,2,0,P|304:248|240:176,1,162.499992561341,0|2,0:0|0:0,0:0:0:0:
352,120,92358,2,0,L|216:120,1,81.2499962806703
120,88,92745,2,0,P|160:200|160:280,1,162.499992561341,0|2,0:0|0:0,0:0:0:0:
264,280,93132,2,0,L|280:184,1,81.2499962806703
360,344,93423,2,0,L|472:304,1,81.2499962806703
368,224,93713,5,0,0:0:0:0:
184,136,93906,6,0,L|144:136,11,31.25
344,64,94874,6,0,L|264:64,2,74.9999977111817
464,144,95261,1,0,0:0:0:0:
360,304,95648,5,0,0:0:0:0:
320,296,95745,1,0,0:0:0:0:
280,280,95842,1,0,0:0:0:0:
256,136,96035,5,0,0:0:0:0:
80,200,96229,1,0,0:0:0:0:
80,200,96326,1,0,0:0:0:0:
400,312,96519,1,0,0:0:0:0:
400,312,96616,1,0,0:0:0:0:
112,64,96810,5,0,0:0:0:0:
112,64,97003,1,0,0:0:0:0:
440,160,97197,1,0,0:0:0:0:
440,160,97390,1,0,0:0:0:0:
96,200,97584,5,0,0:0:0:0:
224,272,97777,1,0,0:0:0:0:
224,272,97874,1,0,0:0:0:0:
368,272,98068,1,0,0:0:0:0:
368,272,98165,1,0,0:0:0:0:
160,80,98358,5,0,0:0:0:0:
280,88,98552,1,0,0:0:0:0:
280,88,98648,1,0,0:0:0:0:
216,184,98842,1,0,0:0:0:0:
216,184,98939,1,0,0:0:0:0:
136,304,99132,6,0,P|224:304|320:264,1,149.999995422363
288,280,99423,1,0,0:0:0:0:
416,184,99616,1,0,0:0:0:0:
416,184,99713,1,0,0:0:0:0:
240,88,99906,1,0,0:0:0:0:
192,64,100003,1,0,0:0:0:0:
144,48,100100,1,0,0:0:0:0:
104,48,100197,1,0,0:0:0:0:
64,48,100294,6,0,L|24:48,7,37.4999988555909
152,224,101068,2,0,L|128:304,2,74.9999977111817
256,136,101455,1,0,0:0:0:0:
320,280,101842,2,0,L|376:208,1,74.9999977111817
488,56,102036,2,0,L|376:48,1,74.9999977111817
240,40,102229,2,0,P|160:72|120:136,1,149.999995422363
120,152,102519,1,0,0:0:0:0:
376,272,102713,5,0,0:0:0:0:
376,272,102810,1,0,0:0:0:0:
64,312,103003,6,0,P|96:248|56:168,1,149.999995422363
416,80,103390,2,0,P|472:160|480:232,1,149.999995422363
280,328,103777,5,0,0:0:0:0:
192,88,103971,1,0,0:0:0:0:
192,88,104068,1,0,0:0:0:0:
424,64,104261,1,0,0:0:0:0:
424,64,104358,1,0,0:0:0:0:
64,336,104552,6,0,P|160:328|216:288,1,149.999995422363
216,272,104842,2,0,P|208:232|144:128,1,149.999995422363
136,120,105132,1,0,0:0:0:0:
504,184,105326,6,0,P|448:264|384:288,1,149.999995422363
392,288,105616,2,0,L|264:200,1,149.999995422363
256,192,105906,1,0,0:0:0:0:
88,328,106100,5,0,0:0:0:0:
136,304,106197,1,0,0:0:0:0:
176,280,106294,1,0,0:0:0:0:
216,256,106390,1,0,0:0:0:0:
256,216,106487,1,0,0:0:0:0:
328,104,106584,1,0,0:0:0:0:
352,232,106681,1,0,0:0:0:0:
240,136,106777,1,0,0:0:0:0:
408,160,106874,1,0,0:0:0:0:
256,192,106971,12,0,113068,0:0:0:0:
