osu file format v14

[General]
AudioFilename: trueforce.mp3
AudioLeadIn: 0
PreviewTime: 48142
Countdown: 0
SampleSet: None
StackLeniency: 0.7
Mode: 0
LetterboxInBreaks: 0
WidescreenStoryboard: 0

[Editor]
DistanceSpacing: 1.4
BeatDivisor: 4
GridSize: 8
TimelineZoom: 1

[Metadata]
Title:Various Feruver Maps
TitleUnicode:Various Feruver Maps
Artist:Various Artists
ArtistUnicode:Various Artists
Creator:Feruver
Version:Kyoumei No True Force
Source:Various Anime
Tags:Seirei Tsukai no Blade Dance
BeatmapID:1724075
BeatmapSetID:822606

[Difficulty]
HPDrainRate:6
CircleSize:4
OverallDifficulty:8.5
ApproachRate:9.7
SliderMultiplier:1.7
SliderTickRate:2

[Events]
//Background and Video events
0,0,"seirei tsukai.jpg",0,0
//Break Periods
//Storyboard Layer 0 (Background)
//Storyboard Layer 1 (Fail)
//Storyboard Layer 2 (Pass)
//Storyboard Layer 3 (Foreground)
//Storyboard Sound Samples

[TimingPoints]
1595,320,4,2,84,65,1,0
5768,-66.6666666666667,4,2,84,65,0,0
6619,-86.9565217391304,4,2,84,95,0,1
14066,-125,4,2,84,65,0,1
16924,-200,4,2,85,25,0,0
25913,-50,4,2,84,85,0,0
27121,-83.3333333333333,4,2,84,85,0,1
37184,-125,4,2,85,25,0,0
42300,-125,4,2,85,65,0,0
45134,-74.0740740740741,4,2,84,75,0,0
48682,-74.0740740740741,4,2,84,95,0,1

[HitObjects]
128,136,1595,5,8,0:0:0:0:
160,216,1915,2,0,B|216:240|216:240|216:264|216:264|216:264,1,85,8|0,0:0|0:0,0:0:0:0:
312,256,2235,2,0,L|368:192,1,85
392,120,2555,5,8,0:0:0:0:
312,88,2715,2,0,P|200:64|200:64,1,85
216,160,3035,2,0,L|112:128,1,85,0|8,0:0|0:0,0:0:0:0:
128,232,3355,2,0,L|24:192,1,85
256,288,3675,1,0,0:0:0:0:
352,168,3835,5,12,0:0:0:0:
392,128,4155,2,0,P|432:104|392:80,1,85,8|0,0:0|0:0,0:0:0:0:
360,216,4475,2,0,P|352:264|408:256,1,85,8|0,0:0|0:0,0:0:0:0:
304,144,4795,2,0,P|248:128|224:176,1,85
280,224,5115,5,8,0:0:0:0:
160,240,5275,1,0,0:0:0:0:
112,112,5435,1,0,0:0:0:0:
264,184,5595,1,0,0:0:0:0:
232,32,5755,1,8,0:0:0:0:
64,264,5915,1,8,0:0:0:0:
160,264,6075,2,12,L|96:40,1,212.5
248,80,6715,6,0,L|376:112,1,97.7500018644333
280,168,7035,2,0,L|384:208,1,97.7500018644333,12|0,0:0|0:0,0:0:0:0:
440,224,7355,1,0,0:0:0:0:
416,120,7515,1,4,0:0:0:0:
240,336,7675,5,8,0:0:0:0:
176,272,7835,2,0,L|96:200,1,97.7500018644333
192,168,8155,2,0,L|104:104,1,97.7500018644333,0|12,0:0|0:0,0:0:0:0:
208,64,8475,5,0,0:0:0:0:
360,144,8635,1,0,0:0:0:0:
248,176,8795,1,0,0:0:0:0:
336,312,8955,1,12,0:0:0:0:
160,264,9115,1,0,0:0:0:0:
112,112,9275,6,0,P|216:144|312:136,1,195.500003728867,0|8,0:0|0:0,0:0:0:0:
352,232,9755,2,0,P|256:272|128:256,1,195.500003728867
144,208,10235,2,0,B|104:96|120:64|136:56|144:48|176:48|200:48,1,195.500003728867,8|0,0:0|0:0,0:0:0:0:
256,96,10715,2,0,L|352:136,1,97.7500018644333,0|8,0:0|0:0,0:0:0:0:
272,184,11035,2,0,L|376:224,1,97.7500018644333
456,256,11355,1,0,0:0:0:0:
288,296,11515,1,8,0:0:0:0:
192,304,11835,6,0,P|96:192|96:128,1,195.500003728867,8|0,0:0|0:0,0:0:0:0:
160,160,12315,2,0,B|184:64|192:48|208:40|232:32|256:40|272:64,1,195.500003728867,8|0,0:0|0:0,0:0:0:0:
280,128,12795,2,0,B|272:208|208:256|208:256|240:320,1,195.500003728867,8|0,0:0|0:0,0:0:0:0:
352,296,13275,5,0,0:0:0:0:
400,184,13435,1,8,0:0:0:0:
360,64,13595,1,0,0:0:0:0:
232,64,13755,1,0,0:0:0:0:
128,128,13915,1,0,0:0:0:0:
128,136,14075,1,8,0:0:0:0:
128,144,14235,1,0,0:0:0:0:
144,216,14395,6,0,L|232:232,1,68,8|0,0:0|0:0,0:0:0:0:
168,304,14715,2,0,L|256:320,1,68,8|0,0:0|0:0,0:0:0:0:
280,256,15195,2,0,L|320:176,1,68,8|8,0:0|0:0,0:0:0:0:
272,96,15515,2,8,L|224:96,2,34
408,112,15835,5,8,0:0:0:0:
248,264,15995,1,8,0:0:0:0:
432,328,16155,1,8,0:0:0:0:
224,64,16315,1,8,0:0:0:0:
112,264,16475,1,8,0:0:0:0:
88,64,16635,1,8,0:0:0:0:
256,192,16795,1,8,0:0:0:0:
216,104,16955,5,0,0:0:0:0:
296,120,17115,2,0,L|352:136,1,42.5
320,208,17435,1,0,0:0:0:0:
384,296,17595,1,0,0:0:0:0:
288,304,17755,2,0,L|232:296,1,42.5
144,256,18075,2,0,L|112:280,2,21.25
136,120,18395,2,0,L|120:96,2,21.25
232,160,18715,2,0,L|280:144,1,42.5
264,232,19035,2,0,L|312:240,1,42.5
400,200,19355,5,0,0:0:0:0:
376,88,19515,1,0,0:0:0:0:
280,176,19675,1,0,0:0:0:0:
464,144,19835,1,0,0:0:0:0:
272,96,19995,1,0,0:0:0:0:
200,152,20155,2,0,P|168:168|144:168,1,42.5
72,232,20475,1,0,0:0:0:0:
128,296,20635,6,0,P|184:320|216:320,1,85
312,280,21115,1,0,0:0:0:0:
392,208,21275,2,0,P|416:160|448:152,1,85
336,120,21755,1,0,0:0:0:0:
224,96,21915,1,0,0:0:0:0:
96,128,22075,6,0,P|112:184|144:208,1,85
224,232,22555,1,0,0:0:0:0:
328,280,22715,2,0,P|384:304|400:328,1,85
456,240,23195,1,0,0:0:0:0:
448,128,23355,2,0,L|400:104,1,42.5
312,168,23675,1,0,0:0:0:0:
216,128,23835,2,0,P|168:96|168:96,1,42.5
72,176,24155,2,0,L|72:232,2,42.5
128,64,24635,5,0,0:0:0:0:
256,104,24795,2,0,L|304:128,1,42.5
128,280,25115,2,0,L|88:320,1,42.5
416,296,25435,2,0,L|472:288,1,42.5
456,168,25755,1,0,0:0:0:0:
336,88,25915,5,8,0:0:0:0:
240,232,26075,1,8,0:0:0:0:
152,88,26235,1,8,0:0:0:0:
240,288,26395,1,8,0:0:0:0:
376,48,26555,1,8,0:0:0:0:
240,336,26715,1,8,0:0:0:0:
120,48,26875,1,8,0:0:0:0:
64,144,27035,2,12,B|128:200|128:200|240:160,1,170
392,80,27355,5,0,0:0:0:0:
416,160,27515,2,0,P|464:256|464:256,1,101.999996887207,8|0,0:0|0:0,0:0:0:0:
336,296,27835,2,0,L|232:336,1,101.999996887207
144,328,28155,1,8,0:0:0:0:
160,160,28315,2,0,P|176:32|176:32,1,101.999996887207
264,112,28635,1,0,0:0:0:0:
368,72,28795,2,0,L|352:216,1,101.999996887207,8|0,0:0|0:0,0:0:0:0:
272,256,29115,2,0,L|168:248,1,101.999996887207
96,152,29435,6,0,L|96:96,1,50.9999984436036,8|0,0:0|0:0,0:0:0:0:
232,48,29595,6,0,L|312:152,1,101.999996887207
408,144,29915,2,0,L|456:128,2,50.9999984436036,0|0|8,0:0|0:0|0:0,0:0:0:0:
200,200,30235,2,0,L|144:184,2,50.9999984436036
384,264,30555,1,0,0:0:0:0:
288,304,30715,2,0,L|168:304,1,101.999996887207,8|0,0:0|0:0,0:0:0:0:
96,208,31035,2,0,L|96:88,1,101.999996887207
224,48,31355,1,8,0:0:0:0:
280,128,31515,2,0,B|368:144|368:144|424:144,1,101.999996887207
400,144,31835,1,0,0:0:0:0:
464,352,31995,1,8,0:0:0:0:
384,264,32315,6,0,B|184:272|184:272|144:264,1,203.999993774414,8|0,0:0|0:0,0:0:0:0:
120,176,32795,1,0,0:0:0:0:
128,64,32955,2,0,L|352:96,1,203.999993774414,8|0,0:0|0:0,0:0:0:0:
416,184,33435,1,0,0:0:0:0:
368,256,33595,2,0,B|336:288|336:288|296:208|296:208|232:232,1,203.999993774414,8|0,0:0|0:0,0:0:0:0:
160,192,34075,1,0,0:0:0:0:
168,80,34235,2,0,L|256:152,1,101.999996887207,8|0,0:0|0:0,0:0:0:0:
264,160,34555,1,8,0:0:0:0:
400,320,34875,6,0,B|328:288|328:288|328:264,1,101.999996887207,4|0,0:0|0:0,0:0:0:0:
392,192,35195,1,8,0:0:0:0:
224,160,35355,2,0,B|288:136|288:136|304:88,1,101.999996887207
384,64,35675,1,0,0:0:0:0:
192,56,35835,1,8,0:0:0:0:
72,184,35995,5,0,0:0:0:0:
152,280,36155,1,0,0:0:0:0:
280,328,36315,1,0,0:0:0:0:
424,336,36475,1,8,0:0:0:0:
416,200,36635,1,0,0:0:0:0:
256,192,36955,5,0,0:0:0:0:
256,192,37115,1,12,0:0:0:0:
328,112,37435,6,0,L|392:72,1,68
360,192,37755,2,0,L|440:208,1,68
280,176,38075,1,0,0:0:0:0:
168,120,38715,6,0,L|80:88,1,68
160,208,39035,2,0,L|80:240,1,68
232,176,39355,1,0,0:0:0:0:
184,112,39995,6,0,L|128:48,1,68
280,120,40315,2,0,L|304:40,1,68
376,184,40635,2,0,L|472:176,1,68
232,304,41275,6,0,L|160:352,1,68
168,256,41595,2,0,L|88:280,1,68
136,192,41915,2,0,L|56:192,1,68
280,112,42555,6,0,L|352:136,1,68
272,240,42875,2,0,L|352:216,1,68
128,120,43195,2,0,L|208:152,1,68
120,240,43515,2,0,L|200:208,1,68
80,176,43835,1,0,0:0:0:0:
184,184,43995,1,0,0:0:0:0:
200,184,44155,2,0,L|344:184,1,136
368,184,44635,1,0,0:0:0:0:
408,184,44795,1,0,0:0:0:0:
384,128,44955,6,0,B|432:96|432:96|376:24,1,136,0|8,0:0|0:0,0:0:0:0:
96,152,45435,1,8,0:0:0:0:
232,256,45595,1,8,0:0:0:0:
352,112,45755,1,8,0:0:0:0:
208,24,45915,1,8,0:0:0:0:
376,64,46075,5,8,0:0:0:0:
368,256,46235,1,8,0:0:0:0:
152,248,46395,1,8,0:0:0:0:
152,64,46555,1,8,0:0:0:0:
256,256,46715,1,8,0:0:0:0:
376,64,46875,1,8,0:0:0:0:
368,264,47195,5,8,0:0:0:0:
256,64,47355,1,8,0:0:0:0:
144,264,47515,1,8,0:0:0:0:
104,144,47675,5,0,0:0:0:0:
104,128,47755,1,0,0:0:0:0:
112,104,47835,2,0,P|144:48|200:48,1,114.750000437737
256,128,48155,2,0,B|320:152|328:224|296:256,1,114.750000437737
224,240,48475,2,0,B|248:312|264:328|288:336|320:344|320:344,1,114.750000437737
384,240,48795,6,0,B|432:176|432:176|432:96,1,114.750000437737,0|4,0:0|0:0,0:0:0:0:
336,72,49115,2,0,L|192:64,1,114.750000437737,0|12,0:0|0:0,0:0:0:0:
120,144,49435,1,0,0:0:0:0:
200,232,49595,1,0,0:0:0:0:
272,312,49755,2,0,L|384:256,1,114.750000437737,0|8,0:0|0:0,0:0:0:0:
288,200,50075,2,0,L|416:144,1,114.750000437737
240,120,50395,5,0,0:0:0:0:
104,96,50555,1,8,0:0:0:0:
136,200,50715,2,0,B|160:272|160:272|232:288,1,114.750000437737
272,224,51035,2,0,L|192:128,2,114.750000437737,0|8|0,0:0|0:0|0:0,0:0:0:0:
288,304,51515,2,0,P|352:272|440:120,1,229.500000875473,0|8,0:0|0:0,0:0:0:0:
352,152,51995,2,0,P|288:224|160:256,1,229.500000875473
72,200,52475,2,0,P|128:96|248:72,1,229.500000875473,8|0,0:0|0:0,0:0:0:0:
216,144,52955,6,0,L|120:224,1,114.750000437737,0|8,0:0|0:0,0:0:0:0:
184,296,53275,2,0,L|328:280,1,114.750000437737
304,192,53595,2,0,L|408:128,1,114.750000437737,0|8,0:0|0:0,0:0:0:0:
408,328,53915,1,0,0:0:0:0:
256,256,54075,1,0,0:0:0:0:
64,280,54235,1,0,0:0:0:0:
136,80,54395,1,8,0:0:0:0:
272,64,54555,6,0,L|352:152,1,114.750000437737
240,144,54875,2,0,L|240:280,1,114.750000437737,0|8,0:0|0:0,0:0:0:0:
96,248,55195,1,0,0:0:0:0:
96,248,55355,1,0,0:0:0:0:
96,160,55515,2,0,B|112:72|112:72|168:128,1,114.750000437737,0|8,0:0|0:0,0:0:0:0:
200,152,55835,2,0,L|320:120,1,114.750000437737
304,192,56155,2,0,L|432:208,1,114.750000437737,0|8,0:0|0:0,0:0:0:0:
392,112,56475,1,0,0:0:0:0:
368,280,56635,6,0,B|432:344|432:344|272:312,1,229.500000875473,8|0,0:0|0:0,0:0:0:0:
112,208,57115,2,0,B|88:88|88:88|208:120,1,229.500000875473,8|0,0:0|0:0,0:0:0:0:
208,192,57595,2,0,L|456:192,1,229.500000875473,8|0,0:0|0:0,0:0:0:0:
216,280,58075,2,0,B|32:272|32:272|32:192,1,229.500000875473,8|0,0:0|0:0,0:0:0:0:
64,64,58555,2,0,L|272:176,1,229.500000875473,8|4,0:0|0:0,0:0:0:0:
120,248,59035,5,12,0:0:0:0:
360,320,59195,1,8,0:0:0:0:
472,136,59355,6,0,B|344:144|344:144|344:144,1,114.750000437737,0|8,0:0|0:0,0:0:0:0:
344,232,59675,2,0,L|200:192,1,114.750000437737
208,280,59995,2,0,L|128:160,1,114.750000437737,0|8,0:0|0:0,0:0:0:0:
64,72,60315,6,0,L|96:184,1,114.750000437737
200,88,60635,2,0,L|160:240,1,114.750000437737,0|8,0:0|0:0,0:0:0:0:
312,152,60955,2,0,L|240:288,1,114.750000437737
240,336,61275,2,0,L|376:336,1,114.750000437737,0|8,0:0|0:0,0:0:0:0:
384,224,61595,6,0,B|456:160|456:160|456:136,2,114.750000437737
256,248,62075,2,0,L|120:240,1,114.750000437737,8|0,0:0|0:0,0:0:0:0:
88,112,62395,1,0,0:0:0:0:
88,112,62555,1,0,0:0:0:0:
264,160,62715,1,8,0:0:0:0:
264,160,62875,1,0,0:0:0:0:
368,216,63035,6,0,B|456:184|456:184|456:128,1,114.750000437737
416,96,63355,2,0,P|304:64|256:56,1,114.750000437737,8|0,0:0|0:0,0:0:0:0:
192,96,63675,1,0,0:0:0:0:
80,200,63835,1,0,0:0:0:0:
96,296,63995,2,0,B|192:344|192:344|240:352,1,114.750000437737,8|0,0:0|0:0,0:0:0:0:
304,304,64315,6,0,B|432:288|432:288|440:160,1,229.500000875473,8|0,0:0|0:0,0:0:0:0:
400,112,64795,2,0,B|280:72|280:72|184:144,1,229.500000875473,8|0,0:0|0:0,0:0:0:0:
320,200,65275,2,0,B|176:296|176:296|264:304,1,229.500000875473,8|0,0:0|0:0,0:0:0:0:
360,304,65755,1,0,0:0:0:0:
456,160,65915,1,8,0:0:0:0:
104,160,66075,1,0,0:0:0:0:
312,160,66235,5,0,0:0:0:0:
248,216,66395,2,0,B|184:272|184:272|160:216,2,114.750000437737,0|8|0,0:0|0:0|0:0,0:0:0:0:
112,104,66875,6,0,L|352:72,1,229.500000875473,8|0,0:0|0:0,0:0:0:0:
152,184,67355,2,0,B|16:352|16:352|16:296,1,229.500000875473,8|0,0:0|0:0,0:0:0:0:
40,176,67835,2,0,B|48:32|48:32|16:24|16:24|112:24,1,229.500000875473,8|0,0:0|0:0,0:0:0:0:
88,264,68315,2,0,B|216:312|216:312|104:336,1,229.500000875473,8|0,0:0|0:0,0:0:0:0:
80,128,68795,1,12,0:0:0:0:
208,232,68955,5,12,0:0:0:0:
376,176,69115,1,12,0:0:0:0:
240,112,69275,1,12,0:0:0:0:
400,56,69435,1,12,0:0:0:0:
128,152,69595,6,0,L|64:272,1,114.750000437737,0|8,0:0|0:0,0:0:0:0:
200,272,69915,2,0,L|360:248,1,114.750000437737
408,184,70235,1,0,0:0:0:0:
336,72,70395,1,8,0:0:0:0:
208,184,70555,1,0,0:0:0:0:
440,104,70715,1,0,0:0:0:0:
376,240,70875,2,0,L|448:352,1,114.750000437737,0|8,0:0|0:0,0:0:0:0:
144,320,71195,5,0,0:0:0:0:
184,48,71355,1,0,0:0:0:0:
256,240,71515,1,0,0:0:0:0:
432,112,71675,1,8,0:0:0:0:
224,80,71835,1,0,0:0:0:0:
192,256,71995,6,0,P|96:208|72:80,1,229.500000875473,0|8,0:0|0:0,0:0:0:0:
168,144,72475,2,0,P|320:168|424:120,1,229.500000875473
304,72,72955,2,0,B|424:56|440:80|448:96|472:112|472:168,1,229.500000875473,8|0,0:0|0:0,0:0:0:0:
432,256,73435,6,0,L|304:256,1,114.750000437737,0|8,0:0|0:0,0:0:0:0:
184,256,73755,1,0,0:0:0:0:
184,64,73915,1,0,0:0:0:0:
368,112,74075,6,0,B|480:56|480:56|504:72,2,114.750000437737,0|8|0,0:0|0:0|0:0,0:0:0:0:
240,176,74555,1,0,0:0:0:0:
160,264,74715,2,0,L|48:368,2,114.750000437737,0|8|0,0:0|0:0|0:0,0:0:0:0:
136,120,75355,6,0,L|16:8,2,114.750000437737,0|8|0,0:0|0:0|0:0,0:0:0:0:
248,192,75835,1,0,0:0:0:0:
344,280,75995,2,0,L|456:360,2,114.750000437737,0|8|0,0:0|0:0|0:0,0:0:0:0:
240,192,76475,2,0,L|136:104,1,114.750000437737
288,80,76795,1,8,0:0:0:0:
160,264,76955,1,0,0:0:0:0:
408,168,77115,2,0,B|384:248|384:248|240:272,1,229.500000875473,8|0,0:0|0:0,0:0:0:0:
112,224,77595,6,0,B|40:88|40:88|160:64,1,229.500000875473,8|0,0:0|0:0,0:0:0:0:
208,152,78075,2,0,L|448:200,1,229.500000875473,8|0,0:0|0:0,0:0:0:0:
400,304,78555,2,0,L|160:280,1,229.500000875473,8|0,0:0|0:0,0:0:0:0:
88,168,79035,2,0,L|48:32,1,114.750000437737,12|0,0:0|0:0,0:0:0:0:
216,88,79275,2,0,L|312:168,1,114.750000437737,12|0,0:0|0:0,0:0:0:0:
232,240,79515,2,0,L|144:296,1,57.3750002188683,12|0,0:0|0:0,0:0:0:0:
72,296,79675,6,0,L|232:320,1,114.750000437737,8|0,0:0|0:0,0:0:0:0:
344,312,79995,2,0,L|472:240,1,114.750000437737,8|0,0:0|0:0,0:0:0:0:
448,128,80315,1,0,0:0:0:0:
344,112,80475,2,0,L|216:80,1,114.750000437737,0|8,0:0|0:0,0:0:0:0:
96,128,80795,2,0,L|48:240,1,114.750000437737
176,248,81115,2,0,L|304:304,1,114.750000437737,0|8,0:0|0:0,0:0:0:0:
416,208,81435,5,0,0:0:0:0:
424,72,81595,2,0,B|464:24|464:24|384:40,1,114.750000437737
296,136,81915,2,0,L|56:80,1,229.500000875473,8|0,0:0|0:0,0:0:0:0:
80,200,82395,6,0,L|80:320,1,114.750000437737,0|8,0:0|0:0,0:0:0:0:
272,296,82715,2,0,L|376:224,1,114.750000437737
400,72,83035,2,0,P|352:144|288:144,1,114.750000437737,0|8,0:0|0:0,0:0:0:0:
200,128,83355,1,0,0:0:0:0:
72,80,83515,1,0,0:0:0:0:
408,48,83675,1,0,0:0:0:0:
104,264,83835,1,8,0:0:0:0:
416,208,83995,1,0,0:0:0:0:
136,128,84155,1,0,0:0:0:0:
256,192,84315,1,0,0:0:0:0:
184,288,84475,6,0,L|72:80,1,229.500000875473,8|8,0:0|0:0,0:0:0:0:
152,72,84955,2,0,L|304:88,1,114.750000437737
368,152,85275,2,0,P|424:216|400:280,1,114.750000437737,8|0,0:0|0:0,0:0:0:0:
280,320,85595,2,0,L|128:288,1,114.750000437737,0|8,0:0|0:0,0:0:0:0:
144,104,85915,2,0,L|88:216,2,114.750000437737
264,96,86395,2,0,B|376:192|376:192|264:256,1,229.500000875473,8|8,0:0|0:0,0:0:0:0:
296,240,87035,1,0,0:0:0:0:
112,192,87355,5,8,0:0:0:0:
256,72,87515,1,0,0:0:0:0:
304,328,87675,1,8,0:0:0:0:
448,88,87835,1,0,0:0:0:0:
136,320,88155,5,8,0:0:0:0:
448,216,88315,1,8,0:0:0:0:
88,96,88475,1,0,0:0:0:0:
416,320,88635,1,8,0:0:0:0:
168,32,88795,1,8,0:0:0:0:
456,248,88955,1,0,0:0:0:0:
80,200,89115,5,8,0:0:0:0:
320,64,89275,2,0,B|432:80|432:80|448:88|448:88|448:104|448:104|440:112|440:112|432:128|432:128|416:128|416:128|408:128|400:128|360:128,1,229.500000875473,8|8,0:0|0:0,0:0:0:0:
