osu file format v14

[General]
AudioFilename: audio.mp3
AudioLeadIn: 0
PreviewTime: 30934
Countdown: 1
SampleSet: Normal
StackLeniency: 0.7
Mode: 0
LetterboxInBreaks: 0
WidescreenStoryboard: 0

[Editor]
DistanceSpacing: 0.5
BeatDivisor: 4
GridSize: 4
TimelineZoom: 1

[Metadata]
Title:Various Feruver Maps
TitleUnicode:Various Feruver Maps
Artist:Various Artists
ArtistUnicode:Various Artists
Creator:Feruver
Version:Courage
Source:Various Animes
Tags:Sword Art Online II Yuuki Sleeping Knights OP
BeatmapID:1724073
BeatmapSetID:822606

[Difficulty]
HPDrainRate:6
CircleSize:3.8
OverallDifficulty:9.2
ApproachRate:9.5
SliderMultiplier:1.4
SliderTickRate:1

[Events]
//Background and Video events
0,0,"sao.jpg",0,0
//Break Periods
//Storyboard Layer 0 (Background)
//Storyboard Layer 1 (Fail)
//Storyboard Layer 2 (Pass)
//Storyboard Layer 3 (Foreground)
//Storyboard Sound Samples

[TimingPoints]
322,306.122448979592,4,1,1,100,1,0
1546,-133.333333333333,4,1,1,50,0,0
19913,-133.333333333333,4,1,1,35,0,0
20832,-100,4,1,1,50,0,0
21138,-100,4,1,1,60,0,0
21291,-100,4,1,1,50,0,0
28485,-100,4,1,1,60,0,0
28638,-100,4,1,1,50,0,0
29709,-100,4,1,1,80,0,0
29862,-100,4,1,1,50,0,0
30015,-100,4,1,1,50,0,0
30322,-100,4,1,1,50,0,0
30934,-100,4,1,1,80,0,0
31087,-100,4,1,1,50,0,0
35373,-100,4,1,1,80,0,0
35449,-100,4,1,1,50,0,0
43179,-100,4,1,1,80,0,0
43332,-100,4,1,1,50,0,0
43638,-100,4,1,1,35,0,0
43791,-100,4,1,1,80,0,0
43944,-100,4,1,1,50,0,0
44250,-100,4,1,1,35,0,0
44403,-100,4,1,1,80,0,0
44480,-100,4,1,1,50,0,0
48077,-100,4,1,1,50,0,0
49301,-100,4,1,1,50,0,0
49760,-133.333333333333,4,1,1,50,0,0
50066,-133.333333333333,4,1,1,5,0,0
50219,-153.846153846153,4,1,1,50,0,0
50373,-100,4,1,1,5,0,0
50526,-100,4,1,1,80,0,1
50602,-100,4,1,1,50,0,1
66291,-100,4,1,1,60,0,1
66444,-100,4,1,1,50,0,1
66597,-100,4,1,1,60,0,1
66750,-100,4,1,1,50,0,1
66903,-100,4,1,1,60,0,1
67056,-100,4,1,1,50,0,1
67209,-100,4,1,1,60,0,1
67362,-100,4,1,1,50,0,1
69964,-100,4,1,1,50,0,0
70117,-100,4,1,1,50,0,0
74862,-100,4,1,1,80,0,0
75015,-100,4,1,1,50,0,0
79148,-100,4,1,1,30,0,0
79301,-100,4,1,1,40,0,0
79454,-100,4,1,1,50,0,0
79607,-100,4,1,1,50,0,0
79760,-100,4,1,1,50,0,0
79913,-100,4,1,1,50,0,0
80219,-125,4,1,1,40,0,0
82209,-100,4,1,1,50,0,0
82668,-100,4,1,1,50,0,0
89693,306.325137895812,4,1,1,50,1,0
89769,-100,4,1,1,50,0,0
99495,306.045137895812,4,1,1,63,1,0
103932,-100,4,1,1,63,0,0
104085,-100,4,1,1,63,0,0
111430,-100,4,1,1,50,0,0
117857,-117.647058823529,4,1,1,40,0,0
118469,-133.333333333333,4,1,1,35,0,0
119081,-166.666666666667,4,1,1,75,0,0
122754,-200,4,1,1,60,0,0
122907,-200,4,1,1,75,0,0
123366,-133.333333333333,4,1,1,50,0,0
123978,-117.647058823529,4,1,1,50,0,0
126426,-117.647058823529,4,1,1,50,0,0
128110,-133.333333333333,4,1,1,50,0,0
128569,-153.846153846153,4,1,1,50,0,0
128722,-153.846153846153,4,1,1,5,0,0
128875,306.122448979592,4,1,1,50,1,1
144640,-100,4,1,1,80,0,1
144793,-100,4,1,1,50,0,1
144946,-100,4,1,1,80,0,1
145099,-100,4,1,1,50,0,1
145252,-100,4,1,1,80,0,1
145406,-100,4,1,1,50,0,1
145559,-100,4,1,1,80,0,1
145712,-100,4,1,1,50,0,1
148313,-100,4,1,1,50,0,0
148466,306.435137895812,4,1,1,50,1,0
148619,-100,4,1,1,50,0,0
152756,-100,4,1,1,50,0,0
153215,-117.647058823529,4,1,1,50,0,0
157505,-100,4,1,1,30,0,0
158138,306.122448979592,4,1,1,60,1,0
158214,-98.0392156862745,4,1,1,50,0,0
159338,306.122448979592,4,1,1,60,1,0
159338,-98.0392156862745,4,1,1,60,0,0
159414,-100,4,1,1,50,0,0
159491,306.122448979592,4,1,1,50,1,0
160562,-100,4,1,1,60,0,0
160639,-100,4,1,1,50,0,0
161787,-100,4,1,1,60,0,0
161863,-100,4,1,1,50,0,0
172960,-100,4,1,1,50,0,0
173037,-100,4,1,1,50,0,0
174185,-100,4,1,1,50,0,0
174338,-100,4,1,1,50,0,0
175409,-100,4,1,1,50,0,0
175562,-100,4,1,1,50,0,0
176634,-100,4,1,1,50,0,0
176787,-100,4,1,1,50,0,0
177858,-100,4,1,1,50,0,0
178011,-100,4,1,1,50,0,0
179083,-100,4,1,1,60,0,0
179236,-100,4,1,1,50,0,0
184287,-100,4,1,1,80,0,0
185205,-100,4,1,1,50,0,0
186889,-170.212765957447,4,1,1,50,0,0
195001,-166.666666666667,4,1,1,40,0,0
195307,-142.857142857143,4,1,1,40,0,0
195308,-142.857142857143,4,1,1,50,0,0
195613,-125,4,1,1,50,0,0
195614,-125,4,1,1,60,0,0
195920,-111.111111111111,4,1,1,60,0,0
197450,-100,4,1,1,60,0,0
197527,-100,4,1,1,50,0,0
206022,-133.333333333333,4,1,1,60,0,0
206098,-133.333333333333,4,1,1,50,0,0
206940,-153.846153846154,4,1,1,50,0,0
207246,-100,4,1,1,50,0,1
207552,-100,4,1,1,50,0,1
208471,-100,4,1,1,50,0,1
209083,-100,4,1,1,50,0,1
209695,-100,4,1,1,35,0,1
210001,-100,4,1,1,50,0,1
210920,-100,4,1,1,50,0,1
211379,-100,4,1,1,50,0,1
223012,-100,4,1,1,60,0,1
223165,-100,4,1,1,50,0,1
223318,-100,4,1,1,60,0,1
223471,-100,4,1,1,50,0,1
223624,-100,4,1,1,60,0,1
223777,-100,4,1,1,50,0,1
224389,305.810397553517,4,1,1,50,1,1
226223,-125,4,1,1,50,0,1
227752,-100,4,1,1,50,0,1
229134,306.122448979592,4,1,1,50,1,0
229177,306.122448979592,4,1,1,50,1,0
230554,279.06976744186,4,1,1,50,1,0
230833,270.27027027027,4,1,1,50,1,0
231103,315.789473684211,4,1,1,50,1,0
231891,306.122448979592,4,1,1,50,1,0
233421,-76.9230769230769,4,1,1,50,0,0
234339,-100,4,1,1,50,0,0
238931,344.827586206897,4,1,1,50,1,0
239275,-100,4,1,1,35,0,0
239620,-118.28,4,1,1,35,0,0
239965,306.122448979592,4,1,1,35,1,0
240424,295.566502463054,4,1,1,35,1,0
241015,285.714285714286,4,1,1,35,1,0
241586,306.122448979592,4,1,1,35,1,0
242351,315.789473684211,4,1,1,35,1,0
242824,375,4,1,1,35,1,0
243574,292.682926829268,4,1,1,35,1,0
243793,292.682926829268,4,1,1,35,1,0
244305,-100,4,1,1,5,0,0
244451,-100,4,1,1,35,0,0
244524,333.240766453763,4,1,1,70,1,0
245523,-100,4,1,1,30,0,0

[HitObjects]
121,94,11648,5,2,0:0:0:0:
222,168,11954,2,0,P|280:180|341:106,1,157.500006008148,2|2,0:0|0:0,0:0:0:0:
416,198,12566,1,2,0:0:0:0:
387,302,12719,2,0,P|345:313|270:296,2,105.000004005432,2|2|2,0:0|0:0|0:0,0:0:0:0:
339,183,13638,1,2,0:0:0:0:
125,124,14097,5,2,0:0:0:0:
164,227,14250,1,2,0:0:0:0:
250,285,14403,2,2,P|281:294|356:283,1,105.000004005432,2|0,0:0|0:0,0:0:0:0:
387,188,14862,5,2,0:0:0:0:
445,81,15015,1,2,0:0:0:0:
332,78,15169,1,2,0:0:0:0:
253,214,15475,6,0,P|221:215|145:176,2,105.000004005432,2|2|2,0:0|0:0|0:0,0:0:0:0:
230,284,16240,2,0,P|222:220|253:119,2,157.500006008148
356,265,17311,5,2,0:0:0:0:
307,173,17464,1,2,0:0:0:0:
244,243,17617,2,0,P|220:256|140:268,2,105.000004005432,2|2|2,0:0|0:0|0:0,0:0:0:0:
402,99,18689,6,2,P|363:82|248:102,1,157.500006008148
302,160,19301,2,0,P|262:184|233:185,1,52.5000020027161,2|0,0:0|0:0,0:0:0:0:
121,188,19607,1,0,0:0:0:0:
256,184,19760,1,2,0:0:0:0:
190,269,19913,5,10,0:0:0:0:
241,72,20066,1,8,0:0:0:0:
343,256,20219,1,10,0:0:0:0:
146,153,20373,1,8,0:0:0:0:
358,123,20526,1,10,0:0:0:0:
190,269,20679,2,0,P|144:276|136:185,1,157.500006008148,10|8,0:0|0:0,0:0:0:0:
334,137,21444,6,0,P|302:121|185:127,1,140,10|2,0:0|0:0,0:0:0:0:
107,170,21903,1,0,0:0:0:0:
148,266,22056,2,0,P|186:284|223:295,1,70,8|2,0:0|0:0,0:0:0:0:
317,295,22362,2,0,P|332:263|320:207,1,70,2|2,0:0|0:0,0:0:0:0:
276,139,22668,1,8,0:0:0:0:
151,194,22822,1,2,0:0:0:0:
206,52,22975,1,0,0:0:0:0:
229,222,23128,1,2,0:0:0:0:
322,123,23281,1,8,0:0:0:0:
131,116,23434,6,0,P|157:87|264:61,1,140,10|0,0:0|0:0,0:0:0:0:
351,125,23893,1,10,0:0:0:0:
251,196,24046,1,2,0:0:0:0:
353,261,24199,2,2,P|393:249|459:166,1,140,2|8,0:0|0:0,0:0:0:0:
434,81,24658,1,2,0:0:0:0:
341,51,24811,2,2,P|302:65|271:102,1,70
331,211,25117,1,8,0:0:0:0:
207,175,25270,6,0,P|171:195|134:197,1,70,2|0,0:0|0:0,0:0:0:0:
264,100,25577,2,0,P|285:66|318:43,1,70,2|8,0:0|0:0,0:0:0:0:
306,189,25883,2,0,P|335:225|339:258,1,70,10|0,0:0|0:0,0:0:0:0:
213,127,26189,1,0,0:0:0:0:
180,247,26342,2,0,L|180:284,2,35,8|0|0,0:0|0:0|0:0,0:0:0:0:
329,166,26648,5,0,0:0:0:0:
183,110,26801,1,0,0:0:0:0:
245,262,26954,1,8,0:0:0:0:
264,100,27107,2,2,P|288:68|340:59,1,70
374,155,27413,1,2,0:0:0:0:
253,65,27566,1,8,0:0:0:0:
237,214,27719,2,2,P|191:198|137:118,1,140
282,109,28179,1,8,0:0:0:0:
139,243,28332,1,0,0:0:0:0:
321,256,28485,6,0,P|361:264|430:176,1,140,14|8,0:0|0:0,0:0:0:0:
348,145,28944,1,2,0:0:0:0:
408,56,29097,2,0,P|355:42|269:96,1,140,14|0,0:0|0:0,0:0:0:0:
370,188,29556,1,2,0:0:0:0:
216,213,29709,1,10,0:0:0:0:
119,58,30015,5,10,0:0:0:0:
128,69,30092,1,8,0:0:0:0:
138,81,30168,1,8,0:0:0:0:
153,98,30245,1,8,0:0:0:0:
178,116,30321,1,10,0:0:0:0:
204,133,30398,1,8,0:0:0:0:
233,143,30475,1,8,0:0:0:0:
263,150,30551,1,8,0:0:0:0:
294,151,30628,2,8,L|341:132,1,35
439,141,30781,2,8,L|403:163,1,35
282,316,30934,6,8,P|301:281|289:241,1,70,14|0,0:0|0:0,0:0:0:0:
199,188,31240,5,12,0:0:0:0:
141,313,31393,1,2,0:0:0:0:
90,162,31546,5,12,0:0:0:0:
18,288,31699,1,0,0:0:0:0:
232,234,31852,5,14,0:0:0:0:
93,92,32005,1,0,0:0:0:0:
385,196,32158,5,14,0:0:0:0:
184,41,32311,1,0,0:0:0:0:
194,235,32464,5,14,0:0:0:0:
349,37,32617,1,0,0:0:0:0:
404,205,32770,5,14,0:0:0:0:
170,28,32924,1,0,0:0:0:0:
181,252,33077,5,14,0:0:0:0:
366,20,33230,1,0,0:0:0:0:
321,239,33383,6,0,P|274:223|212:142,1,140,8|0,0:0|0:0,0:0:0:0:
318,135,33842,1,0,0:0:0:0:
153,152,33995,2,0,P|139:202|169:289,1,140,8|0,0:0|0:0,0:0:0:0:
295,298,34454,1,8,0:0:0:0:
284,111,34607,1,0,0:0:0:0:
121,209,34760,1,8,0:0:0:0:
259,195,34913,1,0,0:0:0:0:
370,129,35066,6,0,P|378:103|360:64,1,70,12|0,0:0|0:0,0:0:0:0:
389,249,35373,2,0,P|404:282|400:334,1,70,12|0,0:0|0:0,0:0:0:0:
325,195,35679,1,8,0:0:0:0:
248,263,35832,5,14,0:0:0:0:
175,134,35985,1,0,0:0:0:0:
179,321,36138,5,12,0:0:0:0:
99,109,36291,1,2,0:0:0:0:
88,294,36444,5,12,0:0:0:0:
189,68,36597,1,0,0:0:0:0:
206,261,36750,5,14,0:0:0:0:
301,69,36903,1,0,0:0:0:0:
392,237,37056,5,14,0:0:0:0:
237,96,37209,1,0,0:0:0:0:
251,291,37362,5,14,0:0:0:0:
368,93,37515,1,0,0:0:0:0:
210,201,37668,5,14,0:0:0:0:
210,201,37745,1,12,0:0:0:0:
210,201,37822,1,12,0:0:0:0:
302,117,37975,6,0,P|341:138|346:233,1,140,14|8,0:0|0:0,0:0:0:0:
284,189,38434,2,0,L|215:217,1,70,0|8,0:0|0:0,0:0:0:0:
123,256,38740,1,0,0:0:0:0:
130,150,38893,2,0,P|152:114|248:106,1,140,8|0,0:0|0:0,0:0:0:0:
224,188,39352,1,8,0:0:0:0:
296,302,39505,2,0,P|322:269|327:220,1,70,0|8,0:0|0:0,0:0:0:0:
436,161,39811,1,0,0:0:0:0:
354,62,39964,6,0,P|310:53|210:88,1,140,8|8,0:0|0:0,0:0:0:0:
195,98,40347,1,10,0:0:0:0:
184,127,40424,1,8,0:0:0:0:
188,157,40500,1,8,0:0:0:0:
206,182,40577,1,8,0:0:0:0:
234,194,40653,1,8,0:0:0:0:
265,197,40730,6,0,P|311:187|362:92,1,140,14|8,0:0|0:0,0:0:0:0:
262,95,41189,1,2,0:0:0:0:
179,114,41342,2,0,P|149:136|101:138,1,70
115,273,41648,2,0,P|153:282|184:270,1,70,10|0,0:0|0:0,0:0:0:0:
366,139,41954,6,0,L|421:75,1,70,2|0,0:0|0:0,0:0:0:0:
287,205,42260,6,0,L|219:152,1,70,10|0,0:0|0:0,0:0:0:0:
365,273,42566,6,0,L|429:220,1,70,2|0,0:0|0:0,0:0:0:0:
263,278,42873,1,10,0:0:0:0:
325,154,43026,1,0,0:0:0:0:
155,235,43179,2,0,P|136:202|211:159,1,140,6|8,0:0|0:0,0:0:0:0:
262,242,43638,5,2,0:0:0:0:
387,264,43791,2,0,P|406:231|331:188,1,140,6|8,0:0|0:0,0:0:0:0:
236,267,44250,1,2,0:0:0:0:
110,214,44403,2,0,P|89:179|102:134,1,70,6|0,0:0|0:0,0:0:0:0:
194,104,44709,2,0,P|215:139|202:184,1,70,10|0,0:0|0:0,0:0:0:0:
91,151,45015,2,0,P|70:116|83:71,1,70,14|0,0:0|0:0,0:0:0:0:
175,41,45322,2,0,P|196:76|183:121,1,70,10|0,0:0|0:0,0:0:0:0:
105,224,45628,6,8,P|113:262|199:240,2,140,2|8|8,0:0|0:0|0:0,0:0:0:0:
177,166,46393,1,0,0:0:0:0:
309,260,46546,5,10,0:0:0:0:
356,34,46699,1,0,0:0:0:0:
410,141,46852,5,10,0:0:0:0:
238,62,47005,1,0,0:0:0:0:
346,246,47158,5,10,0:0:0:0:
177,128,47311,1,0,0:0:0:0:
254,309,47464,5,10,0:0:0:0:
115,171,47617,1,0,0:0:0:0:
82,302,47770,5,10,0:0:0:0:
112,309,47847,1,8,0:0:0:0:
142,317,47924,1,8,0:0:0:0:
170,325,48000,1,8,0:0:0:0:
201,335,48077,1,10,0:0:0:0:
367,290,48230,1,10,0:0:0:0:
409,147,48536,5,10,0:0:0:0:
224,234,48689,1,10,0:0:0:0:
138,108,48995,5,10,0:0:0:0:
370,235,49148,1,10,0:0:0:0:
229,108,49760,5,2,0:0:0:0:
343,145,49913,2,8,P|361:175|330:237,1,105.000004005432,2|10,0:0|0:0,0:0:0:0:
151,221,50526,6,0,P|188:191|224:187,1,70,2|0,0:0|0:0,0:0:0:0:
357,187,50832,1,10,0:0:0:0:
352,46,50985,1,2,0:0:0:0:
260,111,51138,2,0,P|218:121|187:118,1,70,0|2,0:0|0:0,0:0:0:0:
88,114,51444,1,8,0:0:0:0:
89,214,51597,6,0,P|122:230|160:226,1,70,2|2,0:0|0:0,0:0:0:0:
307,176,51903,2,0,P|264:155|212:164,1,70,0|10,0:0|0:0,0:0:0:0:
108,149,52209,1,0,0:0:0:0:
189,309,52362,1,2,0:0:0:0:
301,113,52515,1,0,0:0:0:0:
165,217,52668,1,10,0:0:0:0:
197,59,52822,1,2,0:0:0:0:
358,245,52975,6,0,L|390:163,1,70
231,123,53281,2,0,L|254:194,1,70,8|0,0:0|0:0,0:0:0:0:
116,277,53587,6,2,L|148:195,1,70,0|2,0:0|0:0,0:0:0:0:
21,115,53893,2,0,L|44:186,1,70,10|0,0:0|0:0,0:0:0:0:
137,260,54199,2,0,P|180:254|215:218,1,70
266,100,54505,1,8,0:0:0:0:
332,243,54658,1,0,0:0:0:0:
211,296,54811,6,0,P|163:303|129:296,1,70,2|0,0:0|0:0,0:0:0:0:
88,160,55117,1,10,0:0:0:0:
212,156,55270,1,0,0:0:0:0:
285,31,55424,2,0,P|332:46|350:68,1,70,6|0,0:0|0:0,0:0:0:0:
277,193,55730,1,10,0:0:0:0:
214,75,55883,1,2,0:0:0:0:
380,91,56036,1,0,0:0:0:0:
242,239,56189,2,0,P|210:221|194:173,1,70,2|8,0:0|0:0,0:0:0:0:
254,66,56495,6,0,P|296:67|328:84,1,70,2|0,0:0|0:0,0:0:0:0:
338,193,56801,1,0,0:0:0:0:
420,118,56954,1,10,0:0:0:0:
450,246,57107,1,0,0:0:0:0:
335,127,57260,1,2,0:0:0:0:
253,248,57413,1,0,0:0:0:0:
180,132,57566,1,10,0:0:0:0:
48,232,57719,1,0,0:0:0:0:
145,328,57873,6,0,P|205:336|276:265,1,140,2|10,0:0|0:0,0:0:0:0:
181,221,58332,1,2,0:0:0:0:
260,124,58485,2,0,L|197:60,1,70
108,239,58791,2,0,L|131:325,1,70,8|0,0:0|0:0,0:0:0:0:
146,115,59097,5,8,0:0:0:0:
317,224,59250,1,8,0:0:0:0:
133,245,59403,5,8,0:0:0:0:
288,113,59556,1,8,0:0:0:0:
105,89,59709,5,10,0:0:0:0:
105,89,59786,1,8,0:0:0:0:
105,89,59863,1,8,0:0:0:0:
341,239,60015,1,10,0:0:0:0:
97,274,60168,5,10,0:0:0:0:
309,92,60322,2,0,P|354:78|417:149,1,140,14|8,0:0|0:0,0:0:0:0:
316,211,60781,1,2,0:0:0:0:
213,298,60934,2,0,L|136:268,1,70,2|0,0:0|0:0,0:0:0:0:
166,138,61240,2,0,L|247:171,1,70,10|0,0:0|0:0,0:0:0:0:
355,211,61546,2,0,P|386:187|337:94,1,140,2|8,0:0|0:0,0:0:0:0:
248,168,62005,5,2,0:0:0:0:
130,250,62158,2,0,P|105:215|120:173,1,70,2|0,0:0|0:0,0:0:0:0:
154,65,62464,2,0,P|197:77|217:98,1,70,10|0,0:0|0:0,0:0:0:0:
264,240,62770,2,0,P|304:268|372:204,1,140,2|10,0:0|0:0,0:0:0:0:
316,148,63230,1,2,0:0:0:0:
184,216,63383,2,0,P|160:188|160:140,1,70,0|2,0:0|0:0,0:0:0:0:
240,36,63689,1,8,0:0:0:0:
344,176,63842,1,2,0:0:0:0:
232,264,63995,6,0,P|260:292|300:304,1,70,2|0,0:0|0:0,0:0:0:0:
436,268,64301,2,0,P|460:232|460:192,1,70,10|0,0:0|0:0,0:0:0:0:
220,196,64607,2,0,P|248:224|288:236,1,70,2|0,0:0|0:0,0:0:0:0:
424,200,64913,2,0,P|448:164|448:124,1,70,10|0,0:0|0:0,0:0:0:0:
320,132,65219,1,10,0:0:0:0:
188,152,65373,5,0,0:0:0:0:
104,96,65526,1,10,0:0:0:0:
96,196,65679,1,2,0:0:0:0:
204,160,65832,5,8,0:0:0:0:
112,76,65985,1,0,0:0:0:0:
72,196,66138,1,8,0:0:0:0:
228,168,66291,5,0,0:0:0:0:
120,60,66444,1,8,0:0:0:0:
40,196,66597,1,0,0:0:0:0:
268,176,66750,5,8,0:0:0:0:
124,36,66903,1,0,0:0:0:0:
20,188,67056,1,8,0:0:0:0:
280,184,67209,5,0,0:0:0:0:
128,16,67362,1,10,0:0:0:0:
0,184,67515,1,0,0:0:0:0:
148,312,67668,1,10,0:0:0:0:
184,156,67822,1,0,0:0:0:0:
328,140,67975,6,0,P|336:100|316:64,1,70,8|0,0:0|0:0,0:0:0:0:
124,128,68281,2,0,P|116:168|136:204,1,70,8|0,0:0|0:0,0:0:0:0:
284,284,68587,2,0,P|324:272|348:248,1,70,10|0,0:0|0:0,0:0:0:0:
384,88,68893,1,10,0:0:0:0:
312,208,69046,1,10,0:0:0:0:
208,120,69199,1,0,0:0:0:0:
140,256,69352,6,0,L|112:184,1,70,10|0,0:0|0:0,0:0:0:0:
36,16,69658,2,0,L|64:88,1,70,10|0,0:0|0:0,0:0:0:0:
84,136,69964,2,0,L|160:96,1,70,10|0,0:0|0:0,0:0:0:0:
263,60,70270,5,0,0:0:0:0:
380,120,70424,2,0,P|361:155|315:188,1,70
235,262,70730,2,0,P|209:235|198:197,1,70,8|0,0:0|0:0,0:0:0:0:
247,66,71036,1,0,0:0:0:0:
408,219,71189,1,0,0:0:0:0:
236,333,71342,2,0,P|184:340|156:331,1,70
232,223,71648,1,0,0:0:0:0:
118,189,71801,2,0,P|111:164|128:117,1,70,12|0,0:0|0:0,0:0:0:0:
314,155,72107,2,0,P|281:167|236:162,1,70,12|0,0:0|0:0,0:0:0:0:
73,169,72413,6,0,P|62:207|80:256,1,70,12|0,0:0|0:0,0:0:0:0:
202,293,72719,1,0,0:0:0:0:
282,93,72873,1,0,0:0:0:0:
231,224,73026,2,0,P|185:215|150:185,1,70,0|8,0:0|0:0,0:0:0:0:
198,56,73332,1,0,0:0:0:0:
355,150,73485,1,0,0:0:0:0:
330,277,73638,6,0,P|302:299|246:315,1,70,8|0,0:0|0:0,0:0:0:0:
172,204,73944,2,0,P|140:181|127:154,1,70,8|0,0:0|0:0,0:0:0:0:
199,40,74250,1,4,0:0:0:0:
447,207,74556,1,4,0:0:0:0:
210,149,74862,2,0,P|164:142|129:178,1,70,4|0,0:0|0:0,0:0:0:0:
110,256,75168,2,0,P|125:289|153:313,2,70
87,137,75628,6,0,P|111:98|140:78,1,70,8|0,0:0|0:0,0:0:0:0:
210,169,75934,1,0,0:0:0:0:
351,165,76087,2,0,P|376:138|390:100,1,70
456,217,76393,2,0,P|481:190|495:152,1,70
314,274,76699,2,0,P|269:277|238:271,1,70,8|0,0:0|0:0,0:0:0:0:
262,156,77005,2,0,P|251:111|250:77,1,70,8|0,0:0|0:0,0:0:0:0:
152,198,77311,2,0,P|130:236|117:269,1,70,8|0,0:0|0:0,0:0:0:0:
232,334,77617,1,0,0:0:0:0:
385,304,77770,6,0,P|401:267|406:219,1,70,8|0,0:0|0:0,0:0:0:0:
429,84,78077,1,8,0:0:0:0:
295,165,78230,1,0,0:0:0:0:
186,65,78383,1,8,0:0:0:0:
89,200,78536,5,8,0:0:0:0:
89,200,78842,5,8,0:0:0:0:
256,192,78918,12,4,79913,0:0:0:0:
112,132,81750,5,10,0:0:0:0:
124,152,81827,1,8,0:0:0:0:
140,168,81903,1,10,0:0:0:0:
160,180,81980,1,8,0:0:0:0:
178,186,82056,1,8,0:0:0:0:
197,189,82133,1,8,0:0:0:0:
221,190,82209,2,8,P|273:181|311:105,1,140,10|0,0:0|0:0,0:0:0:0:
206,83,82668,5,10,0:0:0:0:
138,262,82822,1,2,0:0:0:0:
287,218,82975,2,0,P|323:196|356:156,1,70,2|0,0:0|0:0,0:0:0:0:
426,82,83281,1,8,0:0:0:0:
476,224,83434,1,2,0:0:0:0:
382,303,83587,2,0,P|345:312|307:308,1,70,2|2,0:0|0:0,0:0:0:0:
179,235,83893,1,8,0:0:0:0:
283,147,84046,6,0,P|317:124|337:87,1,70,2|0,0:0|0:0,0:0:0:0:
187,97,84352,2,0,P|150:126|134:150,1,70,2|8,0:0|0:0,0:0:0:0:
218,276,84658,2,0,P|214:232|219:203,1,70,2|0,0:0|0:0,0:0:0:0:
240,61,84964,1,0,0:0:0:0:
374,152,85117,1,8,0:0:0:0:
238,220,85270,1,0,0:0:0:0:
136,135,85424,2,0,P|104:170|96:195,1,70
168,333,85730,5,8,0:0:0:0:
306,236,85883,1,2,0:0:0:0:
196,165,86036,2,0,P|167:190|154:227,1,70,2|2,0:0|0:0,0:0:0:0:
114,102,86342,1,8,0:0:0:0:
236,46,86495,2,0,P|274:37|312:49,1,70,2|0,0:0|0:0,0:0:0:0:
322,172,86801,1,2,0:0:0:0:
145,214,86954,1,8,0:0:0:0:
254,314,87107,1,0,0:0:0:0:
390,278,87260,6,0,P|407:239|421:136,1,140,10|0,0:0|0:0,0:0:0:0:
333,31,87719,1,2,0:0:0:0:
281,148,87873,6,0,P|231:169|127:180,1,140,10|0,0:0|0:0,0:0:0:0:
46,129,88332,1,2,0:0:0:0:
77,294,88485,5,10,0:0:0:0:
77,294,88561,1,8,0:0:0:0:
77,294,88638,1,8,0:0:0:0:
206,179,88791,1,10,0:0:0:0:
177,293,88944,1,0,0:0:0:0:
122,132,89097,5,10,0:0:0:0:
122,132,89174,1,8,0:0:0:0:
122,132,89250,1,8,0:0:0:0:
255,130,89403,1,2,0:0:0:0:
170,225,89556,1,0,0:0:0:0:
279,285,89693,1,0,0:0:0:0:
416,181,89999,6,2,P|412:144|339:71,1,140,2|10,0:0|0:0,0:0:0:0:
291,179,90458,1,0,0:0:0:0:
213,248,90611,2,0,L|133:290,1,70,0|2,0:0|0:0,0:0:0:0:
54,222,90918,2,0,P|48:184|62:127,1,70,2|2,0:0|0:0,0:0:0:0:
167,225,91224,1,0,0:0:0:0:
217,102,91377,6,0,P|252:60|280:45,1,70,2|8,0:0|0:0,0:0:0:0:
299,201,91684,2,0,P|284:236|248:266,1,70,2|0,0:0|0:0,0:0:0:0:
142,184,91990,2,0,P|99:171|80:145,1,70,2|0,0:0|0:0,0:0:0:0:
170,72,92296,1,0,0:0:0:0:
294,156,92449,6,2,P|313:211|255:298,1,140,2|10,0:0|0:0,0:0:0:0:
180,294,92909,2,0,L|101:293,1,70
205,195,93215,1,2,0:0:0:0:
106,133,93368,2,0,P|120:102|156:69,1,70,2|2,0:0|0:0,0:0:0:0:
247,122,93675,1,0,0:0:0:0:
373,105,93828,2,2,P|391:71|390:38,2,70,2|10|2,0:0|0:0|0:0,0:0:0:0:
335,201,94287,5,0,0:0:0:0:
221,230,94441,1,2,0:0:0:0:
324,297,94594,1,0,0:0:0:0:
224,323,94747,1,2,0:0:0:0:
335,201,94900,2,0,P|344:148|291:72,1,140,2|8,0:0|0:0,0:0:0:0:
220,173,95360,5,0,0:0:0:0:
109,184,95513,2,2,P|89:149|93:103,1,70,0|2,0:0|0:0,0:0:0:0:
108,24,95819,1,2,0:0:0:0:
195,106,95972,1,2,0:0:0:0:
96,198,96125,2,0,P|70:230|60:270,1,70,0|2,0:0|0:0,0:0:0:0:
178,349,96432,1,8,0:0:0:0:
293,266,96585,2,0,P|305:224|252:127,1,140,2|0,0:0|0:0,0:0:0:0:
209,228,97044,6,0,P|157:243|83:180,1,140,2|0,0:0|0:0,0:0:0:0:
167,143,97504,1,2,0:0:0:0:
91,69,97657,2,0,P|161:51|229:82,1,140,10|0,0:0|0:0,0:0:0:0:
162,201,98116,1,2,0:0:0:0:
274,281,98270,2,0,L|340:323,1,70,10|0,0:0|0:0,0:0:0:0:
246,173,98576,2,0,L|179:222,1,70,10|0,0:0|0:0,0:0:0:0:
164,62,98882,5,10,0:0:0:0:
180,69,98959,1,8,0:0:0:0:
195,76,99035,1,8,0:0:0:0:
211,83,99112,1,8,0:0:0:0:
227,90,99189,1,8,0:0:0:0:
242,97,99265,1,8,0:0:0:0:
258,104,99342,1,8,0:0:0:0:
273,111,99418,1,8,0:0:0:0:
300,124,99495,2,0,P|332:148|320:204,1,70,10|0,0:0|0:0,0:0:0:0:
320,228,99801,5,8,0:0:0:0:
100,296,99954,1,2,0:0:0:0:
288,280,100107,5,0,0:0:0:0:
108,136,100260,1,0,0:0:0:0:
104,232,100413,5,10,0:0:0:0:
232,52,100566,1,0,0:0:0:0:
140,80,100719,5,2,0:0:0:0:
364,48,100872,1,0,0:0:0:0:
276,80,101025,5,10,0:0:0:0:
468,200,101178,1,0,0:0:0:0:
368,100,101331,5,2,0:0:0:0:
408,308,101484,1,0,0:0:0:0:
424,224,101637,5,10,0:0:0:0:
268,363,101790,1,0,0:0:0:0:
112,216,101943,6,0,P|136:176|228:180,1,140,8|0,0:0|0:0,0:0:0:0:
192,244,102402,1,0,0:0:0:0:
192,244,102555,2,0,L|136:108,1,140,8|8,0:0|0:0,0:0:0:0:
88,204,103014,1,8,0:0:0:0:
108,296,103167,2,8,P|152:320|200:308,1,70,0|8,0:0|0:0,0:0:0:0:
404,304,103626,5,12,0:0:0:0:
236,64,103932,5,12,0:0:0:0:
104,224,104391,6,0,P|148:244|196:236,1,70,6|0,0:0|0:0,0:0:0:0:
236,148,104697,1,8,0:0:0:0:
336,256,104850,2,0,P|320:288|280:312,1,70,2|0,0:0|0:0,0:0:0:0:
188,320,105156,1,0,0:0:0:0:
96,168,105309,1,10,0:0:0:0:
264,212,105462,1,0,0:0:0:0:
372,128,105615,5,2,0:0:0:0:
172,192,105768,1,0,0:0:0:0:
372,304,105921,5,10,0:0:0:0:
172,192,106074,1,0,0:0:0:0:
252,72,106227,5,2,0:0:0:0:
252,72,106304,1,0,0:0:0:0:
252,72,106381,1,0,0:0:0:0:
364,240,106534,1,10,0:0:0:0:
146,235,106840,6,0,P|101:226|72:224,2,70,8|0|0,0:0|0:0|0:0,0:0:0:0:
246,249,107452,2,0,P|279:234|258:137,1,140,8|0,0:0|0:0,0:0:0:0:
182,175,107911,1,8,0:0:0:0:
105,101,108064,1,0,0:0:0:0:
40,191,108217,2,0,P|36:229|128:290,1,140,8|8,0:0|0:0,0:0:0:0:
226,256,108676,6,8,L|264:264,1,35
377,232,108829,2,8,L|333:233,1,35
234,171,108982,2,8,L|274:182,1,35,10|8,0:0|0:0,0:0:0:0:
378,133,109135,2,8,L|321:146,1,35
184,179,109288,6,8,P|141:193|75:124,1,140,10|8,0:0|0:0,0:0:0:0:
80,30,109747,2,0,L|160:28,1,70,2|0,0:0|0:0,0:0:0:0:
260,108,110053,1,0,0:0:0:0:
332,233,110206,2,0,P|300:262|252:268,1,70,10|0,0:0|0:0,0:0:0:0:
116,206,110512,6,0,P|114:244|133:290,1,70,2|0,0:0|0:0,0:0:0:0:
320,227,110818,2,0,P|321:182|302:144,1,70,10|0,0:0|0:0,0:0:0:0:
43,234,111124,2,0,P|74:266|112:275,1,70,2|0,0:0|0:0,0:0:0:0:
310,118,111430,2,0,P|276:96|228:94,1,70,10|0,0:0|0:0,0:0:0:0:
151,226,111736,6,0,P|177:249|281:248,1,140,6|8,0:0|0:0,0:0:0:0:
228,162,112195,1,2,0:0:0:0:
365,77,112348,6,0,P|389:133|388:222,1,140,6|8,0:0|0:0,0:0:0:0:
269,144,112807,1,2,0:0:0:0:
195,251,112960,6,0,P|166:218|155:173,1,70,6|0,0:0|0:0,0:0:0:0:
297,70,113267,2,0,P|300:106|293:142,1,70,10|0,0:0|0:0,0:0:0:0:
123,260,113573,2,0,P|134:209|158:174,1,70,10|0,0:0|0:0,0:0:0:0:
375,86,113879,2,0,P|333:120|301:130,1,70,10|0,0:0|0:0,0:0:0:0:
50,173,114185,2,0,P|85:136|193:111,2,140,10|8|0,0:0|0:0|0:0,0:0:0:0:
170,209,114950,1,0,0:0:0:0:
280,267,115103,2,0,P|305:235|311:181,1,70,10|0,0:0|0:0,0:0:0:0:
359,95,115409,6,0,P|321:82|199:85,1,140,2|8,0:0|0:0,0:0:0:0:
37,90,115868,2,0,P|69:123|96:139,1,70
231,163,116174,1,0,0:0:0:0:
148,261,116327,2,0,P|111:275|80:271,1,70,10|0,0:0|0:0,0:0:0:0:
61,170,116633,6,0,P|56:132|117:49,1,140,2|8,0:0|0:0,0:0:0:0:
208,120,117092,1,0,0:0:0:0:
362,72,117245,1,8,0:0:0:0:
302,202,117398,1,0,0:0:0:0:
454,187,117551,1,8,0:0:0:0:
320,331,117704,1,0,0:0:0:0:
136,304,117857,6,0,P|105:278|71:213,2,89.2500017023087
227,196,118469,2,0,P|188:220|143:227,2,78.7500030040742,2|2|0,0:0|0:0|0:0,0:0:0:0:
103,162,119081,1,2,0:0:0:0:
139,81,123213,5,0,0:0:0:0:
139,81,123290,1,0,0:0:0:0:
139,81,123366,2,2,P|177:109|244:103,1,105.000004005432
174,192,123825,1,0,0:0:0:0:
239,284,123978,2,0,P|268:261|286:163,1,119.000002269745,10|2,0:0|0:0,0:0:0:0:
117,238,124437,5,2,0:0:0:0:
45,146,124590,2,0,P|82:115|169:107,1,119.000002269745,8|0,0:0|0:0,0:0:0:0:
244,232,125049,5,2,0:0:0:0:
362,300,125202,2,2,P|388:262|398:177,1,119.000002269745,10|2,0:0|0:0,0:0:0:0:
202,191,125661,1,0,0:0:0:0:
130,47,125814,5,10,0:0:0:0:
126,67,125891,1,8,0:0:0:0:
122,87,125967,1,8,0:0:0:0:
118,107,126044,1,8,0:0:0:0:
114,127,126120,1,10,0:0:0:0:
110,147,126197,1,8,0:0:0:0:
106,167,126273,1,8,0:0:0:0:
102,187,126350,1,8,0:0:0:0:
98,207,126426,1,10,0:0:0:0:
97,339,126579,5,10,0:0:0:0:
281,96,126886,5,10,0:0:0:0:
381,222,127039,1,10,0:0:0:0:
262,194,127345,5,10,0:0:0:0:
158,315,127498,1,10,0:0:0:0:
111,134,128110,5,10,0:0:0:0:
195,191,128263,2,0,P|240:184|281:127,1,105.000004005432,10|10,0:0|0:0,0:0:0:0:
270,263,128875,6,0,P|233:282|191:281,1,70,14|0,0:0|0:0,0:0:0:0:
56,250,129181,2,0,P|43:207|51:159,1,70,10|2,0:0|0:0,0:0:0:0:
131,69,129487,1,0,0:0:0:0:
207,176,129640,1,2,0:0:0:0:
109,288,129793,1,8,0:0:0:0:
280,249,129946,1,2,0:0:0:0:
375,105,130099,6,0,L|412:31,1,70,2|0,0:0|0:0,0:0:0:0:
269,161,130405,6,0,L|220:98,1,70,10|0,0:0|0:0,0:0:0:0:
355,235,130711,6,0,L|432:187,1,70,2|0,0:0|0:0,0:0:0:0:
249,273,131017,1,10,0:0:0:0:
125,267,131170,2,0,P|90:232|86:190,1,70,2|0,0:0|0:0,0:0:0:0:
85,85,131477,1,0,0:0:0:0:
195,158,131630,1,8,0:0:0:0:
84,212,131783,1,0,0:0:0:0:
85,85,131936,1,0,0:0:0:0:
226,30,132089,1,2,0:0:0:0:
299,148,132242,2,0,P|283:186|242:208,1,70,10|0,0:0|0:0,0:0:0:0:
71,228,132548,6,0,P|91:265|125:283,1,70
246,286,132854,1,8,0:0:0:0:
407,255,133007,1,0,0:0:0:0:
416,123,133160,2,0,P|438:80|436:47,1,70,10|0,0:0|0:0,0:0:0:0:
328,84,133466,2,0,P|291:98|248:99,1,70,10|0,0:0|0:0,0:0:0:0:
114,109,133772,6,0,P|96:139|118:237,1,140,14|10,0:0|0:0,0:0:0:0:
163,164,134232,2,0,L|241:163,1,70,2|0,0:0|0:0,0:0:0:0:
427,145,134538,2,0,P|396:178|356:194,1,70,2|8,0:0|0:0,0:0:0:0:
329,95,134844,2,0,P|370:54|412:43,1,70,2|0,0:0|0:0,0:0:0:0:
270,211,135150,6,0,P|267:250|292:293,1,70,0|10,0:0|0:0,0:0:0:0:
240,62,135456,1,0,0:0:0:0:
176,174,135609,2,0,P|197:206|251:213,1,70,2|0,0:0|0:0,0:0:0:0:
375,141,135915,2,0,P|376:99|355:61,1,70,10|0,0:0|0:0,0:0:0:0:
341,221,136221,2,0,P|328:257|291:281,1,70,2|0,0:0|0:0,0:0:0:0:
156,268,136528,1,10,0:0:0:0:
98,136,136681,2,0,P|152:109|249:120,1,140,2|0,0:0|0:0,0:0:0:0:
231,210,137140,5,8,0:0:0:0:
370,322,137293,1,8,0:0:0:0:
331,147,137446,5,8,0:0:0:0:
259,304,137599,1,8,0:0:0:0:
318,70,137752,5,8,0:0:0:0:
133,152,137905,1,10,0:0:0:0:
133,152,137982,1,10,0:0:0:0:
133,152,138058,1,10,0:0:0:0:
125,62,138211,5,8,0:0:0:0:
308,207,138364,1,10,0:0:0:0:
291,59,138517,5,8,0:0:0:0:
108,237,138670,2,0,P|113:281|216:289,1,140,10|12,0:0|0:0,0:0:0:0:
230,194,139130,5,2,0:0:0:0:
353,96,139283,2,0,L|402:30,1,70,2|0,0:0|0:0,0:0:0:0:
437,152,139589,2,0,L|389:219,1,70,10|0,0:0|0:0,0:0:0:0:
246,75,139895,2,0,L|327:106,1,70,2|0,0:0|0:0,0:0:0:0:
343,259,140201,1,8,0:0:0:0:
196,315,140354,1,0,0:0:0:0:
126,179,140507,5,10,0:0:0:0:
126,179,140584,2,0,P|140:123|186:94,1,105,0|10,0:0|0:0,0:0:0:0:
254,184,140966,1,0,0:0:0:0:
426,107,141119,2,0,P|404:75|293:66,1,140,2|10,0:0|0:0,0:0:0:0:
332,157,141579,1,2,0:0:0:0:
283,262,141732,2,0,P|234:256|193:244,1,70,0|2,0:0|0:0,0:0:0:0:
199,137,142038,1,8,0:0:0:0:
80,80,142191,1,2,0:0:0:0:
114,223,142344,6,0,P|138:270|164:283,1,70,2|0,0:0|0:0,0:0:0:0:
307,197,142650,2,0,P|283:150|257:137,1,70,10|0,0:0|0:0,0:0:0:0:
53,261,142956,2,0,P|77:308|103:321,1,70,10|0,0:0|0:0,0:0:0:0:
376,164,143262,2,0,P|352:117|326:104,1,70,10|0,0:0|0:0,0:0:0:0:
117,204,143568,6,2,P|148:227|262:230,1,140,2|10,0:0|0:0,0:0:0:0:
204,145,144028,1,10,0:0:0:0:
362,174,144181,5,8,0:0:0:0:
426,94,144334,1,8,0:0:0:0:
468,242,144487,1,8,0:0:0:0:
512,137,144640,1,8,0:0:0:0:
320,229,144793,5,8,0:0:0:0:
432,272,144946,1,8,0:0:0:0:
354,98,145099,1,8,0:0:0:0:
224,229,145252,1,8,0:0:0:0:
377,189,145405,5,8,0:0:0:0:
200,132,145558,1,8,0:0:0:0:
344,295,145711,1,10,0:0:0:0:
288,115,145864,1,8,0:0:0:0:
148,206,146017,6,0,P|114:225|83:254,1,70,2|0,0:0|0:0,0:0:0:0:
251,132,146323,2,0,P|288:107|333:96,1,70,8|0,0:0|0:0,0:0:0:0:
251,237,146630,2,0,P|281:271|298:298,1,70,8|0,0:0|0:0,0:0:0:0:
151,121,146936,2,0,P|125:96|90:81,1,70,10|0,0:0|0:0,0:0:0:0:
70,247,147242,1,10,0:0:0:0:
231,216,147395,2,0,P|263:170|337:117,1,140,10|10,0:0|0:0,0:0:0:0:
343,213,147854,2,0,L|317:287,1,70,0|10,0:0|0:0,0:0:0:0:
195,305,148160,1,0,0:0:0:0:
192,122,148313,1,10,0:0:0:0:
136,71,152756,5,8,0:0:0:0:
339,212,152909,5,8,0:0:0:0:
175,260,153215,6,0,P|149:226|151:185,1,59.5000011348725
254,151,153522,1,0,0:0:0:0:
361,78,153675,2,0,P|372:113|354:210,1,119.000002269745,0|8,0:0|0:0,0:0:0:0:
211,115,154135,1,0,0:0:0:0:
84,243,154441,6,0,P|112:279|183:294,1,119.000002269745
216,177,154901,1,8,0:0:0:0:
329,97,155054,1,8,0:0:0:0:
330,256,155360,5,8,0:0:0:0:
462,220,155514,1,0,0:0:0:0:
368,334,155667,2,0,P|323:341|233:320,1,119.000002269745,8|0,0:0|0:0,0:0:0:0:
209,229,156126,1,0,0:0:0:0:
286,141,156280,1,0,0:0:0:0:
179,150,156433,2,0,P|126:156|66:132,1,119.000002269745,8|0,0:0|0:0,0:0:0:0:
167,57,156892,2,0,P|202:42|294:58,1,119.000002269745,8|0,0:0|0:0,0:0:0:0:
272,170,157352,1,0,0:0:0:0:
399,189,157505,6,0,L|402:209,15,17.5
395,172,158138,6,0,P|375:132|267:99,1,140,12|0,0:0|0:0,0:0:0:0:
224,162,158597,1,4,0:0:0:0:
138,315,158750,1,8,0:0:0:0:
314,216,158903,1,0,0:0:0:0:
117,203,159056,1,0,0:0:0:0:
283,321,159209,1,4,0:0:0:0:
93,179,159338,6,0,P|102:142|202:98,1,142.800000871582,8|0,0:0|0:0,0:0:0:0:
226,190,159797,1,12,0:0:0:0:
391,245,159950,1,0,0:0:0:0:
272,138,160103,1,0,0:0:0:0:
433,133,160256,1,0,0:0:0:0:
281,81,160409,1,12,0:0:0:0:
439,34,160562,6,0,P|469:63|481:179,1,140
380,196,161021,1,12,0:0:0:0:
275,45,161174,1,0,0:0:0:0:
235,227,161327,1,0,0:0:0:0:
367,78,161480,1,0,0:0:0:0:
165,92,161633,1,12,0:0:0:0:
349,203,161786,2,0,P|389:213|426:195,1,70
264,78,162093,5,0,0:0:0:0:
175,246,162246,1,12,0:0:0:0:
329,138,162399,1,0,0:0:0:0:
132,162,162552,1,8,0:0:0:0:
369,254,162705,1,8,0:0:0:0:
102,63,162858,1,12,0:0:0:0:
291,228,163011,6,0,P|253:262|146:263,1,140,12|0,0:0|0:0,0:0:0:0:
78,233,163470,2,0,P|87:188|157:123,1,140,12|0,0:0|0:0,0:0:0:0:
211,247,163929,1,0,0:0:0:0:
346,317,164082,1,12,0:0:0:0:
160,321,164235,2,0,P|120:301|101:198,1,140
221,206,164695,2,0,P|264:181|289:91,1,140,12|0,0:0|0:0,0:0:0:0:
186,124,165154,1,0,0:0:0:0:
348,226,165307,5,12,0:0:0:0:
214,297,165460,2,0,P|177:288|120:206,1,140
205,208,165919,2,0,P|211:164|168:82,1,140,12|0,0:0|0:0,0:0:0:0:
276,21,166531,1,12,0:0:0:0:
103,186,166837,5,12,0:0:0:0:
340,241,166991,1,8,0:0:0:0:
201,205,167297,6,0,L|144:272,1,70,8|0,0:0|0:0,0:0:0:0:
289,230,167603,2,0,L|340:155,1,70,8|0,0:0|0:0,0:0:0:0:
225,302,167909,2,0,B|250:263|228:219|259:164,1,140,8|0,0:0|0:0,0:0:0:0:
323,64,168368,1,10,0:0:0:0:
133,97,168521,1,2,0:0:0:0:
352,182,168674,1,2,0:0:0:0:
213,57,168827,1,2,0:0:0:0:
260,282,168980,1,8,0:0:0:0:
199,133,169133,6,2,P|169:153|-1:173,1,210,2|10,0:0|0:0,0:0:0:0:
66,278,169746,2,2,P|32:318|9:329,2,70,0|2|0,0:0|0:0|0:0,0:0:0:0:
195,259,170205,2,0,P|261:245|313:170,1,140,10|2,0:0|0:0,0:0:0:0:
321,82,170664,1,0,0:0:0:0:
240,153,170817,2,0,P|200:165|161:164,1,70,10|2,0:0|0:0,0:0:0:0:
60,187,171123,2,0,P|71:221|108:257,1,70,0|2,0:0|0:0,0:0:0:0:
195,279,171429,1,8,0:0:0:0:
314,149,171582,1,2,0:0:0:0:
138,136,171735,1,0,0:0:0:0:
253,221,171888,1,0,0:0:0:0:
308,78,172042,6,0,P|270:57|224:54,1,70,10|0,0:0|0:0,0:0:0:0:
216,176,172348,2,0,P|259:195|304:200,1,70,2|0,0:0|0:0,0:0:0:0:
124,89,172654,2,0,P|84:70|32:66,1,70,10|0,0:0|0:0,0:0:0:0:
88,203,172960,1,0,0:0:0:0:
217,123,173113,1,0,0:0:0:0:
398,174,173266,6,0,L|466:224,1,70,10|0,0:0|0:0,0:0:0:0:
332,261,173572,2,0,L|354:334,1,70,2|0,0:0|0:0,0:0:0:0:
240,316,173878,2,0,L|187:367,1,70,10|0,0:0|0:0,0:0:0:0:
127,243,174184,1,0,0:0:0:0:
205,133,174337,1,0,0:0:0:0:
391,104,174491,6,0,L|445:50,1,70,10|0,0:0|0:0,0:0:0:0:
327,176,174797,2,0,L|267:229,1,70,2|0,0:0|0:0,0:0:0:0:
126,267,175103,2,0,L|160:189,1,70,10|0,0:0|0:0,0:0:0:0:
240,51,175409,2,0,P|244:112|236:147,1,70,2|0,0:0|0:0,0:0:0:0:
96,183,175715,1,10,0:0:0:0:
281,301,175868,1,2,0:0:0:0:
394,176,176021,6,0,P|391:129|371:89,1,70
285,166,176327,1,8,0:0:0:0:
201,85,176480,1,0,0:0:0:0:
102,174,176633,2,0,P|112:216|129:258,1,70
213,340,176939,6,0,P|253:320|289:291,1,70,8|2,0:0|0:0,0:0:0:0:
432,118,177246,2,0,P|402:156|365:175,1,70,2|0,0:0|0:0,0:0:0:0:
198,248,177552,1,10,0:0:0:0:
192,235,177628,1,8,0:0:0:0:
186,222,177705,1,8,0:0:0:0:
180,209,177781,1,8,0:0:0:0:
173,196,177858,2,0,P|168:150|229:61,1,140,10|10,0:0|0:0,0:0:0:0:
276,154,178317,1,2,0:0:0:0:
273,287,178470,6,0,P|244:312|203:321,1,70,0|2,0:0|0:0,0:0:0:0:
105,227,178776,2,0,P|147:209|174:208,1,70,8|2,0:0|0:0,0:0:0:0:
291,161,179082,1,0,0:0:0:0:
174,65,179235,2,0,P|187:98|208:128,1,70,0|10,0:0|0:0,0:0:0:0:
328,217,179542,1,0,0:0:0:0:
420,102,179695,2,0,P|450:80|484:38,1,70,2|0,0:0|0:0,0:0:0:0:
325,67,180001,2,0,P|285:85|242:94,1,70,10|0,0:0|0:0,0:0:0:0:
96,158,180307,6,2,P|82:197|160:268,1,140,10|10,0:0|0:0,0:0:0:0:
201,187,180766,1,0,0:0:0:0:
314,196,180919,2,2,P|310:232|226:315,1,140,10|10,0:0|0:0,0:0:0:0:
201,187,181378,1,0,0:0:0:0:
122,109,181531,2,8,P|160:80|268:74,1,140,8|10,0:0|0:0,0:0:0:0:
357,167,181991,1,0,0:0:0:0:
259,266,182144,2,0,P|221:275|188:270,1,70,2|0,0:0|0:0,0:0:0:0:
82,202,182450,6,0,P|76:159|82:114,1,70,10|0,0:0|0:0,0:0:0:0:
199,53,182756,1,2,0:0:0:0:
335,130,182909,1,0,0:0:0:0:
214,199,183062,1,10,0:0:0:0:
94,229,183215,2,0,P|64:280|59:314,1,70,2|0,0:0|0:0,0:0:0:0:
237,275,183521,2,0,P|252:221|240:189,1,70,2|8,0:0|0:0,0:0:0:0:
27,229,183827,2,0,P|16:267|27:303,1,70,2|0,0:0|0:0,0:0:0:0:
311,282,184133,2,0,P|328:239|323:197,1,70,0|10,0:0|0:0,0:0:0:0:
214,81,184439,6,0,P|184:113|170:164,1,70,0|2,0:0|0:0,0:0:0:0:
181,272,184746,2,0,P|230:261|251:236,1,70,0|10,0:0|0:0,0:0:0:0:
351,153,185052,1,0,0:0:0:0:
218,93,185205,5,10,0:0:0:0:
98,64,185358,1,0,0:0:0:0:
123,184,185511,1,8,0:0:0:0:
187,312,185664,5,0,0:0:0:0:
281,195,185817,1,8,0:0:0:0:
123,184,185970,1,0,0:0:0:0:
0,262,186123,5,8,0:0:0:0:
114,354,186276,1,0,0:0:0:0:
123,184,186429,2,0,P|155:114|157:268,1,560,8|0,0:0|0:0,0:0:0:0:
180,83,192552,5,10,0:0:0:0:
342,173,193776,5,10,0:0:0:0:
141,248,194388,5,10,0:0:0:0:
280,93,195001,5,10,0:0:0:0:
262,265,195460,6,8,P|225:271|200:265,1,48.9999985046387,10|8,0:0|0:0,0:0:0:0:
129,201,195766,1,8,0:0:0:0:
166,63,195919,1,8,0:0:0:0:
278,165,196225,5,8,0:0:0:0:
454,55,196378,1,8,0:0:0:0:
401,249,196531,5,8,0:0:0:0:
340,50,196684,1,8,0:0:0:0:
188,228,196837,5,10,0:0:0:0:
432,130,196991,1,8,0:0:0:0:
159,86,197144,5,10,0:0:0:0:
316,256,197297,1,10,0:0:0:0:
101,244,197450,5,10,0:0:0:0:
215,149,197603,1,0,0:0:0:0:
120,48,197756,2,0,L|204:48,1,70,0|2,0:0|0:0,0:0:0:0:
368,104,198062,2,0,L|368:184,1,70,6|0,0:0|0:0,0:0:0:0:
280,284,198368,2,0,L|204:284,1,70,6|0,0:0|0:0,0:0:0:0:
112,124,198674,6,0,L|112:208,1,70,6|0,0:0|0:0,0:0:0:0:
288,168,198980,2,0,L|288:84,1,70,4|2,0:0|0:0,0:0:0:0:
28,128,199286,2,0,L|28:212,1,70,6|0,0:0|0:0,0:0:0:0:
376,152,199593,2,0,L|376:80,1,70,6|0,0:0|0:0,0:0:0:0:
192,264,199899,6,0,P|228:272|332:252,1,140,6|6,0:0|0:0,0:0:0:0:
256,176,200358,1,2,0:0:0:0:
284,96,200511,2,0,P|316:64|360:52,1,70,4|2,0:0|0:0,0:0:0:0:
372,144,200817,1,4,0:0:0:0:
220,196,200970,1,2,0:0:0:0:
60,116,201123,2,0,P|40:164|40:208,1,70,6|0,0:0|0:0,0:0:0:0:
264,244,201429,6,0,P|288:212|300:164,1,70,6|0,0:0|0:0,0:0:0:0:
88,240,201735,2,0,P|108:280|140:308,1,70,6|0,0:0|0:0,0:0:0:0:
320,116,202042,2,0,P|304:84|268:68,1,70,6|0,0:0|0:0,0:0:0:0:
104,88,202348,5,6,0:0:0:0:
264,244,202501,1,0,0:0:0:0:
200,52,202654,5,6,0:0:0:0:
344,188,202807,1,2,0:0:0:0:
296,20,202960,5,4,0:0:0:0:
424,144,203113,1,0,0:0:0:0:
192,164,203266,5,4,0:0:0:0:
400,52,203419,1,0,0:0:0:0:
288,244,203572,5,4,0:0:0:0:
296,20,203725,1,0,0:0:0:0:
144,96,203878,5,4,0:0:0:0:
424,144,204031,1,0,0:0:0:0:
160,260,204184,5,4,0:0:0:0:
320,92,204337,1,0,0:0:0:0:
104,164,204491,5,14,0:0:0:0:
104,164,204567,1,8,0:0:0:0:
104,164,204644,1,8,0:0:0:0:
368,212,204797,1,6,0:0:0:0:
180,64,204950,5,0,0:0:0:0:
296,280,205103,1,4,0:0:0:0:
72,260,205256,5,0,0:0:0:0:
304,140,205409,1,10,0:0:0:0:
304,140,205485,1,8,0:0:0:0:
304,140,205562,1,8,0:0:0:0:
132,144,205715,5,10,0:0:0:0:
292,240,205868,2,0,P|348:224|288:64,1,280,10|10,0:0|0:0,0:0:0:0:
288,68,206557,1,8,0:0:0:0:
276,72,206633,2,0,P|228:96|180:88,1,105.000004005432,10|2,0:0|0:0,0:0:0:0:
92,192,207246,6,2,P|120:240|216:252,1,140
260,192,207705,2,0,P|304:176|332:180,1,70,2|8,0:0|0:0,0:0:0:0:
416,196,208011,1,2,0:0:0:0:
320,316,208164,5,0,0:0:0:0:
224,252,208317,1,2,0:0:0:0:
200,140,208470,2,0,P|232:96|276:76,1,70,2|0,0:0|0:0,0:0:0:0:
156,208,208776,2,0,P|128:232|76:232,1,70,2|0,0:0|0:0,0:0:0:0:
284,156,209082,2,0,P|328:144|356:148,1,70,10|0,0:0|0:0,0:0:0:0:
156,128,209388,1,2,0:0:0:0:
172,304,209542,2,0,P|208:316|312:268,1,140,2|0,0:0|0:0,0:0:0:0:
396,216,210001,2,0,L|396:128,1,70
264,172,210307,6,0,P|220:208|184:212,1,70,8|2,0:0|0:0,0:0:0:0:
120,232,210613,2,0,P|112:184|120:152,1,70,2|0,0:0|0:0,0:0:0:0:
160,324,210919,2,0,P|200:312|232:284,1,70
320,232,211225,1,0,0:0:0:0:
272,72,211378,1,0,0:0:0:0:
224,200,211531,2,0,P|192:228|160:232,1,70,10|0,0:0|0:0,0:0:0:0:
196,112,211837,5,10,0:0:0:0:
196,112,211914,1,8,0:0:0:0:
196,112,211991,1,8,0:0:0:0:
312,192,212144,2,0,P|336:164|344:116,1,70,10|0,0:0|0:0,0:0:0:0:
292,32,212450,1,2,0:0:0:0:
96,124,212603,1,2,0:0:0:0:
244,176,212756,1,0,0:0:0:0:
156,284,212909,6,0,P|184:308|228:320,1,70,2|0,0:0|0:0,0:0:0:0:
320,180,213215,2,0,P|296:152|248:140,1,70,2|0,0:0|0:0,0:0:0:0:
232,240,213521,1,0,0:0:0:0:
84,168,213674,2,0,P|104:124|136:96,1,70,2|0,0:0|0:0,0:0:0:0:
328,128,213980,2,0,P|328:172|304:208,1,70,2|0,0:0|0:0,0:0:0:0:
36,72,214286,2,0,P|76:40|112:36,1,70,2|0,0:0|0:0,0:0:0:0:
388,256,214593,2,0,P|344:272|308:272,1,70,2|0,0:0|0:0,0:0:0:0:
140,280,214899,1,2,0:0:0:0:
104,136,215052,1,2,0:0:0:0:
164,52,215205,5,0,0:0:0:0:
176,68,215281,1,0,0:0:0:0:
192,84,215358,1,0,0:0:0:0:
204,100,215434,1,0,0:0:0:0:
216,116,215511,1,0,0:0:0:0:
228,132,215587,1,0,0:0:0:0:
244,148,215664,1,0,0:0:0:0:
404,132,215817,6,0,P|376:164|344:188,1,70,8|0,0:0|0:0,0:0:0:0:
192,100,216123,2,0,P|216:64|244:44,1,70,8|0,0:0|0:0,0:0:0:0:
364,48,216429,1,10,0:0:0:0:
344,68,216506,1,8,0:0:0:0:
324,88,216582,1,8,0:0:0:0:
304,108,216659,1,8,0:0:0:0:
284,128,216735,1,10,0:0:0:0:
264,148,216812,1,8,0:0:0:0:
244,168,216888,1,10,0:0:0:0:
224,188,216965,1,8,0:0:0:0:
204,208,217042,6,8,P|176:240|164:288,1,70,10|0,0:0|0:0,0:0:0:0:
296,312,217348,1,8,0:0:0:0:
340,188,217501,1,2,0:0:0:0:
304,76,217654,2,0,P|244:72|208:80,1,70,2|0,0:0|0:0,0:0:0:0:
148,148,217960,2,0,P|140:192|152:240,1,70,10|0,0:0|0:0,0:0:0:0:
292,264,218266,2,0,P|332:232|364:128,1,140,2|8,0:0|0:0,0:0:0:0:
228,156,218725,5,2,0:0:0:0:
136,96,218878,2,0,B|112:124|104:152|100:176,1,70,2|0,0:0|0:0,0:0:0:0:
136,296,219184,2,0,P|192:292|232:280,1,70,10|0,0:0|0:0,0:0:0:0:
332,216,219491,2,0,P|376:208|472:224,1,140,2|10,0:0|0:0,0:0:0:0:
440,332,219950,1,2,0:0:0:0:
324,328,220103,6,0,P|288:300|272:268,1,70,0|2,0:0|0:0,0:0:0:0:
264,124,220409,1,8,0:0:0:0:
156,212,220562,1,2,0:0:0:0:
96,116,220715,2,0,P|144:72|180:64,1,70,10|0,0:0|0:0,0:0:0:0:
320,196,221021,2,0,P|296:224|256:244,1,70,10|0,0:0|0:0,0:0:0:0:
48,40,221327,2,0,P|88:16|132:8,1,70,10|0,0:0|0:0,0:0:0:0:
268,300,221633,2,0,P|224:304|196:292,1,70,10|0,0:0|0:0,0:0:0:0:
116,196,221939,2,0,P|140:156|224:120,1,140,2|10,0:0|0:0,0:0:0:0:
224,216,222399,6,0,P|268:216|304:208,1,70,2|8,0:0|0:0,0:0:0:0:
336,112,222705,1,8,0:0:0:0:
464,184,222858,1,8,0:0:0:0:
420,64,223011,1,8,0:0:0:0:
324,208,223164,1,8,0:0:0:0:
448,148,223317,5,8,0:0:0:0:
288,116,223470,1,8,0:0:0:0:
404,224,223623,1,8,0:0:0:0:
356,48,223776,1,8,0:0:0:0:
280,208,223929,5,8,0:0:0:0:
232,32,224082,1,8,0:0:0:0:
352,112,224235,1,8,0:0:0:0:
164,128,224388,2,10,P|124:160|136:256,1,140,10|8,0:0|0:0,0:0:0:0:
380,240,225000,6,0,P|400:208|396:104,1,140,10|0,0:0|0:0,0:0:0:0:
292,164,225459,1,8,0:0:0:0:
292,164,225535,1,8,0:0:0:0:
292,164,225612,1,10,0:0:0:0:
176,76,225765,1,0,0:0:0:0:
184,324,225918,1,0,0:0:0:0:
56,84,226070,1,0,0:0:0:0:
280,280,226223,1,2,0:0:0:0:
256,192,226300,12,0,227447,0:0:0:0:
192,112,227600,5,0,0:0:0:0:
176,212,227752,2,0,P|128:232|104:236,1,70,2|0,0:0|0:0,0:0:0:0:
280,180,228058,1,2,0:0:0:0:
296,328,228211,1,2,0:0:0:0:
372,252,228364,2,0,P|392:200|392:172,1,70,0|2,0:0|0:0,0:0:0:0:
204,248,228670,2,0,P|176:304|172:336,1,70,0|2,0:0|0:0,0:0:0:0:
320,172,229129,6,0,B|300:128|260:88|248:16,1,140,2|8,0:0|0:0,0:0:0:0:
176,136,229636,1,8,0:0:0:0:
156,296,229942,6,0,P|196:320|292:300,1,140,8|0,0:0|0:0,0:0:0:0:
240,208,230401,2,0,P|192:208|172:192,1,70,8|0,0:0|0:0,0:0:0:0:
396,296,230680,2,0,P|428:268|440:232,1,70,8|0,0:0|0:0,0:0:0:0:
368,84,230968,5,8,0:0:0:0:
220,116,231103,1,0,0:0:0:0:
368,84,231260,1,8,0:0:0:0:
192,240,231418,1,0,0:0:0:0:
56,264,231576,6,0,P|32:208|56:128,1,140,8|8,0:0|0:0,0:0:0:0:
160,196,232044,1,8,0:0:0:0:
288,260,232197,2,0,P|312:232|316:172,1,70,0|8,0:0|0:0,0:0:0:0:
152,104,232503,1,0,0:0:0:0:
8,152,232656,1,8,0:0:0:0:
84,244,232809,2,0,P|112:280|140:296,1,70,8|0,0:0|0:0,0:0:0:0:
292,332,233115,1,8,0:0:0:0:
296,184,233268,1,0,0:0:0:0:
392,72,233421,6,0,L|452:148,1,90.9999958343508,8|0,0:0|0:0,0:0:0:0:
300,168,233727,2,0,L|368:256,1,90.9999958343508,8|0,0:0|0:0,0:0:0:0:
212,268,234033,2,0,L|272:356,1,90.9999958343508,8|0,0:0|0:0,0:0:0:0:
104,304,234339,6,0,P|64:280|76:192,1,140,8|8,0:0|0:0,0:0:0:0:
92,192,234722,1,8,0:0:0:0:
108,188,234799,2,0,P|168:152|180:124,1,70,8|0,0:0|0:0,0:0:0:0:
304,72,235105,1,8,0:0:0:0:
356,184,235258,2,0,P|312:212|284:212,1,70,8|0,0:0|0:0,0:0:0:0:
180,240,235564,1,8,0:0:0:0:
220,52,235717,5,0,0:0:0:0:
68,172,235870,1,8,0:0:0:0:
268,172,236023,1,0,0:0:0:0:
96,48,236176,1,8,0:0:0:0:
176,248,236329,1,0,0:0:0:0:
228,52,236482,6,0,P|276:52|348:104,1,140,8|8,0:0|0:0,0:0:0:0:
260,160,236942,1,8,0:0:0:0:
132,180,237095,2,0,P|136:220|156:260,1,70,0|8,0:0|0:0,0:0:0:0:
300,164,237401,1,0,0:0:0:0:
212,292,237554,1,8,0:0:0:0:
432,284,237707,2,0,P|444:236|440:184,1,70,8|0,0:0|0:0,0:0:0:0:
312,280,238013,2,0,P|336:236|344:200,1,70,8|0,0:0|0:0,0:0:0:0:
108,64,238319,6,0,P|88:100|84:152,1,70,8|0,0:0|0:0,0:0:0:0:
216,92,238625,2,0,P|192:144|192:172,1,70,8|0,0:0|0:0,0:0:0:0:
348,116,238931,1,8,0:0:0:0:
256,192,239017,12,0,244378,0:0:0:0:
160,264,244524,6,0,P|120:236|228:92,1,280,12|0,0:0|0:0,0:0:0:0:
204,184,245357,1,8,0:0:0:0:
204,184,245440,1,8,0:0:0:0:
204,184,245523,1,8,0:0:0:0:
