osu file format v14

[General]
AudioFilename: audio.mp3
AudioLeadIn: 0
PreviewTime: 65393
Countdown: 0
SampleSet: Soft
StackLeniency: 0.6
Mode: 0
LetterboxInBreaks: 0
WidescreenStoryboard: 1

[Editor]
Bookmarks: 20128,66716
DistanceSpacing: 1
BeatDivisor: 2
GridSize: 32
TimelineZoom: 1.3

[Metadata]
Title:Umapyoi Densetsu (TV Size)
TitleUnicode:うまぴょい伝説 (TV Size)
Artist:Various Artists
ArtistUnicode:Various Artists
Creator:Chaoslitz
Version:GfTNT's Debut (Easy)
Source:ウマ娘 プリティーダービー
Tags:umamusume pretty derby cygames japanese pop jpop j-pop anime ending ed mobile video game hey lululu hey_lululu lu^3 GfMRT [ tntlealu ] [_tntlealu_] Gaia erisu mayuzumi fuyuko lanzhu Waki Azumi Kouno Marika Machico Ohashi Ayaka Kimura Chisa Ueda Hitomi Onishi Saori Takahashi Minami Maeda Reina Kito Akari Saeki Iori Shuto Yukina Tadokoro Azusa Otsubo Yuka Aoki Ruriko Tatsumi Yuiko Matsui Eriko Lynn Sora Tokui Kondo Yui Aisaka Yuuka Takayanagi Tomoyo Yuuki Kana Oozora Naomi Inoue Haruno Watanabe Yui Hashi Afumi Kubota Hikari Maeda Kaori Fujino Ayami Nitta Hiyori Watada Misaki Special Week Silence Suzuka Tokai Teio Vodka Daiwa Scarlet Gold Ship Mejiro McQueen El Condor Pasa Grass Wonder Seiun Sky King Halo Haru Urara Symboli Rudolf Taiki Shuttle Air Groove Hishi Amazon Fuji Kiseki Maruzensky TM Opera O Biwa Hayahide Narita Brian Oguri Cap Super Creek Tamamo Cross Inari One Winning Ticket Mejiro Ryan Mejiro Dober Nice Nature Eishin Flash Matikanefukukitaru Meisho Doto horse
BeatmapID:3196579
BeatmapSetID:1556904

[Difficulty]
HPDrainRate:3
CircleSize:3
OverallDifficulty:3
ApproachRate:5
SliderMultiplier:0.899999999999999
SliderTickRate:1

[Events]
//Background and Video events
0,0,"bg.jpg",0,0
//Break Periods
//Storyboard Layer 0 (Background)
//Storyboard Layer 1 (Fail)
//Storyboard Layer 2 (Pass)
//Storyboard Layer 3 (Foreground)
//Storyboard Layer 4 (Overlay)
//Storyboard Sound Samples

[TimingPoints]
364,352.941176470588,4,2,1,90,1,0
22422,-100,4,2,2,90,0,0
22599,-100,4,2,2,90,0,0
22952,-100,4,2,1,90,0,0
24363,-100,4,2,2,90,0,0
25775,-100,4,2,1,90,0,0
26658,-100,4,2,2,90,0,0
26833,-100,4,2,2,90,0,0
27187,-100,4,2,1,90,0,0
28069,-100,4,2,2,90,0,0
28246,-100,4,2,2,90,0,0
28599,-100,4,2,1,90,0,0
28775,-100,4,2,2,90,0,0
28952,-100,4,2,1,90,0,0
29128,-100,4,2,2,90,0,0
29305,-100,4,2,1,90,0,0
29481,-100,4,2,2,90,0,0
29658,-100,4,2,1,90,0,0
29834,-100,4,2,2,90,0,0
30011,-100,4,2,2,90,0,0
30363,-100,4,2,3,90,0,0
31068,-100,4,2,1,90,0,0
31422,-100,4,2,3,80,0,0
32658,-100,4,2,1,80,0,0
32834,-100,4,2,3,80,0,0
33540,-100,4,2,1,90,0,0
34246,-100,4,2,3,80,0,0
38305,-100,4,2,1,80,0,0
38481,-100,4,2,3,80,0,0
39716,-100,4,2,1,90,0,0
39893,-100,4,2,3,80,0,0
40598,-100,4,2,3,90,0,0
40952,-100,4,2,1,90,0,0
41128,-100,4,2,3,90,0,0
41305,-100,4,2,3,80,0,0
42011,-100,4,2,1,80,0,0
42716,-100,4,2,3,80,0,0
43068,-100,4,2,1,80,0,0
43422,-100,4,2,3,90,0,0
43774,-100,4,2,1,90,0,0
44128,-100,4,2,3,80,0,0
46069,-100,4,2,1,80,0,0
46245,-100,4,2,3,90,0,0
46775,-100,4,2,1,90,0,0
46951,-100,4,2,3,70,0,0
47658,-100,4,2,3,90,0,0
47922,-100,4,2,1,90,0,0
48187,-100,4,2,3,90,0,0
48363,-100,4,2,3,80,0,0
55070,-100,4,2,4,80,0,0
55423,-100,4,2,3,80,0,0
56835,-100,4,2,3,60,0,0
59481,-100,4,2,3,70,0,0
60892,-100,4,2,3,80,0,0
62305,-100,4,2,3,50,0,0
62481,-100,4,2,3,50,0,0
63893,-100,4,2,3,60,0,0
64599,-100,4,2,3,70,0,0
65304,-100,4,2,1,80,0,0
65481,-100,4,2,1,100,0,0
66099,-100,4,2,1,10,0,0
66187,-100,4,2,1,95,0,0
66275,-100,4,2,1,10,0,0
66363,-100,4,2,1,90,0,0
66452,-100,4,2,1,10,0,0
66540,-100,4,2,1,85,0,0
66628,-100,4,2,1,10,0,0
66716,-100,4,2,3,100,0,1
67069,-100,4,2,1,100,0,1
67422,-100,4,2,3,100,0,1
67599,-100,4,2,1,100,0,1
67952,-100,4,2,3,100,0,1
69011,-100,4,2,1,100,0,1
69540,-100,4,2,4,100,0,1
69716,-100,4,2,3,100,0,1
69893,-100,4,2,1,100,0,1
70246,-100,4,2,3,100,0,1
70422,-100,4,2,1,100,0,1
70775,-100,4,2,3,100,0,1
70952,-100,4,2,4,100,0,1
71305,-100,4,2,1,95,0,1
71658,-100,4,2,4,90,0,1
72011,-100,4,2,1,85,0,1
72363,-100,4,2,3,80,0,1
76599,-100,4,2,4,90,0,1
76952,-100,4,2,1,90,0,1
77305,-100,4,2,3,90,0,1
77658,-100,4,2,1,95,0,1
77834,-100,4,2,3,95,0,1
78011,-100,4,2,3,100,0,1
78363,-100,4,2,1,100,0,1
78716,-100,4,2,3,100,0,1
78893,-100,4,2,1,100,0,1
79246,-100,4,2,3,100,0,1
80305,-100,4,2,1,100,0,1
80834,-100,4,2,4,100,0,1
81011,-100,4,2,3,100,0,1
81187,-100,4,2,1,100,0,1
81540,-100,4,2,3,100,0,1
81716,-100,4,2,1,100,0,1
82069,-100,4,2,3,100,0,1
82246,-100,4,2,4,100,0,1
82599,-100,4,2,1,95,0,1
82952,-100,4,2,4,90,0,1
83305,-100,4,2,1,85,0,1
83658,-100,4,2,3,80,0,1
86481,-100,4,2,3,90,0,1
88599,-100,4,2,1,90,0,1
89305,-100,4,2,3,90,0,1
90540,-100,4,2,3,95,0,1
91422,-100,4,2,3,80,0,0
91775,-100,4,2,3,90,0,0
91952,-100,4,2,3,95,0,0
92128,-100,4,2,5,100,0,1
92216,-100,4,2,5,10,0,1
92305,-100,4,2,3,100,0,1
92481,-100,4,2,1,100,0,1
92834,-100,4,2,3,100,0,1
93011,-100,4,2,1,100,0,1
93364,-100,4,2,3,100,0,1
94422,-100,4,2,1,100,0,1
94952,-100,4,2,4,100,0,1
95128,-100,4,2,3,100,0,1
95305,-100,4,2,1,100,0,1
95658,-100,4,2,3,100,0,1
95834,-100,4,2,1,100,0,1
96187,-100,4,2,3,100,0,1
96363,-100,4,2,4,100,0,1
96716,-100,4,2,1,95,0,1
97069,-100,4,2,4,90,0,1
97422,-100,4,2,1,85,0,1
97775,-100,4,2,3,80,0,1
102011,-100,4,2,4,90,0,1
102364,-100,4,2,1,90,0,1
102717,-100,4,2,3,90,0,1
103069,-100,4,2,1,95,0,1
103246,-100,4,2,3,95,0,1
103422,-100,4,2,3,100,0,1
103775,-100,4,2,1,100,0,1
104128,-100,4,2,3,100,0,1
104305,-100,4,2,1,100,0,1
104481,-100,4,2,3,100,0,1
105716,-100,4,2,1,100,0,1
106246,-100,4,2,4,100,0,1
106422,-100,4,2,3,100,0,1
106599,-100,4,2,1,100,0,1
106952,-100,4,2,3,100,0,1
107128,-100,4,2,1,100,0,1
107305,-100,4,2,3,100,0,1
107658,-100,4,2,4,100,0,1
108011,-100,4,2,1,95,0,1
108363,-100,4,2,4,90,0,1
108716,-100,4,2,1,85,0,1
109069,-100,4,2,3,80,0,1
111893,-100,4,2,3,90,0,1
114011,-100,4,2,1,90,0,1
114717,-100,4,2,3,90,0,1
115952,-100,4,2,3,95,0,1
116834,-100,4,2,3,80,0,1
117187,-100,4,2,3,90,0,1
117363,-100,4,2,3,95,0,1
117540,-100,4,2,5,100,0,0
117628,-100,4,2,5,10,0,0

[Colours]
Combo1 : 1,181,190
Combo2 : 238,110,203
Combo3 : 42,189,113
Combo4 : 52,118,210
Combo5 : 218,61,88
Combo6 : 212,194,1
Combo7 : 80,101,216

[HitObjects]
23,154,20128,6,0,B|5:281|5:281|-5:360|69:416|164:392|179:310|179:310|200:173,1,539.999999999999,14|8,0:1|0:1,0:0:0:0:
276,127,22599,1,10,0:0:0:0:
357,89,22952,6,0,B|352:34|396:-4|396:-4|422:12|455:4|455:4|485:45|468:103,1,270,10|10,0:1|0:0,0:0:0:0:
484,191,24363,2,0,P|452:210|430:271,1,89.9999999999999,8|14,0:1|0:0,0:0:0:0:
341,245,25069,2,0,P|337:200|309:164,1,89.9999999999999,8|14,0:1|0:0,0:0:0:0:
221,149,25775,6,0,B|140:42|140:42|54:170,1,270,14|10,0:1|0:0,0:0:0:0:
66,246,27187,2,0,P|130:266|249:318,1,180,8|10,0:1|0:1,0:0:0:0:
309,360,28246,1,10,0:0:0:0:
395,335,28599,6,0,B|426:313|426:313|431:275|408:227,1,89.9999999999999,10|10,0:1|0:0,0:0:0:0:
456,178,29305,2,0,B|434:147|434:147|396:142|348:165,1,89.9999999999999,10|10,0:1|0:0,0:0:0:0:
325,81,30011,1,14,0:3:0:0:
236,97,30363,1,14,0:0:0:0:
219,185,30716,6,0,L|211:307,1,89.9999999999999,10|10,0:1|0:1,0:0:0:0:
148,337,31422,6,0,P|76:327|54:221,1,180,14|10,0:1|0:1,0:0:0:0:
82,150,32481,1,10,0:0:0:0:
53,64,32834,2,0,B|88:54|119:67|119:67|149:47,1,89.9999999999999,10|10,0:1|0:0,0:0:0:0:
224,28,33540,1,10,0:1:0:0:
311,49,33893,1,10,0:0:0:0:
399,32,34246,6,0,B|409:94|409:94|387:142|387:142|399:205,1,180,10|10,0:1|0:1,0:0:0:0:
419,293,35305,1,10,0:0:0:0:
359,360,35658,2,0,P|319:359|268:378,1,89.9999999999999,10|10,0:1|0:0,0:0:0:0:
210,310,36363,2,0,P|230:275|239:222,1,89.9999999999999,10|10,0:1|0:3,0:0:0:0:
260,139,37069,6,0,B|228:128|187:147|187:147|153:149|153:149|121:164|61:152,1,180,14|10,0:1|0:1,0:0:0:0:
8,105,38128,1,10,0:0:0:0:
63,33,38481,2,0,P|105:18|150:19,1,89.9999999999999,10|10,0:1|0:0,0:0:0:0:
234,51,39187,1,10,0:1:0:0:
320,74,39540,1,10,0:0:0:0:
401,35,39893,6,0,P|480:37|479:118,1,180,8|10,0:1|1:0,0:0:0:0:
449,204,40952,1,10,0:0:0:0:
472,291,41305,2,0,L|354:314,1,89.9999999999999,10|10,0:1|0:0,0:0:0:0:
296,330,42011,2,0,L|178:307,1,89.9999999999999,10|10,0:1|0:0,0:0:0:0:
120,334,42716,6,0,P|70:318|37:273,1,89.9999999999999,10|14,0:1|0:0,0:0:0:0:
53,201,43422,2,0,P|90:176|134:174,1,89.9999999999999,10|14,0:1|0:0,0:0:0:0:
219,204,44128,1,10,0:1:0:0:
299,163,44481,1,10,0:0:0:0:
385,190,44834,2,0,L|395:321,1,89.9999999999999,10|12,0:1|0:0,0:0:0:0:
447,350,45540,6,0,B|349:403|353:308|240:368,2,180,10|10|2,0:1|0:1|3:2,0:0:0:0:
430,171,47658,2,0,P|381:160|326:194,1,89.9999999999999,10|8,0:0|0:3,0:0:0:0:
260,200,48363,6,0,B|214:190|214:190|190:157|190:157|131:145,2,135,14|2|10,0:1|0:0|0:0,0:0:0:0:
345,174,49775,2,0,P|388:188|447:159,1,89.9999999999999,8|10,0:1|0:0,0:0:0:0:
490,108,50481,1,8,0:1:0:0:
456,24,50834,1,8,0:0:0:0:
380,73,51187,6,0,B|327:98|283:82|306:56|244:38|170:66,1,180,8|10,0:1|0:1,0:0:0:0:
127,97,52246,1,10,0:0:0:0:
37,100,52599,2,0,P|9:133|13:197,1,89.9999999999999,8|10,0:1|0:0,0:0:0:0:
74,236,53305,1,8,0:1:0:0:
151,192,53658,1,10,0:0:0:0:
214,255,54011,6,0,P|208:301|210:347,2,89.9999999999999,14|10|10,0:1|0:0|0:1,0:0:0:0:
291,209,55070,1,10,0:0:0:0:
300,119,55423,2,0,B|261:76|243:-1|243:-1|208:69|143:116,1,270,14|8,0:1|0:0,0:0:0:0:
107,178,56835,6,0,B|172:212|186:164|239:196,2,135,14|6|10,0:1|0:0|0:0,0:0:0:0:
63,165,58069,2,0,P|14:236|47:317,1,180,8|6,0:1|0:0,0:0:0:0:
224,356,59481,6,0,B|256:351|283:366|283:366|330:332|330:332|367:354|404:351,2,180,6|6|6,0:0|0:0|0:0,0:0:0:0:
46,316,61599,1,6,0:0:0:0:
24,138,62305,6,0,B|85:105|111:154|155:135|155:135|189:120|200:77|210:16|210:16|246:205|246:205|269:127|315:131|315:131|346:133|373:117|373:117|403:109|435:128|435:128|473:143|499:138,1,764.999999999999,0|4,0:0|3:1,0:0:0:0:
459,72,66716,6,0,P|417:57|367:58,1,89.9999999999999,12|10,0:1|0:0,0:0:0:0:
302,114,67422,2,0,P|257:114|215:99,1,89.9999999999999,10|8,0:1|0:0,0:0:0:0:
134,58,68128,2,0,B|87:98|87:98|102:187,1,135,10|2,0:1|0:0,0:0:0:0:
112,214,68834,1,8,0:1:0:0:
189,168,69187,1,10,1:2:0:0:
265,216,69540,6,0,B|309:203|309:203|375:212,1,89.9999999999999,14|10,0:1|0:0,0:0:0:0:
361,298,70246,2,0,B|316:310|316:310|250:301,1,89.9999999999999,10|8,0:1|0:0,0:0:0:0:
193,261,70952,1,14,0:1:0:0:
151,341,71305,1,14,0:0:0:0:
93,272,71658,1,14,0:1:0:0:
51,352,72011,1,14,0:0:0:0:
5,274,72363,6,0,P|23:217|70:191,2,89.9999999999999,12|8|8,0:1|0:0|0:1,0:0:0:0:
51,352,73422,1,8,0:0:0:0:
140,346,73775,2,0,P|171:314|180:271,1,89.9999999999999,10|8,0:1|0:0,0:0:0:0:
176,180,74481,2,0,P|184:136|216:105,1,89.9999999999999,8|8,0:1|0:0,0:0:0:0:
303,83,75187,6,0,L|406:95,2,89.9999999999999,10|8|8,0:1|0:0|0:1,0:0:0:0:
216,105,76246,1,10,0:0:0:0:
231,193,76599,5,14,0:1:0:0:
319,174,76952,1,14,0:0:0:0:
360,254,77305,1,14,0:1:0:0:
303,323,77658,1,14,0:0:0:0:
222,282,78011,6,0,L|126:273,1,89.9999999999999,14|10,0:1|0:0,0:0:0:0:
42,265,78716,2,0,P|36:214|61:159,1,89.9999999999999,10|8,0:1|0:0,0:0:0:0:
87,96,79422,2,0,B|138:79|138:79|233:112,1,135,2|2,0:1|0:0,0:0:0:0:
255,124,80128,1,8,0:1:0:0:
342,98,80481,1,10,1:2:0:0:
369,183,80834,6,0,P|381:225|374:270,1,89.9999999999999,14|10,0:1|0:0,0:0:0:0:
304,326,81540,2,0,L|199:313,1,89.9999999999999,10|8,0:1|0:0,0:0:0:0:
124,304,82246,1,14,0:1:0:0:
178,232,82599,1,14,0:0:0:0:
105,178,82952,1,14,0:1:0:0:
159,106,83305,1,14,0:0:0:0:
214,35,83658,6,0,L|319:52,2,89.9999999999999,12|8|8,0:1|0:0|0:1,0:0:0:0:
159,106,84716,1,8,0:0:0:0:
223,169,85069,2,0,P|275:161|312:178,1,89.9999999999999,10|8,0:1|0:0,0:0:0:0:
385,222,85775,2,0,P|427:177|432:135,1,89.9999999999999,8|8,0:1|0:0,0:0:0:0:
433,61,86481,5,14,0:1:0:0:
353,18,86834,1,10,0:0:0:0:
295,87,87187,2,0,L|310:194,1,89.9999999999999,10|8,3:1|0:0,0:0:0:0:
378,232,87893,2,0,L|363:339,1,89.9999999999999,8|10,0:1|0:0,0:0:0:0:
284,361,88599,1,10,0:1:0:0:
198,332,88952,1,10,0:0:0:0:
111,358,89305,6,0,P|106:301|118:261,1,89.9999999999999,14|10,0:1|0:0,0:0:0:0:
184,213,90011,2,0,P|189:156|177:116,1,89.9999999999999,14|8,3:1|0:0,0:0:0:0:
132,49,90716,1,8,0:1:0:0:
56,97,91069,1,10,0:0:0:0:
64,186,91422,2,0,P|142:203|183:271,1,135,8|10,0:1|0:1,0:0:0:0:
197,282,92128,6,0,P|241:281|283:296,1,89.9999999999999,14|10,0:1|0:0,0:0:0:0:
369,325,92834,2,0,P|367:278|374:222,1,89.9999999999999,10|8,0:1|0:0,0:0:0:0:
400,149,93540,2,0,P|371:78|299:92,1,135,10|2,0:1|0:0,0:0:0:0:
281,97,94246,1,8,0:1:0:0:
219,162,94599,1,10,1:2:0:0:
156,225,94952,6,0,B|112:212|112:212|68:217,1,89.9999999999999,14|10,0:1|0:0,0:0:0:0:
60,307,95658,2,0,B|104:320|104:320|147:314,1,89.9999999999999,10|8,0:1|0:0,0:0:0:0:
228,274,96364,1,14,0:1:0:0:
265,356,96717,1,14,0:0:0:0:
327,291,97069,1,14,0:1:0:0:
364,373,97422,1,14,0:0:0:0:
417,300,97775,6,0,P|424:250|422:192,2,89.9999999999999,12|8|8,0:1|0:0|0:1,0:0:0:0:
364,373,98834,1,8,0:0:0:0:
274,359,99187,2,0,L|154:336,1,89.9999999999999,10|8,0:1|0:0,0:0:0:0:
98,319,99893,2,0,P|106:275|104:226,1,89.9999999999999,8|8,0:1|0:0,0:0:0:0:
82,142,100599,6,0,P|75:90|80:42,2,89.9999999999999,10|8|8,0:1|0:0|0:1,0:0:0:0:
104,230,101658,1,10,0:0:0:0:
190,203,102011,5,14,0:1:0:0:
227,284,102364,1,14,0:0:0:0:
295,225,102716,1,14,0:1:0:0:
332,306,103069,1,14,0:0:0:0:
398,244,103423,6,0,P|402:199|397:151,1,89.9999999999999,14|10,0:1|0:0,0:0:0:0:
388,64,104128,2,0,P|337:72|289:63,1,89.9999999999999,10|10,0:1|0:0,0:0:0:0:
210,48,104834,2,0,P|146:46|86:118,1,135,10|2,0:1|0:0,0:0:0:0:
76,131,105540,1,8,0:1:0:0:
95,218,105893,1,10,1:2:0:0:
115,305,106246,6,0,P|159:311|202:299,1,89.9999999999999,14|10,0:1|0:0,0:0:0:0:
282,257,106952,2,0,P|282:200|287:151,1,89.9999999999999,10|10,0:1|0:0,0:0:0:0:
349,104,107658,1,14,0:1:0:0:
427,147,108011,1,14,0:0:0:0:
365,212,108364,1,14,0:1:0:0:
445,256,108717,1,14,0:0:0:0:
385,323,109070,6,0,P|339:313|276:322,2,89.9999999999999,12|8|8,0:1|0:0|0:1,0:0:0:0:
445,256,110128,1,8,0:0:0:0:
395,180,110481,2,0,P|349:170|286:179,1,89.9999999999999,10|8,0:1|0:0,0:0:0:0:
219,198,111187,2,0,L|201:81,1,89.9999999999999,8|8,0:1|0:0,0:0:0:0:
192,19,111893,5,14,0:1:0:0:
120,73,112246,1,10,0:0:0:0:
49,129,112599,2,0,L|64:236,1,89.9999999999999,10|8,3:1|0:0,0:0:0:0:
143,254,113305,2,0,L|128:361,1,89.9999999999999,8|10,0:1|0:0,0:0:0:0:
213,379,114011,1,10,0:1:0:0:
299,351,114364,1,10,0:0:0:0:
385,324,114717,6,0,P|380:267|392:227,1,89.9999999999999,14|10,0:1|0:0,0:0:0:0:
470,199,115423,2,0,P|475:142|463:102,1,89.9999999999999,14|8,3:1|0:0,0:0:0:0:
410,40,116128,1,8,0:1:0:0:
327,75,116481,1,10,0:0:0:0:
287,156,116834,6,0,B|287:186|287:186|281:215|244:249|206:211|203:184|203:184|205:139,1,180,8|14,0:1|0:1,0:0:0:0:
