osu file format v14

[General]
AudioFilename: audio.mp3
AudioLeadIn: 0
PreviewTime: 137233
Countdown: 0
SampleSet: Soft
StackLeniency: 0.3
Mode: 0
LetterboxInBreaks: 0
WidescreenStoryboard: 1

[Editor]
Bookmarks: 91978,193616
DistanceSpacing: 2.2
BeatDivisor: 4
GridSize: 32
TimelineZoom: 2.4

[Metadata]
Title:Umapyoi Densetsu
TitleUnicode:うまぴょい伝説
Artist:Various Artists
ArtistUnicode:Various Artists
Creator:Kwstv
Version:meep's Hard
Source:ウマ娘 プリティーダービー
Tags:kwaimsuckasfuk _meep_ umamusume pretty derby cygames japanese pop jpop j-pop anime ending ed mobile video game WINNING LIVE 01 horse Special Week Waki Azumi Silence Suzuka Kouno Marika Tokai Teio Machico Maruzensky Lynn Oguri Cap Takayanagi Tomoyo Gold Ship Ueda Hitomi Vodka Ohashi Ayaka Daiwa Scarlet Kimura Chisa Taiki Shuttle Otsubo Yuka Grass Wonder Maeda Reina Mejiro McQueen Onishi Saori El Condor Pasa Takahashi Minami Symboli Rudolf Tadokoro Azusa Air Groove Aoki Ruriko Mayano Top Gun Hoshitani Mio Mejiro Ryan Hashi Afumi Rice Shower Iwami Manaka Agnes Tachyon Uesaka Sumire Winning Ticket Watanabe Yui Sakura Bakushin O Misawa Sachika Super Creek Yuuki Kana Haru Urara Shuto Yukina Matikanefukukitaru Nitta Hiyori Nice Nature Maeda Kaori King Halo Saeki Iori
BeatmapID:3325041
BeatmapSetID:1611719

[Difficulty]
HPDrainRate:5
CircleSize:3.5
OverallDifficulty:6
ApproachRate:8
SliderMultiplier:1.4
SliderTickRate:1

[Events]
//Background and Video events
0,0,"bg.jpg",0,0
//Break Periods
2,193616,205606
//Storyboard Layer 0 (Background)
//Storyboard Layer 1 (Fail)
//Storyboard Layer 2 (Pass)
//Storyboard Layer 3 (Foreground)
//Storyboard Layer 4 (Overlay)
//Storyboard Sound Samples

[TimingPoints]
19953,352.941176470588,4,2,3,70,1,0
19953,-83.3333333333333,4,2,3,70,0,0
20041,-83.3333333333333,4,2,1,70,0,0
20217,-83.3333333333333,4,2,1,5,0,0
20305,-83.3333333333333,4,2,1,70,0,0
20570,-83.3333333333333,4,2,1,5,0,0
20658,-83.3333333333333,4,2,1,70,0,0
23041,-83.3333333333333,4,2,1,5,0,0
23129,-83.3333333333333,4,2,1,70,0,0
23394,-83.3333333333333,4,2,1,5,0,0
23482,-83.3333333333333,4,2,1,70,0,0
24541,-66.6666666666667,4,2,1,70,0,0
24805,-66.6666666666667,4,2,1,5,0,0
24893,-83.3333333333333,4,2,1,70,0,0
25600,-83.3333333333333,4,2,3,70,0,0
25688,-83.3333333333333,4,2,1,70,0,0
25864,-83.3333333333333,4,2,1,5,0,0
25952,-83.3333333333333,4,2,1,70,0,0
27276,-83.3333333333333,4,2,1,5,0,0
27364,-83.3333333333333,4,2,1,70,0,0
28335,-83.3333333333333,4,2,1,5,0,0
28423,-83.3333333333333,4,2,1,70,0,0
30100,-83.3333333333333,4,2,1,5,0,0
30188,-83.3333333333333,4,2,1,70,0,0
30453,-83.3333333333333,4,2,1,5,0,0
30541,-83.3333333333333,4,2,1,70,0,0
30805,-83.3333333333333,4,2,1,5,0,0
30893,-66.6666666666667,4,2,1,70,0,0
31158,-66.6666666666667,4,2,1,5,0,0
31247,-90.9090909090909,4,2,1,60,0,0
46864,-90.9090909090909,4,2,1,5,0,0
47482,-90.9090909090909,4,2,1,60,0,0
48188,-76.9230769230769,4,2,1,60,0,0
54100,-76.9230769230769,4,2,1,5,0,0
54188,-76.9230769230769,4,2,1,60,0,0
55158,-76.9230769230769,4,2,1,5,0,0
55246,-76.9230769230769,4,2,1,60,0,0
55511,-76.9230769230769,4,2,1,5,0,0
55599,-76.9230769230769,4,2,1,60,0,0
55864,-76.9230769230769,4,2,1,5,0,0
55952,-76.9230769230769,4,2,1,60,0,0
62129,-76.9230769230769,4,2,1,40,0,0
66541,-66.6666666666667,4,2,3,70,0,1
66629,-66.6666666666667,4,2,1,70,0,1
68747,-66.6666666666667,4,2,1,5,0,1
68835,-66.6666666666667,4,2,1,70,0,1
71041,-66.6666666666667,4,2,1,5,0,1
71129,-66.6666666666667,4,2,1,70,0,1
71394,-66.6666666666667,4,2,1,5,0,1
71482,-66.6666666666667,4,2,1,70,0,1
71747,-66.6666666666667,4,2,1,5,0,1
71835,-66.6666666666667,4,2,1,70,0,1
72100,-66.6666666666667,4,2,1,5,0,1
72188,-66.6666666666667,4,2,1,60,0,0
77747,-66.6666666666667,4,2,1,5,0,1
77835,-66.6666666666667,4,2,3,70,0,1
77923,-66.6666666666667,4,2,1,70,0,1
80041,-66.6666666666667,4,2,1,5,0,1
80129,-66.6666666666667,4,2,1,70,0,1
82335,-66.6666666666667,4,2,1,5,0,1
82423,-66.6666666666667,4,2,1,70,0,1
82688,-66.6666666666667,4,2,1,5,0,1
82776,-66.6666666666667,4,2,1,70,0,1
83041,-66.6666666666667,4,2,1,5,0,1
83129,-66.6666666666667,4,2,1,70,0,1
83394,-66.6666666666667,4,2,1,5,0,1
83482,-66.6666666666667,4,2,1,70,0,1
86305,-66.6666666666667,4,2,1,70,0,0
91952,-66.6666666666667,4,2,1,60,0,1
92041,-66.6666666666667,4,2,1,5,0,0
94247,-83.3333333333333,4,2,1,60,0,0
102100,-83.3333333333333,4,2,1,5,0,0
102188,-83.3333333333333,4,2,1,60,0,0
102452,-83.3333333333333,4,2,1,5,0,0
102540,-83.3333333333333,4,2,1,60,0,0
102805,-83.3333333333333,4,2,1,5,0,0
102893,-83.3333333333333,4,2,1,60,0,0
103158,-83.3333333333333,4,2,1,5,0,0
103246,-90.9090909090909,4,2,1,60,0,0
104570,-90.9090909090909,4,2,1,5,0,0
104658,-90.9090909090909,4,2,1,60,0,0
120188,-76.9230769230769,4,2,1,60,0,0
126100,-76.9230769230769,4,2,1,5,0,0
126188,-76.9230769230769,4,2,1,60,0,0
127158,-76.9230769230769,4,2,1,5,0,0
127246,-76.9230769230769,4,2,1,60,0,0
127511,-76.9230769230769,4,2,1,5,0,0
127599,-76.9230769230769,4,2,1,60,0,0
127864,-76.9230769230769,4,2,1,5,0,0
127952,-76.9230769230769,4,2,1,60,0,0
134129,-76.9230769230769,4,2,1,40,0,0
138541,-66.6666666666667,4,2,3,70,0,1
138629,-66.6666666666667,4,2,1,70,0,1
140747,-66.6666666666667,4,2,1,5,0,1
140835,-66.6666666666667,4,2,1,70,0,1
143041,-66.6666666666667,4,2,1,5,0,1
143129,-66.6666666666667,4,2,1,70,0,1
143394,-66.6666666666667,4,2,1,5,0,1
143482,-66.6666666666667,4,2,1,70,0,1
143747,-66.6666666666667,4,2,1,5,0,1
143835,-66.6666666666667,4,2,1,70,0,1
144100,-66.6666666666667,4,2,1,5,0,1
144188,-66.6666666666667,4,2,1,60,0,0
149835,-66.6666666666667,4,2,3,70,0,1
149923,-66.6666666666667,4,2,1,70,0,1
152041,-66.6666666666667,4,2,1,5,0,1
152129,-66.6666666666667,4,2,1,70,0,1
154335,-66.6666666666667,4,2,1,5,0,1
154423,-66.6666666666667,4,2,1,70,0,1
154688,-66.6666666666667,4,2,1,5,0,1
154776,-66.6666666666667,4,2,1,70,0,1
155041,-66.6666666666667,4,2,1,5,0,1
155129,-66.6666666666667,4,2,1,70,0,1
155394,-66.6666666666667,4,2,1,5,0,1
155482,-66.6666666666667,4,2,1,60,0,0
163952,-66.6666666666667,4,2,1,60,0,1
164041,-66.6666666666667,4,2,1,50,0,0
167041,-66.6666666666667,4,2,1,5,0,0
167129,-66.6666666666667,4,2,1,50,0,0
168452,-66.6666666666667,4,2,1,5,0,0
168540,-66.6666666666667,4,2,1,50,0,0
168805,-66.6666666666667,4,2,1,5,0,0
168893,-66.6666666666667,4,2,1,60,0,0
169158,-66.6666666666667,4,2,1,5,0,0
169246,-66.6666666666667,4,2,1,60,0,0
169600,-83.3333333333333,4,2,2,60,0,0
191835,340.909090909091,4,2,1,70,1,0
192175,358.208955223881,4,2,3,70,1,0
193607,360.902255639098,4,2,1,5,1,0
199381,362.537764350453,4,2,1,5,1,0
203736,418.118466898955,4,2,3,70,1,0
205408,474.308300395257,4,2,3,70,1,0
206356,363.636363636364,4,2,1,60,1,0
208537,550.45871559633,4,2,3,70,1,0
208720,431.654676258993,4,2,1,70,1,0
208935,352.941176470588,4,2,1,70,1,0
208935,-100,4,2,1,5,0,0
209474,352.941176470588,4,2,3,70,1,0
209650,-66.6666666666667,4,2,1,70,0,1
211679,-66.6666666666667,4,2,1,5,0,1
211767,-66.6666666666667,4,2,1,70,0,1
213974,-66.6666666666667,4,2,1,5,0,1
214062,-66.6666666666667,4,2,1,70,0,1
214326,-66.6666666666667,4,2,1,5,0,1
214414,-66.6666666666667,4,2,1,70,0,1
214679,-66.6666666666667,4,2,1,5,0,1
214767,-66.6666666666667,4,2,1,70,0,1
215032,-66.6666666666667,4,2,1,5,0,1
215121,-66.6666666666667,4,2,1,60,0,0
220768,-66.6666666666667,4,2,3,70,0,1
220944,-66.6666666666667,4,2,1,70,0,1
222974,-66.6666666666667,4,2,1,5,0,1
223062,-66.6666666666667,4,2,1,70,0,1
225268,-66.6666666666667,4,2,1,5,0,1
225356,-66.6666666666667,4,2,1,70,0,1
225621,-66.6666666666667,4,2,1,5,0,1
225709,-66.6666666666667,4,2,1,70,0,1
225974,-66.6666666666667,4,2,1,5,0,1
226062,-66.6666666666667,4,2,1,70,0,1
226326,-66.6666666666667,4,2,1,5,0,1
226415,-66.6666666666667,4,2,1,60,0,0
234885,-66.6666666666667,4,2,3,70,0,1
235062,-66.6666666666667,4,2,1,70,0,1
237091,-66.6666666666667,4,2,1,5,0,1
237179,-66.6666666666667,4,2,1,70,0,1
239385,-66.6666666666667,4,2,1,5,0,1
239473,-66.6666666666667,4,2,1,70,0,1
239738,-66.6666666666667,4,2,1,5,0,1
239826,-66.6666666666667,4,2,1,70,0,1
240091,-66.6666666666667,4,2,1,5,0,1
240179,-66.6666666666667,4,2,1,70,0,1
240444,-66.6666666666667,4,2,1,5,0,1
240532,-66.6666666666667,4,2,1,60,0,0
246179,-66.6666666666667,4,2,3,70,0,1
246356,-66.6666666666667,4,2,1,70,0,1
248385,-66.6666666666667,4,2,1,5,0,1
248473,-66.6666666666667,4,2,1,70,0,1
250679,-66.6666666666667,4,2,1,5,0,1
250767,-66.6666666666667,4,2,1,70,0,1
251032,-66.6666666666667,4,2,1,5,0,1
251120,-66.6666666666667,4,2,1,70,0,1
251385,-66.6666666666667,4,2,1,5,0,1
251473,-66.6666666666667,4,2,1,70,0,1
251738,-66.6666666666667,4,2,1,5,0,1
251826,-66.6666666666667,4,2,1,60,0,0
260297,-66.6666666666667,4,2,1,60,0,0

[Colours]
Combo1 : 226,45,124
Combo2 : 141,41,41
Combo3 : 154,154,205
Combo4 : 255,128,128

[HitObjects]
174,255,19953,6,0,P|204:205|177:137,1,125.999996154785,6|0,3:2|0:0,0:0:0:0:
156,141,20305,2,0,P|126:191|153:259,1,125.999996154785,8|0,0:2|0:0,0:0:0:0:
174,255,20658,2,0,P|223:226|283:229,1,83.9999974365235,0|0,3:2|0:0,0:0:0:0:
345,277,21011,1,8,0:2:0:0:
431,216,21188,6,0,L|421:131,1,83.9999974365235,2|0,0:0|3:0,0:0:0:0:
324,8,21541,2,0,L|316:112,1,83.9999974365235,2|8,0:0|0:0,0:0:0:0:
204,167,21894,2,0,L|197:83,1,83.9999974365235,2|0,0:0|3:2,0:0:0:0:
96,16,22247,1,0,0:0:0:0:
96,16,22335,1,0,0:0:0:0:
96,16,22423,1,10,0:2:0:0:
6,98,22600,1,2,0:2:0:0:
89,169,22776,6,0,L|76:306,1,125.999996154785,4|0,3:2|0:0,0:0:0:0:
96,316,23129,2,0,L|107:190,1,125.999996154785,8|0,0:2|0:0,0:0:0:0:
89,169,23482,1,0,3:2:0:0:
166,74,23658,1,0,0:0:0:0:
261,159,23835,1,8,0:2:0:0:
310,22,24011,1,0,0:0:0:0:
395,92,24188,6,0,P|437:91|494:73,1,83.9999974365235,2|2,3:2|0:2,0:0:0:0:
511,163,24541,2,0,P|440:180|341:174,1,157.500006008148,10|0,0:2|0:0,0:0:0:0:
339,164,24894,5,2,3:2:0:0:
315,263,25070,1,2,0:2:0:0:
403,316,25247,2,0,L|455:307,2,41.9999987182618,10|0|0,0:2|3:2|3:2,0:0:0:0:
287,364,25600,6,0,B|200:333|200:333|135:353,1,125.999996154785,4|0,3:2|0:0,0:0:0:0:
143,351,25952,2,0,P|99:314|83:277,1,83.9999974365235,8|0,0:2|0:0,0:0:0:0:
117,168,26305,1,0,3:2:0:0:
210,248,26482,1,2,0:0:0:0:
210,248,26570,1,2,0:0:0:0:
210,248,26658,1,10,0:2:0:0:
257,114,26835,1,2,0:2:0:0:
361,212,27011,6,0,L|370:377,1,125.999996154785,4|0,3:2|0:0,0:0:0:0:
378,367,27364,2,0,P|414:364|459:334,1,83.9999974365235,8|0,0:2|0:0,0:0:0:0:
477,231,27717,1,2,3:2:0:0:
361,212,27894,1,2,0:2:0:0:
262,288,28070,2,0,P|238:248|251:161,1,125.999996154785,10|0,0:0|0:0,0:0:0:0:
257,146,28423,5,2,3:2:0:0:
257,146,28600,1,0,0:2:0:0:
159,76,28776,1,10,0:2:0:0:
159,76,28952,1,0,0:2:0:0:
61,136,29129,1,2,3:2:0:0:
61,136,29305,1,0,0:2:0:0:
78,247,29482,1,10,0:2:0:0:
78,247,29658,1,0,0:2:0:0:
156,323,29835,6,0,P|204:326|288:282,1,125.999996154785,2|2,3:3|0:3,0:0:0:0:
300,273,30188,2,0,P|292:336|348:376,1,125.999996154785,10|2,0:3|0:3,0:0:0:0:
364,377,30541,2,0,B|366:375|440:370|406:286|482:353,1,125.999996154785,2|10,3:3|0:3,0:0:0:0:
491,355,30894,6,0,L|474:182,1,157.500006008148,10|0,0:1|3:0,0:0:0:0:
474,166,31247,6,0,P|492:139|515:122,4,38.5000011749268,4|0|2|2|8,3:2|0:0|0:2|0:2|0:2,0:0:0:0:
386,219,31776,1,2,0:2:0:0:
386,219,31864,1,2,0:2:0:0:
386,219,31952,2,0,P|324:194|279:197,1,77.0000023498536,2|0,3:2|0:0,0:0:0:0:
210,233,32305,1,8,0:2:0:0:
232,106,32482,1,2,0:1:0:0:
133,163,32658,6,0,L|65:169,3,38.5000011749268,2|2|2|2,3:2|0:0|0:0|0:2,0:0:0:0:
76,200,33011,2,0,L|25:189,3,38.5000011749268,10|2|2|2,0:2|0:0|0:0|0:2,0:0:0:0:
8,172,33364,2,0,L|18:264,1,77.0000023498536,2|2,3:2|0:2,0:0:0:0:
107,363,33717,2,0,L|124:270,1,77.0000023498536,10|2,0:2|0:2,0:0:0:0:
219,196,34070,6,0,P|280:195|325:242,1,115.50000352478,4|0,3:2|0:0,0:0:0:0:
333,256,34423,1,10,0:3:0:0:
253,347,34600,1,2,0:3:0:0:
356,384,34776,2,0,L|447:360,1,77.0000023498536,2|2,3:3|0:3,0:0:0:0:
488,281,35129,2,0,P|484:236|498:176,1,77.0000023498536,8|0,0:2|0:2,0:0:0:0:
512,100,35482,5,2,3:2:0:0:
512,100,35658,1,2,0:2:0:0:
410,29,35835,1,10,0:2:0:0:
410,29,36011,1,2,0:2:0:0:
314,97,36188,2,0,L|260:92,3,38.5000011749268,2|2|10|2,3:3|0:3|0:3|0:3,0:0:0:0:
242,78,36541,2,0,L|182:85,3,38.5000011749268,8|0|0|0,0:2|3:2|3:2|3:2,0:0:0:0:
180,109,36894,6,0,P|127:95|95:65,1,77.0000023498536,4|0,3:2|0:0,0:0:0:0:
87,60,37158,1,2,0:2:0:0:
59,86,37247,2,0,P|43:137|46:188,1,77.0000023498536,10|2,0:3|0:3,0:0:0:0:
53,253,37600,2,0,P|52:303|40:344,2,77.0000023498536,0|0|8,3:2|0:0|0:2,0:0:0:0:
217,358,38305,6,0,L|307:348,1,77.0000023498536,0|0,3:2|0:0,0:0:0:0:
400,370,38658,2,0,L|411:322,3,38.5000011749268,10|2|2|2,0:3|0:3|0:3|0:3,0:0:0:0:
442,301,39011,2,0,L|432:247,3,38.5000011749268,2|2|2|2,3:3|0:3|0:3|0:3,0:0:0:0:
403,236,39364,2,0,L|415:145,1,77.0000023498536,8|2,0:2|0:1,0:0:0:0:
293,43,39894,5,0,0:0:0:0:
293,43,39982,1,0,0:0:0:0:
293,43,40070,2,0,L|184:47,1,77.0000023498536,10|2,0:3|0:3,0:0:0:0:
134,118,40423,2,0,P|70:140|5:116,1,115.50000352478,2|0,3:2|0:2,0:0:0:0:
0,111,40776,2,0,L|6:221,1,77.0000023498536,10|0,0:2|0:2,0:0:0:0:
40,320,41129,6,0,P|58:328|97:331,3,38.5000011749268,2|2|2|2,3:2|0:0|0:0|0:2,0:0:0:0:
103,340,41482,2,0,P|143:307|225:312,1,115.50000352478,10|2,0:3|0:3,0:0:0:0:
236,325,41835,2,0,L|242:374,3,38.5000011749268,2|0|8|2,3:2|0:0|0:2|0:2,0:0:0:0:
262,384,42188,2,0,L|280:260,1,115.50000352478,10|0,0:2|3:0,0:0:0:0:
304,246,42541,6,0,L|368:230,2,38.5000011749268,6|2|2,3:2|0:0|0:0,0:0:0:0:
193,275,42894,2,0,P|155:255|115:252,1,77.0000023498536,10|2,0:3|0:3,0:0:0:0:
33,193,43247,2,0,L|-13:177,2,38.5000011749268,2|2|2,3:2|0:0|0:0,0:0:0:0:
121,138,43600,2,0,P|163:123|220:127,1,77.0000023498536,10|0,0:2|0:2,0:0:0:0:
305,171,43952,6,0,L|311:215,2,38.5000011749268,0|0|0,3:2|0:0|0:0,0:0:0:0:
340,72,44305,2,0,L|385:65,2,38.5000011749268,10|0|2,0:3|0:0|0:3,0:0:0:0:
225,53,44658,2,0,L|218:2,2,38.5000011749268,2|2|2,3:3|0:3|0:3,0:0:0:0:
186,154,45011,1,10,0:2:0:0:
163,176,45100,2,0,L|68:159,1,77.0000023498536,2|0,0:2|0:2,0:0:0:0:
58,165,45364,6,0,P|31:197|29:309,1,154.000004699707,6|8,3:2|0:2,0:0:0:0:
125,255,45894,1,2,0:1:0:0:
192,345,46070,2,0,P|219:313|221:201,1,154.000004699707,6|8,3:2|0:2,0:0:0:0:
122,267,46600,1,2,0:1:0:0:
198,353,46776,6,0,L|272:341,1,38.5000011749268,2|2,3:2|0:2,0:0:0:0:
501,175,47482,1,2,0:0:0:0:
423,102,47658,1,8,0:2:0:0:
323,138,47835,2,0,P|305:134|285:128,3,38.5000011749268,0|0|0|0,3:2|3:2|3:2|3:2,0:0:0:0:
253,113,48188,6,0,L|263:229,1,90.9999958343508,6|0,3:2|0:0,0:0:0:0:
198,294,48541,1,8,0:2:0:0:
103,203,48717,2,0,L|94:396,1,181.999991668702,2|0,0:2|0:2,0:0:0:0:
201,316,49247,1,8,0:2:0:0:
290,371,49423,6,0,B|348:364|348:364|403:379|403:379|489:366,1,181.999991668702,2|2,0:2|0:2,0:0:0:0:
441,262,49952,1,10,0:2:0:0:
469,153,50129,2,0,P|393:158|324:254,1,181.999991668702,2|0,3:2|0:2,0:0:0:0:
326,261,50570,1,0,0:0:0:0:
333,285,50658,2,0,P|280:265|233:271,1,90.9999958343508,8|0,0:2|0:2,0:0:0:0:
138,325,51011,5,0,3:2:0:0:
54,261,51188,1,2,0:2:0:0:
40,243,51276,1,0,0:0:0:0:
27,228,51364,2,0,P|42:169|60:133,1,90.9999958343508,10|2,0:2|0:2,0:0:0:0:
138,45,51717,2,0,L|148:142,1,90.9999958343508,2|2,3:2|0:2,0:0:0:0:
163,246,52070,1,10,0:2:0:0:
257,175,52247,6,0,P|290:123|231:7,1,181.999991668702,2|8,0:2|0:2,0:0:0:0:
138,45,52776,1,8,0:2:0:0:
26,0,52952,2,0,L|16:197,1,181.999991668702,4|8,3:2|0:2,0:0:0:0:
0,294,53482,1,10,0:2:0:0:
0,294,53570,1,0,3:2:0:0:
0,294,53658,1,2,3:2:0:0:
109,315,53835,6,0,P|150:277|252:277,1,136.499993751526,6|0,3:2|0:0,0:0:0:0:
255,292,54188,1,0,0:0:0:0:
202,384,54364,1,0,0:0:0:0:
336,353,54541,2,0,P|353:310|352:264,1,90.9999958343508,2|0,3:2|0:0,0:0:0:0:
284,170,54894,2,0,B|375:147|338:188|444:162,1,136.499993751526,10|0,0:2|0:0,0:0:0:0:
444,148,55247,5,0,0:0:0:0:
332,65,55423,1,0,0:0:0:0:
211,107,55600,2,0,P|185:172|217:241,1,136.499993751526,8|8,0:2|0:2,0:0:0:0:
242,253,55953,2,0,P|245:275|246:298,3,45.4999979171754,2|2|2|2,3:3|3:3|3:3|3:3,0:0:0:0:
221,318,56305,2,0,P|218:340|217:363,3,45.4999979171754,2|2|2|2,3:3|3:3|3:3|3:3,0:0:0:0:
231,384,56658,6,0,P|186:373|145:355,1,90.9999958343508,4|0,3:2|0:2,0:0:0:0:
57,296,57011,1,8,0:2:0:0:
100,195,57188,2,0,P|168:190|180:289,1,181.999991668702,6|0,0:2|0:2,0:0:0:0:
47,314,57717,1,8,0:2:0:0:
0,216,57894,2,0,L|13:25,1,181.999991668702,6|0,3:2|0:2,0:0:0:0:
132,14,58423,1,8,0:2:0:0:
153,130,58600,2,0,P|200:150|262:57,1,181.999991668702,6|8,0:2|0:2,0:0:0:0:
158,0,59129,1,8,0:2:0:0:
63,60,59305,6,0,B|31:158|90:141|51:241,1,181.999991668702,6|0,3:2|0:2,0:0:0:0:
24,349,59835,1,8,0:2:0:0:
134,331,60011,2,0,B|198:322|198:322|231:343|231:343|331:334,1,181.999991668702,6|0,0:2|0:2,0:0:0:0:
418,313,60541,1,8,0:2:0:0:
404,204,60717,2,0,P|325:253|311:346,1,181.999991668702,6|0,3:2|0:2,0:0:0:0:
433,322,61247,1,8,0:2:0:0:
512,241,61423,2,0,L|481:39,1,181.999991668702,6|8,0:2|0:2,0:0:0:0:
375,3,61952,1,8,0:2:0:0:
318,95,62129,6,0,P|253:113|168:47,1,181.999991668702,10|0,0:2|0:2,0:0:0:0:
68,24,62658,2,0,P|64:76|83:127,1,90.9999958343508,8|0,0:2|0:2,0:0:0:0:
195,127,63011,2,0,P|213:78|210:21,1,90.9999958343508,0|0,0:2|0:2,0:0:0:0:
60,32,63364,2,0,P|56:84|75:135,1,90.9999958343508,8|0,0:2|0:2,0:0:0:0:
208,137,63717,2,0,P|226:88|223:31,1,90.9999958343508,0|0,0:2|0:2,0:0:0:0:
46,40,64070,2,0,P|42:92|61:143,1,90.9999958343508,8|0,0:2|0:2,0:0:0:0:
220,151,64423,2,0,P|238:102|235:45,1,90.9999958343508,0|0,0:2|0:2,0:0:0:0:
31,50,64776,2,0,P|27:102|46:153,1,90.9999958343508,8|0,0:2|0:2,0:0:0:0:
142,230,65129,5,4,0:3:0:0:
256,192,65217,12,2,66188,0:2:0:0:
71,190,66541,5,4,3:2:0:0:
108,304,66717,5,2,0:2:0:0:
203,236,66894,2,0,P|254:232|301:256,1,105.000004005432,10|0,0:2|0:2,0:0:0:0:
103,316,67247,1,2,3:2:0:0:
206,223,67423,2,0,P|257:219|304:243,1,105.000004005432,2|8,0:2|0:0,0:0:0:0:
365,346,67776,5,2,0:2:0:0:
445,270,67952,2,0,B|473:227|473:227|460:151,2,105.000004005432,2|2|10,3:2|0:2|0:2,0:0:0:0:
303,242,68482,2,0,B|289:184|289:184|339:87,1,157.500006008148,2|0,0:2|0:0,0:0:0:0:
361,70,68835,1,2,0:1:0:0:
261,0,69011,2,0,B|159:-34|175:45|58:11,1,210.000008010865,10|4,0:1|3:2,0:0:0:0:
4,104,69541,5,2,0:2:0:0:
99,165,69717,2,0,P|100:218|79:269,1,105.000004005432,10|0,0:2|0:2,0:0:0:0:
0,98,70070,1,2,3:2:0:0:
108,173,70247,2,0,P|109:226|88:277,1,105.000004005432,2|8,0:2|0:0,0:0:0:0:
0,384,70600,5,2,0:2:0:0:
0,384,70688,1,2,0:2:0:0:
0,384,70776,2,0,B|41:353|41:353|151:365,1,157.500006008148,6|0,3:2|0:2,0:0:0:0:
180,373,71129,2,0,P|137:328|27:310,1,157.500006008148,14|0,2:2|2:2,2:2:0:0:
24,279,71482,2,0,L|194:259,1,157.500006008148,6|0,3:2|2:2,2:2:0:0:
201,253,71835,2,0,P|152:213|136:112,1,157.500006008148,8|0,0:2|3:2,0:0:0:0:
145,96,72188,5,4,3:2:0:0:
249,145,72364,2,0,L|362:135,1,105.000004005432,2|8,0:2|0:2,0:0:0:0:
447,59,72717,2,0,B|480:114|480:114|463:278,1,210.000008010865,2|0,0:2|0:0,0:0:0:0:
405,375,73247,1,8,0:2:0:0:
317,276,73423,5,2,0:2:0:0:
317,276,73511,1,0,0:0:0:0:
317,276,73600,2,0,P|259:278|209:304,1,105.000004005432,0|2,3:2|0:2,0:0:0:0:
127,384,73952,1,8,0:2:0:0:
38,317,74129,2,0,B|12:208|75:228|49:103,1,210.000008010865,2|0,0:2|0:2,0:0:0:0:
161,56,74658,2,0,P|154:114|162:179,1,105.000004005432,8|0,0:2|0:0,0:0:0:0:
230,245,75011,6,0,P|276:198|450:202,2,210.000008010865,2|8|0,3:2|0:0|3:2,0:0:0:0:
167,341,75894,1,2,0:2:0:0:
282,353,76070,1,10,0:2:0:0:
146,367,76247,1,2,0:2:0:0:
52,296,76423,6,0,P|34:243|26:181,1,105.000004005432,6|0,3:2|0:0,0:0:0:0:
116,29,76776,2,0,P|103:89|105:146,1,105.000004005432,14|0,0:2|0:0,0:0:0:0:
189,246,77129,2,0,P|200:188|234:129,1,105.000004005432,6|0,3:2|0:0,0:0:0:0:
315,30,77482,2,0,P|325:81|406:223,1,210.000008010865,10|4,0:1|3:2,0:0:0:0:
308,311,78011,5,2,0:2:0:0:
177,273,78188,2,0,P|209:232|257:211,1,105.000004005432,10|0,0:2|0:2,0:0:0:0:
320,314,78541,1,2,3:2:0:0:
171,267,78717,2,0,P|203:226|251:205,1,105.000004005432,2|8,0:2|0:0,0:0:0:0:
407,264,79070,6,0,L|414:396,2,105.000004005432,2|2|2,0:2|3:2|0:2,0:0:0:0:
370,143,79600,1,10,0:2:0:0:
266,204,79776,2,0,B|163:194|163:194|119:153,1,157.500006008148,2|0,0:2|0:0,0:0:0:0:
110,131,80129,1,2,0:1:0:0:
233,76,80305,2,0,L|217:287,1,210.000008010865,10|4,0:1|3:2,0:0:0:0:
107,347,80835,5,2,0:2:0:0:
33,249,81011,2,0,B|83:223|83:223|145:227,1,105.000004005432,10|0,0:2|0:2,0:0:0:0:
111,361,81364,1,2,3:2:0:0:
31,237,81541,2,0,B|81:211|81:211|143:215,1,105.000004005432,2|8,0:2|0:0,0:0:0:0:
273,264,81894,5,2,0:2:0:0:
303,275,81982,1,2,0:2:0:0:
324,294,82070,2,0,P|374:250|339:167,1,157.500006008148,6|0,3:2|0:2,0:0:0:0:
331,163,82423,2,0,P|419:155|475:213,1,157.500006008148,14|0,0:2|0:2,0:0:0:0:
483,217,82776,2,0,L|459:50,1,157.500006008148,6|0,3:2|0:2,0:0:0:0:
447,38,83129,2,0,B|340:23|340:23|254:64,1,157.500006008148,8|0,0:2|3:2,0:0:0:0:
271,65,83482,5,4,3:2:0:0:
247,187,83658,2,0,P|200:168|147:120,1,105.000004005432,2|8,0:2|0:2,0:0:0:0:
24,69,84011,2,0,P|61:129|34:283,1,210.000008010865,2|0,0:2|0:0,0:0:0:0:
2,367,84541,1,8,0:2:0:0:
135,334,84717,5,2,0:2:0:0:
135,334,84805,1,0,0:0:0:0:
135,334,84894,2,0,P|203:324|253:345,2,105.000004005432,0|2|8,3:2|0:2|0:2,0:0:0:0:
81,247,85423,2,0,P|132:230|306:256,1,210.000008010865,2|0,0:2|0:2,0:0:0:0:
332,383,85952,2,0,P|367:322|411:295,1,105.000004005432,8|0,0:2|3:0,0:0:0:0:
495,251,86305,6,0,L|469:140,1,105.000004005432,4|0,3:2|0:2,0:0:0:0:
352,29,86658,2,0,L|339:147,1,105.000004005432,8|0,0:2|0:2,0:0:0:0:
464,131,87011,1,2,3:2:0:0:
336,18,87188,2,0,L|323:136,1,105.000004005432,2|8,0:2|0:2,0:0:0:0:
219,224,87541,6,0,P|148:230|87:203,1,105.000004005432,2|0,0:2|3:0,0:0:0:0:
34,150,87894,1,0,0:2:0:0:
87,34,88070,1,8,0:2:0:0:
181,117,88247,1,0,3:2:0:0:
20,159,88423,2,0,P|4:106|6:37,1,105.000004005432,0|0,3:2|0:0,0:0:0:0:
196,110,88776,2,0,P|212:163|210:232,1,105.000004005432,8|0,0:2|3:0,0:0:0:0:
101,301,89129,6,0,L|221:313,1,105.000004005432,4|0,3:2|0:2,0:0:0:0:
341,370,89482,2,0,L|345:253,1,105.000004005432,8|0,0:2|0:2,0:0:0:0:
221,314,89835,1,2,3:2:0:0:
356,376,90011,2,0,L|360:259,1,105.000004005432,2|8,0:2|0:2,0:0:0:0:
363,144,90364,6,0,P|421:108|474:99,1,105.000004005432,2|4,0:2|3:2,0:0:0:0:
481,232,90717,1,8,0:2:0:0:
481,232,90805,1,8,0:2:0:0:
481,232,90894,1,8,0:2:0:0:
359,271,91070,1,8,0:2:0:0:
246,211,91247,2,0,B|165:191|178:268|70:235|70:235|132:314|53:302|124:377,1,315.000012016297,8|8,0:2|0:2,0:0:0:0:
205,384,91952,6,0,P|212:353|210:332,1,52.5000020027161,4|0,3:2|0:0,0:0:0:0:
479,165,94247,2,0,P|501:174|524:175,2,41.9999987182618,2|2|10,0:2|0:2|0:2,0:0:0:0:
397,97,94600,1,2,0:2:0:0:
206,89,96188,6,0,L|203:173,1,83.9999974365235,6|0,3:2|0:0,0:0:0:0:
242,251,96541,1,10,0:2:0:0:
68,181,96894,2,0,L|76:268,1,83.9999974365235,6|0,3:2|0:0,0:0:0:0:
40,353,97247,2,0,P|19:343|5:332,2,41.9999987182618,10|8|0,0:2|0:2|3:2,0:0:0:0:
140,357,97600,6,0,B|226:307|325:335|325:335|326:292|267:270,1,251.999992309571,4|0,3:2|3:2,0:0:0:0:
232,224,98305,2,0,P|296:201|388:266,1,167.999994873047,0|10,3:2|0:2,0:0:0:0:
497,372,99011,6,0,B|467:289|516:194|516:194|498:169|500:103,1,251.999992309571,0|0,3:2|3:2,0:0:0:0:
488,15,99717,1,0,3:2:0:0:
408,107,99894,1,10,0:2:0:0:
408,107,100070,2,0,P|342:108|281:75,1,125.999996154785,10|0,0:2|0:0,0:0:0:0:
270,59,100423,5,2,3:2:0:0:
190,153,100600,2,0,L|132:149,2,41.9999987182618,2|2|2,0:2|0:2|0:2,0:0:0:0:
288,213,100952,1,2,0:2:0:0:
202,300,101129,2,0,P|196:350|202:391,2,83.9999974365235,2|2|2,0:2|0:2|0:2,0:0:0:0:
307,198,101658,1,2,0:2:0:0:
368,316,101835,6,0,B|411:288|411:288|496:298,1,125.999996154785,2|0,0:2|0:0,0:0:0:0:
512,299,102188,2,0,P|491:242|492:177,1,125.999996154785,2|0,0:2|0:0,0:0:0:0:
496,144,102541,2,0,P|442:180|392:143,1,125.999996154785,2|0,0:2|0:0,0:0:0:0:
384,125,102894,2,0,L|231:106,1,125.999996154785,8|0,0:2|3:2,0:0:0:0:
238,109,103247,6,0,P|182:167|212:228,1,154.000004699707,4|8,3:2|0:2,0:0:0:0:
360,345,103952,2,0,L|410:340,3,38.5000011749268,2|2|2|2,3:2|0:2|0:2|0:2,0:0:0:0:
426,338,104305,2,0,P|430:277|444:204,1,115.50000352478,10|0,0:1|0:0,0:0:0:0:
450,197,104658,6,0,P|470:190|499:188,2,38.5000011749268,2|2|2,3:2|0:0|0:0,0:0:0:0:
353,157,105011,2,0,P|334:150|315:147,2,38.5000011749268,10|2|2,0:1|0:2|0:2,0:0:0:0:
473,109,105364,2,0,P|494:107|522:112,2,38.5000011749268,2|2|0,3:2|0:0|0:0,0:0:0:0:
331,64,105717,2,0,P|311:62|292:64,2,38.5000011749268,10|2|2,0:1|0:2|0:2,0:0:0:0:
351,173,106070,6,0,P|301:153|215:141,1,115.50000352478,4|2,3:2|0:2,0:0:0:0:
207,142,106423,2,0,P|206:212|194:240,1,77.0000023498536,10|2,0:3|0:3,0:0:0:0:
122,295,106776,1,2,3:2:0:0:
106,305,106864,1,2,0:2:0:0:
89,309,106952,2,0,L|11:303,2,77.0000023498536,2|10|0,0:2|0:2|0:2,0:0:0:0:
184,378,107482,6,0,P|216:346|343:348,1,154.000004699707,2|8,3:2|0:2,0:0:0:0:
424,371,108011,1,0,0:0:0:0:
479,284,108188,2,0,P|481:258|478:226,3,38.5000011749268,2|2|14|10,3:2|3:2|0:2|0:2,0:0:0:0:
463,215,108541,2,0,P|461:189|464:157,3,38.5000011749268,0|0|0|0,3:2|3:0|3:0|3:2,0:0:0:0:
475,136,108894,6,0,L|404:129,3,38.5000011749268,6|2|2|2,3:2|0:2|0:2|0:2,0:0:0:0:
404,130,109247,2,0,B|366:127|366:127|298:141,1,77.0000023498536,10|0,0:2|0:0,0:0:0:0:
241,202,109600,1,2,3:2:0:0:
241,202,109688,1,2,0:2:0:0:
241,202,109776,1,2,0:2:0:0:
221,317,109953,2,0,B|259:324|259:324|297:321,1,77.0000023498536,10|0,0:1|0:0,0:0:0:0:
389,257,110305,6,0,L|373:132,1,115.50000352478,2|2,3:2|0:2,0:0:0:0:
393,107,110658,2,0,L|388:60,3,38.5000011749268,10|2|2|2,0:2|0:2|0:2|0:2,0:0:0:0:
398,38,111011,1,2,3:1:0:0:
494,114,111188,1,2,0:1:0:0:
375,143,111364,2,0,P|330:138|274:114,1,77.0000023498536,10|2,0:1|0:1,0:0:0:0:
211,69,111717,5,6,3:2:0:0:
211,69,111805,1,2,0:0:0:0:
211,69,111893,1,2,0:0:0:0:
137,153,112070,2,0,L|146:200,3,38.5000011749268,10|2|2|2,0:2|0:0|0:0|0:2,0:0:0:0:
169,215,112423,2,0,L|263:201,1,77.0000023498536,2|2,3:2|0:2,0:0:0:0:
346,250,112776,2,0,L|328:375,1,115.50000352478,10|0,0:2|0:2,0:0:0:0:
320,384,113129,6,0,P|260:349|198:358,1,115.50000352478,2|0,3:2|0:0,0:0:0:0:
191,364,113482,2,0,P|141:379|102:376,1,77.0000023498536,10|0,0:3|0:0,0:0:0:0:
19,339,113835,2,0,P|8:302|5:255,1,77.0000023498536,2|10,3:2|0:2,0:0:0:0:
94,203,114188,1,10,0:2:0:0:
94,203,114276,1,2,3:2:0:0:
94,203,114364,1,2,3:2:0:0:
6,122,114541,6,0,P|2:90|2:73,3,38.5000011749268,6|2|2|2,3:2|0:0|0:0|0:2,0:0:0:0:
14,50,114894,2,0,P|59:60|107:51,1,77.0000023498536,8|0,0:2|0:0,0:0:0:0:
190,38,115247,2,0,L|189:-1,2,38.5000011749268,2|2|0,3:2|0:1|0:0,0:0:0:0:
169,141,115600,2,0,L|172:286,1,115.50000352478,10|0,0:2|0:2,0:0:0:0:
191,292,115952,6,0,P|238:269|276:271,1,77.0000023498536,0|0,3:2|0:0,0:0:0:0:
354,324,116305,1,10,0:3:0:0:
450,263,116482,1,2,0:3:0:0:
364,193,116658,1,2,3:2:0:0:
364,193,116747,1,2,0:0:0:0:
364,193,116835,1,2,0:0:0:0:
479,157,117011,1,10,0:1:0:0:
479,157,117100,1,2,0:2:0:0:
479,157,117188,1,2,0:2:0:0:
384,78,117364,6,0,P|343:61|295:65,1,77.0000023498536,4|0,3:2|0:0,0:0:0:0:
219,117,117717,1,10,0:2:0:0:
137,56,117894,1,2,0:1:0:0:
56,135,118070,1,2,3:2:0:0:
48,164,118158,2,0,L|61:268,1,77.0000023498536,2|2,0:0|0:2,0:0:0:0:
74,263,118423,2,0,P|127:232|171:233,1,77.0000023498536,10|2,0:2|0:1,0:0:0:0:
310,239,118776,5,2,3:2:0:0:
204,35,119482,2,0,L|191:88,3,38.5000011749268,0|0|8|8,3:0|3:0|0:2|0:2,0:0:0:0:
162,92,119835,2,0,L|163:145,3,38.5000011749268,0|0|0|0,3:2|3:2|3:2|3:2,0:0:0:0:
142,161,120188,6,0,L|168:278,1,90.9999958343508,6|0,3:2|0:0,0:0:0:0:
218,349,120541,1,8,0:2:0:0:
318,294,120717,2,0,P|243:237|158:250,1,181.999991668702,2|0,0:2|0:2,0:0:0:0:
67,312,121247,1,8,0:2:0:0:
5,229,121423,6,0,L|12:37,1,181.999991668702,2|2,0:2|0:2,0:0:0:0:
124,88,121952,1,10,0:2:0:0:
213,22,122129,2,0,B|282:17|282:17|318:36|318:36|394:30,1,181.999991668702,2|0,3:2|0:2,0:0:0:0:
424,40,122570,1,0,3:0:0:0:
446,65,122658,2,0,P|448:123|439:167,1,90.9999958343508,8|0,0:2|0:2,0:0:0:0:
351,234,123011,5,0,3:2:0:0:
459,307,123188,2,0,L|506:313,2,45.4999979171754,2|0|10,0:2|0:0|0:2,0:0:0:0:
351,370,123541,1,2,0:2:0:0:
248,308,123717,2,0,P|203:307|157:327,1,90.9999958343508,2|2,3:2|0:2,0:0:0:0:
56,381,124070,1,10,0:2:0:0:
105,243,124247,6,0,P|161:215|300:226,1,181.999991668702,2|8,0:2|0:2,0:0:0:0:
393,269,124776,1,8,0:2:0:0:
297,343,124952,2,0,P|241:371|102:360,1,181.999991668702,4|8,3:2|0:2,0:0:0:0:
24,300,125482,1,8,0:2:0:0:
24,300,125570,1,0,3:2:0:0:
24,300,125658,1,0,3:2:0:0:
94,202,125835,6,0,P|103:147|77:70,1,136.499993751526,4|0,3:2|0:0,0:0:0:0:
57,45,126188,1,8,0:2:0:0:
1,148,126364,1,2,0:2:0:0:
94,202,126541,2,0,P|145:190|187:158,1,90.9999958343508,2|0,3:2|0:0,0:0:0:0:
288,66,126894,2,0,P|282:124|300:213,1,136.499993751526,10|0,0:2|0:2,0:0:0:0:
316,230,127247,5,4,3:2:0:0:
394,142,127423,1,0,0:0:0:0:
479,225,127600,2,0,B|470:283|470:283|472:298|472:298|462:360,1,136.499993751526,10|10,0:3|0:3,0:0:0:0:
456,374,127952,2,0,L|391:365,3,45.4999979171754,2|2|2|2,3:3|3:0|3:3|3:0,0:0:0:0:
382,348,128305,2,0,L|317:357,3,45.4999979171754,2|2|2|2,3:3|3:3|3:3|3:3,0:0:0:0:
309,378,128658,6,0,L|203:373,1,90.9999958343508,6|0,3:2|0:2,0:0:0:0:
113,328,129011,1,8,0:2:0:0:
192,248,129188,2,0,P|225:180|147:91,1,181.999991668702,6|0,0:2|0:2,0:0:0:0:
43,105,129717,1,8,0:2:0:0:
136,18,129894,2,0,B|238:-13|216:67|324:37,1,181.999991668702,6|0,3:2|0:2,0:0:0:0:
421,2,130423,1,8,0:2:0:0:
476,98,130600,2,0,L|465:299,1,181.999991668702,6|8,0:2|0:2,0:0:0:0:
459,384,131129,1,8,0:2:0:0:
360,315,131305,6,0,B|241:300|241:300|176:333,1,181.999991668702,6|0,3:2|0:2,0:0:0:0:
93,384,131835,1,8,0:2:0:0:
37,287,132011,2,0,P|17:228|56:113,1,181.999991668702,6|0,0:2|0:2,0:0:0:0:
154,83,132541,1,8,0:2:0:0:
205,219,132717,2,0,P|176:255|126:166,1,181.999991668702,6|0,3:2|0:2,0:0:0:0:
168,68,133247,1,8,0:2:0:0:
281,111,133423,2,0,L|479:89,1,181.999991668702,6|8,0:2|0:2,0:0:0:0:
396,189,133952,1,8,0:2:0:0:
505,237,134129,6,0,B|526:252|534:282|534:282|484:275|381:301,1,181.999991668702,10|0,0:2|0:2,0:0:0:0:
317,341,134658,2,0,P|269:335|216:333,1,90.9999958343508,8|0,0:2|0:2,0:0:0:0:
408,285,135011,2,0,P|451:276|507:270,1,90.9999958343508,0|0,0:2|0:2,0:0:0:0:
310,347,135364,2,0,P|262:341|209:339,1,90.9999958343508,8|0,0:2|0:2,0:0:0:0:
413,276,135717,2,0,P|456:267|512:261,1,90.9999958343508,0|0,0:2|0:2,0:0:0:0:
303,353,136070,2,0,P|255:347|202:345,1,90.9999958343508,8|0,0:2|0:2,0:0:0:0:
421,265,136423,2,0,P|464:256|520:250,1,90.9999958343508,0|0,0:2|0:2,0:0:0:0:
296,360,136776,2,0,P|248:354|195:352,1,90.9999958343508,8|0,0:2|0:2,0:0:0:0:
52,341,137129,5,4,0:3:0:0:
256,192,137217,12,2,138188,0:2:0:0:
134,278,138541,5,4,3:2:0:0:
225,185,138717,5,2,0:2:0:0:
296,293,138894,2,0,P|351:311|436:297,1,105.000004005432,10|0,0:2|0:2,0:0:0:0:
226,168,139247,1,2,3:2:0:0:
300,307,139424,2,0,P|355:325|440:311,1,105.000004005432,2|8,0:2|0:0,0:0:0:0:
480,229,139776,5,2,0:2:0:0:
410,128,139952,2,0,P|344:128|305:149,2,105.000004005432,2|2|10,3:2|0:2|0:2,0:0:0:0:
505,245,140482,2,0,L|341:225,1,157.500006008148,2|0,0:2|0:0,0:0:0:0:
323,243,140835,1,2,0:1:0:0:
212,173,141011,2,0,B|104:149|126:238|12:215,1,210.000008010865,10|4,0:1|3:2,0:0:0:0:
45,110,141541,5,2,0:2:0:0:
14,215,141717,2,0,L|32:337,1,105.000004005432,10|0,0:2|0:2,0:0:0:0:
51,100,142070,1,2,3:2:0:0:
6,228,142247,2,0,L|24:350,1,105.000004005432,2|8,0:2|0:0,0:0:0:0:
116,373,142600,5,2,0:2:0:0:
142,374,142688,1,2,0:2:0:0:
167,368,142776,2,0,B|238:316|186:200|153:298,1,157.500006008148,6|0,3:2|0:2,0:0:0:0:
161,278,143129,2,0,P|225:300|326:252,1,157.500006008148,14|0,0:2|0:2,0:0:0:0:
328,250,143482,2,0,P|387:236|428:324,1,157.500006008148,6|0,3:2|0:2,0:0:0:0:
447,325,143835,2,0,P|461:223|470:169,1,157.500006008148,8|0,0:2|3:2,0:0:0:0:
486,136,144188,5,4,3:2:0:0:
398,87,144364,2,0,P|326:92|277:121,1,105.000004005432,2|8,0:2|0:2,0:0:0:0:
234,197,144717,2,0,P|199:131|69:148,1,210.000008010865,2|0,0:2|0:0,0:0:0:0:
11,240,145247,1,8,0:2:0:0:
69,337,145423,5,2,0:2:0:0:
82,349,145511,1,0,0:0:0:0:
98,362,145600,2,0,L|223:354,1,105.000004005432,0|2,3:2|0:2,0:0:0:0:
285,272,145952,1,8,0:2:0:0:
397,319,146129,2,0,B|422:334|445:366|445:366|440:201,1,210.000008010865,2|0,0:2|0:2,0:0:0:0:
357,139,146658,2,0,P|303:138|251:161,1,105.000004005432,8|0,0:2|0:0,0:0:0:0:
182,255,147011,6,0,B|152:282|122:281|122:281|111:201|50:143,2,210.000008010865,6|8|0,3:2|0:0|3:2,0:0:0:0:
174,144,147894,1,2,0:2:0:0:
61,154,148070,1,10,0:2:0:0:
16,250,148247,1,2,0:2:0:0:
54,352,148423,6,0,P|112:372|169:367,1,105.000004005432,6|0,3:2|0:0,0:0:0:0:
325,320,148776,2,0,P|267:300|210:305,1,105.000004005432,14|0,0:2|0:0,0:0:0:0:
62,175,149129,2,0,P|93:233|132:254,1,105.000004005432,6|0,3:2|0:0,0:0:0:0:
336,182,149482,2,0,P|251:130|140:190,1,210.000008010865,10|4,0:1|3:2,0:0:0:0:
242,252,150011,5,2,0:2:0:0:
336,182,150188,2,0,L|325:65,1,105.000004005432,10|0,0:2|0:2,0:0:0:0:
233,264,150541,1,2,3:2:0:0:
345,171,150718,2,0,L|334:54,1,105.000004005432,2|8,0:2|0:0,0:0:0:0:
229,11,151070,5,2,0:2:0:0:
136,82,151247,2,0,P|40:86|17:75,2,105.000004005432,2|2|10,3:2|0:2|0:2,0:0:0:0:
245,0,151776,2,0,L|231:172,1,157.500006008148,2|0,0:2|0:0,0:0:0:0:
229,192,152129,1,2,0:1:0:0:
133,285,152305,2,0,B|39:337|-50:297|-18:229|61:228,1,210.000008010865,10|4,0:1|3:2,0:0:0:0:
126,183,152835,5,2,0:2:0:0:
23,122,153011,2,0,P|28:66|63:12,1,105.000004005432,10|0,0:2|0:2,0:0:0:0:
142,191,153364,1,2,3:2:0:0:
11,115,153541,2,0,P|16:59|51:5,1,105.000004005432,2|8,0:2|0:0,0:0:0:0:
198,13,153894,5,2,0:2:0:0:
198,13,153982,1,2,0:2:0:0:
198,13,154070,2,0,P|252:49|244:142,1,157.500006008148,6|0,3:2|0:2,0:0:0:0:
243,153,154423,2,0,L|80:132,1,157.500006008148,14|0,0:2|0:2,0:0:0:0:
67,140,154776,2,0,P|29:197|89:280,1,157.500006008148,6|0,3:2|0:2,0:0:0:0:
96,282,155129,2,0,B|149:272|149:272|203:289|203:289|260:281,1,157.500006008148,8|0,0:2|3:2,0:0:0:0:
278,276,155482,5,4,3:2:0:0:
344,351,155658,2,0,P|399:355|447:338,1,105.000004005432,2|8,0:2|0:2,0:0:0:0:
501,258,156011,2,0,P|463:205|498:75,1,210.000008010865,2|0,0:2|0:0,0:0:0:0:
396,16,156541,1,8,0:2:0:0:
311,96,156717,5,2,0:2:0:0:
304,109,156805,1,0,0:0:0:0:
300,124,156894,2,0,P|288:178|293:242,2,105.000004005432,0|2|8,3:2|0:2|0:2,0:0:0:0:
412,29,157423,2,0,L|195:20,1,210.000008010865,2|0,0:2|0:2,0:0:0:0:
103,80,157952,2,0,L|94:200,1,105.000004005432,8|0,0:2|3:0,0:0:0:0:
169,282,158305,6,0,P|231:310|288:301,1,105.000004005432,4|0,3:2|0:2,0:0:0:0:
346,186,158658,2,0,P|293:187|248:212,1,105.000004005432,8|0,0:2|0:2,0:0:0:0:
411,265,159011,1,2,3:2:0:0:
331,170,159188,2,0,P|278:171|233:196,1,105.000004005432,2|8,0:2|0:2,0:0:0:0:
169,281,159541,6,0,L|46:271,1,105.000004005432,2|0,0:2|3:0,0:0:0:0:
6,171,159894,1,0,0:2:0:0:
127,167,160070,1,8,0:2:0:0:
64,272,160247,1,0,3:2:0:0:
0,151,160423,2,0,P|-5:89|14:41,1,105.000004005432,0|0,3:2|0:0,0:0:0:0:
139,15,160776,2,0,P|177:50|197:98,1,105.000004005432,8|0,0:2|3:0,0:0:0:0:
180,231,161129,6,0,L|299:201,1,105.000004005432,4|0,3:2|0:2,0:0:0:0:
378,114,161482,2,0,L|481:186,1,105.000004005432,8|0,0:2|0:2,0:0:0:0:
293,218,161835,1,2,3:2:0:0:
386,94,162011,2,0,L|489:166,1,105.000004005432,2|8,0:2|0:2,0:0:0:0:
499,287,162364,6,0,L|440:391,1,105.000004005432,2|4,3:2|3:2,0:0:0:0:
281,378,162717,1,8,0:2:0:0:
281,378,162805,1,8,0:2:0:0:
281,378,162894,1,8,0:2:0:0:
382,290,163070,1,8,0:2:0:0:
242,254,163247,2,0,B|171:247|53:326|53:326|111:214|57:78,1,420.000016021729,8|6,0:2|3:1,0:0:0:0:
114,98,165364,5,4,3:2:0:0:
225,279,166776,2,0,P|267:237|392:251,1,157.500006008148,4|0,3:2|0:0,0:0:0:0:
381,255,167129,2,0,L|432:247,3,52.5000020027161,2|2|2|2,0:0|0:0|0:0|0:0,0:0:0:0:
459,228,167482,2,0,L|449:162,3,52.5000020027161,6|2|2|2,3:2|0:0|0:0|0:0,0:0:0:0:
423,147,167835,2,0,L|431:83,3,52.5000020027161,2|2|2|2,0:0|0:0|0:0|0:0,0:0:0:0:
446,72,168188,6,0,P|375:74|282:29,1,157.500006008148,6|0,3:2|0:0,0:0:0:0:
274,22,168541,2,0,P|300:83|208:98,1,157.500006008148,6|0,3:2|0:0,0:0:0:0:
207,127,168894,2,0,P|168:93|49:113,1,157.500006008148,6|0,3:2|0:0,0:0:0:0:
48,116,169247,2,0,L|62:232,1,105.000004005432,2|0,0:1|0:0,0:0:0:0:
89,334,169600,5,4,3:2:0:0:
184,261,169776,5,2,0:0:0:0:
253,358,169952,2,0,P|306:377|368:362,1,83.9999974365235,10|0,0:2|0:0,0:0:0:0:
430,320,170305,2,0,L|439:267,2,41.9999987182618,2|0|2,3:2|0:0|0:0,0:0:0:0:
312,282,170658,2,0,L|335:144,1,125.999996154785,10|0,0:2|0:0,0:0:0:0:
324,130,171011,6,0,P|282:107|208:115,1,83.9999974365235,6|0,3:2|0:0,0:0:0:0:
122,134,171364,2,0,P|102:132|69:124,3,41.9999987182618,10|2|2|2,0:3|0:3|0:3|0:3,0:0:0:0:
51,110,171717,2,0,L|57:206,1,83.9999974365235,6|2,3:2|0:2,0:0:0:0:
147,292,172070,2,0,L|154:193,1,83.9999974365235,10|2,3:1|0:0,0:0:0:0:
226,117,172423,5,4,3:2:0:0:
316,191,172600,1,2,0:0:0:0:
316,191,172776,2,0,P|340:128|311:50,1,125.999996154785,10|0,0:2|0:0,0:0:0:0:
305,44,173129,2,0,L|365:49,3,41.9999987182618,2|2|2|2,3:2|0:0|0:0|0:0,0:0:0:0:
376,71,173482,2,0,L|468:61,1,83.9999974365235,8|0,0:2|0:0,0:0:0:0:
512,173,173835,5,6,3:2:0:0:
512,173,173923,1,2,0:0:0:0:
512,173,174011,1,2,0:0:0:0:
408,229,174188,2,0,P|400:275|411:320,1,83.9999974365235,10|2,0:3|0:3,0:0:0:0:
424,338,174452,1,2,0:3:0:0:
444,354,174541,2,0,L|331:346,2,83.9999974365235,6|2|10,3:1|0:2|0:1,0:0:0:0:
258,270,175247,5,4,3:2:0:0:
168,340,175424,2,0,P|126:325|86:327,1,83.9999974365235,2|10,0:0|0:2,0:0:0:0:
0,376,175776,1,0,3:0:0:0:
76,306,175952,1,0,3:2:0:0:
17,231,176129,2,0,P|16:189|23:147,1,83.9999974365235,0|8,0:0|0:2,0:0:0:0:
81,68,176482,6,0,L|180:61,1,83.9999974365235,0|6,0:0|3:3,0:0:0:0:
266,78,176835,1,2,0:3:0:0:
229,174,177011,1,10,0:3:0:0:
280,65,177188,1,2,0:3:0:0:
374,130,177364,2,0,P|397:189|398:230,2,83.9999974365235,4|0|8,3:2|0:0|0:2,0:0:0:0:
280,65,177894,1,0,0:0:0:0:
304,201,178070,5,4,3:2:0:0:
197,266,178247,1,2,0:0:0:0:
172,256,178335,1,2,0:0:0:0:
154,239,178423,2,0,P|150:192|208:141,1,125.999996154785,10|0,0:2|0:0,0:0:0:0:
223,139,178776,2,0,P|155:137|86:104,1,125.999996154785,2|0,3:2|0:0,0:0:0:0:
83,96,179129,1,10,0:2:0:0:
14,191,179305,1,2,0:0:0:0:
61,285,179482,6,0,L|173:273,1,83.9999974365235,2|2,0:2|0:2,0:0:0:0:
227,346,179835,2,0,P|247:306|243:255,1,83.9999974365235,2|2,0:2|0:2,0:0:0:0:
185,178,180188,2,0,B|190:160|206:146|206:146|240:173|234:122|234:138|234:138|262:169|259:121|259:135|259:135|284:165|290:114|288:135|288:135|318:131|370:122|409:201|379:260,1,335.999989746094,2|4,0:2|3:2,0:0:0:0:
331,358,181070,5,2,0:2:0:0:
331,358,181158,2,0,P|379:344|469:349,1,125.999996154785,2|0,0:2|0:2,0:0:0:0:
500,241,181600,1,2,3:2:0:0:
388,229,181776,1,2,0:2:0:0:
467,144,181952,1,10,0:2:0:0:
358,96,182129,6,0,B|316:84|316:84|261:130|182:113,1,167.999994873047,2|2,0:2|0:2,0:0:0:0:
136,204,182658,2,0,P|105:166|94:131,1,83.9999974365235,10|0,0:2|0:2,0:0:0:0:
27,37,183011,5,6,3:2:0:0:
142,5,183188,1,2,0:2:0:0:
6,53,183364,2,0,L|1:220,1,167.999994873047,10|4,0:2|3:2,0:0:0:0:
60,329,183894,5,2,0:2:0:0:
176,308,184070,1,8,0:2:0:0:
113,201,184247,1,2,0:2:0:0:
209,315,184423,2,0,P|256:321|319:304,1,83.9999974365235,2|0,3:2|0:0,0:0:0:0:
456,262,184776,2,0,P|392:257|351:237,1,83.9999974365235,10|0,0:2|0:0,0:0:0:0:
261,181,185129,6,0,L|274:87,1,83.9999974365235,6|0,3:1|0:0,0:0:0:0:
129,132,185482,2,0,L|139:48,1,83.9999974365235,14|0,0:1|0:0,0:0:0:0:
0,95,185835,1,6,3:1:0:0:
66,284,186541,5,4,3:2:0:0:
145,360,186717,1,0,0:0:0:0:
145,360,186805,1,0,3:0:0:0:
145,360,186894,2,0,L|236:342,1,83.9999974365235,10|0,0:2|0:0,0:0:0:0:
244,325,187159,1,0,0:0:0:0:
256,305,187247,2,0,P|254:246|231:212,1,83.9999974365235,0|2,3:2|0:0,0:0:0:0:
140,177,187600,2,0,P|130:130|142:85,1,83.9999974365235,10|0,0:2|0:0,0:0:0:0:
220,27,187952,6,0,L|315:35,1,83.9999974365235,6|0,3:2|0:0,0:0:0:0:
455,100,188305,2,0,L|354:110,1,83.9999974365235,8|0,0:2|0:0,0:0:0:0:
288,185,188658,2,0,P|321:228|453:210,1,167.999994873047,4|8,3:2|0:0,0:0:0:0:
314,356,189364,6,0,L|192:344,1,111.999996582031,6|2,3:1|0:2,0:0:0:0:
165,332,189717,2,0,L|236:232,1,111.999996582031,10|2,0:1|0:2,0:0:0:0:
252,219,190070,2,0,L|302:330,1,111.999996582031,6|2,3:1|0:2,0:0:0:0:
314,356,190423,2,0,P|371:301|411:299,1,111.999996582031,10|2,0:1|0:2,0:0:0:0:
446,304,190776,5,6,3:2:0:0:
379,22,191129,1,2,3:2:0:0:
191,185,191482,1,6,3:1:0:0:
334,140,191835,5,2,0:0:0:0:
256,192,206356,12,4,209287,3:2:0:0:
95,142,209650,5,2,0:2:0:0:
195,88,209826,2,0,P|242:81|304:95,1,105.000004005432,10|0,0:2|0:0,0:0:0:0:
85,163,210179,1,2,3:2:0:0:
209,74,210355,2,0,P|256:71|316:90,1,105.000004005432,2|8,0:2|0:0,0:0:0:0:
426,172,210709,1,2,0:2:0:0:
351,275,210885,6,0,L|365:386,2,105.000004005432,2|2|10,3:2|0:2|0:2,0:0:0:0:
257,185,211415,2,0,B|139:198|139:198|175:220,1,157.500006008148,2|0,0:2|0:0,0:0:0:0:
193,236,211768,1,2,0:1:0:0:
131,120,211944,2,0,P|70:151|110:274,1,210.000008010865,10|0,0:1|3:2,0:0:0:0:
217,358,212474,5,2,0:2:0:0:
321,282,212650,2,0,L|321:165,1,105.000004005432,10|0,0:2|0:0,0:0:0:0:
207,367,213003,1,2,3:2:0:0:
331,276,213179,2,0,L|331:159,1,105.000004005432,2|8,0:2|0:0,0:0:0:0:
374,47,213532,5,2,0:2:0:0:
374,47,213621,1,2,0:2:0:0:
374,47,213709,2,0,P|427:29|470:129,1,157.500006008148,6|0,3:2|0:2,0:0:0:0:
468,133,214062,2,0,P|375:151|276:115,1,157.500006008148,14|0,0:2|0:2,0:0:0:0:
300,116,214415,2,0,L|320:279,1,157.500006008148,6|0,3:2|0:2,0:0:0:0:
325,306,214768,2,0,P|239:304|210:373,1,157.500006008148,8|0,0:2|3:2,0:0:0:0:
214,384,215121,5,4,3:2:0:0:
120,314,215297,2,0,P|111:260|123:198,1,105.000004005432,2|8,0:2|0:2,0:0:0:0:
160,107,215650,2,0,B|192:89|222:108|229:141|229:141|217:273,1,210.000008010865,2|0,0:2|0:0,0:0:0:0:
203,377,216179,1,8,0:2:0:0:
304,341,216356,5,2,0:2:0:0:
304,341,216444,1,0,0:0:0:0:
304,341,216532,2,0,P|359:325|412:334,1,105.000004005432,0|2,3:2|0:2,0:0:0:0:
508,376,216885,1,8,0:2:0:0:
471,271,217062,2,0,P|466:213|508:63,1,210.000008010865,2|0,0:2|0:2,0:0:0:0:
405,14,217591,2,0,P|354:24|309:60,1,105.000004005432,8|0,0:2|0:0,0:0:0:0:
263,161,217944,6,0,B|231:155|208:132|208:132|137:179|46:150,2,210.000008010865,6|8|0,3:2|0:0|3:2,0:0:0:0:
384,157,218826,1,2,0:2:0:0:
281,77,219003,1,10,0:2:0:0:
402,169,219179,1,2,0:2:0:0:
288,256,219356,6,0,L|161:247,1,105.000004005432,6|0,3:2|0:0,0:0:0:0:
23,148,219709,2,0,L|127:155,1,105.000004005432,14|0,0:2|0:0,0:0:0:0:
320,104,220062,2,0,L|215:96,1,105.000004005432,6|0,3:2|0:0,0:0:0:0:
51,0,220415,2,0,L|265:11,1,210.000008010865,10|4,0:1|3:2,0:0:0:0:
347,106,220944,5,2,0:2:0:0:
440,44,221121,2,0,P|464:99|452:155,1,105.000004005432,10|0,0:2|0:0,0:0:0:0:
335,118,221474,1,2,3:2:0:0:
455,35,221650,2,0,P|479:90|467:146,1,105.000004005432,2|8,0:2|0:0,0:0:0:0:
419,245,222003,5,2,0:2:0:0:
314,206,222179,2,0,L|195:216,2,105.000004005432,2|2|10,3:2|0:2|0:2,0:0:0:0:
433,251,222709,2,0,B|447:362|447:362|408:356|377:306,1,157.500006008148,2|0,0:2|0:0,0:0:0:0:
386,320,223062,1,2,0:1:0:0:
278,354,223238,2,0,B|160:367|188:299|71:316,1,210.000008010865,10|4,0:1|3:2,0:0:0:0:
16,216,223768,5,2,0:2:0:0:
98,134,223944,2,0,P|128:187|130:241,1,105.000004005432,10|0,0:2|0:0,0:0:0:0:
6,222,224297,1,2,3:2:0:0:
108,130,224474,2,0,P|138:183|140:237,1,105.000004005432,2|8,0:2|0:0,0:0:0:0:
76,315,224826,5,2,0:2:0:0:
56,331,224915,1,2,0:2:0:0:
39,345,225003,2,0,P|140:320|205:331,1,157.500006008148,6|0,3:2|0:2,0:0:0:0:
222,338,225356,2,0,P|284:303|225:248,1,157.500006008148,14|0,0:2|0:2,0:0:0:0:
217,235,225709,2,0,P|282:226|333:144,1,157.500006008148,6|0,3:2|0:2,0:0:0:0:
329,125,226062,2,0,P|248:120|159:95,1,157.500006008148,8|0,0:2|3:2,0:0:0:0:
145,86,226415,5,4,3:2:0:0:
225,15,226591,2,0,P|285:11|352:24,1,105.000004005432,2|8,0:2|0:2,0:0:0:0:
425,74,226944,2,0,B|444:195|378:160|412:301,1,210.000008010865,2|0,0:2|0:0,0:0:0:0:
435,384,227474,1,8,0:2:0:0:
312,330,227650,5,2,0:2:0:0:
312,330,227738,1,0,0:0:0:0:
312,330,227826,2,0,P|247:334|194:354,2,105.000004005432,0|2|8,3:2|0:2|0:2,0:0:0:0:
358,240,228356,2,0,P|278:210|123:220,1,210.000008010865,2|0,0:2|0:2,0:0:0:0:
48,284,228885,2,0,P|35:233|37:168,1,105.000004005432,8|0,0:2|3:0,0:0:0:0:
81,76,229238,6,0,B|131:52|131:52|197:60,1,105.000004005432,4|0,3:2|0:2,0:0:0:0:
254,161,229591,2,0,B|204:185|204:185|138:177,1,105.000004005432,8|0,0:2|0:2,0:0:0:0:
207,69,229944,1,2,3:2:0:0:
266,179,230121,2,0,B|216:203|216:203|150:195,1,105.000004005432,2|8,0:2|0:2,0:0:0:0:
34,180,230474,6,0,P|35:233|48:284,1,105.000004005432,2|0,0:2|3:0,0:0:0:0:
127,360,230826,1,0,0:2:0:0:
165,259,231003,1,8,0:2:0:0:
47,283,231179,1,0,3:2:0:0:
134,373,231356,2,0,P|186:373|233:329,1,105.000004005432,0|0,3:2|0:0,0:0:0:0:
314,277,231709,2,0,P|366:277|413:321,1,105.000004005432,8|0,0:2|3:0,0:0:0:0:
493,376,232062,6,0,P|510:320|503:260,1,105.000004005432,4|0,3:2|0:2,0:0:0:0:
407,201,232415,2,0,P|404:148|420:99,1,105.000004005432,8|0,0:2|0:2,0:0:0:0:
500,264,232768,1,2,3:2:0:0:
387,192,232944,2,0,P|384:139|400:90,1,105.000004005432,2|8,0:2|0:2,0:0:0:0:
512,30,233297,6,0,L|383:9,1,105.000004005432,2|4,0:2|3:2,0:0:0:0:
293,53,233650,1,8,0:2:0:0:
293,53,233738,1,8,0:2:0:0:
293,53,233826,1,8,0:2:0:0:
171,3,234003,1,8,0:2:0:0:
64,60,234179,2,0,B|5:155|-1:253|-1:253|85:232|120:287,1,315.000012016297,8|8,0:2|0:2,0:0:0:0:
172,373,234885,5,4,3:2:0:0:
243,262,235062,5,2,0:2:0:0:
323,341,235238,2,0,L|453:326,1,105.000004005432,10|0,0:2|0:0,0:0:0:0:
231,251,235591,1,2,3:2:0:0:
334,352,235768,2,0,L|464:337,1,105.000004005432,2|8,0:2|0:0,0:0:0:0:
490,249,236121,5,2,0:2:0:0:
366,251,236297,2,0,B|350:201|350:201|360:149,2,105.000004005432,2|2|10,3:2|0:2|0:2,0:0:0:0:
504,259,236826,2,0,L|485:82,1,157.500006008148,2|0,0:2|0:0,0:0:0:0:
503,79,237179,1,2,0:1:0:0:
392,13,237356,2,0,P|307:24|331:159,1,210.000008010865,10|4,0:1|3:2,0:0:0:0:
375,241,237885,5,2,0:2:0:0:
249,292,238062,2,0,P|185:292|124:271,1,105.000004005432,10|0,0:2|0:0,0:0:0:0:
389,245,238415,1,2,3:2:0:0:
243,302,238591,2,0,P|179:302|118:281,1,105.000004005432,2|8,0:2|0:0,0:0:0:0:
50,205,238944,5,2,0:2:0:0:
50,205,239032,1,2,0:2:0:0:
50,205,239121,2,0,P|90:155|196:182,1,157.500006008148,6|0,3:2|0:2,0:0:0:0:
187,182,239473,2,0,P|256:197|246:109,1,157.500006008148,14|0,0:2|0:2,0:0:0:0:
248,115,239826,2,0,L|264:300,1,157.500006008148,6|0,3:2|0:2,0:0:0:0:
283,293,240179,2,0,P|344:273|456:283,1,157.500006008148,8|0,0:2|3:2,0:0:0:0:
461,294,240532,5,4,3:2:0:0:
364,185,240709,2,0,P|355:124|367:74,1,105.000004005432,2|8,0:2|0:2,0:0:0:0:
505,23,241062,2,0,B|438:27|438:27|371:-1|371:-1|285:12,1,210.000008010865,2|0,0:2|0:0,0:0:0:0:
227,92,241591,1,8,0:2:0:0:
116,29,241768,5,2,0:2:0:0:
116,29,241856,1,0,0:0:0:0:
116,29,241944,2,0,L|104:147,1,105.000004005432,0|2,3:2|0:2,0:0:0:0:
125,242,242297,1,8,0:2:0:0:
22,217,242473,2,0,P|-17:277|106:322,1,210.000008010865,2|0,0:2|0:2,0:0:0:0:
190,308,243003,2,0,P|239:317|297:352,1,105.000004005432,8|0,0:2|0:0,0:0:0:0:
402,374,243356,6,0,P|408:310|444:134,2,210.000008010865,2|8|0,3:2|0:0|3:2,0:0:0:0:
495,289,244238,1,2,0:2:0:0:
385,226,244415,1,10,0:2:0:0:
512,294,244591,1,0,0:2:0:0:
402,374,244768,6,0,L|281:364,1,105.000004005432,6|0,3:2|0:0,0:0:0:0:
150,292,245121,2,0,P|204:294|262:271,1,105.000004005432,14|0,0:2|0:0,0:0:0:0:
368,218,245473,2,0,P|322:172|293:119,1,105.000004005432,6|0,3:2|0:0,0:0:0:0:
211,0,245826,2,0,L|195:212,1,210.000008010865,10|4,0:1|3:2,0:0:0:0:
134,325,246356,5,2,0:2:0:0:
53,246,246532,2,0,P|41:175|48:120,1,105.000004005432,10|0,0:2|0:0,0:0:0:0:
140,331,246885,1,2,3:2:0:0:
41,241,247062,2,0,P|29:170|36:115,1,105.000004005432,2|8,0:2|0:0,0:0:0:0:
98,43,247415,5,2,0:2:0:0:
197,109,247591,2,0,P|263:126|328:109,2,105.000004005432,2|2|10,3:2|0:2|0:2,0:0:0:0:
93,26,248121,2,0,L|127:216,1,157.500006008148,2|0,0:2|0:0,0:0:0:0:
106,205,248473,1,2,0:1:0:0:
163,295,248650,2,0,B|245:302|245:302|293:276|293:276|385:286,1,210.000008010865,10|4,0:1|3:2,0:0:0:0:
436,361,249179,5,2,0:2:0:0:
500,263,249356,2,0,L|485:147,1,105.000004005432,10|0,0:2|0:0,0:0:0:0:
427,384,249709,1,2,3:2:0:0:
512,250,249885,2,0,L|497:134,1,105.000004005432,2|8,0:2|0:0,0:0:0:0:
412,48,250238,5,2,0:2:0:0:
412,48,250326,1,2,0:2:0:0:
412,48,250415,2,0,P|345:53|305:137,1,157.500006008148,6|0,3:2|0:2,0:0:0:0:
309,143,250768,2,0,P|273:95|189:32,1,157.500006008148,14|0,0:2|0:2,0:0:0:0:
170,23,251121,2,0,L|-5:58,1,157.500006008148,6|0,3:2|0:2,0:0:0:0:
1,77,251473,2,0,P|-4:153|77:175,1,157.500006008148,8|0,0:2|3:2,0:0:0:0:
77,169,251826,5,4,3:2:0:0:
181,133,252003,2,0,P|185:183|164:237,1,105.000004005432,2|8,0:2|0:2,0:0:0:0:
57,296,252356,2,0,P|142:265|259:323,1,210.000008010865,2|0,0:2|0:0,0:0:0:0:
331,384,252885,1,8,0:2:0:0:
395,294,253062,5,2,0:2:0:0:
401,270,253150,1,0,0:0:0:0:
408,247,253238,2,0,P|390:180|366:146,2,105.000004005432,0|2|8,3:2|0:2|0:2,0:0:0:0:
246,311,253768,2,0,P|209:245|200:93,1,210.000008010865,2|0,0:2|0:0,0:0:0:0:
252,11,254297,2,0,P|283:61|292:114,1,105.000004005432,8|0,0:2|3:2,0:0:0:0:
200,216,254650,6,0,L|78:200,1,105.000004005432,4|0,3:2|0:2,0:0:0:0:
8,105,255003,2,0,L|122:90,1,105.000004005432,8|0,0:2|0:2,0:0:0:0:
91,223,255356,1,2,3:2:0:0:
0,92,255532,2,0,L|114:77,1,105.000004005432,2|8,0:2|0:2,0:0:0:0:
213,16,255885,6,0,L|326:29,1,105.000004005432,2|0,0:2|3:0,0:0:0:0:
430,96,256238,1,0,0:2:0:0:
322,152,256415,1,8,0:2:0:0:
416,221,256591,1,0,3:2:0:0:
447,102,256768,2,0,P|452:42|440:-3,1,105.000004005432,0|0,3:2|0:0,0:0:0:0:
307,164,257121,2,0,P|302:224|314:269,1,105.000004005432,8|0,0:2|3:0,0:0:0:0:
425,372,257473,6,0,B|374:354|374:354|316:363,1,105.000004005432,4|0,3:2|0:2,0:0:0:0:
230,306,257826,2,0,B|179:324|179:324|121:315,1,105.000004005432,8|0,0:2|0:2,0:0:0:0:
319,382,258179,1,2,3:2:0:0:
219,293,258356,2,0,B|168:311|168:311|110:302,1,105.000004005432,2|8,0:2|0:2,0:0:0:0:
26,215,258709,6,0,P|13:161|21:106,1,105.000004005432,2|4,3:2|3:2,0:0:0:0:
136,32,259062,1,8,0:2:0:0:
136,32,259150,1,8,3:0:0:0:
136,32,259238,1,8,0:2:0:0:
120,160,259415,1,8,0:2:0:0:
215,111,259591,6,0,B|269:72|320:115|320:115|233:192|319:224|243:299|243:299|291:333|344:291,1,420.000016021729,8|6,0:2|3:2,0:0:0:0:
