osu file format v14

[General]
AudioFilename: audio.mp3
AudioLeadIn: 0
PreviewTime: 137233
Countdown: 0
SampleSet: Soft
StackLeniency: 0.3
Mode: 0
LetterboxInBreaks: 0
WidescreenStoryboard: 1

[Editor]
Bookmarks: 91978,193616
DistanceSpacing: 1.9
BeatDivisor: 4
GridSize: 4
TimelineZoom: 3.799998

[Metadata]
Title:Umapyoi Densetsu
TitleUnicode:うまぴょい伝説
Artist:Various Artists
ArtistUnicode:Various Artists
Creator:Kwstv
Version:Insane
Source:ウマ娘 プリティーダービー
Tags:kwaimsuckasfuk _meep_ umamusume pretty derby cygames japanese pop jpop j-pop anime ending ed mobile video game WINNING LIVE 01 horse Special Week Waki Azumi Silence Suzuka Kouno Marika Tokai Teio Machico Maruzensky Lynn Oguri Cap Takayanagi Tomoyo Gold Ship Ueda Hitomi Vodka Ohashi Ayaka Daiwa Scarlet Kimura Chisa Taiki Shuttle Otsubo Yuka Grass Wonder Maeda Reina Mejiro McQueen Onishi Saori El Condor Pasa Takahashi Minami Symboli Rudolf Tadokoro Azusa Air Groove Aoki Ruriko Mayano Top Gun Hoshitani Mio Mejiro Ryan Hashi Afumi Rice Shower Iwami Manaka Agnes Tachyon Uesaka Sumire Winning Ticket Watanabe Yui Sakura Bakushin O Misawa Sachika Super Creek Yuuki Kana Haru Urara Shuto Yukina Matikanefukukitaru Nitta Hiyori Nice Nature Maeda Kaori King Halo Saeki Iori
BeatmapID:3293445
BeatmapSetID:1611719

[Difficulty]
HPDrainRate:5
CircleSize:4.1
OverallDifficulty:8.5
ApproachRate:9
SliderMultiplier:1.4
SliderTickRate:1

[Events]
//Background and Video events
0,0,"bg.jpg",0,0
//Break Periods
2,193807,205756
//Storyboard Layer 0 (Background)
//Storyboard Layer 1 (Fail)
//Storyboard Layer 2 (Pass)
//Storyboard Layer 3 (Foreground)
//Storyboard Layer 4 (Overlay)
//Storyboard Sound Samples

[TimingPoints]
19953,352.941176470588,4,2,3,70,1,0
19953,-66.6666666666667,4,2,3,70,0,0
20041,-66.6666666666667,4,2,1,70,0,0
25600,-66.6666666666667,4,2,3,70,0,0
25688,-66.6666666666667,4,2,1,70,0,0
29835,-55.5555555555556,4,2,1,70,0,0
31247,-76.9230769230769,4,2,1,60,0,0
32482,-55.5555555555556,4,2,1,60,0,0
32658,-76.9230769230769,4,2,1,60,0,0
38129,-55.5555555555556,4,2,1,60,0,0
38305,-76.9230769230769,4,2,1,60,0,0
39541,-55.5555555555556,4,2,1,60,0,0
39717,-76.9230769230769,4,2,1,60,0,0
40423,-62.5,4,2,1,60,0,0
41129,-76.9230769230769,4,2,1,60,0,0
41835,-62.5,4,2,1,60,0,0
42541,-76.9230769230769,4,2,1,60,0,0
42894,-55.5555555555556,4,2,1,60,0,0
43247,-76.9230769230769,4,2,1,60,0,0
43600,-55.5555555555556,4,2,1,60,0,0
43953,-76.9230769230769,4,2,1,60,0,0
45011,-55.5555555555556,4,2,1,60,0,0
45364,-76.9230769230769,4,2,1,60,0,0
45894,-55.5555555555556,4,2,1,60,0,0
46776,-76.9230769230769,4,2,1,60,0,0
47482,-62.5,4,2,1,60,0,0
48188,-66.6666666666667,4,2,1,60,0,0
52600,-55.5555555555556,4,2,1,60,0,0
53835,-66.6666666666667,4,2,1,60,0,0
56658,-66.6666666666667,4,2,1,60,0,0
57188,-83.3333333333333,4,2,1,60,0,0
57894,-76.9230769230769,4,2,1,63,0,0
58600,-71.4285714285714,4,2,1,65,0,0
59305,-66.6666666666667,4,2,1,68,0,0
60011,-62.5,4,2,1,70,0,0
60717,-58.8235294117647,4,2,1,73,0,0
61423,-55.5555555555556,4,2,1,75,0,0
61952,-66.6666666666667,4,2,1,75,0,0
62129,-66.6666666666667,4,2,1,20,0,0
62482,-100,4,2,1,20,0,0
63011,-100,4,2,1,30,0,0
63717,-100,4,2,1,40,0,0
64423,-100,4,2,1,50,0,0
65305,-100,4,2,1,60,0,0
66541,-58.8235294117647,4,2,3,70,0,1
66629,-58.8235294117647,4,2,1,70,0,1
68835,-50,4,2,1,70,0,1
69364,-58.8235294117647,4,2,1,70,0,1
70776,-52.6315789473684,4,2,1,70,0,1
72188,-66.6666666666667,4,2,1,70,0,0
75894,-76.9230769230769,4,2,1,70,0,0
76423,-52.6315789473684,4,2,1,70,0,0
77835,-66.6666666666667,4,2,3,70,0,1
77923,-58.8235294117647,4,2,1,70,0,1
80129,-50,4,2,1,70,0,1
80835,-58.8235294117647,4,2,1,70,0,1
82070,-52.6315789473684,4,2,1,70,0,1
83482,-66.6666666666667,4,2,1,70,0,0
91952,-66.6666666666667,4,2,3,60,0,0
92658,-133.333333333333,4,2,1,60,0,0
94423,-66.6666666666667,4,2,1,60,0,0
94776,-133.333333333333,4,2,1,60,0,0
96541,-66.6666666666667,4,2,1,60,0,0
97600,-133.333333333333,4,2,1,60,0,0
98658,-66.6666666666667,4,2,1,60,0,0
100423,-133.333333333333,4,2,1,60,0,0
103247,-76.9230769230769,4,2,1,60,0,0
104305,-55.5555555555556,4,2,1,60,0,0
106070,-76.9230769230769,4,2,1,60,0,0
107129,-55.5555555555556,4,2,1,60,0,0
107482,-76.9230769230769,4,2,1,60,0,0
109600,-55.5555555555556,4,2,1,60,0,0
110305,-76.9230769230769,4,2,1,60,0,0
111011,-55.5555555555556,4,2,1,60,0,0
111717,-76.9230769230769,4,2,1,60,0,0
112423,-55.5555555555556,4,2,1,60,0,0
113129,-76.9230769230769,4,2,1,60,0,0
113482,-55.5555555555556,4,2,1,60,0,0
114541,-76.9230769230769,4,2,1,60,0,0
115247,-55.5555555555556,4,2,1,60,0,0
115952,-66.6666666666667,4,2,1,60,0,0
117011,-55.5555555555556,4,2,1,60,0,0
117364,-76.9230769230769,4,2,1,60,0,0
117894,-55.5555555555556,4,2,1,60,0,0
118158,-76.9230769230769,4,2,1,60,0,0
118600,-55.5555555555556,4,2,1,60,0,0
118776,-76.9230769230769,4,2,1,60,0,0
119482,-62.5,4,2,1,60,0,0
120188,-66.6666666666667,4,2,1,60,0,0
124600,-55.5555555555556,4,2,1,60,0,0
125835,-66.6666666666667,4,2,1,60,0,0
129188,-83.3333333333333,4,2,1,60,0,0
129894,-76.9230769230769,4,2,1,63,0,0
130600,-71.4285714285714,4,2,1,65,0,0
131305,-66.6666666666667,4,2,1,68,0,0
132011,-62.5,4,2,1,70,0,0
132717,-58.8235294117647,4,2,1,73,0,0
133423,-55.5555555555556,4,2,1,75,0,0
133952,-66.6666666666667,4,2,1,75,0,0
134129,-66.6666666666667,4,2,1,20,0,0
134482,-100,4,2,1,20,0,0
135011,-100,4,2,1,30,0,0
135717,-100,4,2,1,40,0,0
136423,-100,4,2,1,50,0,0
137305,-100,4,2,1,60,0,0
138541,-58.8235294117647,4,2,3,70,0,1
138629,-58.8235294117647,4,2,1,70,0,1
140835,-50,4,2,1,70,0,1
141717,-58.8235294117647,4,2,1,70,0,1
142776,-52.6315789473684,4,2,1,70,0,1
144188,-66.6666666666667,4,2,1,70,0,0
148423,-52.6315789473684,4,2,1,70,0,0
149835,-58.8235294117647,4,2,3,70,0,1
149923,-58.8235294117647,4,2,1,70,0,1
152129,-50,4,2,1,70,0,1
152658,-58.8235294117647,4,2,1,70,0,1
154070,-52.6315789473684,4,2,1,70,0,1
155482,-66.6666666666667,4,2,1,70,0,0
163952,-1000,4,2,1,50,0,0
166423,-66.6666666666667,4,2,1,70,0,0
166776,-1000,4,2,1,60,0,0
169247,-66.6666666666667,4,2,1,60,0,0
169600,-66.6666666666667,4,2,3,60,0,0
169622,-66.6666666666667,4,2,2,60,0,0
171717,-55.5555555555556,4,2,2,60,0,0
172776,-66.6666666666667,4,2,2,60,0,0
174541,-55.5555555555556,4,2,2,60,0,0
175247,-66.6666666666667,4,2,2,60,0,0
179482,-133.333333333333,4,2,2,60,0,0
180894,-62.5,4,2,3,60,0,0
180916,-62.5,4,2,2,60,0,0
186541,-66.6666666666667,4,2,2,50,0,0
191835,340.909090909091,4,2,1,70,1,0
192175,358.208955223881,4,2,3,70,1,0
193607,360.902255639098,4,2,1,5,1,0
199381,362.537764350453,4,2,1,5,1,0
203736,418.118466898955,4,2,3,70,1,0
205408,474.308300395257,4,2,3,70,1,0
206356,363.636363636364,4,2,1,60,1,0
208537,550.45871559633,4,2,3,70,1,0
208537,-100,4,2,1,5,0,0
208720,431.654676258993,4,2,3,70,1,0
208720,-66.6666666666667,4,2,1,60,0,0
208935,352.941176470588,4,2,1,70,1,0
208935,-66.6666666666667,4,2,1,70,0,0
209474,352.941176470588,4,2,3,70,1,0
209474,-58.8235294117647,4,2,3,70,0,1
209562,-58.8235294117647,4,2,1,70,0,1
211768,-50,4,2,1,70,0,1
212297,-58.8235294117647,4,2,1,70,0,1
213709,-52.6315789473684,4,2,1,70,0,1
215121,-66.6666666666667,4,2,1,70,0,0
219356,-52.6315789473684,4,2,1,70,0,0
220768,-58.8235294117647,4,2,3,70,0,1
220856,-58.8235294117647,4,2,1,70,0,1
223062,-50,4,2,1,70,0,1
223591,-58.8235294117647,4,2,1,70,0,1
225003,-52.6315789473684,4,2,1,70,0,1
226415,-66.6666666666667,4,2,1,70,0,0
234885,-58.8235294117647,4,2,3,70,0,1
234973,-58.8235294117647,4,2,1,70,0,1
237179,-50,4,2,1,70,0,1
238062,-58.8235294117647,4,2,1,70,0,1
239121,-52.6315789473684,4,2,1,70,0,1
240532,-66.6666666666667,4,2,1,70,0,0
244768,-52.6315789473684,4,2,1,70,0,0
246179,-58.8235294117647,4,2,3,70,0,1
246268,-58.8235294117647,4,2,1,70,0,1
248473,-50,4,2,1,70,0,1
249003,-58.8235294117647,4,2,1,70,0,1
250415,-52.6315789473684,4,2,1,70,0,1
251826,-66.6666666666667,4,2,1,70,0,0

[Colours]
Combo1 : 226,45,124
Combo2 : 141,41,41
Combo3 : 154,154,205
Combo4 : 255,128,128

[HitObjects]
61,112,19953,6,0,P|104:45|191:57,1,157.500006008148,6|0,3:2|0:0,0:0:0:0:
187,54,20305,2,0,P|215:92|206:153,1,105.000004005432,8|0,0:2|0:0,0:0:0:0:
154,212,20658,2,0,P|132:252|171:307,2,105.000004005432,0|0|8,3:2|0:0|0:2,0:0:0:0:
233,347,21188,2,0,P|317:322|308:216,2,210.000008010865,2|2|2,0:0|0:0|0:0,0:0:0:0:
256,273,22070,1,0,3:2:0:0:
372,171,22247,5,0,0:0:0:0:
370,160,22335,1,0,0:0:0:0:
367,147,22423,1,10,0:2:0:0:
262,70,22600,1,2,0:2:0:0:
450,103,22776,6,0,P|417:37|341:38,1,157.500006008148,4|0,3:2|0:0,0:0:0:0:
334,43,23128,2,0,P|312:78|324:139,1,105.000004005432,8|0,0:2|0:0,0:0:0:0:
368,205,23482,2,0,P|390:245|356:302,2,105.000004005432,0|0|8,3:2|0:0|0:2,0:0:0:0:
302,248,24011,1,0,0:0:0:0:
231,361,24188,5,2,3:2:0:0:
203,253,24364,1,2,0:2:0:0:
232,371,24541,2,0,L|349:381,1,105.000004005432,10|0,0:2|0:2,0:0:0:0:
39,241,24894,5,2,3:2:0:0:
80,111,25070,1,2,0:2:0:0:
63,322,25247,1,10,0:2:0:0:
80,317,25335,1,0,3:2:0:0:
95,314,25423,1,0,3:2:0:0:
110,311,25511,1,0,3:2:0:0:
125,307,25600,6,0,P|184:305|231:224,1,157.500006008148,4|0,3:2|0:0,0:0:0:0:
229,215,25953,2,0,P|203:174|145:159,1,105.000004005432,8|0,0:2|0:0,0:0:0:0:
151,232,26305,1,0,3:2:0:0:
226,325,26482,5,2,0:0:0:0:
243,325,26570,1,2,0:0:0:0:
260,326,26658,1,10,0:2:0:0:
375,262,26835,1,2,0:2:0:0:
303,152,27011,6,0,P|287:102|374:50,1,157.500006008148,4|0,3:2|0:0,0:0:0:0:
373,48,27364,2,0,P|408:78|408:140,1,105.000004005432,8|0,0:2|0:0,0:0:0:0:
459,229,27717,5,2,3:2:0:0:
512,103,27894,1,2,0:2:0:0:
447,225,28070,2,0,L|338:239,1,105.000004005432,10|0,0:0|0:0,0:0:0:0:
280,291,28423,5,2,3:2:0:0:
262,214,28600,1,0,0:2:0:0:
183,279,28776,5,10,0:2:0:0:
204,163,28953,1,0,0:2:0:0:
90,225,29129,5,2,3:2:0:0:
155,106,29305,1,0,0:2:0:0:
12,135,29482,5,10,0:2:0:0:
122,36,29658,1,0,0:2:0:0:
14,144,29835,6,0,B|66:114|117:147|75:172|137:201|186:176,1,188.999994232178,2|2,3:3|0:3,0:0:0:0:
183,279,30188,2,0,B|214:228|275:233|250:275|318:271|349:226,1,188.999994232178,10|2,0:3|0:3,0:0:0:0:
405,180,30541,2,0,P|427:212|416:252,1,62.9999980773926,2|2,3:3|0:3,0:0:0:0:
498,259,30717,1,10,0:3:0:0:
495,273,30805,1,10,0:3:0:0:
492,285,30894,6,0,P|427:278|376:335,1,125.999996154785,10|0,0:1|0:0,0:0:0:0:
380,350,31158,1,0,3:0:0:0:
380,350,31247,5,4,3:2:0:0:
232,376,31423,1,2,0:2:0:0:
227,365,31511,1,2,0:2:0:0:
222,352,31600,2,0,L|233:234,1,90.9999958343508,8|2,0:2|0:2,0:0:0:0:
188,196,31864,1,2,0:2:0:0:
191,187,31953,2,0,L|306:169,2,90.9999958343508,2|0|8,3:2|0:0|0:2,0:0:0:0:
45,144,32482,6,0,P|56:125|49:145,1,62.9999980773926,2|0,0:1|0:0,0:0:0:0:
40,235,32658,6,0,P|69:224|97:240,3,45.4999979171754,2|2|2|2,3:2|0:0|0:0|0:2,0:0:0:0:
149,179,33011,2,0,P|178:190|206:174,3,45.4999979171754,10|2|2|2,0:2|0:0|0:0|0:2,0:0:0:0:
262,214,33364,5,2,3:2:0:0:
285,88,33541,1,2,0:2:0:0:
340,230,33717,5,10,0:2:0:0:
367,79,33894,1,2,0:2:0:0:
432,165,34070,6,0,B|378:160|378:160|331:94|331:94|273:86,1,181.999991668702,4|10,3:2|0:3,0:0:0:0:
211,130,34600,1,2,0:3:0:0:
107,83,34776,2,0,P|100:28|135:5,1,90.9999958343508,2|2,3:3|0:3,0:0:0:0:
218,127,35129,2,0,P|235:167|212:204,1,90.9999958343508,8|0,0:2|0:2,0:0:0:0:
125,187,35482,5,2,3:2:0:0:
29,208,35658,1,2,0:2:0:0:
73,305,35835,5,10,0:2:0:0:
166,285,36011,1,2,0:2:0:0:
249,343,36188,5,2,3:3:0:0:
249,343,36276,1,2,0:3:0:0:
249,343,36364,2,0,L|325:332,1,45.4999979171754,10|2,0:3|0:3,0:0:0:0:
357,271,36541,5,8,0:2:0:0:
376,267,36629,1,0,3:2:0:0:
395,273,36717,1,0,3:2:0:0:
408,285,36805,1,0,3:2:0:0:
430,330,36894,6,0,L|441:216,1,90.9999958343508,4|0,3:2|0:0,0:0:0:0:
456,160,37158,1,2,0:2:0:0:
450,151,37247,2,0,L|338:167,1,90.9999958343508,10|2,0:3|0:3,0:0:0:0:
249,123,37600,2,0,P|230:162|247:203,2,90.9999958343508,0|0|8,3:2|0:0|0:2,0:0:0:0:
404,73,38129,6,0,P|393:89|401:69,1,62.9999980773926,2|0,0:1|0:0,0:0:0:0:
470,30,38305,6,0,P|426:38|387:16,1,90.9999958343508,0|0,3:2|0:0,0:0:0:0:
270,38,38658,1,10,0:3:0:0:
257,37,38747,1,2,0:3:0:0:
243,35,38835,1,2,0:3:0:0:
227,33,38923,1,2,0:3:0:0:
210,18,39011,2,0,L|153:26,3,45.4999979171754,2|2|2|2,3:3|0:3|0:3|0:3,0:0:0:0:
132,91,39364,1,8,0:2:0:0:
232,168,39541,6,0,P|252:160|229:162,1,62.9999980773926,2|0,0:1|0:0,0:0:0:0:
150,216,39717,5,4,3:2:0:0:
173,334,39894,2,0,P|219:324|238:276,2,90.9999958343508,0|10|2,0:0|0:3|0:3,0:0:0:0:
86,329,40335,1,2,0:3:0:0:
77,325,40423,2,0,B|63:287|63:287|110:207|110:207|88:143,1,168,2|0,3:2|0:2,0:0:0:0:
82,170,40776,5,10,0:2:0:0:
109,0,40953,1,0,0:2:0:0:
219,103,41129,5,2,3:2:0:0:
230,97,41217,1,2,0:0:0:0:
245,92,41305,1,2,0:0:0:0:
259,96,41394,1,2,0:2:0:0:
273,104,41482,2,0,P|311:123|376:51,1,136.499993751526,10|2,0:3|0:3,0:0:0:0:
374,53,41835,6,0,P|398:32|437:42,3,56,2|0|8|2,3:2|0:0|0:2|0:2,0:0:0:0:
481,102,42188,5,10,0:2:0:0:
477,127,42276,1,0,3:2:0:0:
473,151,42364,1,0,3:2:0:0:
471,173,42453,1,0,3:0:0:0:
469,193,42541,6,0,L|483:264,3,45.4999979171754,6|2|2|2,3:2|0:0|0:0|0:2,0:0:0:0:
374,190,42894,2,0,P|313:183|276:250,1,125.999996154785,10|2,0:3|0:3,0:0:0:0:
183,299,43247,6,0,L|197:228,3,45.4999979171754,2|2|2|2,3:2|0:0|0:0|0:2,0:0:0:0:
113,345,43600,2,0,P|52:352|15:285,1,125.999996154785,10|0,0:2|0:2,0:0:0:0:
35,156,43953,6,0,L|127:164,1,90.9999958343508,0|0,3:2|0:0,0:0:0:0:
207,179,44217,1,2,0:2:0:0:
214,171,44305,2,0,L|199:60,1,90.9999958343508,10|2,0:3|0:3,0:0:0:0:
222,50,44570,1,2,0:3:0:0:
226,41,44658,2,0,L|283:37,2,45.4999979171754,2|2|2,3:3|0:3|0:3,0:0:0:0:
437,87,45011,5,10,0:2:0:0:
464,117,45100,2,0,P|448:177|381:192,1,125.999996154785,2|0,0:2|0:2,0:0:0:0:
310,212,45364,6,0,L|316:152,3,45.4999979171754,6|2|2|2,3:2|0:0|0:0|0:2,0:0:0:0:
236,268,45717,1,8,0:2:0:0:
119,154,45894,6,0,P|112:133|126:151,1,62.9999980773926,2|0,0:1|0:0,0:0:0:0:
231,151,46070,5,6,3:2:0:0:
211,186,46158,2,0,P|139:187|102:249,1,125.999996154785,2|0,0:2|0:2,0:0:0:0:
112,237,46423,1,8,0:2:0:0:
171,359,46600,6,0,P|164:380|178:362,1,62.9999980773926,2|0,0:1|0:0,0:0:0:0:
83,347,46776,6,0,P|70:354|31:354,2,45.4999979171754,2|2|2,3:2|0:2|0:2,0:0:0:0:
31,213,47129,1,2,0:2:0:0:
118,152,47305,1,2,0:2:0:0:
120,138,47394,1,2,0:2:0:0:
123,122,47482,2,0,B|129:76|100:60|99:80|63:54|86:-2,1,112,2|8,0:0|0:2,0:0:0:0:
238,35,47835,5,0,3:2:0:0:
291,30,47923,1,0,3:2:0:0:
326,63,48011,1,0,3:2:0:0:
328,103,48100,1,0,3:2:0:0:
318,119,48188,6,0,P|267:144|261:204,1,105.000004005432,6|0,3:2|0:0,0:0:0:0:
288,282,48541,5,8,0:2:0:0:
402,286,48717,2,0,B|357:267|273:302|347:325|297:372|223:359,1,210.000008010865,2|0,0:2|0:2,0:0:0:0:
206,243,49247,5,8,0:2:0:0:
141,304,49423,2,0,B|107:318|44:291|99:274|62:239|7:248,1,157.500006008148,2|0,0:2|0:0,0:0:0:0:
0,252,49776,1,2,0:2:0:0:
89,175,49953,5,10,0:2:0:0:
7,80,50129,1,2,3:2:0:0:
4,68,50217,1,0,3:0:0:0:
1,55,50305,1,0,3:0:0:0:
121,21,50482,1,0,0:2:0:0:
191,112,50658,2,0,P|217:66|278:71,1,105.000004005432,8|0,0:2|0:2,0:0:0:0:
288,92,50923,1,0,3:2:0:0:
288,92,51011,1,0,3:2:0:0:
437,71,51188,5,2,0:2:0:0:
382,169,51364,2,0,L|396:277,1,105.000004005432,10|2,0:2|0:2,0:0:0:0:
388,379,51717,5,2,3:2:0:0:
309,245,51894,1,2,0:2:0:0:
269,353,52070,1,10,0:2:0:0:
215,272,52247,2,0,L|102:291,1,105.000004005432,2|0,0:2|3:0,0:0:0:0:
47,105,52600,6,0,B|21:125|21:125|35:156,1,62.9999980773926,8|0,0:2|0:0,0:0:0:0:
136,139,52776,1,8,0:2:0:0:
30,167,52953,6,0,B|119:176|119:176|123:172|123:172|262:184,1,188.999994232178,4|0,3:2|0:2,0:0:0:0:
226,189,53305,1,8,0:2:0:0:
368,159,53482,1,10,0:2:0:0:
381,111,53570,1,0,3:2:0:0:
361,76,53658,1,2,3:2:0:0:
324,65,53747,1,0,3:2:0:0:
303,72,53835,6,0,P|314:146|448:160,1,210.000008010865,6|8,3:2|0:2,0:0:0:0:
512,122,54364,1,2,0:2:0:0:
443,47,54541,2,0,P|403:55|388:129,1,105.000004005432,2|0,3:2|0:0,0:0:0:0:
446,262,54894,2,0,P|486:254|501:180,1,105.000004005432,10|0,0:2|0:0,0:0:0:0:
366,196,55247,5,6,3:2:0:0:
335,355,55423,1,0,0:2:0:0:
285,243,55600,2,0,B|232:250|232:250|229:255|229:255|160:264,1,105.000004005432,8|8,0:2|0:2,0:0:0:0:
108,215,55864,1,8,0:2:0:0:
100,224,55953,5,2,3:3:0:0:
73,196,56041,1,2,3:3:0:0:
67,148,56129,1,2,3:3:0:0:
99,110,56217,1,2,3:3:0:0:
148,111,56305,2,0,L|210:106,3,52.5000020027161,2|2|2|2,3:3|3:3|3:3|3:3,0:0:0:0:
272,52,56658,6,0,B|267:82|296:94|296:94|317:59|281:38,1,105.000004005432,4|0,3:2|0:2,0:0:0:0:
225,200,57011,5,8,0:2:0:0:
282,135,57188,2,0,P|368:110|452:153,1,167.999994873047,6|0,0:2|0:2,0:0:0:0:
372,270,57717,5,8,0:2:0:0:
446,225,57894,2,0,P|371:222|302:316,1,181.999991668702,6|0,3:2|0:2,0:0:0:0:
204,224,58423,5,8,0:2:0:0:
218,351,58600,2,0,P|204:276|121:275,1,146.999995513916,6|0,0:2|0:0,0:0:0:0:
135,271,58952,5,8,0:2:0:0:
87,69,59129,1,8,0:2:0:0:
52,164,59305,6,0,P|120:176|188:64,1,210.000008010865,6|0,3:2|0:2,0:0:0:0:
331,33,59835,5,8,0:2:0:0:
266,96,60011,2,0,P|329:73|383:219,1,224,6|0,0:2|0:2,0:0:0:0:
419,338,60541,5,8,0:2:0:0:
465,255,60717,2,0,P|392:197|313:302,1,238.00000453949,6|0,3:2|0:2,0:0:0:0:
239,176,61247,5,8,0:2:0:0:
233,331,61423,2,0,P|144:360|102:224,1,251.999992309571,6|8,0:2|0:2,0:0:0:0:
231,183,61952,5,8,0:2:0:0:
214,73,62129,1,10,0:2:0:0:
214,73,62482,5,0,0:2:0:0:
250,6,62658,6,0,P|278:32|288:77,1,70,8|0,0:2|0:2,0:0:0:0:
336,28,63011,2,0,P|309:51|303:95,1,70,0|0,0:2|0:2,0:0:0:0:
270,121,63364,6,0,P|298:147|308:192,1,70,8|0,0:2|0:2,0:0:0:0:
379,159,63717,2,0,P|352:182|346:226,1,70,0|0,0:2|0:2,0:0:0:0:
257,232,64070,6,0,P|285:258|295:303,1,70,8|0,0:2|0:2,0:0:0:0:
395,287,64423,2,0,P|368:310|362:354,1,70,0|0,0:2|0:2,0:0:0:0:
292,384,64776,5,8,0:2:0:0:
292,384,64952,1,0,0:2:0:0:
130,297,65305,5,2,0:2:0:0:
62,339,65482,2,0,L|135:327,1,70,2|0,0:2|0:2,0:0:0:0:
136,217,65835,2,0,L|221:231,1,70,2|0,0:2|0:2,0:0:0:0:
220,312,66188,2,0,L|293:300,1,70,2|0,0:2|0:2,0:0:0:0:
292,384,66541,1,4,3:2:0:0:
491,234,66717,5,2,0:2:0:0:
390,285,66894,2,0,P|361:253|384:177,1,119.000002269745,10|0,0:2|0:2,0:0:0:0:
454,11,67247,5,2,3:2:0:0:
451,148,67423,2,0,P|406:156|354:108,1,119.000002269745,2|8,0:2|0:0,0:0:0:0:
449,23,67776,1,2,0:2:0:0:
265,144,67952,5,2,3:2:0:0:
239,22,68129,1,2,0:2:0:0:
354,110,68305,1,10,0:2:0:0:
295,226,68482,1,2,3:2:0:0:
283,229,68570,1,0,3:2:0:0:
271,232,68658,1,0,3:2:0:0:
165,159,68835,6,0,P|159:137|172:158,1,70,2|0,0:1|0:0,0:0:0:0:
165,275,69011,2,0,P|90:319|65:211,1,210,10|0,0:1|0:2,0:0:0:0:
62,227,69364,1,4,3:2:0:0:
98,3,69541,5,2,0:2:0:0:
5,85,69717,2,0,P|20:121|100:127,1,119.000002269745,10|0,0:2|0:2,0:0:0:0:
330,43,70070,5,2,3:2:0:0:
209,0,70247,2,0,P|185:35|225:100,1,119.000002269745,2|8,0:2|0:0,0:0:0:0:
341,41,70600,1,2,0:2:0:0:
355,38,70688,1,2,0:2:0:0:
368,34,70776,6,0,B|362:77|362:77|252:119|252:119|243:174,1,199.499994672775,6|0,3:2|0:2,0:0:0:0:
235,149,71129,2,0,B|241:192|241:192|351:234|351:234|360:289,1,199.499994672775,14|0,2:2|2:2,2:2:0:0:
366,262,71482,2,0,B|360:305|360:305|250:347|250:347|241:402,1,199.499994672775,6|0,3:2|2:2,2:2:0:0:
259,384,71835,5,8,0:2:0:0:
253,351,71923,1,0,3:2:0:0:
249,317,72011,1,0,3:2:0:0:
245,285,72100,1,0,3:2:0:0:
241,252,72188,5,4,3:2:0:0:
131,184,72364,2,0,P|102:227|129:280,1,105.000004005432,2|8,0:2|0:2,0:0:0:0:
234,170,72717,1,2,0:2:0:0:
234,170,72894,2,0,L|350:159,1,105.000004005432,0|0,3:0|0:0,0:0:0:0:
412,86,73247,1,8,0:2:0:0:
434,182,73423,1,2,0:2:0:0:
345,0,73600,5,0,3:2:0:0:
271,102,73776,2,0,P|277:135|352:149,1,105.000004005432,2|8,0:2|0:2,0:0:0:0:
496,239,74129,1,2,0:2:0:0:
496,239,74305,2,0,P|442:234|417:278,1,105.000004005432,0|0,3:0|0:2,0:0:0:0:
451,379,74658,2,0,P|430:318|337:324,1,157.500006008148,8|0,0:2|0:2,0:0:0:0:
335,326,75011,6,0,B|298:273|331:200|361:269|391:174|356:133,1,210.000008010865,2|8,3:2|0:0,0:0:0:0:
279,76,75541,1,0,0:0:0:0:
233,210,75717,1,0,3:2:0:0:
155,40,75894,5,2,0:2:0:0:
293,155,76070,1,10,0:2:0:0:
120,219,76247,1,2,0:2:0:0:
270,63,76423,6,0,B|350:57|367:138|367:138|324:157|342:217,1,199.499994672775,6|0,3:2|0:2,0:0:0:0:
415,205,76776,2,0,B|335:199|318:280|318:280|361:299|343:359,1,199.499994672775,14|0,0:2|0:2,0:0:0:0:
409,376,77129,2,0,P|426:350|423:310,1,66.4999982242585,6|0,3:2|3:0,0:0:0:0:
273,339,77305,1,0,3:0:0:0:
244,349,77394,1,0,3:2:0:0:
231,368,77482,6,0,B|136:357|136:357|130:351|130:351|12:336,1,199.499994672775,10|0,0:1|3:2,0:0:0:0:
27,330,77835,1,4,3:2:0:0:
122,138,78011,5,2,0:2:0:0:
24,206,78188,2,0,P|46:246|129:241,1,119.000002269745,10|0,0:2|0:2,0:0:0:0:
268,96,78541,5,2,3:2:0:0:
123,36,78717,2,0,P|96:79|126:140,1,119.000002269745,2|8,0:2|0:0,0:0:0:0:
256,97,79070,1,2,0:2:0:0:
113,220,79247,5,2,3:2:0:0:
318,261,79423,1,2,0:2:0:0:
158,318,79600,1,10,0:2:0:0:
272,186,79776,1,2,3:2:0:0:
289,182,79864,1,0,3:2:0:0:
306,177,79952,1,0,3:2:0:0:
415,260,80129,6,0,P|401:280|409:256,1,70,2|0,0:1|0:0,0:0:0:0:
444,153,80305,2,0,P|379:179|336:61,1,210,10|0,0:1|0:2,0:0:0:0:
338,70,80658,1,4,3:2:0:0:
181,152,80835,5,2,0:2:0:0:
153,31,81011,2,0,P|191:13|252:59,1,119.000002269745,10|0,0:2|0:2,0:0:0:0:
128,247,81364,5,2,3:2:0:0:
16,143,81541,2,0,P|39:103|119:107,1,119.000002269745,2|8,0:2|0:0,0:0:0:0:
139,251,81894,1,2,0:2:0:0:
149,255,81982,1,2,0:2:0:0:
162,260,82070,6,0,B|203:247|203:247|218:124|218:124|262:110,1,199.499994672775,6|0,3:2|0:2,0:0:0:0:
260,107,82423,2,0,B|301:120|301:120|316:243|316:243|360:257,1,199.499994672775,14|0,0:2|0:2,0:0:0:0:
352,244,82776,2,0,B|393:231|393:231|408:108|408:108|452:94,1,199.499994672775,6|0,3:2|0:2,0:0:0:0:
447,105,83129,5,8,0:2:0:0:
414,98,83217,1,0,3:2:0:0:
380,95,83305,1,0,3:2:0:0:
348,91,83394,1,0,3:2:0:0:
315,87,83482,5,4,3:2:0:0:
171,108,83658,2,0,P|169:143|234:182,1,105.000004005432,2|8,0:2|0:2,0:0:0:0:
216,22,84011,1,2,0:2:0:0:
216,22,84188,2,0,P|155:32|100:37,1,105.000004005432,0|0,3:0|0:0,0:0:0:0:
21,98,84541,1,8,0:2:0:0:
146,183,84717,1,2,0:2:0:0:
34,284,84894,5,0,3:2:0:0:
210,224,85070,2,0,P|226:164|187:127,1,105.000004005432,2|8,0:2|0:2,0:0:0:0:
131,302,85423,1,2,0:2:0:0:
131,302,85600,2,0,P|173:304|246:329,1,105.000004005432,0|0,3:0|0:2,0:0:0:0:
376,357,85952,1,8,0:2:0:0:
390,207,86129,1,0,3:0:0:0:
288,273,86305,5,4,3:2:0:0:
470,228,86482,1,0,0:2:0:0:
285,285,86658,5,8,0:2:0:0:
492,320,86835,1,0,0:2:0:0:
440,142,87011,5,2,3:2:0:0:
380,282,87188,2,0,P|329:261|318:201,1,105.000004005432,2|8,0:2|0:2,0:0:0:0:
372,90,87541,1,2,0:2:0:0:
372,90,87717,6,0,P|320:108|255:117,1,105.000004005432,0|0,3:0|0:2,0:0:0:0:
211,18,88070,1,8,0:2:0:0:
117,113,88247,1,0,3:2:0:0:
99,124,88335,1,0,3:0:0:0:
84,126,88423,2,0,P|148:100|166:187,1,157.500006008148,0|0,3:2|0:2,0:0:0:0:
167,175,88776,1,8,0:2:0:0:
136,304,88952,1,0,3:0:0:0:
252,228,89129,5,4,3:2:0:0:
53,208,89305,1,0,0:2:0:0:
267,231,89482,5,8,0:2:0:0:
32,293,89658,1,0,0:2:0:0:
243,377,89835,5,2,3:2:0:0:
136,304,90011,2,0,P|127:267|181:215,1,105.000004005432,2|8,0:2|0:2,0:0:0:0:
289,129,90364,1,2,0:2:0:0:
289,129,90541,6,0,P|272:184|267:252,1,105.000004005432,4|8,3:2|0:2,0:0:0:0:
287,257,90805,1,8,0:2:0:0:
287,257,90894,1,8,0:2:0:0:
429,178,91070,1,8,0:2:0:0:
429,178,91158,1,8,0:2:0:0:
429,178,91247,5,8,0:2:0:0:
446,165,91335,1,8,0:2:0:0:
453,144,91423,1,8,0:2:0:0:
444,120,91511,1,8,0:2:0:0:
422,105,91599,1,8,0:2:0:0:
379,101,91688,1,8,0:2:0:0:
336,115,91776,1,8,0:2:0:0:
297,95,91864,1,8,0:2:0:0:
286,51,91952,5,4,3:2:0:0:
453,309,92482,5,0,3:2:0:0:
453,309,92658,2,0,P|391:315|335:333,1,105.000004005432,0|8,3:2|0:2,0:0:0:0:
285,273,93364,1,0,3:2:0:0:
57,159,93894,5,0,3:2:0:0:
23,285,94070,1,0,3:2:0:0:
173,215,94247,1,2,0:2:0:0:
168,204,94335,1,2,0:2:0:0:
162,194,94423,2,0,B|165:156|151:132|135:155|121:120|136:83,1,105.000004005432,10|2,0:2|0:2,0:0:0:0:
196,40,94776,5,0,3:2:0:0:
371,132,95305,5,0,3:2:0:0:
371,132,95482,2,0,P|423:141|489:166,1,105.000004005432,0|8,3:2|0:2,0:0:0:0:
413,356,96188,5,6,3:2:0:0:
447,246,96364,1,0,0:0:0:0:
410,368,96541,2,0,P|367:313|317:320,1,105.000004005432,10|0,0:2|0:0,0:0:0:0:
194,214,96894,5,6,3:2:0:0:
224,343,97070,1,0,0:0:0:0:
129,148,97247,1,10,0:2:0:0:
147,144,97335,1,8,0:2:0:0:
162,139,97423,1,0,3:2:0:0:
178,135,97511,1,0,3:2:0:0:
195,132,97600,6,0,P|203:85|268:69,1,105.000004005432,0|0,3:0|0:0,0:0:0:0:
387,33,98129,5,0,3:2:0:0:
421,150,98305,2,0,P|372:138|326:133,1,78.7500030040742,0|0,3:2|0:2,0:0:0:0:
333,138,98658,2,0,B|320:199|371:167|348:253,1,105.000004005432,10|0,0:2|0:0,0:0:0:0:
289,314,99011,2,0,P|248:259|113:277,1,210.000008010865,0|0,3:2|0:2,3:2:0:0:
28,95,99541,5,0,3:2:0:0:
51,198,99717,1,0,3:2:0:0:
26,82,99894,1,10,0:2:0:0:
54,210,100070,2,0,B|127:204|74:163|162:159,1,105.000004005432,10|0,0:2|3:2,0:0:0:0:
252,183,100423,5,2,3:2:0:0:
311,129,100600,2,0,L|307:91,2,26.2500010013581,2|2|2,0:2|0:2|0:2,0:0:0:0:
389,158,100952,1,2,0:2:0:0:
405,234,101129,5,2,0:2:0:0:
403,246,101305,1,2,0:2:0:0:
401,259,101482,1,2,0:2:0:0:
399,273,101658,1,2,0:2:0:0:
423,349,101835,6,0,P|389:317|327:324,2,105.000004005432,2|2|2,0:2|0:2|0:2,0:0:0:0:
259,302,102894,5,8,0:2:0:0:
217,345,102982,1,8,0:2:0:0:
167,337,103070,1,0,3:2:0:0:
146,299,103158,1,0,3:2:0:0:
152,271,103247,6,0,L|136:126,1,136.499993751526,4|0,3:2|0:2,0:0:0:0:
139,125,103600,2,0,P|177:109|230:157,1,90.9999958343508,8|0,0:2|0:0,0:0:0:0:
307,199,103952,1,2,3:2:0:0:
319,208,104041,1,2,0:2:0:0:
333,210,104129,1,2,0:2:0:0:
350,208,104217,1,2,0:2:0:0:
386,221,104305,6,0,P|388:163|404:71,1,125.999996154785,10|0,0:1|0:0,0:0:0:0:
482,33,104658,5,2,3:2:0:0:
485,45,104747,1,2,0:0:0:0:
488,56,104835,1,2,0:0:0:0:
312,60,105011,2,0,P|307:93|293:143,2,62.9999980773926,10|2|2,0:1|0:2|0:2,0:0:0:0:
488,209,105364,5,2,3:2:0:0:
467,252,105452,2,0,P|393:249|354:315,1,125.999996154785,2|2,0:0|0:2,0:0:0:0:
348,293,105717,2,0,P|358:324|367:376,2,62.9999980773926,10|2|2,0:1|0:2|0:2,0:0:0:0:
274,233,106070,6,0,L|170:228,1,90.9999958343508,4|0,3:2|0:0,0:0:0:0:
114,263,106335,1,2,0:2:0:0:
105,266,106423,2,0,L|88:154,1,90.9999958343508,10|2,0:3|0:3,0:0:0:0:
59,62,106776,1,2,3:2:0:0:
30,60,106864,1,2,0:2:0:0:
0,59,106952,1,2,0:2:0:0:
123,15,107129,2,0,B|171:21|171:21|189:43|189:43|257:52,1,125.999996154785,10|0,0:2|0:2,0:0:0:0:
264,74,107394,1,2,0:1:0:0:
264,74,107482,6,0,L|332:62,3,45.4999979171754,2|2|2|2,3:2|0:0|0:0|0:2,0:0:0:0:
207,134,107835,1,8,0:2:0:0:
390,90,108011,1,0,0:0:0:0:
301,183,108188,5,2,3:2:0:0:
297,208,108276,1,2,3:2:0:0:
294,232,108364,1,14,0:2:0:0:
290,256,108452,1,10,0:2:0:0:
298,279,108541,5,0,3:2:0:0:
294,299,108629,1,0,3:2:0:0:
292,318,108717,1,0,3:2:0:0:
289,337,108805,1,0,3:2:0:0:
277,346,108894,6,0,L|214:352,3,45.4999979171754,6|2|2|2,3:2|0:2|0:2|0:2,0:0:0:0:
395,370,109247,2,0,P|443:360|432:277,1,136.499993751526,10|0,0:2|0:2,0:0:0:0:
440,277,109600,6,0,P|413:281|371:272,1,62.9999980773926,2|0,3:2|0:2,0:0:0:0:
330,204,109776,2,0,P|303:200|261:209,1,62.9999980773926,2|0,0:2|0:2,0:0:0:0:
222,275,109952,2,0,B|248:207|219:155|195:211|175:127|192:96,1,188.999994232178,10|0,0:1|0:2,0:0:0:0:
204,86,110305,5,2,3:2:0:0:
225,51,110394,2,0,P|278:59|320:63,1,90.9999958343508,2|2,0:2|0:2,0:0:0:0:
378,101,110658,1,10,0:2:0:0:
388,90,110747,2,0,P|413:84|439:76,2,45.4999979171754,2|2|2,0:2|0:2|0:2,0:0:0:0:
317,168,111011,6,0,P|300:153|319:162,1,62.9999980773926,2|0,3:1|0:2,0:0:0:0:
396,221,111188,2,0,P|413:206|394:215,1,62.9999980773926,2|0,0:1|0:2,0:0:0:0:
321,267,111364,6,0,P|304:252|323:261,1,62.9999980773926,10|0,0:1|0:2,0:0:0:0:
377,334,111541,2,0,P|394:319|375:328,1,62.9999980773926,2|0,0:1|0:2,0:0:0:0:
333,357,111717,6,0,P|302:356|279:379,3,45.4999979171754,6|2|2|2,3:2|0:0|0:0|0:2,0:0:0:0:
235,310,112070,2,0,P|204:311|181:288,3,45.4999979171754,10|2|2|2,0:2|0:0|0:0|0:2,0:0:0:0:
126,343,112423,5,2,3:2:0:0:
98,142,112600,1,2,0:2:0:0:
12,290,112776,1,10,0:2:0:0:
18,298,112864,2,0,B|45:293|45:293|74:228|74:228|115:218,1,125.999996154785,2|0,0:1|0:2,0:0:0:0:
120,226,113129,6,0,P|151:230|176:234,2,45.4999979171754,2|2|2,3:2|0:0|0:0,0:0:0:0:
235,310,113482,2,0,P|268:319|314:248,1,125.999996154785,10|2,0:3|0:3,0:0:0:0:
287,225,113747,1,2,0:3:0:0:
275,220,113835,2,0,P|267:185|263:145,2,62.9999980773926,2|2|10,3:2|0:0|0:2,0:0:0:0:
337,71,114188,5,10,0:2:0:0:
387,64,114276,1,2,3:2:0:0:
423,93,114364,1,2,3:2:0:0:
427,131,114452,1,0,3:0:0:0:
419,154,114541,6,0,P|392:158|367:173,3,45.4999979171754,6|2|2|2,3:2|0:0|0:0|0:2,0:0:0:0:
455,223,114894,1,8,0:2:0:0:
263,158,115070,1,0,0:0:0:0:
424,327,115247,5,2,3:2:0:0:
405,293,115335,2,0,B|371:282|340:307|376:324|331:360|272:333,1,125.999996154785,2|0,0:1|0:2,0:0:0:0:
236,302,115600,1,10,0:2:0:0:
230,318,115688,2,0,B|196:329|165:304|201:287|156:251|97:278,1,125.999996154785,2|0,0:1|0:2,0:0:0:0:
117,277,115952,5,0,3:2:0:0:
0,355,116129,1,0,0:0:0:0:
50,195,116305,2,0,P|68:174|148:192,1,105.000004005432,10|2,0:3|0:3,0:0:0:0:
288,153,116658,1,2,3:2:0:0:
286,168,116747,1,2,0:0:0:0:
284,182,116835,1,2,0:0:0:0:
230,318,117011,6,0,B|214:289|214:289|237:265,1,62.9999980773926,10|2,0:1|0:2,0:0:0:0:
311,276,117188,2,0,B|327:305|327:305|304:329,1,62.9999980773926,2|0,0:2|0:0,0:0:0:0:
225,328,117364,6,0,P|147:340|110:352,1,90.9999958343508,4|0,3:2|0:0,0:0:0:0:
72,272,117717,1,10,0:2:0:0:
158,186,117894,6,0,P|162:167|163:189,1,62.9999980773926,2|0,0:1|0:0,0:0:0:0:
61,194,118070,5,2,3:2:0:0:
71,188,118158,2,0,P|67:143|43:86,1,90.9999958343508,2|2,0:0|0:2,0:0:0:0:
40,102,118423,1,10,0:2:0:0:
174,39,118600,6,0,P|158:25|176:36,1,62.9999980773926,2|0,0:1|0:0,0:0:0:0:
247,78,118776,2,0,P|280:66|299:72,2,45.4999979171754,2|2|2,3:2|0:2|0:2,0:0:0:0:
158,186,119129,1,2,0:2:0:0:
220,263,119305,1,2,0:2:0:0:
220,263,119394,1,2,0:2:0:0:
220,263,119482,2,0,P|244:223|317:232,1,112,0|8,0:0|0:2,0:0:0:0:
333,226,119747,1,8,0:2:0:0:
338,236,119835,5,0,3:2:0:0:
388,226,119923,1,0,3:2:0:0:
404,183,120011,1,0,3:2:0:0:
387,149,120100,1,0,3:2:0:0:
366,138,120188,6,0,P|332:141|296:80,1,105.000004005432,6|0,3:2|0:0,0:0:0:0:
392,24,120541,5,8,0:2:0:0:
497,68,120717,2,0,B|522:124|474:187|467:132|399:175|429:259,1,210.000008010865,2|0,0:2|0:2,0:0:0:0:
437,336,121247,5,8,0:2:0:0:
339,368,121423,2,0,B|359:313|305:279|299:323|261:273|281:228,1,157.500006008148,2|0,0:2|0:0,0:0:0:0:
288,228,121776,1,2,0:2:0:0:
165,258,121952,5,10,0:2:0:0:
178,125,122129,1,2,3:2:0:0:
180,115,122217,1,0,3:0:0:0:
184,103,122305,2,0,P|204:62|269:69,1,105.000004005432,0|0,3:0|0:2,0:0:0:0:
285,89,122570,1,0,3:0:0:0:
285,89,122658,2,0,L|397:77,1,105.000004005432,8|0,0:2|0:2,0:0:0:0:
455,126,123011,1,0,3:2:0:0:
326,258,123188,5,2,0:2:0:0:
297,182,123364,1,10,0:2:0:0:
404,240,123541,1,2,0:2:0:0:
284,336,123717,5,2,3:2:0:0:
211,190,123894,1,2,0:2:0:0:
181,290,124070,1,10,0:2:0:0:
297,182,124247,2,0,P|304:149|253:93,1,105.000004005432,2|0,0:2|3:0,0:0:0:0:
133,0,124600,6,0,P|130:39|101:45,1,62.9999980773926,8|0,0:2|0:0,0:0:0:0:
42,8,124776,1,8,0:2:0:0:
19,152,124952,6,0,P|49:108|183:105,1,188.999994232178,4|0,3:2|0:2,0:0:0:0:
178,109,125305,1,8,0:2:0:0:
209,246,125482,1,8,0:2:0:0:
252,268,125570,1,0,3:2:0:0:
292,252,125658,1,0,3:2:0:0:
308,215,125747,1,0,3:2:0:0:
297,182,125835,6,0,P|290:119|418:105,1,210.000008010865,4|8,3:2|0:2,0:0:0:0:
512,180,126364,1,2,0:2:0:0:
475,274,126541,2,0,P|434:260|373:255,1,105.000004005432,2|0,3:2|0:0,0:0:0:0:
359,145,126894,2,0,P|283:168|171:172,1,157.500006008148,10|0,0:2|0:2,0:0:0:0:
195,163,127247,5,6,3:2:0:0:
259,79,127423,1,0,0:2:0:0:
101,7,127600,1,10,0:3:0:0:
88,27,127688,1,2,3:3:0:0:
82,52,127776,1,10,0:3:0:0:
84,77,127864,1,10,0:3:0:0:
88,99,127952,6,0,P|131:97|170:46,1,105.000004005432,2|2,3:3|3:3,0:0:0:0:
281,5,128305,1,2,3:3:0:0:
281,5,128394,1,2,3:3:0:0:
281,5,128482,1,2,3:3:0:0:
340,93,128658,6,0,B|362:117|340:140|340:140|307:139|301:98,1,105.000004005432,6|0,3:2|0:2,0:0:0:0:
461,246,129011,5,8,0:2:0:0:
456,169,129188,2,0,B|422:118|352:149|368:209|368:209|381:214|392:242,1,167.999994873047,6|0,0:2|0:2,0:0:0:0:
308,259,129717,5,8,0:2:0:0:
293,348,129894,2,0,B|257:400|184:368|201:305|201:305|215:300|226:271,1,181.999991668702,6|0,3:2|0:2,0:0:0:0:
98,158,130423,5,8,0:2:0:0:
96,262,130600,2,0,P|99:212|201:194,1,146.999995513916,6|0,0:2|0:0,0:0:0:0:
184,190,130952,5,8,0:2:0:0:
344,155,131129,1,8,0:2:0:0:
289,33,131305,6,0,B|231:-12|163:49|203:112|203:112|226:114|244:140,1,210.000008010865,6|0,3:2|0:2,0:0:0:0:
282,251,131835,5,8,0:2:0:0:
344,155,132011,2,0,B|402:108|473:172|431:236|431:236|404:240|390:265,1,224,6|0,0:2|0:2,0:0:0:0:
213,293,132541,5,8,0:2:0:0:
181,189,132717,2,0,B|117:139|41:208|86:277|86:277|111:279|131:309,1,238.00000453949,6|0,3:2|0:2,0:0:0:0:
291,364,133247,5,8,0:2:0:0:
362,238,133423,2,0,B|430:183|512:257|464:332|464:332|437:335|415:366,1,251.999992309571,6|8,0:2|0:2,0:0:0:0:
300,363,133952,5,8,0:2:0:0:
269,268,134129,1,10,0:2:0:0:
219,60,134482,5,0,0:2:0:0:
159,114,134658,6,0,P|185:94|229:117,1,70,8|0,0:2|0:2,0:0:0:0:
353,114,135011,2,0,P|327:94|283:117,1,70,0|0,0:2|0:2,0:0:0:0:
183,176,135364,6,0,P|155:152|151:111,1,70,8|0,0:2|0:2,0:0:0:0:
325,176,135717,2,0,P|353:152|357:111,1,70,0|0,0:2|0:2,0:0:0:0:
220,237,136070,6,0,P|206:205|170:182,1,70,8|0,0:2|0:2,0:0:0:0:
293,239,136423,2,0,P|307:207|343:184,1,70,0|0,0:2|0:2,0:0:0:0:
257,305,136776,5,8,0:2:0:0:
257,305,136952,1,0,0:2:0:0:
451,242,137305,5,2,0:2:0:0:
481,159,137482,2,0,P|469:134|463:83,1,70,2|0,0:2|0:2,0:0:0:0:
369,32,137835,2,0,P|364:66|350:98,1,70,2|0,0:2|0:2,0:0:0:0:
281,155,138188,2,0,P|269:130|263:79,1,70,2|0,0:2|0:2,0:0:0:0:
199,42,138541,1,4,3:2:0:0:
92,249,138717,5,2,0:2:0:0:
63,138,138894,2,0,P|102:136|193:151,1,119.000002269745,10|0,0:2|0:2,0:0:0:0:
159,367,139247,5,2,3:2:0:0:
196,242,139423,2,0,P|254:231|313:232,1,119.000002269745,2|8,0:2|0:0,0:0:0:0:
357,319,139776,1,2,0:2:0:0:
377,122,139952,5,2,3:2:0:0:
438,268,140129,1,2,0:2:0:0:
476,95,140305,1,10,0:2:0:0:
313,232,140482,1,2,3:2:0:0:
298,229,140570,1,0,3:2:0:0:
283,227,140658,1,0,3:2:0:0:
225,48,140835,6,0,B|222:71|214:82|214:82|230:73|257:76,1,70,2|0,0:1|0:0,0:0:0:0:
377,122,141011,2,0,B|329:121|295:62|295:62|288:135|232:161,1,210,10|0,0:1|0:2,0:0:0:0:
236,153,141364,1,4,3:2:0:0:
95,75,141541,5,2,0:2:0:0:
15,210,141717,2,0,P|68:208|138:235,1,119.000002269745,10|0,0:2|0:2,0:0:0:0:
236,153,142070,5,2,3:2:0:0:
157,321,142246,2,0,P|206:297|281:297,1,119.000002269745,2|8,0:2|0:0,0:0:0:0:
343,384,142600,1,2,0:2:0:0:
346,370,142688,1,2,0:2:0:0:
350,354,142776,6,0,B|426:341|426:341|432:331|432:331|390:208,1,199.499994672775,6|0,3:2|0:2,0:0:0:0:
388,248,143129,2,0,B|312:235|312:235|306:225|306:225|348:102,1,199.499994672775,14|0,0:2|0:2,0:0:0:0:
352,128,143482,2,0,B|428:115|428:115|434:105|434:105|392:-18,1,199.499994672775,6|0,3:2|0:2,0:0:0:0:
390,7,143835,5,8,0:2:0:0:
357,12,143923,1,0,3:2:0:0:
324,19,144011,1,0,3:2:0:0:
291,25,144100,1,0,3:2:0:0:
257,33,144188,5,4,3:2:0:0:
105,36,144364,2,0,P|109:75|170:106,1,105.000004005432,2|8,0:2|0:2,0:0:0:0:
268,176,144717,1,2,0:2:0:0:
268,176,144894,2,0,P|207:183|154:203,1,105.000004005432,0|0,3:0|0:0,0:0:0:0:
91,143,145247,1,8,0:2:0:0:
105,307,145423,1,2,0:2:0:0:
16,220,145600,5,0,3:2:0:0:
183,291,145776,2,0,P|189:337|141:379,1,105.000004005432,2|8,0:2|0:2,0:0:0:0:
166,197,146129,1,2,0:2:0:0:
166,197,146305,2,0,P|219:204|271:219,1,105.000004005432,0|0,3:0|0:2,0:0:0:0:
385,221,146658,2,0,P|417:176|328:158,1,157.500006008148,8|0,0:2|0:2,0:0:0:0:
340,146,147011,6,0,B|310:188|392:280|380:194|460:268|425:340,1,210.000008010865,6|8,3:2|0:0,0:0:0:0:
331,384,147541,1,0,0:0:0:0:
260,239,147717,1,0,3:2:0:0:
344,301,147894,5,2,0:2:0:0:
159,364,148070,1,10,0:2:0:0:
210,168,148247,1,2,0:2:0:0:
256,353,148423,6,0,P|160:344|157:250,1,199.499994672775,6|0,3:2|0:2,0:0:0:0:
90,216,148776,2,0,P|168:200|168:95,1,199.499994672775,14|0,0:2|0:2,0:0:0:0:
170,75,149129,2,0,P|138:66|130:32,1,66.4999982242585,6|0,3:2|3:0,0:0:0:0:
258,12,149305,1,0,3:0:0:0:
278,16,149394,1,0,3:2:0:0:
297,20,149482,6,0,B|289:115|289:115|285:118|285:118|276:240,1,199.499994672775,10|0,0:1|3:2,0:0:0:0:
286,229,149835,1,4,3:2:0:0:
488,194,150011,5,2,0:2:0:0:
395,100,150188,2,0,P|381:143|369:245,1,119.000002269745,10|0,0:2|0:2,0:0:0:0:
182,309,150541,5,2,3:2:0:0:
286,229,150717,2,0,P|300:272|312:374,1,119.000002269745,2|8,0:2|0:0,0:0:0:0:
193,308,151070,1,2,0:2:0:0:
396,270,151247,5,2,3:2:0:0:
329,366,151423,1,2,0:2:0:0:
286,229,151600,1,10,0:2:0:0:
400,172,151776,1,2,3:2:0:0:
403,158,151864,1,0,3:2:0:0:
406,143,151952,1,0,3:2:0:0:
336,43,152129,6,0,B|339:66|347:77|347:77|331:68|304:71,1,70,2|0,0:1|0:0,0:0:0:0:
183,127,152305,2,0,B|231:126|265:67|265:67|272:140|328:166,1,210,10|0,0:1|0:2,0:0:0:0:
321,154,152658,1,4,3:2:0:0:
356,287,152835,5,2,0:2:0:0:
400,172,153011,2,0,P|341:178|268:201,1,119.000002269745,10|0,0:2|0:2,0:0:0:0:
239,3,153364,5,2,3:2:0:0:
183,127,153540,2,0,P|124:120|51:97,1,119.000002269745,2|8,0:2|0:0,0:0:0:0:
15,206,153894,1,2,0:2:0:0:
16,222,153982,1,2,0:2:0:0:
19,240,154070,6,0,B|32:316|32:316|41:322|41:322|165:280,1,199.499994672775,6|0,3:2|0:2,0:0:0:0:
155,277,154423,2,0,B|168:201|168:201|178:195|178:195|301:237,1,199.499994672775,14|0,0:2|0:2,0:0:0:0:
289,247,154776,2,0,B|302:323|302:323|312:329|312:329|435:287,1,199.499994672775,6|0,3:2|0:2,0:0:0:0:
432,277,155129,5,8,0:2:0:0:
434,248,155217,1,0,3:2:0:0:
437,218,155305,1,0,3:2:0:0:
439,187,155394,1,0,3:2:0:0:
441,158,155482,5,4,3:2:0:0:
469,40,155658,2,0,P|425:24|383:76,1,105.000004005432,2|8,0:2|0:2,0:0:0:0:
327,161,156011,1,2,0:2:0:0:
327,161,156188,2,0,P|282:153|204:151,1,105.000004005432,0|0,3:0|0:0,0:0:0:0:
134,231,156541,1,8,0:2:0:0:
32,115,156717,1,2,0:2:0:0:
146,94,156894,5,0,3:2:0:0:
46,203,157070,2,0,P|19:174|43:106,1,105.000004005432,2|8,0:2|0:2,0:0:0:0:
152,226,157423,1,2,0:2:0:0:
152,226,157600,2,0,P|137:271|125:337,1,105.000004005432,0|0,3:0|0:2,0:0:0:0:
288,327,157952,1,8,0:2:0:0:
244,217,158129,1,0,3:0:0:0:
204,334,158305,5,4,3:2:0:0:
399,267,158482,1,0,0:2:0:0:
200,348,158658,5,8,0:2:0:0:
384,384,158835,1,0,0:2:0:0:
244,217,159011,5,2,3:2:0:0:
387,107,159188,2,0,P|388:67|328:33,1,105.000004005432,2|8,0:2|0:2,0:0:0:0:
189,100,159541,1,2,0:2:0:0:
189,100,159717,6,0,P|251:109|314:123,1,105.000004005432,0|0,3:0|0:2,0:0:0:0:
301,139,159982,1,0,3:0:0:0:
301,139,160070,1,8,0:2:0:0:
174,183,160247,1,0,3:2:0:0:
159,192,160335,1,0,3:0:0:0:
146,195,160423,2,0,P|104:192|98:83,1,157.500006008148,0|0,3:2|0:2,0:0:0:0:
84,78,160776,1,8,0:2:0:0:
262,68,160952,1,0,3:0:0:0:
289,203,161129,5,4,3:2:0:0:
218,0,161305,1,0,0:2:0:0:
297,215,161482,5,8,0:2:0:0:
354,32,161658,1,0,0:2:0:0:
465,197,161835,5,2,3:2:0:0:
459,98,162011,2,0,P|411:96|384:144,1,105.000004005432,2|8,0:2|0:2,0:0:0:0:
421,275,162364,1,2,3:2:0:0:
421,275,162452,1,0,3:2:0:0:
421,275,162541,6,0,P|396:322|332:314,1,105.000004005432,4|8,3:2|0:2,0:0:0:0:
326,303,162805,1,8,0:2:0:0:
318,292,162894,2,0,L|197:311,1,105.000004005432,8|8,0:2|0:2,0:0:0:0:
185,300,163158,1,8,0:2:0:0:
174,301,163247,5,8,0:2:0:0:
161,288,163335,1,8,0:2:0:0:
155,271,163423,1,8,0:2:0:0:
162,250,163511,1,8,0:2:0:0:
180,233,163599,1,8,0:2:0:0:
216,220,163688,1,8,0:2:0:0:
250,191,163776,1,8,0:2:0:0:
251,148,163864,1,8,0:2:0:0:
216,114,163952,5,6,3:1:0:0:
8,190,165364,5,4,3:2:0:0:
253,252,166776,5,4,3:2:0:0:
255,262,167482,1,4,3:2:0:0:
257,272,168188,5,6,3:2:0:0:
259,282,168541,1,6,3:2:0:0:
260,291,168894,1,6,3:2:0:0:
277,382,169247,2,0,B|239:376|239:376|332:358,1,105.000004005432,2|0,0:1|0:0,0:0:0:0:
448,384,169600,5,4,3:2:0:0:
484,307,169776,1,2,0:0:0:0:
401,312,169952,2,0,B|360:306|360:306|343:283|343:283|298:275,1,105.000004005432,10|0,0:2|0:0,0:0:0:0:
181,205,170305,2,0,B|147:227|147:227|216:210,1,105.000004005432,2|2,3:2|0:0,0:0:0:0:
284,148,170658,2,0,P|299:99|400:114,1,157.500006008148,10|0,0:2|0:0,0:0:0:0:
402,102,171011,6,0,B|418:108|418:108|399:218,1,105.000004005432,6|0,3:2|0:0,0:0:0:0:
315,264,171364,2,0,B|305:272|305:272|318:331,3,52.5000020027161,10|2|2|2,0:3|0:3|0:3|0:3,0:0:0:0:
390,297,171717,6,0,B|465:264|438:337|514:307,1,125.999996154785,6|2,3:2|0:2,0:0:0:0:
284,148,172070,2,0,B|209:115|236:188|160:158,1,125.999996154785,10|2,3:1|0:0,0:0:0:0:
44,117,172423,5,4,3:2:0:0:
30,32,172600,1,2,0:0:0:0:
118,59,172776,2,0,B|115:99|115:99|94:117|94:117|92:170,1,105.000004005432,10|0,0:2|0:0,0:0:0:0:
24,263,173129,2,0,P|10:239|26:219,3,52.5000020027161,2|2|2|2,3:2|0:0|0:0|0:0,0:0:0:0:
26,340,173482,2,0,P|83:268|172:280,1,157.500006008148,8|0,0:2|0:0,0:0:0:0:
155,273,173835,6,0,B|164:280|164:280|154:347,3,52.5000020027161,6|2|2|2,3:2|0:0|0:0|0:0,0:0:0:0:
217,219,174188,2,0,B|208:212|208:212|218:145,3,52.5000020027161,10|2|2|2,0:3|0:3|0:3|0:3,0:0:0:0:
279,271,174541,6,0,P|304:276|341:198,1,125.999996154785,6|2,3:1|0:2,0:0:0:0:
200,29,174894,2,0,P|131:38|145:152,1,188.999994232178,10|0,0:1|0:2,0:0:0:0:
142,140,175247,5,4,3:2:0:0:
219,104,175423,1,2,0:0:0:0:
299,127,175600,1,10,0:2:0:0:
366,84,175776,1,0,3:0:0:0:
374,86,175864,1,0,3:0:0:0:
384,88,175952,2,0,L|371:204,1,105.000004005432,0|0,3:2|0:0,0:0:0:0:
419,251,176305,2,0,B|366:238|366:238|326:293,1,105.000004005432,8|0,0:2|0:0,0:0:0:0:
313,316,176570,1,0,3:0:0:0:
313,316,176658,6,0,B|310:330|310:330|253:322,1,52.5000020027161,6|2,3:3|0:3,0:0:0:0:
233,255,176835,2,0,B|230:241|230:241|173:249,1,52.5000020027161,2|2,0:3|0:3,0:0:0:0:
181,323,177011,2,0,B|178:337|178:337|121:329,1,52.5000020027161,10|2,0:3|0:3,0:0:0:0:
110,257,177188,2,0,B|107:243|107:243|50:251,1,52.5000020027161,2|2,0:3|0:3,0:0:0:0:
13,302,177364,2,0,B|23:219|23:219|27:216|27:216|39:126,1,157.500006008148,4|0,3:2|0:0,0:0:0:0:
36,133,177717,2,0,P|67:87|127:102,1,105.000004005432,8|0,0:2|0:0,0:0:0:0:
133,114,177982,1,0,3:0:0:0:
133,114,178070,5,4,3:2:0:0:
225,179,178247,1,2,0:0:0:0:
239,177,178335,1,2,0:0:0:0:
253,174,178423,1,10,0:2:0:0:
279,64,178600,2,0,P|276:45|307:32,1,52.5000020027161
399,47,178776,2,0,P|412:86|322:145,1,157.500006008148,2|0,3:2|0:0,0:0:0:0:
327,139,179129,1,10,0:2:0:0:
440,204,179305,1,2,0:0:0:0:
394,272,179482,6,0,P|370:255|367:225,3,52.5000020027161,2|2|2|2,0:2|0:2|0:2|0:2,0:0:0:0:
430,355,180188,1,2,0:2:0:0:
427,347,180276,2,0,L|360:356,1,52.5000020027161,2|0,0:0|0:0,0:0:0:0:
365,351,180541,2,0,L|324:357,3,26.2500010013581,2|2|2|2,0:0|0:0|0:0|0:0,0:0:0:0:
269,384,180894,5,4,3:2:0:0:
220,237,181070,1,0,0:2:0:0:
209,255,181158,1,2,0:2:0:0:
199,273,181247,2,0,B|165:271|165:271|128:231|128:231|75:229,1,112,10|0,0:2|0:2,0:0:0:0:
32,157,181600,1,2,3:2:0:0:
0,38,181776,1,2,0:2:0:0:
118,8,181952,1,10,0:2:0:0:
151,129,182129,6,0,L|267:148,1,112,2|0,0:2|3:0,0:0:0:0:
357,144,182482,1,2,0:2:0:0:
437,234,182658,2,0,L|323:248,1,112,10|0,0:2|0:2,0:0:0:0:
308,262,182923,1,0,3:0:0:0:
308,262,183011,1,6,3:2:0:0:
273,373,183188,1,2,0:2:0:0:
166,372,183364,2,0,P|141:325|174:284,1,112,10|0,0:2|0:0,0:0:0:0:
206,286,183629,1,0,3:2:0:0:
206,286,183717,1,4,3:2:0:0:
188,186,183894,5,2,0:2:0:0:
117,213,184070,1,8,0:2:0:0:
58,164,184247,1,2,0:2:0:0:
72,88,184423,2,0,P|135:89|286:36,1,224,2|10,3:2|0:2,0:0:0:0:
285,36,185129,5,6,3:1:0:0:
282,46,185482,1,14,0:1:0:0:
278,58,185835,1,6,3:1:0:0:
149,270,186541,6,0,P|140:238|210:227,1,105.000004005432,4|0,3:2|0:0,0:0:0:0:
217,229,186805,1,0,3:0:0:0:
217,229,186894,2,0,L|327:241,1,105.000004005432,10|0,0:2|0:0,0:0:0:0:
362,317,187247,1,0,3:2:0:0:
488,231,187423,2,0,P|475:205|449:202,1,52.5000020027161,2|2,0:0|0:2,0:0:0:0:
334,171,187600,2,0,B|295:163|295:163|378:150,1,105.000004005432,10|0,0:2|0:0,0:0:0:0:
482,96,187952,6,0,B|439:97|439:97|378:43|378:43|321:43,1,157.500006008148,6|0,3:2|0:0,0:0:0:0:
336,48,188305,2,0,P|296:25|271:79,1,105.000004005432,8|0,0:2|0:0,0:0:0:0:
237,96,188570,1,0,3:0:0:0:
237,96,188658,2,0,B|246:151|246:151|251:155|251:155|261:216,2,105.000004005432,4|0|8,3:2|3:0|0:0,0:0:0:0:
33,164,189364,6,0,P|37:226|110:221,1,140.000005340576,6|2,3:1|0:2,0:0:0:0:
164,268,189717,2,0,P|155:192|220:188,1,140.000005340576,10|2,0:1|0:2,0:0:0:0:
234,113,190070,2,0,P|238:175|311:170,1,140.000005340576,6|2,3:1|0:2,0:0:0:0:
365,217,190423,2,0,P|356:141|421:137,1,140.000005340576,10|0,0:1|0:0,0:0:0:0:
479,91,190776,6,0,L|460:340,2,210.000008010865,6|2|6,3:2|3:2|3:1,0:0:0:0:
389,18,191835,1,2,0:0:0:0:
256,192,192175,12,0,193607,0:2:0:0:
256,192,206356,12,0,208537,0:2:0:0:
127,169,208720,6,0,P|110:160|126:162,1,52.5000020027161,2|0,0:0|0:0,0:0:0:0:
47,232,208935,2,0,B|132:218|132:218|164:170|164:170|253:158,1,210.000008010865,2|0,0:1|0:0,0:0:0:0:
245,248,209474,1,4,3:2:0:0:
437,141,209650,5,2,0:2:0:0:
421,265,209826,2,0,P|377:284|329:180,1,178.500003404617,10|2,0:2|0:2,0:0:0:0:
329,189,210179,5,2,3:2:0:0:
199,79,210356,2,0,P|231:32|287:40,1,119.000002269745,2|8,0:2|0:0,0:0:0:0:
322,178,210709,1,2,0:2:0:0:
179,203,210885,5,2,3:2:0:0:
267,126,211062,1,2,0:2:0:0:
215,295,211238,1,10,0:2:0:0:
51,223,211415,1,2,3:2:0:0:
48,211,211503,1,0,3:2:0:0:
46,200,211591,1,0,3:2:0:0:
21,73,211768,6,0,B|37:61|58:70|47:70|71:81|97:61,1,70,2|0,0:1|0:0,0:0:0:0:
110,149,211944,2,0,B|167:110|238:167|170:184|249:226|299:195,1,210,10|0,0:1|0:2,0:0:0:0:
305,207,212297,1,0,3:2:0:0:
489,110,212474,5,2,0:2:0:0:
385,44,212650,2,0,P|355:79|416:189,1,178.500003404617,10|2,0:2|0:2,0:0:0:0:
415,184,213003,5,2,3:2:0:0:
428,310,213179,2,0,P|476:310|511:243,1,119.000002269745,2|8,0:2|0:0,0:0:0:0:
347,354,213532,1,2,0:2:0:0:
334,362,213621,1,2,0:2:0:0:
324,369,213709,6,0,B|281:392|250:349|250:349|268:225|268:225,1,199.499994672775,6|0,3:2|0:2,0:0:0:0:
280,255,214062,2,0,B|323:278|354:235|354:235|336:111|336:111,1,199.499994672775,14|0,0:2|0:2,0:0:0:0:
322,140,214415,2,0,B|279:163|248:120|248:120|266:-4|266:-4,1,199.499994672775,6|0,3:2|0:2,0:0:0:0:
281,13,214768,5,8,0:2:0:0:
259,44,214856,1,0,3:2:0:0:
220,57,214944,1,0,3:2:0:0:
182,56,215032,1,0,3:2:0:0:
154,29,215121,5,4,3:2:0:0:
28,73,215297,2,0,P|34:132|74:152,1,105.000004005432,2|8,0:2|0:2,0:0:0:0:
114,264,215650,1,2,0:2:0:0:
114,264,215826,2,0,P|180:245|238:239,1,105.000004005432,0|0,3:0|0:0,0:0:0:0:
317,166,216179,1,8,0:2:0:0:
310,305,216356,1,2,0:2:0:0:
427,208,216532,5,0,3:2:0:0:
310,305,216709,2,0,P|272:290|267:213,1,105.000004005432,2|8,0:2|0:2,0:0:0:0:
354,92,217062,1,2,0:2:0:0:
354,92,217238,2,0,P|411:102|466:103,1,105.000004005432,0|0,3:0|0:2,0:0:0:0:
266,21,217591,2,0,P|220:38|188:141,1,157.500006008148,8|0,0:2|0:2,0:0:0:0:
190,144,217944,6,0,P|236:107|254:209,1,210.000008010865,6|8,3:2|0:0,0:0:0:0:
128,277,218474,1,0,0:0:0:0:
87,154,218650,1,0,3:2:0:0:
202,247,218826,5,2,0:2:0:0:
16,299,219003,1,10,0:2:0:0:
207,358,219179,1,2,0:2:0:0:
0,225,219356,6,0,B|-13:254|-13:254|82:229|82:229|94:270|147:283,1,199.499994672775,6|0,3:2|0:2,0:0:0:0:
121,352,219709,2,0,B|108:323|108:323|203:348|203:348|215:307|268:294,1,199.499994672775,14|0,0:2|0:2,0:0:0:0:
275,228,220062,2,0,P|280:264|332:285,1,66.4999982242585,6|0,3:2|3:0,0:0:0:0:
394,318,220238,1,0,3:0:0:0:
406,314,220326,1,0,3:2:0:0:
419,310,220415,2,0,B|456:348|456:348|420:197,1,199.499994672775,10|0,0:1|3:2,0:0:0:0:
412,201,220768,1,4,3:2:0:0:
463,53,220944,5,2,0:2:0:0:
412,201,221121,2,0,P|319:204|292:124,1,178.500003404617,10|2,0:2|0:2,0:0:0:0:
301,122,221474,5,2,3:2:0:0:
189,35,221650,2,0,P|155:75|191:135,1,119.000002269745,2|8,0:2|0:0,0:0:0:0:
253,215,222003,1,2,0:2:0:0:
301,122,222179,5,2,3:2:0:0:
153,164,222356,1,2,0:2:0:0:
309,273,222532,1,10,0:2:0:0:
211,333,222709,1,2,3:2:0:0:
209,347,222797,1,0,3:2:0:0:
207,360,222885,1,0,3:2:0:0:
385,364,223062,6,0,B|397:348|388:327|388:338|377:314|391:296,1,70,2|0,0:1|0:0,0:0:0:0:
309,273,223238,2,0,B|347:217|290:146|273:214|231:135|258:92,1,210,10|0,0:1|0:2,0:0:0:0:
271,83,223591,1,4,3:2:0:0:
470,47,223768,5,2,0:2:0:0:
475,161,223944,2,0,P|423:171|363:65,1,178.500003404617,10|2,0:2|0:2,0:0:0:0:
367,74,224297,5,2,3:2:0:0:
219,24,224474,2,0,P|149:48|145:91,1,119.000002269745,2|8,0:2|0:0,0:0:0:0:
65,190,224826,1,2,0:2:0:0:
48,188,224915,1,2,0:2:0:0:
31,186,225003,6,0,B|8:229|51:260|51:260|172:243|172:243,1,199.499994672775,6|0,3:2|0:2,0:0:0:0:
177,232,225356,2,0,B|154:189|197:158|197:158|321:176|321:176,1,199.499994672775,14|0,0:2|0:2,0:0:0:0:
319,186,225709,2,0,B|296:229|339:260|339:260|463:242|463:242,1,199.499994672775,6|0,3:2|0:2,0:0:0:0:
470,240,226062,5,8,0:2:0:0:
486,203,226150,1,0,3:2:0:0:
478,164,226238,1,0,3:2:0:0:
446,137,226326,1,0,3:2:0:0:
406,135,226415,5,4,3:2:0:0:
348,29,226591,2,0,P|304:47|297:114,1,105.000004005432,2|8,0:2|0:2,0:0:0:0:
204,168,226944,1,2,0:2:0:0:
204,168,227121,2,0,P|219:224|222:287,1,105.000004005432,0|0,3:0|0:0,0:0:0:0:
142,312,227474,1,8,0:2:0:0:
116,214,227650,5,2,0:2:0:0:
230,282,227826,1,0,3:2:0:0:
62,340,228003,2,0,P|30:287|50:243,1,105.000004005432,2|8,0:2|0:2,0:0:0:0:
122,119,228356,1,2,0:2:0:0:
122,119,228532,2,0,P|166:138|233:141,1,105.000004005432,0|0,3:0|0:2,0:0:0:0:
286,65,228885,1,8,0:2:0:0:
310,165,229062,1,0,3:0:0:0:
376,41,229238,5,4,3:2:0:0:
304,250,229415,1,0,0:2:0:0:
280,48,229591,5,8,0:2:0:0:
390,276,229768,1,0,0:2:0:0:
478,75,229944,5,2,3:2:0:0:
414,175,230121,2,0,P|366:168|291:164,1,105.000004005432,2|8,0:2|0:2,0:0:0:0:
205,205,230474,1,2,0:2:0:0:
205,205,230650,6,0,P|179:162|198:115,1,105.000004005432,0|0,3:0|0:2,0:0:0:0:
301,76,231003,1,8,0:2:0:0:
329,241,231179,1,0,3:2:0:0:
327,252,231268,1,0,3:0:0:0:
325,264,231356,2,0,P|263:276|154:316,1,157.500006008148,0|0,3:2|0:2,0:0:0:0:
160,298,231709,1,8,0:2:0:0:
101,184,231885,1,0,3:0:0:0:
56,288,232062,5,4,3:2:0:0:
140,64,232238,1,0,0:2:0:0:
150,314,232415,5,8,0:2:0:0:
61,106,232591,1,0,0:2:0:0:
47,301,232768,5,2,3:2:0:0:
171,231,232944,2,0,P|190:200|160:129,1,105.000004005432,2|8,0:2|0:2,0:0:0:0:
235,32,233297,1,2,0:2:0:0:
326,104,233474,5,4,3:2:0:0:
330,127,233562,1,0,0:0:0:0:
332,147,233650,1,8,0:2:0:0:
333,167,233738,1,8,0:2:0:0:
330,187,233826,2,0,P|381:195|430:213,1,105.000004005432,8|8,0:2|0:2,0:0:0:0:
328,327,234179,5,8,0:2:0:0:
287,356,234268,1,8,0:2:0:0:
240,349,234356,1,8,0:2:0:0:
216,316,234444,1,8,0:2:0:0:
208,286,234532,2,0,P|217:261|207:229,3,52.5000020027161,8|8|8|8,0:2|0:2|0:2|0:2,0:0:0:0:
138,221,234885,1,4,3:2:0:0:
104,7,235062,5,2,0:2:0:0:
53,105,235238,2,0,P|178:127|232:144,1,178.500003404617,10|2,0:2|0:2,0:0:0:0:
234,134,235591,5,2,3:2:0:0:
197,26,235768,2,0,P|256:22|314:8,1,119.000002269745,2|8,0:2|0:0,0:0:0:0:
319,136,236121,1,2,0:2:0:0:
391,71,236297,5,2,3:2:0:0:
234,134,236473,1,2,0:2:0:0:
421,196,236650,1,10,0:2:0:0:
301,275,236826,1,2,3:2:0:0:
301,262,236915,1,0,3:2:0:0:
301,245,237003,1,0,3:2:0:0:
396,336,237179,6,0,B|416:314|416:314|365:335,1,70,2|0,0:1|0:0,0:0:0:0:
275,361,237356,2,0,B|127:335|127:335|199:312,1,210,10|0,0:1|0:2,0:0:0:0:
194,310,237709,1,4,3:2:0:0:
51,121,237885,5,2,0:2:0:0:
10,237,238062,2,0,P|90:217|204:208,1,178.500003404617,10|2,0:2|0:2,0:0:0:0:
189,217,238415,5,2,3:2:0:0:
143,54,238591,2,0,P|199:76|258:82,1,119.000002269745,2|8,0:2|0:0,0:0:0:0:
375,49,238944,1,2,0:2:0:0:
399,59,239032,1,2,0:2:0:0:
419,56,239121,6,0,B|386:44|378:15|378:15|365:20|365:20|334:151,1,199.499994672775,6|0,3:2|0:2,0:0:0:0:
357,175,239473,2,0,B|390:163|398:134|398:134|411:139|411:139|442:270,1,199.499994672775,14|0,0:2|0:2,0:0:0:0:
362,284,239826,2,0,B|329:272|321:243|321:243|308:248|308:248|277:379,1,199.499994672775,6|0,3:2|0:2,0:0:0:0:
296,370,240179,5,8,0:2:0:0:
273,331,240268,1,0,3:2:0:0:
232,309,240356,1,0,3:2:0:0:
187,318,240444,1,0,3:2:0:0:
155,352,240532,5,4,3:2:0:0:
101,219,240709,2,0,P|131:193|196:210,1,105.000004005432,2|8,0:2|0:2,0:0:0:0:
8,261,241062,1,2,0:2:0:0:
8,261,241238,2,0,P|20:206|25:154,1,105.000004005432,0|0,3:0|0:0,0:0:0:0:
127,21,241591,1,8,0:2:0:0:
138,138,241768,5,2,0:2:0:0:
32,78,241944,1,0,3:2:0:0:
206,32,242121,2,0,P|237:70|211:141,1,105.000004005432,2|8,0:2|0:2,0:0:0:0:
188,243,242473,1,2,0:2:0:0:
188,243,242650,2,0,P|230:227|319:222,1,105.000004005432,0|0,3:0|0:2,0:0:0:0:
389,254,243003,2,0,P|443:244|442:143,1,157.500006008148,8|0,0:2|0:2,0:0:0:0:
454,140,243356,6,0,B|419:131|378:148|378:148|341:115|341:115|301:132|250:127,1,210.000008010865,2|8,3:2|0:0,0:0:0:0:
145,79,243885,1,0,0:0:0:0:
188,169,244062,1,0,3:2:0:0:
245,58,244238,5,2,0:2:0:0:
91,152,244415,1,10,0:2:0:0:
269,207,244591,1,0,0:2:0:0:
102,319,244768,6,0,B|80:299|80:273|80:273|179:289|179:289|185:265|223:248,1,199.499994672775,6|0,3:2|0:2,0:0:0:0:
269,207,245121,2,0,B|247:227|247:253|247:253|346:237|346:237|352:261|390:278,1,199.499994672775,14|0,0:2|0:2,0:0:0:0:
421,329,245473,2,0,P|428:288|465:280,1,66.4999982242585,6|0,3:2|3:0,0:0:0:0:
473,194,245650,1,0,3:0:0:0:
463,179,245738,1,0,3:2:0:0:
460,161,245826,2,0,P|488:96|375:83,1,199.499994672775,10|0,0:1|3:2,0:0:0:0:
387,79,246179,1,4,3:2:0:0:
189,38,246356,5,2,0:2:0:0:
306,9,246532,2,0,P|289:82|281:206,1,178.500003404617,10|2,0:2|0:2,0:0:0:0:
291,195,246885,5,2,3:2:0:0:
159,272,247062,2,0,P|152:217|119:146,1,119.000002269745,2|8,0:2|0:0,0:0:0:0:
56,231,247415,1,2,0:2:0:0:
127,158,247591,5,2,3:2:0:0:
61,327,247768,1,2,0:2:0:0:
235,249,247944,1,10,0:2:0:0:
186,380,248121,1,2,3:2:0:0:
174,369,248209,1,0,3:2:0:0:
166,354,248297,1,0,3:2:0:0:
235,249,248473,6,0,B|239:222|239:222|252:275,1,70,2|0,0:1|0:0,0:0:0:0:
335,311,248650,2,0,B|349:363|349:363|374:189,1,210,10|0,0:1|0:2,0:0:0:0:
361,202,249003,1,4,3:2:0:0:
277,0,249179,5,2,0:2:0:0:
251,105,249356,2,0,P|322:91|443:77,1,178.500003404617,10|2,0:2|0:2,0:0:0:0:
440,86,249709,1,2,3:2:0:0:
477,222,249885,2,0,P|420:207|339:202,1,119.000002269745,2|8,0:2|0:0,0:0:0:0:
320,72,250238,1,2,0:2:0:0:
328,93,250326,1,2,0:2:0:0:
337,108,250415,6,0,B|349:141|378:149|378:149|373:162|373:162|242:193,1,199.499994672775,6|0,3:2|0:2,0:0:0:0:
217,174,250767,2,0,B|229:141|258:133|258:133|253:120|253:120|122:89,1,199.499994672775,14|0,0:2|0:2,0:0:0:0:
101,163,251120,2,0,B|113:196|142:204|142:204|137:217|137:217|6:248,1,199.499994672775,6|0,3:2|0:2,0:0:0:0:
14,218,251473,5,8,0:2:0:0:
0,178,251562,1,0,3:2:0:0:
5,139,251650,1,0,3:2:0:0:
29,106,251738,1,0,3:2:0:0:
67,91,251826,5,4,3:2:0:0:
178,6,252003,2,0,P|216:40|202:101,1,105.000004005432,2|8,0:2|0:2,0:0:0:0:
170,223,252356,1,2,0:2:0:0:
170,223,252532,2,0,P|214:202|287:192,1,105.000004005432,0|0,3:0|0:0,0:0:0:0:
351,245,252885,1,8,0:2:0:0:
420,109,253062,5,2,0:2:0:0:
456,257,253238,1,0,3:2:0:0:
339,114,253415,2,0,P|335:83|396:34,1,105.000004005432,2|8,0:2|0:2,0:0:0:0:
456,257,253768,1,2,0:2:0:0:
456,257,253944,2,0,P|381:271|337:350,1,157.500006008148,0|0,3:0|0:0,0:0:0:0:
347,347,254297,1,8,0:2:0:0:
194,323,254473,1,0,3:2:0:0:
243,141,254650,5,4,3:2:0:0:
271,347,254826,1,0,0:2:0:0:
148,178,255003,5,8,0:2:0:0:
349,143,255179,1,0,0:2:0:0:
200,241,255356,5,2,3:2:0:0:
184,87,255532,2,0,P|207:51|286:62,1,105.000004005432,2|8,0:2|0:2,0:0:0:0:
426,138,255885,1,2,0:2:0:0:
426,138,256062,6,0,P|432:79|448:32,1,105.000004005432,0|0,3:0|0:2,0:0:0:0:
501,210,256415,1,8,0:2:0:0:
387,295,256591,1,0,3:2:0:0:
382,280,256679,1,0,3:0:0:0:
376,263,256768,2,0,B|338:241|293:268|326:291|283:319|227:293,1,157.500006008148,0|0,3:2|0:2,0:0:0:0:
228,288,257121,1,8,0:2:0:0:
184,154,257297,1,0,3:0:0:0:
141,279,257473,5,4,3:2:0:0:
208,47,257650,1,0,0:2:0:0:
260,217,257826,5,8,0:2:0:0:
56,199,258003,1,0,0:2:0:0:
145,0,258179,5,2,3:2:0:0:
284,70,258356,2,0,P|267:117|218:130,1,105.000004005432,2|8,0:2|0:2,0:0:0:0:
38,95,258709,1,2,3:2:0:0:
38,95,258797,1,0,3:0:0:0:
38,95,258885,6,0,P|52:164|57:222,1,105.000004005432,4|8,3:2|0:2,0:0:0:0:
42,228,259150,1,8,3:0:0:0:
42,228,259238,1,8,0:2:0:0:
94,368,259415,1,8,0:2:0:0:
235,311,259591,5,8,0:2:0:0:
257,314,259679,1,8,0:2:0:0:
288,306,259768,1,8,0:2:0:0:
313,278,259856,1,8,0:2:0:0:
315,234,259944,1,8,0:2:0:0:
331,199,260032,1,8,0:2:0:0:
371,171,260121,1,8,0:2:0:0:
424,170,260209,1,8,0:2:0:0:
461,207,260297,5,6,3:2:0:0:
