osu file format v14

[General]
AudioFilename: audio.mp3
AudioLeadIn: 0
PreviewTime:66608
Countdown: 0
SampleSet: Drum
StackLeniency: 0.7
Mode: 3
LetterboxInBreaks: 0
WidescreenStoryboard: 1
SpecialStyle: 0

[Editor]
Bookmarks: 20020,31314,48255,77902,103314,114608
DistanceSpacing: 1.4
BeatDivisor: 4
GridSize: 4
TimelineZoom: 1.600006

[Metadata]
Title:Umapyoi Densetsu (Game Ver.)
TitleUnicode:うまぴょい伝説 (Game Ver.)
Artist:Various Artists
ArtistUnicode:Various Artists
Creator:Drum-Hitnormal
Version:Miles [1600m]
Source:ウマ娘 プリティーダービー
Tags:Uma Musume umamusume Pretty Derby Winning Live 01 faputa anime video game pop jpop japanese dudehacker cygames スペシャルウィーク Special Week 和氣あず未 Waki Azumi サイレンススズカ Silence Suzuka 高野麻里佳 Kouno Marika トウカイテイオー Tokai Teio Machico マルゼンスキー Maruzensky Lynn オグリキャップ Oguri Cap 高柳知葉 Takayanagi Tomoyo ゴールドシップ Gold Ship 上田瞳 Ueda Hitomi ウオッカ Vodka 大橋彩香 Ohashi Ayaka ダイワスカーレット Daiwa Scarlet 木村千咲 Kimura Chisa タイキシャトル 大坪由佳 Otsubo Yuka グラスワンダー Grass Wonder 前田玲奈 Maeda Reina メジロマックイーン Mejiro McQueen 大西沙織 Onishi Saori エルコンドルパサー El Condor Pasa 髙橋ミナミ Takahashi Minami シンボリルドルフ Symboli Rudolf 田所あずさ Tadokoro Azusa エアグルーヴ 青木瑠璃子 Aoki Ruriko マヤノトップガン Mayano Top Gun 星谷美緒 Hoshitani Mio メジロライアン Ryan 土師亜文 Hashi Afumi ライスシャワー Rice Shower 石見舞菜香 Iwami Manaka アグネスタキオン Agnes Tachyon 上坂すみれ Uesaka Sumire ウイニングチケット 渡部優衣 Watanabe Yui サクラバクシンオー 三澤紗千香 Misawa Sachika スーパークリーク Super Creek 優木かな Yuuki Kana ハルウララ Haru Urara 首藤志奈 Shuto Yukina マチカネフクキタル 新田ひより Nitta Hiyori ナイスネイチャ Nice Nature 前田佳織里 Kaori キングヘイロー King Halo 佐伯伊織 Saeki Iori
BeatmapID:2924888
BeatmapSetID:1418151

[Difficulty]
HPDrainRate:7.5
CircleSize:4
OverallDifficulty:7.5
ApproachRate:5
SliderMultiplier:1.4
SliderTickRate:1

[Events]
//Background and Video events
0,0,"88658969_p0.jpg",0,0
Video,-1439,"umapyon.mp4"
//Break Periods
//Storyboard Layer 0 (Background)
//Storyboard Layer 1 (Fail)
//Storyboard Layer 2 (Pass)
//Storyboard Layer 3 (Foreground)
//Storyboard Layer 4 (Overlay)
//Storyboard Sound Samples

[TimingPoints]
20020,352.941176470588,4,3,1,70,1,0
66608,-100,4,3,1,70,0,1
92019,-100,4,3,1,70,0,0
103314,-100,4,3,1,70,0,1
128725,-100,4,3,1,70,0,0

[HitObjects]
64,192,20020,5,2,0:0:0:0:
320,192,20020,1,4,0:0:0:0:
192,192,20372,1,8,0:0:0:0:
448,192,20372,1,0,0:0:0:0:
64,192,20725,1,2,0:0:0:0:
320,192,20902,1,0,0:0:0:0:
64,192,21078,1,8,0:0:0:0:
320,192,21255,128,0,21431:0:0:0:0:
192,192,21608,128,0,21784:0:0:0:0:
64,192,21961,128,0,22137:0:0:0:0:
320,192,22314,1,0,0:0:0:0:
192,192,22402,1,0,0:0:0:0:
64,192,22490,1,8,0:0:0:0:
448,192,22490,1,0,0:0:0:0:
320,192,22667,1,0,0:0:0:0:
64,192,22843,1,2,0:0:0:0:
320,192,22843,1,0,0:0:0:0:
192,192,23196,1,8,0:0:0:0:
448,192,23196,1,0,0:0:0:0:
64,192,23549,1,2,0:0:0:0:
192,192,23725,1,0,0:0:0:0:
320,192,23902,1,8,0:0:0:0:
448,192,24078,1,0,0:0:0:0:
192,192,24255,1,2,0:0:0:0:
320,192,24431,1,0,0:0:0:0:
64,192,24608,1,8,0:0:0:0:
192,192,24608,1,4,0:0:0:0:
320,192,24961,1,2,0:0:0:0:
192,192,25137,1,0,0:0:0:0:
320,192,25314,1,4,0:0:0:0:
448,192,25314,1,8,0:0:0:0:
64,192,25402,1,8,0:0:0:0:
192,192,25490,1,2,0:0:0:0:
64,192,25667,1,2,0:0:0:0:
320,192,25667,1,4,0:0:0:0:
192,192,26020,1,8,0:0:0:0:
448,192,26020,1,0,0:0:0:0:
320,192,26372,1,2,0:0:0:0:
64,192,26549,1,0,0:0:0:0:
448,192,26725,1,8,0:0:0:0:
192,192,26902,1,0,0:0:0:0:
64,192,27078,1,2,0:0:0:0:
320,192,27078,1,4,0:0:0:0:
192,192,27431,1,8,0:0:0:0:
448,192,27431,1,0,0:0:0:0:
64,192,27784,1,2,0:0:0:0:
320,192,27961,1,0,0:0:0:0:
64,192,28137,1,8,0:0:0:0:
192,192,28137,1,0,0:0:0:0:
192,192,28490,128,2,28667:0:0:0:0:
320,192,28667,128,0,28843:0:0:0:0:
192,192,28843,128,8,29020:0:0:0:0:
320,192,29020,128,0,29196:0:0:0:0:
64,192,29196,128,2,29372:0:0:0:0:
448,192,29372,128,0,29549:0:0:0:0:
64,192,29549,128,8,29725:0:0:0:0:
448,192,29725,128,0,29902:0:0:0:0:
64,192,29902,1,2,0:0:0:0:
192,192,29902,1,4,0:0:0:0:
192,192,30255,1,8,0:0:0:0:
320,192,30255,1,0,0:0:0:0:
320,192,30608,1,2,0:0:0:0:
448,192,30608,1,0,0:0:0:0:
192,192,30784,1,2,0:0:0:0:
64,192,30961,1,8,0:0:0:0:
448,192,30961,1,0,0:0:0:0:
64,192,31314,1,2,0:0:0:0:
192,192,31314,1,4,0:0:0:0:
320,192,31490,1,0,0:0:0:0:
192,192,31667,1,8,0:0:0:0:
448,192,31667,1,0,0:0:0:0:
320,192,31843,1,0,0:0:0:0:
64,192,32020,1,2,0:0:0:0:
448,192,32020,1,0,0:0:0:0:
192,192,32196,1,0,0:0:0:0:
64,192,32372,1,8,0:0:0:0:
320,192,32372,1,0,0:0:0:0:
64,192,32725,1,2,0:0:0:0:
192,192,32725,1,0,0:0:0:0:
320,192,32902,1,0,0:0:0:0:
192,192,33078,1,8,0:0:0:0:
448,192,33078,1,0,0:0:0:0:
320,192,33255,1,0,0:0:0:0:
64,192,33431,1,2,0:0:0:0:
192,192,33431,1,0,0:0:0:0:
448,192,33608,1,0,0:0:0:0:
320,192,33608,1,0,0:0:0:0:
192,192,33784,1,8,0:0:0:0:
64,192,33784,1,0,0:0:0:0:
320,192,33961,1,0,0:0:0:0:
448,192,33961,1,0,0:0:0:0:
64,192,34137,1,2,0:0:0:0:
192,192,34137,1,0,0:0:0:0:
320,192,34314,1,0,0:0:0:0:
64,192,34490,1,8,0:0:0:0:
192,192,34490,1,0,0:0:0:0:
448,192,34667,1,0,0:0:0:0:
64,192,34843,1,2,0:0:0:0:
320,192,34843,1,0,0:0:0:0:
192,192,35020,1,0,0:0:0:0:
64,192,35196,1,8,0:0:0:0:
448,192,35196,1,0,0:0:0:0:
192,192,35372,1,0,0:0:0:0:
320,192,35549,1,2,0:0:0:0:
448,192,35549,1,0,0:0:0:0:
320,192,35725,1,0,0:0:0:0:
448,192,35725,1,0,0:0:0:0:
64,192,35902,1,8,0:0:0:0:
192,192,35902,1,0,0:0:0:0:
64,192,36078,1,0,0:0:0:0:
192,192,36078,1,0,0:0:0:0:
320,192,36255,1,2,0:0:0:0:
64,192,36431,1,8,0:0:0:0:
448,192,36431,1,4,0:0:0:0:
192,192,36608,128,2,36784:0:0:0:0:
320,192,36784,128,2,36961:0:0:0:0:
64,192,36961,1,2,0:0:0:0:
192,192,36961,1,4,0:0:0:0:
448,192,37137,1,0,0:0:0:0:
64,192,37314,1,8,0:0:0:0:
320,192,37314,1,0,0:0:0:0:
192,192,37490,1,0,0:0:0:0:
320,192,37667,1,2,0:0:0:0:
448,192,37667,1,0,0:0:0:0:
192,192,37843,1,0,0:0:0:0:
64,192,38020,1,8,0:0:0:0:
448,192,38020,1,0,0:0:0:0:
64,192,38372,1,2,0:0:0:0:
320,192,38372,1,0,0:0:0:0:
448,192,38549,1,0,0:0:0:0:
64,192,38725,1,8,0:0:0:0:
192,192,38725,1,0,0:0:0:0:
320,192,38902,1,0,0:0:0:0:
192,192,39078,1,2,0:0:0:0:
448,192,39078,1,0,0:0:0:0:
320,192,39255,1,0,0:0:0:0:
64,192,39431,1,8,0:0:0:0:
192,192,39431,1,0,0:0:0:0:
448,192,39608,1,4,0:0:0:0:
64,192,39784,1,2,0:0:0:0:
320,192,39784,1,0,0:0:0:0:
192,192,39961,1,0,0:0:0:0:
64,192,40137,1,8,0:0:0:0:
448,192,40137,1,0,0:0:0:0:
320,192,40314,1,0,0:0:0:0:
192,192,40490,1,2,0:0:0:0:
448,192,40490,1,0,0:0:0:0:
320,192,40667,1,2,0:0:0:0:
64,192,40843,1,8,0:0:0:0:
192,192,40843,1,0,0:0:0:0:
64,192,41196,1,2,0:0:0:0:
320,192,41196,1,0,0:0:0:0:
192,192,41372,1,0,0:0:0:0:
320,192,41549,1,8,0:0:0:0:
448,192,41549,1,0,0:0:0:0:
192,192,41902,1,2,0:0:0:0:
448,192,41902,1,0,0:0:0:0:
320,192,42078,1,8,0:0:0:0:
64,192,42255,1,2,0:0:0:0:
192,192,42343,1,2,0:0:0:0:
320,192,42431,1,2,0:0:0:0:
64,192,42608,1,2,0:0:0:0:
448,192,42608,1,0,0:0:0:0:
192,192,42784,1,0,0:0:0:0:
320,192,42961,1,8,0:0:0:0:
448,192,42961,1,4,0:0:0:0:
64,192,43137,1,0,0:0:0:0:
192,192,43314,1,2,0:0:0:0:
448,192,43314,1,0,0:0:0:0:
320,192,43490,1,0,0:0:0:0:
64,192,43667,1,8,0:0:0:0:
448,192,43667,1,4,0:0:0:0:
192,192,43843,1,0,0:0:0:0:
320,192,44020,1,2,0:0:0:0:
448,192,44020,1,0,0:0:0:0:
64,192,44196,1,0,0:0:0:0:
192,192,44372,1,8,0:0:0:0:
320,192,44372,1,0,0:0:0:0:
448,192,44549,1,0,0:0:0:0:
64,192,44725,1,2,0:0:0:0:
320,192,44725,1,0,0:0:0:0:
192,192,44902,1,0,0:0:0:0:
64,192,45078,1,8,0:0:0:0:
448,192,45078,1,4,0:0:0:0:
192,192,45255,1,0,0:0:0:0:
320,192,45431,1,2,0:0:0:0:
448,192,45431,1,0,0:0:0:0:
192,192,45608,1,0,0:0:0:0:
64,192,45784,1,8,0:0:0:0:
448,192,45784,1,4,0:0:0:0:
64,192,46137,1,2,0:0:0:0:
192,192,46137,1,0,0:0:0:0:
320,192,46314,1,0,0:0:0:0:
64,192,46490,1,8,0:0:0:0:
448,192,46490,1,4,0:0:0:0:
320,192,46843,1,2,0:0:0:0:
192,192,47549,1,0,0:0:0:0:
448,192,47725,1,8,0:0:0:0:
64,192,47902,1,2,0:0:0:0:
192,192,47990,1,2,0:0:0:0:
320,192,48078,1,2,0:0:0:0:
64,192,48255,1,2,0:0:0:0:
448,192,48255,1,4,0:0:0:0:
320,192,48431,1,0,0:0:0:0:
192,192,48608,1,8,0:0:0:0:
448,192,48784,128,0,49137:0:0:0:0:
192,192,49137,1,0,0:0:0:0:
320,192,49314,1,8,0:0:0:0:
64,192,49490,128,0,49843:0:0:0:0:
320,192,49843,1,0,0:0:0:0:
192,192,50020,1,8,0:0:0:0:
448,192,50196,128,0,50725:0:0:0:0:
64,192,50372,1,2,0:0:0:0:
192,192,50549,1,2,0:0:0:0:
320,192,50725,128,8,50902:0:0:0:0:
192,192,50902,128,0,51078:0:0:0:0:
64,192,51078,1,2,0:0:0:0:
448,192,51078,1,0,0:0:0:0:
320,192,51255,1,0,0:0:0:0:
192,192,51431,1,8,0:0:0:0:
448,192,51431,1,0,0:0:0:0:
64,192,51608,1,0,0:0:0:0:
320,192,51784,1,2,0:0:0:0:
448,192,51784,1,0,0:0:0:0:
192,192,51961,1,0,0:0:0:0:
64,192,52137,1,8,0:0:0:0:
320,192,52137,1,0,0:0:0:0:
192,192,52314,128,0,52667:0:0:0:0:
320,192,52667,1,8,0:0:0:0:
448,192,52667,1,4,0:0:0:0:
192,192,52843,1,8,0:0:0:0:
64,192,53020,1,4,0:0:0:0:
448,192,53020,1,2,0:0:0:0:
320,192,53196,1,2,0:0:0:0:
64,192,53372,1,8,0:0:0:0:
320,192,53372,1,4,0:0:0:0:
192,192,53549,1,2,0:0:0:0:
192,192,53725,1,2,0:0:0:0:
64,192,53902,1,2,0:0:0:0:
448,192,53902,1,4,0:0:0:0:
320,192,54078,1,0,0:0:0:0:
192,192,54255,1,12,0:0:0:0:
64,192,54431,1,0,0:0:0:0:
320,192,54608,128,2,54961:0:0:0:0:
64,192,54961,128,8,55314:0:0:0:0:
320,192,55314,1,2,0:0:0:0:
448,192,55314,1,4,0:0:0:0:
192,192,55490,1,0,0:0:0:0:
448,192,55667,1,12,0:0:0:0:
448,192,55843,1,2,0:0:0:0:
320,192,56020,1,2,0:0:0:0:
320,192,56196,1,2,0:0:0:0:
192,192,56372,1,2,0:0:0:0:
192,192,56549,1,2,0:0:0:0:
64,192,56725,1,2,0:0:0:0:
448,192,56725,1,4,0:0:0:0:
192,192,56902,1,0,0:0:0:0:
320,192,57078,1,8,0:0:0:0:
64,192,57255,128,4,57608:0:0:0:0:
448,192,57255,128,0,57608:0:0:0:0:
320,192,57608,1,0,0:0:0:0:
192,192,57784,1,8,0:0:0:0:
64,192,57961,128,4,58314:0:0:0:0:
448,192,57961,128,0,58314:0:0:0:0:
192,192,58314,1,0,0:0:0:0:
320,192,58490,1,8,0:0:0:0:
64,192,58667,128,4,59019:0:0:0:0:
448,192,58667,128,0,59019:0:0:0:0:
320,192,59019,1,8,0:0:0:0:
192,192,59196,1,8,0:0:0:0:
320,192,59372,128,4,59725:0:0:0:0:
448,192,59372,128,0,59725:0:0:0:0:
192,192,59725,1,0,0:0:0:0:
320,192,59902,1,8,0:0:0:0:
64,192,60078,128,4,60431:0:0:0:0:
192,192,60078,128,0,60431:0:0:0:0:
448,192,60431,1,0,0:0:0:0:
192,192,60608,1,8,0:0:0:0:
320,192,60784,128,4,61137:0:0:0:0:
448,192,60784,128,0,61137:0:0:0:0:
192,192,61137,1,0,0:0:0:0:
320,192,61314,1,8,0:0:0:0:
64,192,61490,128,4,61843:0:0:0:0:
192,192,61490,128,8,61843:0:0:0:0:
448,192,61843,1,8,0:0:0:0:
192,192,62019,1,10,0:0:0:0:
64,192,62196,1,4,0:0:0:0:
320,192,62196,1,0,0:0:0:0:
448,192,62372,128,0,62549:0:0:0:0:
192,192,62549,1,0,0:0:0:0:
64,192,62725,128,8,62902:0:0:0:0:
320,192,62902,1,0,0:0:0:0:
448,192,63078,128,0,63255:0:0:0:0:
192,192,63255,1,0,0:0:0:0:
64,192,63431,128,8,63608:0:0:0:0:
320,192,63608,1,0,0:0:0:0:
448,192,63784,128,0,63961:0:0:0:0:
192,192,63961,1,0,0:0:0:0:
448,192,64137,128,8,64314:0:0:0:0:
192,192,64314,1,0,0:0:0:0:
64,192,64490,128,0,64667:0:0:0:0:
320,192,64667,1,0,0:0:0:0:
64,192,64843,128,8,65019:0:0:0:0:
320,192,65019,1,0,0:0:0:0:
192,192,65196,128,0,66255:0:0:0:0:
448,192,65196,128,0,66255:0:0:0:0:
64,192,66255,128,0,66431:0:0:0:0:
320,192,66431,128,0,66608:0:0:0:0:
64,192,66608,1,2,0:0:0:0:
448,192,66608,1,4,0:0:0:0:
192,192,66784,1,0,0:0:0:0:
192,192,66961,128,8,67137:0:0:0:0:
320,192,66961,1,0,0:0:0:0:
448,192,67137,1,0,0:0:0:0:
64,192,67314,1,2,0:0:0:0:
320,192,67314,1,0,0:0:0:0:
320,192,67490,128,0,67667:0:0:0:0:
64,192,67667,1,8,0:0:0:0:
192,192,67667,1,0,0:0:0:0:
448,192,67843,1,0,0:0:0:0:
64,192,68019,1,2,0:0:0:0:
320,192,68019,1,0,0:0:0:0:
192,192,68196,1,0,0:0:0:0:
320,192,68372,1,8,0:0:0:0:
448,192,68372,1,0,0:0:0:0:
448,192,68549,128,0,68902:0:0:0:0:
192,192,68725,1,2,0:0:0:0:
64,192,68902,1,0,0:0:0:0:
64,192,69078,128,8,69255:0:0:0:0:
320,192,69078,1,0,0:0:0:0:
192,192,69255,1,0,0:0:0:0:
320,192,69431,1,4,0:0:0:0:
448,192,69431,1,2,0:0:0:0:
192,192,69608,1,0,0:0:0:0:
192,192,69784,128,8,69961:0:0:0:0:
448,192,69784,1,0,0:0:0:0:
64,192,69961,1,0,0:0:0:0:
320,192,70137,1,2,0:0:0:0:
448,192,70137,1,0,0:0:0:0:
320,192,70314,128,0,70490:0:0:0:0:
64,192,70490,1,8,0:0:0:0:
192,192,70490,1,0,0:0:0:0:
448,192,70667,1,0,0:0:0:0:
320,192,70755,1,0,0:0:0:0:
64,192,70843,128,2,71196:0:0:0:0:
192,192,70843,128,4,71196:0:0:0:0:
320,192,71196,128,2,71549:0:0:0:0:
448,192,71196,128,4,71549:0:0:0:0:
64,192,71549,128,2,71902:0:0:0:0:
192,192,71549,128,4,71902:0:0:0:0:
320,192,71902,1,8,0:0:0:0:
448,192,71902,1,4,0:0:0:0:
192,192,72078,1,2,0:0:0:0:
64,192,72255,1,4,0:0:0:0:
448,192,72255,1,2,0:0:0:0:
192,192,72431,1,0,0:0:0:0:
320,192,72608,1,8,0:0:0:0:
448,192,72608,1,0,0:0:0:0:
64,192,72784,1,0,0:0:0:0:
192,192,72961,1,2,0:0:0:0:
448,192,72961,1,0,0:0:0:0:
320,192,73137,1,0,0:0:0:0:
64,192,73314,1,8,0:0:0:0:
448,192,73314,1,0,0:0:0:0:
320,192,73490,1,0,0:0:0:0:
64,192,73667,1,2,0:0:0:0:
192,192,73667,1,4,0:0:0:0:
448,192,73843,1,0,0:0:0:0:
64,192,74019,1,8,0:0:0:0:
320,192,74019,1,0,0:0:0:0:
192,192,74196,1,0,0:0:0:0:
320,192,74372,1,2,0:0:0:0:
448,192,74372,1,0,0:0:0:0:
192,192,74549,1,0,0:0:0:0:
64,192,74725,1,8,0:0:0:0:
448,192,74725,1,0,0:0:0:0:
320,192,74902,1,0,0:0:0:0:
64,192,75078,1,2,0:0:0:0:
192,192,75078,1,4,0:0:0:0:
448,192,75255,1,0,0:0:0:0:
64,192,75431,1,8,0:0:0:0:
320,192,75431,1,0,0:0:0:0:
192,192,75608,1,0,0:0:0:0:
320,192,75784,1,2,0:0:0:0:
448,192,75784,1,0,0:0:0:0:
64,192,75961,1,0,0:0:0:0:
192,192,76137,1,8,0:0:0:0:
448,192,76137,1,0,0:0:0:0:
320,192,76314,1,0,0:0:0:0:
64,192,76490,1,6,0:0:0:0:
192,192,76490,128,8,76843:0:0:0:0:
320,192,76843,1,6,0:0:0:0:
448,192,76843,128,8,77196:0:0:0:0:
64,192,77196,1,6,0:0:0:0:
192,192,77196,1,8,0:0:0:0:
320,192,77372,1,2,0:0:0:0:
192,192,77549,128,2,77725:0:0:0:0:
64,192,77725,128,2,77902:0:0:0:0:
320,192,77902,1,2,0:0:0:0:
448,192,77902,1,4,0:0:0:0:
192,192,78078,1,0,0:0:0:0:
192,192,78255,128,8,78431:0:0:0:0:
448,192,78255,1,0,0:0:0:0:
64,192,78431,1,0,0:0:0:0:
320,192,78608,1,2,0:0:0:0:
448,192,78608,1,0,0:0:0:0:
320,192,78784,128,0,78961:0:0:0:0:
64,192,78961,1,8,0:0:0:0:
192,192,78961,1,0,0:0:0:0:
448,192,79137,1,0,0:0:0:0:
192,192,79314,1,2,0:0:0:0:
320,192,79314,1,0,0:0:0:0:
64,192,79490,1,0,0:0:0:0:
192,192,79667,1,8,0:0:0:0:
448,192,79667,1,0,0:0:0:0:
192,192,79843,128,0,80196:0:0:0:0:
320,192,80019,1,2,0:0:0:0:
448,192,80196,1,0,0:0:0:0:
64,192,80372,1,8,0:0:0:0:
448,192,80372,128,0,80549:0:0:0:0:
320,192,80549,1,0,0:0:0:0:
64,192,80725,1,2,0:0:0:0:
192,192,80725,1,4,0:0:0:0:
320,192,80902,1,0,0:0:0:0:
64,192,81078,1,8,0:0:0:0:
320,192,81078,128,0,81255:0:0:0:0:
448,192,81255,1,0,0:0:0:0:
64,192,81431,1,2,0:0:0:0:
192,192,81431,1,0,0:0:0:0:
192,192,81608,128,0,81784:0:0:0:0:
320,192,81784,1,8,0:0:0:0:
448,192,81784,1,0,0:0:0:0:
64,192,81961,1,0,0:0:0:0:
192,192,82049,1,0,0:0:0:0:
320,192,82137,128,2,82490:0:0:0:0:
448,192,82137,128,4,82490:0:0:0:0:
64,192,82490,128,2,82843:0:0:0:0:
192,192,82490,128,4,82843:0:0:0:0:
320,192,82843,128,4,83196:0:0:0:0:
448,192,82843,128,2,83196:0:0:0:0:
64,192,83196,1,2,0:0:0:0:
192,192,83196,1,4,0:0:0:0:
320,192,83372,1,2,0:0:0:0:
64,192,83549,1,2,0:0:0:0:
448,192,83549,1,4,0:0:0:0:
320,192,83725,1,0,0:0:0:0:
64,192,83902,1,8,0:0:0:0:
192,192,83902,1,0,0:0:0:0:
448,192,84078,1,0,0:0:0:0:
64,192,84255,1,2,0:0:0:0:
320,192,84255,1,0,0:0:0:0:
192,192,84431,1,0,0:0:0:0:
320,192,84608,1,8,0:0:0:0:
448,192,84608,1,0,0:0:0:0:
64,192,84784,1,0,0:0:0:0:
192,192,84961,1,2,0:0:0:0:
448,192,84961,1,4,0:0:0:0:
320,192,85137,1,0,0:0:0:0:
64,192,85314,1,8,0:0:0:0:
192,192,85314,1,0,0:0:0:0:
448,192,85490,1,0,0:0:0:0:
64,192,85667,1,2,0:0:0:0:
320,192,85667,1,0,0:0:0:0:
192,192,85843,1,0,0:0:0:0:
320,192,86019,1,8,0:0:0:0:
448,192,86019,1,0,0:0:0:0:
448,192,86196,1,8,0:0:0:0:
64,192,86372,128,2,86549:0:0:0:0:
320,192,86372,1,4,0:0:0:0:
192,192,86549,1,0,0:0:0:0:
448,192,86725,128,8,86902:0:0:0:0:
320,192,86902,1,0,0:0:0:0:
192,192,87078,128,2,87255:0:0:0:0:
64,192,87255,1,0,0:0:0:0:
320,192,87431,1,8,0:0:0:0:
448,192,87608,128,0,87784:0:0:0:0:
64,192,87784,1,2,0:0:0:0:
320,192,87961,128,0,88137:0:0:0:0:
448,192,88137,1,8,0:0:0:0:
192,192,88314,128,0,88490:0:0:0:0:
64,192,88490,1,2,0:0:0:0:
448,192,88490,1,0,0:0:0:0:
320,192,88843,1,8,0:0:0:0:
448,192,88843,1,0,0:0:0:0:
192,192,89019,1,2,0:0:0:0:
64,192,89196,128,2,89372:0:0:0:0:
448,192,89196,1,4,0:0:0:0:
320,192,89372,1,0,0:0:0:0:
448,192,89549,128,8,89725:0:0:0:0:
192,192,89725,1,0,0:0:0:0:
64,192,89902,1,2,0:0:0:0:
320,192,89902,128,4,90078:0:0:0:0:
192,192,90078,1,0,0:0:0:0:
448,192,90255,1,8,0:0:0:0:
192,192,90431,128,0,90608:0:0:0:0:
64,192,90608,1,4,0:0:0:0:
320,192,90608,1,2,0:0:0:0:
448,192,90784,1,8,0:0:0:0:
320,192,90872,1,8,0:0:0:0:
192,192,90961,1,2,0:0:0:0:
320,192,91137,1,8,0:0:0:0:
64,192,91314,1,2,0:0:0:0:
448,192,91314,128,4,92019:0:0:0:0:
320,192,91667,128,2,92019:0:0:0:0:
64,192,92019,1,2,0:0:0:0:
192,192,92019,1,4,0:0:0:0:
192,192,92372,1,8,0:0:0:0:
448,192,92372,1,0,0:0:0:0:
64,192,92725,1,2,0:0:0:0:
320,192,92902,1,0,0:0:0:0:
64,192,93078,1,8,0:0:0:0:
320,192,93255,128,0,93431:0:0:0:0:
192,192,93608,128,0,93784:0:0:0:0:
64,192,93961,128,0,94137:0:0:0:0:
320,192,94314,1,0,0:0:0:0:
192,192,94402,1,0,0:0:0:0:
64,192,94490,1,8,0:0:0:0:
448,192,94490,1,0,0:0:0:0:
320,192,94667,1,0,0:0:0:0:
64,192,94843,1,2,0:0:0:0:
320,192,94843,1,0,0:0:0:0:
192,192,95196,1,8,0:0:0:0:
448,192,95196,1,0,0:0:0:0:
64,192,95549,1,2,0:0:0:0:
192,192,95725,1,0,0:0:0:0:
320,192,95902,1,8,0:0:0:0:
448,192,96078,1,0,0:0:0:0:
192,192,96255,1,2,0:0:0:0:
320,192,96431,1,0,0:0:0:0:
64,192,96608,1,8,0:0:0:0:
192,192,96608,1,4,0:0:0:0:
320,192,96961,1,2,0:0:0:0:
192,192,97137,1,0,0:0:0:0:
320,192,97314,1,8,0:0:0:0:
448,192,97314,1,4,0:0:0:0:
64,192,97402,1,8,0:0:0:0:
192,192,97490,1,2,0:0:0:0:
64,192,97667,1,2,0:0:0:0:
320,192,97667,1,4,0:0:0:0:
192,192,98019,1,8,0:0:0:0:
448,192,98019,1,0,0:0:0:0:
320,192,98372,1,2,0:0:0:0:
64,192,98549,1,0,0:0:0:0:
448,192,98725,1,8,0:0:0:0:
192,192,98902,1,0,0:0:0:0:
64,192,99078,1,2,0:0:0:0:
320,192,99078,1,4,0:0:0:0:
192,192,99431,1,8,0:0:0:0:
448,192,99431,1,0,0:0:0:0:
64,192,99784,1,2,0:0:0:0:
320,192,99961,1,0,0:0:0:0:
64,192,100137,1,8,0:0:0:0:
192,192,100137,1,0,0:0:0:0:
192,192,100490,128,2,100667:0:0:0:0:
320,192,100667,128,0,100843:0:0:0:0:
192,192,100843,128,8,101019:0:0:0:0:
320,192,101019,128,0,101196:0:0:0:0:
64,192,101196,128,2,101372:0:0:0:0:
448,192,101372,128,0,101549:0:0:0:0:
64,192,101549,128,8,101725:0:0:0:0:
448,192,101725,128,0,101902:0:0:0:0:
64,192,101902,128,0,102961:0:0:0:0:
192,192,101902,128,0,102961:0:0:0:0:
320,192,102961,128,0,103137:0:0:0:0:
192,192,103137,128,0,103314:0:0:0:0:
64,192,103314,1,4,0:0:0:0:
448,192,103314,1,2,0:0:0:0:
320,192,103490,1,0,0:0:0:0:
192,192,103667,1,8,0:0:0:0:
320,192,103667,128,0,103843:0:0:0:0:
64,192,103843,1,0,0:0:0:0:
192,192,104019,1,2,0:0:0:0:
448,192,104019,1,0,0:0:0:0:
192,192,104196,128,0,104372:0:0:0:0:
320,192,104372,1,8,0:0:0:0:
448,192,104372,1,0,0:0:0:0:
64,192,104549,1,0,0:0:0:0:
192,192,104725,1,2,0:0:0:0:
448,192,104725,1,0,0:0:0:0:
320,192,104902,1,0,0:0:0:0:
64,192,105078,1,8,0:0:0:0:
192,192,105078,1,0,0:0:0:0:
64,192,105255,128,0,105608:0:0:0:0:
320,192,105431,1,2,0:0:0:0:
448,192,105608,1,0,0:0:0:0:
192,192,105784,1,8,0:0:0:0:
448,192,105784,128,0,105961:0:0:0:0:
320,192,105961,1,0,0:0:0:0:
64,192,106137,1,4,0:0:0:0:
192,192,106137,1,2,0:0:0:0:
320,192,106314,1,0,0:0:0:0:
64,192,106490,1,8,0:0:0:0:
320,192,106490,128,0,106667:0:0:0:0:
448,192,106667,1,0,0:0:0:0:
64,192,106843,1,2,0:0:0:0:
192,192,106843,1,0,0:0:0:0:
192,192,107019,128,0,107196:0:0:0:0:
320,192,107196,1,8,0:0:0:0:
448,192,107196,1,0,0:0:0:0:
64,192,107372,1,0,0:0:0:0:
192,192,107461,1,0,0:0:0:0:
320,192,107549,128,4,107902:0:0:0:0:
448,192,107549,128,2,107902:0:0:0:0:
64,192,107902,128,2,108255:0:0:0:0:
192,192,107902,128,4,108255:0:0:0:0:
320,192,108255,128,2,108608:0:0:0:0:
448,192,108255,128,4,108608:0:0:0:0:
64,192,108608,1,4,0:0:0:0:
192,192,108608,1,8,0:0:0:0:
320,192,108784,1,2,0:0:0:0:
64,192,108961,1,2,0:0:0:0:
448,192,108961,1,4,0:0:0:0:
320,192,109137,1,0,0:0:0:0:
64,192,109314,1,8,0:0:0:0:
192,192,109314,1,0,0:0:0:0:
448,192,109490,1,0,0:0:0:0:
64,192,109667,1,2,0:0:0:0:
320,192,109667,1,0,0:0:0:0:
192,192,109843,1,0,0:0:0:0:
64,192,110019,1,8,0:0:0:0:
448,192,110019,1,0,0:0:0:0:
192,192,110196,1,0,0:0:0:0:
320,192,110372,1,2,0:0:0:0:
448,192,110372,1,4,0:0:0:0:
64,192,110549,1,0,0:0:0:0:
192,192,110725,1,8,0:0:0:0:
448,192,110725,1,0,0:0:0:0:
320,192,110902,1,0,0:0:0:0:
64,192,111078,1,2,0:0:0:0:
192,192,111078,1,0,0:0:0:0:
320,192,111255,1,0,0:0:0:0:
64,192,111431,1,8,0:0:0:0:
448,192,111431,1,0,0:0:0:0:
192,192,111608,1,0,0:0:0:0:
320,192,111784,1,4,0:0:0:0:
448,192,111784,1,2,0:0:0:0:
64,192,111961,1,0,0:0:0:0:
192,192,112137,1,8,0:0:0:0:
448,192,112137,1,0,0:0:0:0:
320,192,112314,1,0,0:0:0:0:
64,192,112490,1,2,0:0:0:0:
192,192,112490,1,0,0:0:0:0:
448,192,112667,1,0,0:0:0:0:
64,192,112843,1,8,0:0:0:0:
320,192,112843,1,0,0:0:0:0:
192,192,113019,1,0,0:0:0:0:
320,192,113196,128,10,113549:0:0:0:0:
448,192,113196,1,4,0:0:0:0:
64,192,113549,128,6,113902:0:0:0:0:
192,192,113549,1,8,0:0:0:0:
320,192,113902,1,10,0:0:0:0:
448,192,113902,1,4,0:0:0:0:
192,192,114078,1,2,0:0:0:0:
320,192,114255,128,2,114431:0:0:0:0:
192,192,114431,128,2,114608:0:0:0:0:
64,192,114608,1,4,0:0:0:0:
448,192,114608,1,2,0:0:0:0:
320,192,114784,1,0,0:0:0:0:
64,192,114961,1,8,0:0:0:0:
320,192,114961,128,0,115137:0:0:0:0:
448,192,115137,1,0,0:0:0:0:
64,192,115314,1,2,0:0:0:0:
192,192,115314,1,0,0:0:0:0:
192,192,115490,128,0,115667:0:0:0:0:
320,192,115667,1,8,0:0:0:0:
448,192,115667,1,0,0:0:0:0:
64,192,115843,1,0,0:0:0:0:
192,192,116019,1,2,0:0:0:0:
320,192,116019,1,0,0:0:0:0:
448,192,116196,1,0,0:0:0:0:
64,192,116372,1,8,0:0:0:0:
320,192,116372,1,0,0:0:0:0:
320,192,116549,128,0,116902:0:0:0:0:
192,192,116725,1,2,0:0:0:0:
64,192,116902,1,0,0:0:0:0:
64,192,117078,128,8,117255:0:0:0:0:
448,192,117078,1,0,0:0:0:0:
192,192,117255,1,0,0:0:0:0:
320,192,117431,1,2,0:0:0:0:
448,192,117431,1,4,0:0:0:0:
192,192,117608,1,0,0:0:0:0:
192,192,117784,128,8,117961:0:0:0:0:
448,192,117784,1,0,0:0:0:0:
64,192,117961,1,0,0:0:0:0:
320,192,118137,1,2,0:0:0:0:
448,192,118137,1,0,0:0:0:0:
320,192,118314,128,0,118490:0:0:0:0:
64,192,118490,1,8,0:0:0:0:
192,192,118490,1,0,0:0:0:0:
448,192,118667,1,0,0:0:0:0:
320,192,118755,1,0,0:0:0:0:
64,192,118843,128,4,119196:0:0:0:0:
192,192,118843,128,2,119196:0:0:0:0:
320,192,119196,128,2,119549:0:0:0:0:
448,192,119196,128,4,119549:0:0:0:0:
64,192,119549,128,4,119902:0:0:0:0:
192,192,119549,128,2,119902:0:0:0:0:
320,192,119902,1,2,0:0:0:0:
448,192,119902,1,4,0:0:0:0:
192,192,120078,1,2,0:0:0:0:
64,192,120255,1,2,0:0:0:0:
448,192,120255,1,4,0:0:0:0:
192,192,120431,1,0,0:0:0:0:
320,192,120608,1,8,0:0:0:0:
448,192,120608,1,0,0:0:0:0:
64,192,120784,1,0,0:0:0:0:
192,192,120961,1,2,0:0:0:0:
448,192,120961,1,0,0:0:0:0:
320,192,121137,1,0,0:0:0:0:
64,192,121314,1,8,0:0:0:0:
192,192,121314,1,0,0:0:0:0:
448,192,121490,1,0,0:0:0:0:
64,192,121667,1,4,0:0:0:0:
320,192,121667,1,2,0:0:0:0:
192,192,121843,1,0,0:0:0:0:
320,192,122019,1,8,0:0:0:0:
448,192,122019,1,0,0:0:0:0:
64,192,122196,1,0,0:0:0:0:
192,192,122372,1,2,0:0:0:0:
448,192,122372,1,0,0:0:0:0:
320,192,122549,1,0,0:0:0:0:
64,192,122725,1,8,0:0:0:0:
192,192,122725,1,0,0:0:0:0:
64,192,122902,1,8,0:0:0:0:
192,192,123078,1,4,0:0:0:0:
448,192,123078,128,2,123255:0:0:0:0:
320,192,123255,1,0,0:0:0:0:
64,192,123431,128,8,123608:0:0:0:0:
192,192,123608,1,0,0:0:0:0:
320,192,123784,128,2,123961:0:0:0:0:
448,192,123961,1,0,0:0:0:0:
192,192,124137,1,8,0:0:0:0:
64,192,124314,128,0,124490:0:0:0:0:
448,192,124490,1,2,0:0:0:0:
192,192,124667,128,0,124843:0:0:0:0:
64,192,124843,1,8,0:0:0:0:
320,192,125019,128,0,125196:0:0:0:0:
64,192,125196,1,2,0:0:0:0:
448,192,125196,1,0,0:0:0:0:
64,192,125549,1,8,0:0:0:0:
192,192,125549,1,0,0:0:0:0:
320,192,125725,1,8,0:0:0:0:
64,192,125902,1,4,0:0:0:0:
448,192,125902,128,2,126078:0:0:0:0:
192,192,126078,1,0,0:0:0:0:
64,192,126255,128,8,126431:0:0:0:0:
320,192,126431,1,0,0:0:0:0:
192,192,126608,128,4,126784:0:0:0:0:
448,192,126608,1,2,0:0:0:0:
320,192,126784,1,0,0:0:0:0:
64,192,126961,1,8,0:0:0:0:
320,192,127137,128,0,127314:0:0:0:0:
192,192,127314,1,4,0:0:0:0:
448,192,127314,1,2,0:0:0:0:
64,192,127490,1,8,0:0:0:0:
192,192,127578,1,8,0:0:0:0:
320,192,127667,1,2,0:0:0:0:
192,192,127843,1,8,0:0:0:0:
64,192,128019,128,2,128725:0:0:0:0:
448,192,128019,1,4,0:0:0:0:
192,192,128372,128,2,128725:0:0:0:0:
320,192,128725,1,0,0:0:0:0:
448,192,128725,1,0,0:0:0:0:
