osu file format v14

[General]
AudioFilename: audio.mp3
AudioLeadIn: 0
PreviewTime: 127700
Countdown: 0
SampleSet: None
StackLeniency: 0.7
Mode: 0
LetterboxInBreaks: 1
EpilepsyWarning: 1
WidescreenStoryboard: 1

[Editor]
Bookmarks: 722,63388,127700,201784,273784,327367,403284,484534,581367,598617,729950,788784,849034,972450,1054117,1065124,1115534,1143200
DistanceSpacing: 2.1
BeatDivisor: 4
GridSize: 4
TimelineZoom: 4.099998

[Metadata]
Title:Ultimate Stream Compilation
TitleUnicode:Ultimate Stream Compilation
Artist:Various Artists
ArtistUnicode:Various Artists
Creator:Player01
Version:Marathon
Source:
Tags:Touhou Sidetracked Day Three Hammers Johnny Cash Ring Of Fire xi remixed by cosMo@暴走P Quietus Ray xi DiVE[METAL DIMENSIONS] FREEDOM DiVE[METAL†DIMENSIONS] Uta 謳 狂おしく咲いた凄惨な骸は奏で、愛おしく裂いた少女は聖餐の詞を謳う。 Imperial Circus Dead Decadence BABYMETAL - Road of Resistance Truths, Ironies, The Secret Lyrics Foreground Eclipse From Under Cover Unlucky Morpheus FAITH EXTRACTION ZONE Through the Fire and Flames Xi Ascension to Heaven Cry Thunder THOUSAND FLAMES AHHHHHHHHHHH Raise my Sword GALNERYUS RSI 180 bpm deathstreams death streams stream maps Ashes Of The Dawn Dragon Force Turkish March トルコ行進曲 - オワタ\(^o^)/ Turkish March - Owata \(^o^)/ OwataP Mozart Gyze Honesty Honestyyyyyyyyy
BeatmapID:2926197
BeatmapSetID:1420592

[Difficulty]
HPDrainRate:2
CircleSize:4.4
OverallDifficulty:9.4
ApproachRate:9.7
SliderMultiplier:1.8
SliderTickRate:1

[Events]
//Background and Video events
0,0,"EXp6buDUMAAq4LN.jpg",0,0
//Break Periods
2,100486,127530
2,175269,202015
2,248763,328796
2,371567,733245
2,733954,771359
2,781954,1013306
2,1054391,1055947
//Storyboard Layer 0 (Background)
//Storyboard Layer 1 (Fail)
//Storyboard Layer 2 (Pass)
//Storyboard Layer 3 (Foreground)
//Storyboard Layer 4 (Overlay)
//Storyboard Sound Samples

[TimingPoints]
1139,333.333333333333,4,1,0,100,1,0
3805,-95.2380952380952,4,1,0,70,0,0
5472,-133.333333333333,4,1,0,70,0,0
6388,-117.647058823529,4,1,0,5,0,0
6472,-117.647058823529,4,1,0,70,0,0
11722,-117.647058823529,4,1,0,5,0,0
11805,-105.263157894737,4,1,0,70,0,0
17138,-79.9999999999998,4,1,0,70,0,0
17305,-117.647058823529,4,1,0,70,0,0
18472,-74.0740740740741,4,1,0,70,0,0
21805,-74.0740740740741,4,1,0,70,0,0
23805,-181.818181818182,4,1,0,70,0,0
24472,-74.0740740740741,4,1,0,70,0,0
26805,-68.9655172413793,4,1,0,70,0,0
30472,-80,4,1,0,70,0,0
34805,-74.0740740740741,4,1,0,70,0,0
35138,-68.9655172413793,4,1,0,70,0,0
41472,-86.9565217391304,4,1,0,70,0,0
41805,-80,4,1,0,70,0,0
42138,-83.3333333333333,4,1,0,70,0,0
42472,-86.9565217391304,4,1,0,70,0,0
42805,-90.9090909090909,4,1,0,70,0,0
43472,-100,4,1,0,70,0,0
43805,-62.5,4,1,0,70,0,0
44305,-58.8235294117647,4,1,0,70,0,0
44638,-66.6666666666667,4,1,0,70,0,0
44805,-71.4285714285714,4,1,0,70,0,0
46138,-66.6666666666667,4,1,0,70,0,0
46472,-76.9230769230769,4,1,0,70,0,0
48472,-71.4285714285714,4,1,0,70,0,0
56388,-62.5,4,1,0,70,0,0
56805,-142.857142857143,4,1,0,70,0,0
57138,-58.8235294117647,4,1,0,70,0,0
57805,-66.6666666666667,4,1,0,70,0,0
58138,-71.4285714285714,4,1,0,70,0,0
58805,-83.3333333333333,4,1,0,70,0,0
59138,-76.9230769230769,4,1,0,70,0,0
59472,-71.4285714285714,4,1,0,70,0,0
63703,333.333333333333,4,1,0,100,1,0
74036,-166.666666666667,4,1,0,100,0,0
79036,-83.3333333333334,4,1,0,100,0,0
90369,-76.9230769230769,4,1,0,100,0,0
128039,326.086956521739,4,1,0,100,1,0
128039,-58.8235294117647,4,1,0,100,0,0
129343,324.324324324324,4,1,0,100,1,0
129343,-58.8235294117647,4,1,0,100,0,0
132910,-76.9230769230769,4,1,0,70,0,0
133559,-76.9230769230769,4,1,0,40,0,0
135701,326.086956521739,4,1,0,100,1,0
138961,310.880829015544,4,1,0,100,1,0
139271,326.086956521739,4,1,0,100,1,0
140901,-90.9090909090909,4,1,0,100,0,0
142857,-52.6315789473684,4,1,0,100,0,0
143184,-90.9090909090909,4,1,0,100,0,0
145506,326.086956521739,4,1,0,100,1,0
146812,326.086956521739,4,1,0,100,1,0
149828,-90.9090909090909,4,1,0,100,0,0
149909,-83.3333333333333,4,1,0,100,0,0
149991,-76.9230769230769,4,1,0,100,0,0
150888,-90.9090909090909,4,1,0,100,0,0
152681,-83.3333333333333,4,1,0,100,0,0
153007,-100,4,1,0,100,0,0
153986,326.086956521739,4,1,0,100,1,0
163088,329.67032967033,4,1,0,100,1,0
163088,-76.9230769230769,4,1,0,100,0,0
163417,-83.3333333333333,4,1,0,100,0,0
164406,-71.4285714285714,4,1,0,100,0,0
165395,-62.5,4,1,0,100,0,0
165701,325.909831613254,4,1,0,100,1,0
167982,-71.4285714285714,4,1,0,100,0,0
168960,-62.5,4,1,0,100,0,0
169611,-83.3333333333333,4,1,0,100,0,0
171567,-76.9230769230769,4,1,0,100,0,0
172219,-71.4285714285714,4,1,0,100,0,0
172545,-66.6666666666667,4,1,0,100,0,0
173196,-90.9090909090909,4,1,0,100,0,0
173522,-58.8235294117647,4,1,0,100,0,0
174826,325.20325203252,4,1,0,100,1,0
174826,-83.3333333333333,4,1,0,100,0,0
178728,326.975476839237,4,1,0,100,1,0
182651,326.086956521739,4,1,0,100,1,0
189191,326.086956521739,4,1,0,100,1,0
193430,326.086956521739,4,1,0,100,1,0
194392,322.58064516129,4,1,0,100,1,0
196327,326.086956521739,4,1,0,100,1,0
197305,338.983050847458,4,1,0,100,1,0
197643,326.086956521739,4,1,0,100,1,0
198316,326.086956521739,4,1,0,100,1,0
202510,324.324324324324,4,1,0,100,1,0
202510,-90.9090909090909,4,1,0,100,0,0
205104,-86.9565217391304,4,1,0,100,0,0
206401,-90.9090909090909,4,1,0,100,0,0
207699,-86.9565217391304,4,1,0,100,0,0
218077,-80,4,1,0,100,0,0
220672,-68.9655172413793,4,1,0,100,0,0
222780,-66.6666666666667,4,1,0,100,0,0
223266,-86.9565217391304,4,1,0,100,0,0
238834,-74.0740740740741,4,1,0,100,0,0
240131,-68.9655172413793,4,1,0,100,0,0
241428,-60.6060606060606,4,1,0,100,0,0
242726,-54.054054054054,4,1,0,100,0,0
244023,-60.6060606060606,4,1,0,100,0,0
245320,-54.054054054054,4,1,0,100,0,0
246618,-51.2820512820513,4,1,0,100,0,0
247915,-46.5116279069767,4,1,0,100,0,0
274961,319.148936170213,4,1,0,100,1,0
329291,461.538461538462,4,3,0,100,1,0
336675,-71.4285714285714,4,3,0,100,0,0
345906,-58.8235294117647,4,3,0,100,0,0
346367,-55.5555555555556,4,3,0,100,0,0
347752,-50,4,3,0,100,0,0
348214,-45.4545454545455,4,3,0,100,0,0
351906,-58.8235294117647,4,3,0,100,0,0
353291,-62.5,4,3,0,100,0,0
353752,-66.6666666666667,4,3,0,100,0,0
354214,-71.4285714285714,4,3,0,100,0,0
355137,-76.9230769230769,4,3,0,100,0,0
355598,-71.4285714285714,4,3,0,100,0,0
355675,-66.6666666666667,4,3,0,100,0,0
355752,-62.5,4,3,0,100,0,0
355829,-58.8235294117647,4,3,0,100,0,0
355906,-55.5555555555556,4,3,0,100,0,0
355983,-52.6315789473684,4,3,0,100,0,0
363444,-45.4545454545455,4,3,0,100,0,0
363906,-41.6666666666667,4,3,0,100,0,0
369444,-45.4545454545455,4,3,0,100,0,0
405484,300,4,1,0,100,1,0
733754,300,4,1,0,100,1,0
772154,-71.4285714285714,4,1,0,100,0,0
774254,-66.6666666666667,4,1,0,100,0,0
775754,-71.4285714285714,4,1,0,100,0,0
779054,-66.6666666666667,4,1,0,100,0,0
779954,-58.8235294117647,4,1,0,100,0,0
780554,-55.5555555555556,4,1,0,100,0,0
976338,292.682926829268,4,1,0,100,1,0
1013801,-100,4,1,0,70,0,1
1016142,-76.9230769230769,4,1,0,70,0,1
1018484,-66.6666666666667,4,1,0,70,0,1
1020533,-76.9230769230769,4,1,0,80,0,1
1020825,-55.5555555555556,4,1,0,80,0,1
1022435,-51.2820512820513,4,1,0,80,0,1
1023167,-250,4,1,0,90,0,1
1026679,-111.111111111111,4,1,0,100,0,1
1034289,-90.9090909090908,4,1,0,100,0,1
1034874,-76.9230769230769,4,1,0,100,0,1
1039557,-166.666666666667,4,1,0,100,0,1
1039923,-142.857142857143,4,1,0,100,0,1
1040289,-125,4,1,0,100,0,1
1040728,-100,4,1,0,100,0,1
1041094,-90.9090909090909,4,1,0,100,0,1
1041606,-83.3333333333333,4,1,0,100,0,1
1043069,-83.3333333333333,4,1,0,100,0,1
1051264,-83.3333333333333,4,1,0,100,0,0
1053752,-83.3333333333333,4,1,0,5,0,0
1056736,284.36018957346,4,1,0,100,1,0
1056736,-66.6666666666667,4,1,0,100,0,0
1067115,-100,4,1,0,100,0,0
1068110,-80,4,1,0,100,0,0
1069816,-80,4,1,0,100,0,0

[HitObjects]
186,162,3805,6,0,B|145:162|134:182|100:211|124:268|154:284|192:273|221:269|235:242|254:220|254:220|271:199|309:181|352:198|375:232|375:232|329:248|312:248|305:251|281:267|288:306|259:322|177:360|105:301,1,661.499979812623
141,319,5138,1,0,0:0:0:0:
247,149,5472,6,0,L|230:242,1,67.5000025749208
301,311,5805,2,0,L|318:218,1,67.5000025749208
435,127,6138,2,0,P|404:147|332:144,1,101.250003862381
62,50,6472,6,0,B|39:108|51:180|125:198|125:198|122:151|160:81|160:81|209:156|199:197|199:197|276:166|290:105|265:38,1,612.000011672974
285,37,9138,6,0,B|240:22|179:20|148:70|141:137|167:180|201:227|201:227|228:165|322:172|333:253,1,459.00000875473
414,136,10472,5,0,0:0:0:0:
211,146,10805,2,0,L|312:107,1,76.5000014591217
412,163,11138,2,0,L|311:202,1,76.5000014591217
140,295,11472,2,0,P|126:228|177:188,1,114.750002188683
380,151,11805,6,0,B|327:121|247:134|227:176|227:176|254:224|254:224|285:176|367:189|405:242|405:242|375:212|310:201|267:272|278:314|293:337|293:337|248:338|205:318,1,683.99998173523
351,236,14472,6,0,P|345:188|309:143,1,85.4999977169037
265,88,14805,6,0,P|237:102|224:122,1,42.7499988584519
268,223,14972,2,8,P|252:237|232:245,1,42.7499988584519
149,158,15138,2,8,P|169:181|192:188,1,42.7499988584519
351,110,15305,5,0,0:0:0:0:
345,140,15388,1,0,0:0:0:0:
326,164,15471,1,0,0:0:0:0:
298,177,15555,1,0,0:0:0:0:
268,176,15638,1,0,0:0:0:0:
241,162,15721,1,0,0:0:0:0:
224,136,15805,5,0,0:0:0:0:
219,105,15888,1,0,0:0:0:0:
213,75,15971,1,0,0:0:0:0:
194,51,16054,1,0,0:0:0:0:
166,38,16138,1,0,0:0:0:0:
136,39,16221,1,0,0:0:0:0:
109,53,16304,1,0,0:0:0:0:
92,79,16388,1,0,0:0:0:0:
92,110,16472,2,0,P|84:136|58:164,3,42.7499988584519
241,162,16805,2,0,P|249:136|275:108,3,42.7499988584519
186,311,17138,6,0,L|260:300,1,56.25
73,312,17305,5,0,0:0:0:0:
44,288,17388,1,0,0:0:0:0:
35,252,17471,1,0,0:0:0:0:
50,217,17554,1,0,0:0:0:0:
82,199,17638,1,0,0:0:0:0:
119,204,17721,1,0,0:0:0:0:
146,230,17805,1,0,0:0:0:0:
183,234,17888,1,0,0:0:0:0:
210,209,17971,1,0,0:0:0:0:
210,171,18054,1,0,0:0:0:0:
182,147,18138,6,0,P|164:121|169:104,3,38.2500007295609
442,99,18472,5,0,0:0:0:0:
400,55,18555,1,0,0:0:0:0:
342,41,18638,1,0,0:0:0:0:
286,60,18721,1,0,0:0:0:0:
248,107,18805,1,0,0:0:0:0:
245,168,18888,1,0,0:0:0:0:
214,218,18971,1,0,0:0:0:0:
156,225,19054,1,0,0:0:0:0:
114,183,19137,1,0,0:0:0:0:
124,122,19222,1,0,0:0:0:0:
179,98,19305,1,0,0:0:0:0:
227,134,19388,1,0,0:0:0:0:
225,195,19472,2,0,L|395:185,1,121.500000463486
191,295,19805,6,0,P|218:295|271:246,1,60.7500002317429
314,53,19972,2,0,P|341:53|394:102,1,60.7500002317429
404,281,20138,2,0,P|431:281|484:232,1,60.7500002317429
388,119,20305,5,0,0:0:0:0:
384,174,20388,1,0,0:0:0:0:
350,217,20471,1,0,0:0:0:0:
297,233,20554,1,0,0:0:0:0:
244,216,20638,1,0,0:0:0:0:
211,172,20721,1,0,0:0:0:0:
210,115,20805,2,0,P|218:86|219:56,1,60.7500002317429
350,217,20972,2,0,P|341:246|340:276,1,60.7500002317429
20,191,21138,5,0,0:0:0:0:
64,151,21221,1,0,0:0:0:0:
123,149,21304,1,0,0:0:0:0:
171,185,21387,1,0,0:0:0:0:
183,243,21472,5,0,0:0:0:0:
245,238,21555,1,0,0:0:0:0:
283,192,21638,1,0,0:0:0:0:
277,133,21721,1,0,0:0:0:0:
231,95,21805,5,0,0:0:0:0:
274,54,21888,1,0,0:0:0:0:
333,49,21971,1,0,0:0:0:0:
381,84,22054,1,0,0:0:0:0:
390,145,22138,5,0,0:0:0:0:
430,189,22221,1,0,0:0:0:0:
440,248,22304,1,0,0:0:0:0:
417,303,22387,1,0,0:0:0:0:
367,336,22472,6,0,P|322:375|262:384,1,121.500000463486
110,297,22805,1,0,0:0:0:0:
426,217,22972,1,0,0:0:0:0:
426,217,23055,1,0,0:0:0:0:
426,217,23138,1,0,0:0:0:0:
332,299,23305,2,0,P|232:283|185:258,1,121.500000463486
227,248,23555,1,0,0:0:0:0:
227,248,23638,1,0,0:0:0:0:
437,112,23805,6,0,L|398:146,1,49.5000015106202
294,224,24138,2,0,L|255:190,1,49.5000015106202
69,122,24472,5,0,0:0:0:0:
114,160,24555,1,0,0:0:0:0:
173,158,24638,1,0,0:0:0:0:
217,118,24721,1,0,0:0:0:0:
228,51,24805,1,0,0:0:0:0:
225,117,24888,1,0,0:0:0:0:
225,184,24971,1,0,0:0:0:0:
228,251,25054,1,0,0:0:0:0:
235,317,25138,6,0,L|238:388,1,60.7500002317429
88,265,25305,2,0,L|90:194,1,60.7500002317429
244,90,25472,1,0,0:0:0:0:
293,125,25555,1,0,0:0:0:0:
352,135,25638,1,0,0:0:0:0:
410,118,25721,1,0,0:0:0:0:
461,82,25805,6,0,L|480:151,1,60.7500002317429
370,358,25972,2,0,L|389:288,1,60.7500002317429
352,135,26138,5,0,0:0:0:0:
314,88,26221,1,0,0:0:0:0:
256,76,26304,1,0,0:0:0:0:
204,104,26387,1,0,0:0:0:0:
182,160,26472,5,0,0:0:0:0:
212,161,26555,1,0,0:0:0:0:
242,163,26638,1,0,0:0:0:0:
272,164,26721,1,0,0:0:0:0:
303,166,26805,5,0,0:0:0:0:
312,229,26888,1,0,0:0:0:0:
279,283,26971,1,0,0:0:0:0:
218,303,27054,1,0,0:0:0:0:
159,279,27138,5,0,0:0:0:0:
159,246,27221,1,0,0:0:0:0:
159,214,27304,1,0,0:0:0:0:
159,181,27387,1,0,0:0:0:0:
159,148,27471,5,0,0:0:0:0:
220,126,27555,1,0,0:0:0:0:
281,104,27638,1,0,0:0:0:0:
219,84,27721,1,0,0:0:0:0:
157,64,27805,6,0,P|75:37|-2:47,1,130.500003982544
444,75,28138,2,0,L|458:147,1,60.7500002317429
314,342,28305,1,0,0:0:0:0:
314,342,28388,1,0,0:0:0:0:
314,342,28472,2,0,L|287:268,1,60.7500002317429
257,140,28638,1,0,0:0:0:0:
257,140,28722,1,0,0:0:0:0:
257,140,28805,1,0,0:0:0:0:
257,140,28888,1,0,0:0:0:0:
257,140,28972,2,0,L|199:202,1,60.7500002317429
83,315,29138,6,0,B|70:251|70:251|79:182,1,121.500000463486
161,44,29472,2,0,L|196:101,1,60.7500002317429
319,291,29638,1,0,0:0:0:0:
319,291,29722,1,0,0:0:0:0:
319,291,29805,2,0,L|276:232,1,60.7500002317429
173,152,29972,1,0,0:0:0:0:
173,152,30055,1,0,0:0:0:0:
173,152,30138,1,0,0:0:0:0:
173,152,30222,1,0,0:0:0:0:
173,152,30305,2,0,L|145:237,1,60.7500002317429
81,327,30472,6,0,B|56:305|53:275|53:275|57:235|88:204,1,112.5
252,74,30805,2,0,L|182:83,1,56.25
45,73,30972,1,0,0:0:0:0:
45,73,31055,1,0,0:0:0:0:
45,73,31138,6,0,L|58:152,1,56.25
131,221,31305,2,0,L|118:142,1,56.25
155,33,31472,2,0,L|170:120,1,56.25
250,196,31639,2,0,L|235:109,1,56.25
226,57,31805,5,0,0:0:0:0:
273,29,31888,1,0,0:0:0:0:
325,46,31971,1,0,0:0:0:0:
346,96,32054,1,0,0:0:0:0:
324,145,32138,1,0,0:0:0:0:
273,171,32222,1,0,0:0:0:0:
251,221,32306,1,0,0:0:0:0:
273,270,32389,1,0,0:0:0:0:
325,287,32472,1,0,0:0:0:0:
372,260,32555,1,0,0:0:0:0:
375,204,32638,6,0,L|360:122,1,56.25
254,37,32805,2,0,L|264:92,1,56.25
284,263,32972,2,0,L|269:181,1,56.25
163,96,33139,2,0,L|173:151,3,56.25
298,145,33471,5,0,0:0:0:0:
327,193,33555,1,0,0:0:0:0:
381,205,33638,1,0,0:0:0:0:
433,186,33721,1,0,0:0:0:0:
465,139,33805,2,0,L|508:103,1,56.25
272,310,33972,1,0,0:0:0:0:
272,310,34055,1,0,0:0:0:0:
272,310,34138,2,0,L|237:263,1,56.25
176,99,34305,2,0,L|141:146,1,56.25
28,343,34472,5,0,0:0:0:0:
78,364,34555,1,0,0:0:0:0:
133,355,34638,1,0,0:0:0:0:
173,316,34722,1,0,0:0:0:0:
186,263,34805,5,0,0:0:0:0:
215,210,34888,1,0,0:0:0:0:
266,178,34971,1,0,0:0:0:0:
326,174,35055,1,0,0:0:0:0:
381,198,35138,1,0,0:0:0:0:
334,243,35221,1,0,0:0:0:0:
271,255,35304,1,0,0:0:0:0:
211,232,35388,1,0,0:0:0:0:
173,180,35472,1,0,0:0:0:0:
155,121,35555,1,0,0:0:0:0:
94,106,35638,1,0,0:0:0:0:
51,151,35722,1,0,0:0:0:0:
69,211,35805,2,0,P|125:216|149:194,1,65.250001991272
323,326,35972,2,0,P|267:321|243:343,1,65.250001991272
181,297,36138,2,0,L|213:241,2,65.250001991272
279,96,36472,5,0,0:0:0:0:
317,57,36555,1,0,0:0:0:0:
372,58,36638,1,0,0:0:0:0:
408,98,36722,1,0,0:0:0:0:
404,153,36805,5,0,0:0:0:0:
368,188,36888,1,0,0:0:0:0:
330,220,36971,1,0,0:0:0:0:
325,270,37054,1,0,0:0:0:0:
346,310,37138,5,0,0:0:0:0:
389,319,37221,1,0,0:0:0:0:
428,300,37304,1,0,0:0:0:0:
447,260,37388,1,0,0:0:0:0:
437,217,37471,5,0,0:0:0:0:
403,190,37554,1,0,0:0:0:0:
363,185,37638,1,0,0:0:0:0:
327,171,37721,1,0,0:0:0:0:
303,142,37804,5,0,0:0:0:0:
304,102,37888,1,0,0:0:0:0:
282,63,37971,1,0,0:0:0:0:
241,46,38054,1,0,0:0:0:0:
199,58,38138,5,0,0:0:0:0:
218,105,38222,1,0,0:0:0:0:
226,159,38305,1,0,0:0:0:0:
190,199,38388,1,0,0:0:0:0:
147,227,38472,6,0,L|83:239,1,56.25
356,225,38638,2,0,L|421:237,1,56.25
425,82,38805,6,0,P|388:100|314:94,1,112.5
215,287,39138,2,0,P|233:250|227:176,1,112.5
102,74,39472,2,0,P|141:89|204:84,1,56.25
286,88,39638,1,0,0:0:0:0:
38,279,39805,2,0,P|30:223|51:172,1,112.5
343,36,40138,2,0,P|358:75|353:138,1,56.25
357,220,40304,1,0,0:0:0:0:
207,193,40472,2,0,P|186:141|193:86,1,112.5
254,319,40805,2,0,P|269:280|264:217,1,56.25
268,135,40972,5,0,0:0:0:0:
293,78,41055,1,0,0:0:0:0:
344,44,41138,1,0,0:0:0:0:
406,44,41222,1,0,0:0:0:0:
457,74,41305,1,0,0:0:0:0:
482,131,41388,1,0,0:0:0:0:
493,182,41472,5,0,0:0:0:0:
442,180,41555,1,0,0:0:0:0:
400,209,41638,1,0,0:0:0:0:
386,259,41722,1,0,0:0:0:0:
393,314,41805,1,0,0:0:0:0:
352,351,41888,1,0,0:0:0:0:
297,354,41971,1,0,0:0:0:0:
254,320,42055,1,0,0:0:0:0:
244,267,42138,1,0,0:0:0:0:
258,214,42222,1,0,0:0:0:0:
277,164,42305,1,0,0:0:0:0:
263,113,42388,1,0,0:0:0:0:
234,69,42472,5,0,0:0:0:0:
208,112,42555,1,0,0:0:0:0:
214,163,42638,1,0,0:0:0:0:
251,198,42722,1,0,0:0:0:0:
300,204,42805,1,0,0:0:0:0:
337,169,42888,1,0,0:0:0:0:
369,133,42971,1,0,0:0:0:0:
417,132,43054,1,0,0:0:0:0:
450,167,43138,1,0,0:0:0:0:
462,215,43222,1,0,0:0:0:0:
437,257,43305,1,0,0:0:0:0:
388,250,43388,1,0,0:0:0:0:
343,241,43472,1,0,0:0:0:0:
299,251,43555,1,0,0:0:0:0:
267,282,43638,1,0,0:0:0:0:
221,286,43722,1,0,0:0:0:0:
164,272,43805,6,0,B|141:212|77:207|77:207|137:188|193:181|260:91,1,288
253,95,44222,1,0,0:0:0:0:
272,128,44305,1,0,0:0:0:0:
301,151,44388,1,0,0:0:0:0:
339,157,44472,2,0,P|371:161|414:210,1,76.5000014591217
428,298,44638,2,0,B|404:326|374:303|374:303|345:308|322:285|294:288,1,135.000005149842
272,264,44888,1,0,0:0:0:0:
245,236,44972,1,0,0:0:0:0:
235,199,45055,1,0,0:0:0:0:
236,161,45138,5,0,0:0:0:0:
195,209,45221,1,0,0:0:0:0:
133,219,45304,1,0,0:0:0:0:
91,171,45388,1,0,0:0:0:0:
89,107,45472,1,0,0:0:0:0:
132,61,45555,1,0,0:0:0:0:
190,37,45638,1,0,0:0:0:0:
255,45,45722,1,0,0:0:0:0:
306,80,45805,1,0,0:0:0:0:
334,136,45888,1,0,0:0:0:0:
341,199,45972,1,0,0:0:0:0:
373,252,46055,1,0,0:0:0:0:
437,269,46138,5,0,0:0:0:0:
414,204,46222,1,0,0:0:0:0:
361,162,46305,1,0,0:0:0:0:
297,141,46388,1,0,0:0:0:0:
238,136,46472,2,0,P|197:143|176:157,1,58.4999973220826
157,298,46638,1,0,0:0:0:0:
102,311,46721,1,0,0:0:0:0:
55,278,46805,1,0,0:0:0:0:
51,222,46888,1,0,0:0:0:0:
91,182,46971,1,0,0:0:0:0:
147,187,47055,1,0,0:0:0:0:
194,220,47138,1,0,0:0:0:0:
250,237,47222,1,0,0:0:0:0:
307,229,47305,1,0,0:0:0:0:
356,198,47388,1,0,0:0:0:0:
390,150,47472,1,0,0:0:0:0:
334,136,47555,1,0,0:0:0:0:
280,160,47638,1,0,0:0:0:0:
248,209,47722,1,0,0:0:0:0:
236,266,47805,5,0,0:0:0:0:
186,294,47888,1,0,0:0:0:0:
132,277,47971,1,0,0:0:0:0:
110,225,48055,1,0,0:0:0:0:
129,170,48138,1,0,0:0:0:0:
182,150,48221,1,0,0:0:0:0:
235,172,48304,1,0,0:0:0:0:
259,223,48388,1,0,0:0:0:0:
297,273,48472,5,0,0:0:0:0:
355,292,48555,1,0,0:0:0:0:
412,268,48638,1,0,0:0:0:0:
438,212,48722,1,0,0:0:0:0:
420,153,48805,1,0,0:0:0:0:
368,121,48888,1,0,0:0:0:0:
306,104,48972,1,0,0:0:0:0:
268,53,49055,1,0,0:0:0:0:
231,1,49138,6,0,B|238:69|238:69|199:145,1,125.999996154785
301,299,49472,2,0,P|300:258|307:219,1,62.9999980773926
385,84,49638,1,0,0:0:0:0:
406,264,49805,1,0,0:0:0:0:
275,58,49972,1,0,0:0:0:0:
188,234,50138,1,0,0:0:0:0:
188,234,50222,1,0,0:0:0:0:
188,234,50305,6,0,B|188:165|188:165|142:94,1,125.999996154785
59,46,50638,1,0,0:0:0:0:
66,330,50805,2,0,P|94:300|127:278,1,62.9999980773926
277,237,50971,1,0,0:0:0:0:
89,173,51138,6,0,P|159:196|250:151,1,125.999996154785
121,52,51472,2,0,P|150:80|172:113,1,62.9999980773926
214,263,51638,1,0,0:0:0:0:
319,42,51805,1,0,0:0:0:0:
319,42,51888,1,0,0:0:0:0:
319,42,51972,6,0,B|349:89|349:89|349:158,1,125.999996154785
348,262,52222,1,0,0:0:0:0:
289,279,52305,1,0,0:0:0:0:
237,246,52388,1,0,0:0:0:0:
228,185,52472,1,0,0:0:0:0:
258,137,52555,1,0,0:0:0:0:
250,75,52638,1,0,0:0:0:0:
206,31,52721,1,0,0:0:0:0:
145,23,52805,1,0,0:0:0:0:
91,54,52888,1,0,0:0:0:0:
68,111,52971,1,0,0:0:0:0:
86,165,53055,1,0,0:0:0:0:
132,196,53138,5,0,0:0:0:0:
79,215,53221,1,0,0:0:0:0:
54,265,53304,1,0,0:0:0:0:
72,319,53388,1,0,0:0:0:0:
121,346,53471,1,0,0:0:0:0:
176,335,53554,1,0,0:0:0:0:
210,289,53638,1,0,0:0:0:0:
229,230,53721,1,0,0:0:0:0:
283,201,53804,1,0,0:0:0:0:
342,216,53888,1,0,0:0:0:0:
375,269,53972,1,0,0:0:0:0:
318,294,54055,1,0,0:0:0:0:
257,288,54138,1,0,0:0:0:0:
206,251,54222,1,0,0:0:0:0:
182,194,54305,2,0,L|155:109,1,62.9999980773926
432,320,54472,6,0,L|295:356,1,125.999996154785
141,205,54805,2,0,L|278:240,1,125.999996154785
403,73,55138,2,0,L|265:108,1,125.999996154785
132,149,55472,1,0,0:0:0:0:
132,149,55555,1,0,0:0:0:0:
132,149,55638,2,0,L|112:298,1,125.999996154785
105,336,55888,5,0,0:0:0:0:
125,277,55971,1,0,0:0:0:0:
171,234,56054,1,0,0:0:0:0:
231,218,56138,1,0,0:0:0:0:
292,230,56221,1,0,0:0:0:0:
340,270,56304,1,0,0:0:0:0:
345,343,56388,5,0,0:0:0:0:
301,287,56471,1,0,0:0:0:0:
301,216,56554,1,0,0:0:0:0:
343,159,56638,1,0,0:0:0:0:
411,140,56721,1,0,0:0:0:0:
443,143,56805,5,0,0:0:0:0:
437,173,56888,1,0,0:0:0:0:
446,203,56971,1,0,0:0:0:0:
466,227,57055,1,0,0:0:0:0:
443,300,57138,5,0,0:0:0:0:
372,324,57221,1,0,0:0:0:0:
305,292,57304,1,0,0:0:0:0:
281,221,57388,1,0,0:0:0:0:
314,155,57472,1,0,0:0:0:0:
329,82,57555,1,0,0:0:0:0:
284,22,57638,1,0,0:0:0:0:
210,16,57722,1,0,0:0:0:0:
203,83,57805,5,0,0:0:0:0:
196,149,57888,1,0,0:0:0:0:
138,184,57971,1,0,0:0:0:0:
73,163,58055,1,0,0:0:0:0:
35,107,58138,5,0,0:0:0:0:
0,157,58221,1,0,0:0:0:0:
11,217,58304,1,0,0:0:0:0:
63,250,58388,1,0,0:0:0:0:
124,233,58472,1,0,0:0:0:0:
171,193,58555,1,0,0:0:0:0:
233,190,58638,1,0,0:0:0:0:
285,224,58722,1,0,0:0:0:0:
315,269,58805,5,0,0:0:0:0:
353,304,58888,1,0,0:0:0:0:
405,298,58971,1,0,0:0:0:0:
434,254,59055,1,0,0:0:0:0:
408,202,59138,5,0,0:0:0:0:
368,161,59221,1,0,0:0:0:0:
368,104,59304,1,0,0:0:0:0:
407,63,59388,1,0,0:0:0:0:
420,123,59472,5,0,0:0:0:0:
406,183,59555,1,0,0:0:0:0:
355,216,59638,1,0,0:0:0:0:
295,204,59722,1,0,0:0:0:0:
260,154,59805,1,0,0:0:0:0:
81,119,63703,6,0,P|148:104|223:123,1,135
235,140,64036,1,0,0:0:0:0:
379,267,64203,1,0,0:0:0:0:
360,243,64286,1,0,0:0:0:0:
321,40,64453,6,0,P|254:55|179:36,1,135
153,284,64869,1,0,0:0:0:0:
335,117,65036,1,0,0:0:0:0:
316,315,65203,1,0,0:0:0:0:
235,140,65369,1,0,0:0:0:0:
62,62,65536,1,0,0:0:0:0:
70,88,65619,2,0,P|85:155|66:230,1,135
237,44,66036,5,0,0:0:0:0:
148,304,66203,1,0,0:0:0:0:
329,217,66369,6,0,P|396:202|471:221,1,135
477,238,66703,1,0,0:0:0:0:
397,70,66869,1,0,0:0:0:0:
402,107,66953,1,0,0:0:0:0:
343,323,67203,1,0,0:0:0:0:
281,85,67369,1,0,0:0:0:0:
236,215,67536,1,0,0:0:0:0:
214,248,67619,6,0,P|147:263|72:244,1,135
40,57,68036,1,0,0:0:0:0:
78,348,68203,1,0,0:0:0:0:
111,333,68286,2,0,P|178:318|253:337,1,135
272,348,68619,1,0,0:0:0:0:
303,367,68703,1,0,0:0:0:0:
304,113,68869,1,0,0:0:0:0:
449,294,69036,6,0,P|434:227|453:152,1,135
474,137,69369,1,0,0:0:0:0:
298,214,69536,1,0,0:0:0:0:
300,245,69619,1,0,0:0:0:0:
175,51,69869,1,0,0:0:0:0:
58,211,70036,1,0,0:0:0:0:
296,129,70203,1,0,0:0:0:0:
142,343,70369,5,0,0:0:0:0:
94,128,70536,1,0,0:0:0:0:
277,327,70703,5,0,0:0:0:0:
360,147,70869,1,0,0:0:0:0:
362,189,70952,1,0,0:0:0:0:
437,346,71202,1,0,0:0:0:0:
105,39,71369,5,0,0:0:0:0:
105,262,71536,1,0,0:0:0:0:
220,151,71702,2,0,P|287:135|336:144,1,90
387,285,72036,2,0,P|342:284|299:270,1,90
299,270,72286,1,0,0:0:0:0:
200,191,72452,1,0,0:0:0:0:
200,191,72536,2,0,P|185:233|185:278,1,90
312,216,72869,1,0,0:0:0:0:
312,216,72952,1,0,0:0:0:0:
312,216,73036,6,0,P|331:156|332:93,1,90
222,24,73369,2,0,P|207:66|207:111,1,90
207,111,73619,1,0,0:0:0:0:
112,251,73869,5,0,0:0:0:0:
112,251,73952,1,0,0:0:0:0:
112,251,74036,1,0,0:0:0:0:
127,229,74119,1,0,0:0:0:0:
149,213,74202,1,0,0:0:0:0:
175,206,74285,1,0,0:0:0:0:
201,211,74369,5,0,0:0:0:0:
183,190,74452,1,0,0:0:0:0:
177,164,74535,1,0,0:0:0:0:
183,138,74618,1,0,0:0:0:0:
201,118,74702,1,0,0:0:0:0:
227,111,74786,1,0,0:0:0:0:
243,132,74869,5,0,0:0:0:0:
266,145,74952,1,0,0:0:0:0:
293,147,75035,1,0,0:0:0:0:
318,137,75119,1,0,0:0:0:0:
337,118,75202,1,0,0:0:0:0:
343,92,75286,1,0,0:0:0:0:
345,65,75369,1,0,0:0:0:0:
351,39,75452,1,0,0:0:0:0:
370,20,75535,1,0,0:0:0:0:
396,14,75618,1,0,0:0:0:0:
421,23,75702,5,0,0:0:0:0:
437,44,75786,1,0,0:0:0:0:
439,71,75868,1,0,0:0:0:0:
434,98,75952,1,0,0:0:0:0:
413,114,76035,1,0,0:0:0:0:
387,117,76118,1,0,0:0:0:0:
363,106,76201,1,0,0:0:0:0:
348,84,76285,1,0,0:0:0:0:
336,59,76369,5,0,0:0:0:0:
316,40,76452,1,0,0:0:0:0:
291,32,76535,1,0,0:0:0:0:
264,34,76618,1,0,0:0:0:0:
241,48,76702,1,0,0:0:0:0:
225,70,76785,1,0,0:0:0:0:
221,97,76869,1,0,0:0:0:0:
238,117,76952,1,0,0:0:0:0:
243,143,77035,5,0,0:0:0:0:
237,169,77118,1,0,0:0:0:0:
219,189,77202,1,0,0:0:0:0:
196,203,77286,1,0,0:0:0:0:
173,218,77369,1,0,0:0:0:0:
157,196,77452,1,0,0:0:0:0:
150,170,77535,1,0,0:0:0:0:
154,143,77618,1,0,0:0:0:0:
168,120,77702,5,0,0:0:0:0:
188,138,77786,1,0,0:0:0:0:
199,162,77869,1,0,0:0:0:0:
220,179,77952,1,0,0:0:0:0:
246,186,78035,1,0,0:0:0:0:
272,182,78119,1,0,0:0:0:0:
295,168,78202,1,0,0:0:0:0:
310,145,78285,1,0,0:0:0:0:
316,119,78369,5,0,0:0:0:0:
313,92,78452,1,0,0:0:0:0:
325,69,78535,1,0,0:0:0:0:
349,57,78618,1,0,0:0:0:0:
375,60,78702,1,0,0:0:0:0:
395,78,78785,1,0,0:0:0:0:
401,104,78868,1,0,0:0:0:0:
391,129,78952,1,0,0:0:0:0:
367,143,79036,2,0,P|372:207|397:242,1,107.999996704102
226,238,79369,5,0,0:0:0:0:
192,279,79452,1,0,0:0:0:0:
146,277,79535,1,0,0:0:0:0:
107,242,79618,1,0,0:0:0:0:
100,188,79702,1,0,0:0:0:0:
118,136,79786,1,0,0:0:0:0:
111,82,79870,1,0,0:0:0:0:
72,47,79953,1,0,0:0:0:0:
26,45,80036,5,0,0:0:0:0:
25,98,80119,1,0,0:0:0:0:
57,140,80202,1,0,0:0:0:0:
107,160,80285,1,0,0:0:0:0:
159,150,80368,1,0,0:0:0:0:
203,180,80452,1,0,0:0:0:0:
247,208,80535,1,0,0:0:0:0:
299,199,80618,1,0,0:0:0:0:
332,158,80701,1,0,0:0:0:0:
328,103,80786,1,0,0:0:0:0:
347,52,80869,1,0,0:0:0:0:
395,29,80952,1,0,0:0:0:0:
442,49,81035,1,0,0:0:0:0:
456,99,81118,1,0,0:0:0:0:
425,141,81201,1,0,0:0:0:0:
384,177,81286,1,0,0:0:0:0:
358,223,81369,1,0,0:0:0:0:
371,274,81452,1,0,0:0:0:0:
412,309,81536,5,0,0:0:0:0:
438,262,81619,1,0,0:0:0:0:
442,208,81702,1,0,0:0:0:0:
418,161,81785,1,0,0:0:0:0:
373,132,81868,1,0,0:0:0:0:
319,127,81952,1,0,0:0:0:0:
265,119,82036,1,0,0:0:0:0:
220,88,82119,1,0,0:0:0:0:
182,49,82202,1,0,0:0:0:0:
130,41,82285,1,0,0:0:0:0:
99,82,82369,5,0,0:0:0:0:
118,130,82451,1,0,0:0:0:0:
172,133,82536,1,0,0:0:0:0:
217,103,82619,1,0,0:0:0:0:
269,90,82702,1,0,0:0:0:0:
322,98,82786,1,0,0:0:0:0:
366,128,82869,5,0,0:0:0:0:
323,161,82952,1,0,0:0:0:0:
270,158,83036,1,0,0:0:0:0:
229,124,83118,1,0,0:0:0:0:
222,70,83202,1,0,0:0:0:0:
186,32,83285,1,0,0:0:0:0:
134,37,83368,1,0,0:0:0:0:
105,81,83451,1,0,0:0:0:0:
128,130,83536,1,0,0:0:0:0:
144,180,83619,1,0,0:0:0:0:
126,230,83702,1,0,0:0:0:0:
91,272,83786,5,0,0:0:0:0:
54,233,83869,1,0,0:0:0:0:
49,180,83952,1,0,0:0:0:0:
78,135,84035,1,0,0:0:0:0:
128,118,84119,1,0,0:0:0:0:
159,161,84202,1,0,0:0:0:0:
209,180,84286,1,0,0:0:0:0:
255,153,84369,6,0,P|306:120|370:138,1,107.999996704102
337,210,84619,5,0,0:0:0:0:
337,210,84702,1,0,0:0:0:0:
337,210,84786,1,0,0:0:0:0:
337,210,84869,1,0,0:0:0:0:
337,210,84952,1,0,0:0:0:0:
337,210,85036,5,0,0:0:0:0:
317,258,85119,1,0,0:0:0:0:
268,278,85202,1,0,0:0:0:0:
220,257,85285,1,0,0:0:0:0:
202,208,85369,1,0,0:0:0:0:
217,156,85452,1,0,0:0:0:0:
230,105,85535,1,0,0:0:0:0:
195,67,85618,1,0,0:0:0:0:
144,74,85701,1,0,0:0:0:0:
126,126,85786,1,0,0:0:0:0:
146,174,85869,1,0,0:0:0:0:
126,222,85952,1,0,0:0:0:0:
79,249,86036,1,0,0:0:0:0:
47,289,86119,1,0,0:0:0:0:
68,336,86202,1,0,0:0:0:0:
119,340,86285,1,0,0:0:0:0:
161,305,86369,5,0,0:0:0:0:
200,269,86452,1,0,0:0:0:0:
253,269,86535,1,0,0:0:0:0:
293,302,86618,1,0,0:0:0:0:
320,350,86702,1,0,0:0:0:0:
371,359,86785,1,0,0:0:0:0:
413,327,86868,1,0,0:0:0:0:
419,275,86951,1,0,0:0:0:0:
391,228,87036,1,0,0:0:0:0:
353,193,87119,1,0,0:0:0:0:
357,140,87202,1,0,0:0:0:0:
399,110,87285,1,0,0:0:0:0:
451,122,87369,1,0,0:0:0:0:
437,173,87452,1,0,0:0:0:0:
394,203,87535,1,0,0:0:0:0:
342,199,87618,1,0,0:0:0:0:
295,170,87702,5,0,0:0:0:0:
261,210,87785,1,0,0:0:0:0:
209,218,87868,1,0,0:0:0:0:
165,189,87951,1,0,0:0:0:0:
141,140,88036,1,0,0:0:0:0:
144,88,88119,1,0,0:0:0:0:
102,59,88202,1,0,0:0:0:0:
55,81,88285,1,0,0:0:0:0:
46,134,88369,1,0,0:0:0:0:
74,178,88452,1,0,0:0:0:0:
69,231,88535,1,0,0:0:0:0:
38,276,88619,1,0,0:0:0:0:
34,328,88702,1,0,0:0:0:0:
70,367,88785,1,0,0:0:0:0:
122,369,88868,1,0,0:0:0:0:
160,333,88952,1,0,0:0:0:0:
162,279,89036,5,0,0:0:0:0:
186,232,89119,1,0,0:0:0:0:
237,220,89202,1,0,0:0:0:0:
279,251,89285,1,0,0:0:0:0:
286,305,89369,1,0,0:0:0:0:
311,350,89452,1,0,0:0:0:0:
363,354,89535,1,0,0:0:0:0:
394,313,89618,1,0,0:0:0:0:
386,259,89702,2,0,P|377:198|402:152,1,107.999996704102
464,233,89952,5,0,0:0:0:0:
464,233,90036,1,0,0:0:0:0:
464,233,90119,1,0,0:0:0:0:
464,233,90202,1,0,0:0:0:0:
464,233,90286,1,0,0:0:0:0:
464,233,90369,5,0,0:0:0:0:
492,283,90452,1,0,0:0:0:0:
460,330,90535,1,0,0:0:0:0:
404,339,90618,1,0,0:0:0:0:
360,303,90701,1,0,0:0:0:0:
337,248,90786,1,0,0:0:0:0:
296,209,90869,1,0,0:0:0:0:
240,218,90952,1,0,0:0:0:0:
214,268,91035,1,0,0:0:0:0:
193,323,91119,1,0,0:0:0:0:
140,344,91202,1,0,0:0:0:0:
87,321,91285,1,0,0:0:0:0:
66,268,91368,1,0,0:0:0:0:
89,216,91452,1,0,0:0:0:0:
142,195,91535,1,0,0:0:0:0:
196,219,91619,1,0,0:0:0:0:
210,275,91702,5,0,0:0:0:0:
226,328,91785,1,0,0:0:0:0:
280,342,91868,1,0,0:0:0:0:
320,303,91951,1,0,0:0:0:0:
306,245,92036,1,0,0:0:0:0:
259,212,92119,1,0,0:0:0:0:
251,156,92202,1,0,0:0:0:0:
287,112,92285,1,0,0:0:0:0:
344,110,92369,5,0,0:0:0:0:
347,168,92452,1,0,0:0:0:0:
305,207,92535,1,0,0:0:0:0:
248,215,92618,1,0,0:0:0:0:
197,188,92701,1,0,0:0:0:0:
183,130,92786,1,0,0:0:0:0:
176,75,92869,1,0,0:0:0:0:
124,58,92952,1,0,0:0:0:0:
87,99,93035,5,0,0:0:0:0:
110,149,93119,1,0,0:0:0:0:
168,151,93202,1,0,0:0:0:0:
209,111,93285,1,0,0:0:0:0:
266,108,93368,1,0,0:0:0:0:
311,143,93451,1,0,0:0:0:0:
328,200,93536,1,0,0:0:0:0:
332,256,93619,1,0,0:0:0:0:
378,290,93702,1,0,0:0:0:0:
433,279,93785,1,0,0:0:0:0:
462,230,93869,1,0,0:0:0:0:
444,176,93952,1,0,0:0:0:0:
393,146,94036,1,0,0:0:0:0:
340,170,94119,1,0,0:0:0:0:
350,225,94202,1,0,0:0:0:0:
313,267,94285,1,0,0:0:0:0:
256,264,94369,5,0,0:0:0:0:
218,219,94452,1,0,0:0:0:0:
162,211,94535,1,0,0:0:0:0:
127,255,94618,1,0,0:0:0:0:
145,308,94701,1,0,0:0:0:0:
204,317,94786,1,0,0:0:0:0:
239,270,94869,1,0,0:0:0:0:
252,214,94952,1,0,0:0:0:0:
240,157,95036,2,0,L|251:310,1,116.999994644165
416,57,95369,5,0,0:0:0:0:
106,153,95536,1,0,0:0:0:0:
400,180,95702,2,0,L|404:315,1,116.999994644165
228,245,96036,2,0,L|93:249,1,116.999994644165
82,290,96286,2,0,B|62:289|62:289|33:405,1,116.999994644165
38,383,96536,1,0,0:0:0:0:
191,30,96702,5,0,0:0:0:0:
44,177,96869,1,0,0:0:0:0:
373,206,97036,1,0,0:0:0:0:
172,357,97202,1,0,0:0:0:0:
340,384,97369,6,0,P|388:312|444:291,1,116.999994644165
447,303,97619,2,0,B|467:323|467:323|459:216,1,116.999994644165
460,234,97869,1,0,0:0:0:0:
362,37,98036,5,0,0:0:0:0:
111,199,98202,1,0,0:0:0:0:
489,145,98369,2,0,P|421:121|346:128,1,116.999994644165
242,319,98702,6,0,P|143:313|96:290,1,116.999994644165
127,307,98952,1,0,0:0:0:0:
79,130,99119,1,0,0:0:0:0:
79,130,99202,2,0,B|131:101|131:101|204:83,1,116.999994644165
338,93,99536,1,0,0:0:0:0:
338,93,99619,2,0,B|390:122|390:122|463:140,1,116.999994644165
467,307,99869,2,0,P|375:307|339:331,1,116.999994644165
237,270,100202,1,0,0:0:0:0:
237,270,100286,1,0,0:0:0:0:
0,187,128039,5,0,0:0:0:0:
22,115,128120,1,0,0:0:0:0:
90,88,128202,1,0,0:0:0:0:
156,124,128283,1,0,0:0:0:0:
169,196,128365,1,0,0:0:0:0:
140,266,128446,1,0,0:0:0:0:
176,331,128527,1,0,0:0:0:0:
247,354,128609,1,0,0:0:0:0:
307,305,128691,1,0,0:0:0:0:
324,232,128772,1,0,0:0:0:0:
298,161,128854,1,0,0:0:0:0:
238,115,128935,1,0,0:0:0:0:
166,87,129017,5,0,0:0:0:0:
159,161,129098,1,0,0:0:0:0:
204,221,129180,1,0,0:0:0:0:
277,236,129261,1,0,0:0:0:0:
339,190,129343,1,0,0:0:0:0:
398,142,129424,1,0,0:0:0:0:
469,169,129505,1,0,0:0:0:0:
475,243,129586,1,0,0:0:0:0:
412,287,129667,1,0,0:0:0:0:
342,255,129748,1,0,0:0:0:0:
265,255,129829,1,0,0:0:0:0:
195,287,129910,1,0,0:0:0:0:
141,341,129991,5,0,0:0:0:0:
176,274,130072,1,0,0:0:0:0:
176,198,130153,1,0,0:0:0:0:
138,132,130234,1,0,0:0:0:0:
63,120,130315,1,0,0:0:0:0:
2,168,130397,1,0,0:0:0:0:
4,244,130478,1,0,0:0:0:0:
64,291,130559,1,0,0:0:0:0:
121,240,130640,1,0,0:0:0:0:
192,212,130721,1,0,0:0:0:0:
268,207,130802,1,0,0:0:0:0:
339,235,130883,1,0,0:0:0:0:
383,297,130964,5,0,0:0:0:0:
309,312,131045,1,0,0:0:0:0:
240,282,131126,1,0,0:0:0:0:
202,216,131207,1,0,0:0:0:0:
167,148,131288,1,0,0:0:0:0:
102,115,131369,1,0,0:0:0:0:
43,157,131450,1,0,0:0:0:0:
54,229,131531,1,0,0:0:0:0:
122,252,131612,1,0,0:0:0:0:
182,203,131694,1,0,0:0:0:0:
238,154,131775,1,0,0:0:0:0:
313,152,131856,1,0,0:0:0:0:
361,211,131937,5,0,0:0:0:0:
312,267,132018,1,0,0:0:0:0:
329,338,132099,1,0,0:0:0:0:
397,365,132180,1,0,0:0:0:0:
469,341,132261,1,0,0:0:0:0:
493,268,132343,1,0,0:0:0:0:
464,197,132424,1,0,0:0:0:0:
399,156,132505,1,0,0:0:0:0:
358,90,132586,2,0,P|318:73|275:77,3,76.5000014591217
190,114,132910,6,0,L|180:218,1,58.4999973220826
308,259,133072,2,0,L|302:200,1,58.4999973220826
180,6,133234,5,0,0:0:0:0:
160,27,133315,1,0,0:0:0:0:
140,49,133396,1,0,0:0:0:0:
121,71,133477,1,0,0:0:0:0:
101,92,133558,1,0,0:0:0:0:
169,137,135701,5,0,0:0:0:0:
257,37,136027,2,0,L|273:91,1,45
350,169,136190,2,0,L|334:223,1,45
295,310,136353,1,0,0:0:0:0:
199,76,136679,5,0,0:0:0:0:
126,277,136842,1,0,0:0:0:0:
265,169,137005,1,0,0:0:0:0:
125,52,137331,5,0,0:0:0:0:
252,258,137494,2,0,P|316:237|353:210,1,90
390,59,137820,2,0,P|350:37|307:26,1,90
256,164,138146,1,0,0:0:0:0:
174,67,138309,6,0,P|152:106|141:149,1,90
188,333,138635,2,0,L|204:279,1,45
281,201,138798,2,0,L|265:147,1,45
189,70,138961,2,0,P|149:48|106:37,1,90
141,205,139271,2,0,L|195:221,1,45
273,298,139434,2,0,L|327:282,1,45
416,87,139597,2,0,P|437:126|448:169,1,90
446,304,139923,5,0,0:0:0:0:
428,289,140004,1,0,0:0:0:0:
407,281,140086,1,0,0:0:0:0:
385,278,140167,1,0,0:0:0:0:
359,283,140249,2,0,P|322:308|272:299,1,90
177,135,140575,5,0,0:0:0:0:
172,157,140656,1,0,0:0:0:0:
174,179,140738,1,0,0:0:0:0:
183,200,140819,1,0,0:0:0:0:
200,220,140901,2,0,P|270:215|307:233,1,99.0000030212403
378,294,141227,2,0,L|350:353,3,49.5000015106202
261,366,141553,2,0,P|197:328|257:242,1,198.000006042481
416,242,142042,5,0,0:0:0:0:
313,31,142205,1,0,0:0:0:0:
184,184,142368,5,0,0:0:0:0:
382,31,142531,2,0,L|391:146,1,99.0000030212403
391,293,142857,6,0,P|329:269|384:279,1,170.999995433807
512,219,143184,6,0,L|503:104,1,99.0000030212403
166,224,143510,2,0,B|134:277|208:303|154:379,1,148.50000453186
341,171,143836,6,0,L|325:110,1,49.5000015106202
384,347,143999,2,0,L|400:286,1,49.5000015106202
479,46,144162,2,0,B|426:14|400:88|324:34,1,148.50000453186
149,143,144488,6,0,L|87:113,1,49.5000015106202
355,263,144651,2,0,L|293:293,1,49.5000015106202
122,325,144814,2,0,P|92:266|163:292,1,148.50000453186
278,234,145140,6,0,L|294:300,1,49.5000015106202
326,6,145303,2,0,L|310:72,1,49.5000015106202
203,174,145506,2,0,L|316:147,1,90
312,165,145750,1,0,0:0:0:0:
326,181,145831,1,0,0:0:0:0:
346,192,145913,1,0,0:0:0:0:
368,196,145994,1,0,0:0:0:0:
390,192,146076,1,0,0:0:0:0:
409,180,146158,2,0,L|405:308,1,90
338,328,146484,5,0,0:0:0:0:
310,314,146565,1,0,0:0:0:0:
280,309,146647,1,0,0:0:0:0:
249,313,146728,1,0,0:0:0:0:
220,326,146812,2,0,P|200:342|182:354,3,45
205,218,147138,2,0,P|225:202|242:187,3,45
61,28,147464,2,0,L|91:65,1,45
91,228,147627,2,0,L|60:265,1,45
163,361,147790,5,0,0:0:0:0:
228,51,147953,2,0,P|283:59|339:44,1,90
294,255,148279,2,0,B|335:239|385:270|436:244,1,135
479,61,148605,1,0,0:0:0:0:
479,61,149094,6,0,L|483:110,1,45
378,274,149257,2,0,L|373:323,1,45
307,114,149420,1,0,0:0:0:0:
291,104,149501,1,0,0:0:0:0:
274,99,149583,1,0,0:0:0:0:
256,99,149664,1,0,0:0:0:0:
239,103,149746,1,0,0:0:0:0:
219,113,149827,1,0,0:0:0:0:
195,127,149909,1,0,0:0:0:0:
165,125,149991,1,0,0:0:0:0:
142,106,150072,6,0,P|74:82|23:99,1,116.999994644165
169,329,150398,5,0,0:0:0:0:
88,166,150562,1,0,0:0:0:0:
279,338,150725,5,0,0:0:0:0:
424,201,150888,2,0,B|383:126|444:73|396:7,1,198.000006042481
235,70,151377,6,0,L|194:23,1,49.5000015106202
284,190,151540,2,0,L|325:143,1,49.5000015106202
307,313,151703,5,0,0:0:0:0:
273,348,151784,1,0,0:0:0:0:
225,353,151866,1,0,0:0:0:0:
186,324,151947,1,0,0:0:0:0:
175,277,152029,1,0,0:0:0:0:
153,234,152110,1,0,0:0:0:0:
109,212,152192,1,0,0:0:0:0:
61,221,152273,1,0,0:0:0:0:
27,255,152355,1,0,0:0:0:0:
20,303,152436,1,0,0:0:0:0:
42,347,152518,1,0,0:0:0:0:
86,368,152599,1,0,0:0:0:0:
134,360,152681,5,0,0:0:0:0:
183,338,152762,1,0,0:0:0:0:
236,331,152844,1,0,0:0:0:0:
289,339,152925,1,0,0:0:0:0:
338,362,153007,5,0,0:0:0:0:
326,320,153088,1,0,0:0:0:0:
332,275,153170,1,0,0:0:0:0:
355,238,153251,1,0,0:0:0:0:
393,213,153333,2,0,P|439:155|402:89,1,135
414,89,153659,1,0,0:0:0:0:
414,89,153740,1,0,0:0:0:0:
414,89,153822,1,0,0:0:0:0:
414,89,153904,1,0,0:0:0:0:
414,89,153986,5,0,0:0:0:0:
269,46,154149,1,0,0:0:0:0:
313,241,154312,1,0,0:0:0:0:
355,9,154475,1,0,0:0:0:0:
182,188,154638,2,0,L|180:89,1,90
25,264,154964,2,0,B|71:248|71:248|162:298,1,135
180,311,155290,5,0,0:0:0:0:
306,362,155616,2,0,L|321:240,1,90
389,137,155942,2,0,L|404:259,1,90
295,64,156268,2,0,B|249:80|249:80|158:30,1,135
141,19,156594,5,0,0:0:0:0:
184,187,156920,2,0,L|81:167,1,90
238,298,157246,2,0,L|341:278,1,90
446,11,157572,2,0,B|462:57|462:57|412:148,1,135
405,161,157899,5,0,0:0:0:0:
309,38,158225,2,0,P|266:79|262:167,1,135
293,189,158551,5,0,0:0:0:0:
331,329,158714,1,0,0:0:0:0:
331,329,158795,1,0,0:0:0:0:
331,329,158877,1,0,0:0:0:0:
331,329,159203,5,0,0:0:0:0:
389,111,159366,1,0,0:0:0:0:
195,242,159529,1,0,0:0:0:0:
440,340,159692,1,0,0:0:0:0:
230,89,159855,2,0,L|243:-11,1,90
138,163,160181,1,0,0:0:0:0:
397,79,160344,1,0,0:0:0:0:
132,281,160507,6,0,L|37:273,1,90
308,119,160833,2,0,L|213:127,1,90
431,278,161159,2,0,L|336:270,1,90
413,65,161486,1,0,0:0:0:0:
260,324,161649,1,0,0:0:0:0:
500,353,161812,1,0,0:0:0:0:
313,126,161975,5,0,0:0:0:0:
316,148,162056,1,0,0:0:0:0:
320,170,162138,1,0,0:0:0:0:
168,52,162301,1,0,0:0:0:0:
171,29,162382,1,0,0:0:0:0:
175,7,162464,1,0,0:0:0:0:
150,241,162627,1,0,0:0:0:0:
391,62,162790,1,0,0:0:0:0:
375,289,162953,1,0,0:0:0:0:
211,70,163088,5,0,0:0:0:0:
154,77,163170,1,0,0:0:0:0:
113,117,163252,1,0,0:0:0:0:
105,174,163335,1,0,0:0:0:0:
135,223,163417,1,0,0:0:0:0:
167,264,163499,1,0,0:0:0:0:
167,317,163581,1,0,0:0:0:0:
133,357,163664,1,0,0:0:0:0:
81,367,163746,1,0,0:0:0:0:
34,342,163829,1,0,0:0:0:0:
15,293,163911,1,0,0:0:0:0:
30,242,163993,1,0,0:0:0:0:
75,213,164077,2,0,P|158:177|176:135,1,107.999996704102
248,44,164406,5,0,0:0:0:0:
307,27,164488,1,0,0:0:0:0:
361,56,164570,1,0,0:0:0:0:
380,114,164653,1,0,0:0:0:0:
354,170,164736,1,0,0:0:0:0:
324,224,164818,1,0,0:0:0:0:
334,285,164900,1,0,0:0:0:0:
379,327,164983,1,0,0:0:0:0:
440,332,165065,1,0,0:0:0:0:
459,273,165148,1,0,0:0:0:0:
438,215,165230,1,0,0:0:0:0:
386,182,165313,1,0,0:0:0:0:
324,187,165395,1,0,0:0:0:0:
256,206,165477,1,0,0:0:0:0:
193,174,165559,1,0,0:0:0:0:
168,109,165642,1,0,0:0:0:0:
160,41,165701,6,0,P|186:17|213:-13,3,45
327,90,166026,2,0,P|353:114|380:144,3,45
94,144,166352,2,0,P|68:120|41:90,3,45
176,292,166678,5,0,0:0:0:0:
207,323,166759,1,0,0:0:0:0:
250,333,166840,1,0,0:0:0:0:
291,317,166922,1,0,0:0:0:0:
317,281,167003,1,0,0:0:0:0:
348,249,167085,1,0,0:0:0:0:
390,234,167166,1,0,0:0:0:0:
434,241,167248,1,0,0:0:0:0:
470,267,167329,1,0,0:0:0:0:
431,290,167411,1,0,0:0:0:0:
387,294,167492,1,0,0:0:0:0:
345,277,167574,1,0,0:0:0:0:
315,245,167656,2,0,L|293:177,3,45
365,26,167982,5,0,0:0:0:0:
308,0,168063,1,0,0:0:0:0:
247,12,168144,1,0,0:0:0:0:
203,56,168226,1,0,0:0:0:0:
192,117,168308,1,0,0:0:0:0:
162,171,168389,1,0,0:0:0:0:
105,193,168470,1,0,0:0:0:0:
46,173,168552,1,0,0:0:0:0:
15,119,168633,1,0,0:0:0:0:
26,59,168715,1,0,0:0:0:0:
74,20,168796,1,0,0:0:0:0:
136,21,168878,1,0,0:0:0:0:
182,62,168959,5,0,0:0:0:0:
251,55,169041,1,0,0:0:0:0:
315,87,169122,1,0,0:0:0:0:
352,148,169204,1,0,0:0:0:0:
351,219,169285,1,0,0:0:0:0:
313,278,169367,1,0,0:0:0:0:
248,308,169448,1,0,0:0:0:0:
178,300,169530,1,0,0:0:0:0:
123,255,169611,5,0,0:0:0:0:
158,215,169692,1,0,0:0:0:0:
209,199,169773,1,0,0:0:0:0:
261,212,169855,1,0,0:0:0:0:
299,249,169937,2,0,L|332:301,1,53.9999983520508
462,146,170100,2,0,L|494:94,1,53.9999983520508
346,75,170263,5,0,0:0:0:0:
301,45,170344,1,0,0:0:0:0:
248,43,170425,1,0,0:0:0:0:
201,69,170507,1,0,0:0:0:0:
171,118,170589,2,0,L|146:183,1,53.9999983520508
19,50,170752,2,0,L|-6:-15,1,53.9999983520508
88,243,170915,5,0,0:0:0:0:
136,265,170996,1,0,0:0:0:0:
189,258,171077,1,0,0:0:0:0:
230,224,171159,1,0,0:0:0:0:
246,174,171241,2,0,L|268:103,1,53.9999983520508
288,333,171404,2,0,L|309:404,1,53.9999983520508
467,367,171567,5,0,0:0:0:0:
512,333,171648,1,0,0:0:0:0:
511,277,171729,1,0,0:0:0:0:
465,245,171811,1,0,0:0:0:0:
412,265,171893,1,0,0:0:0:0:
360,288,171974,1,0,0:0:0:0:
307,267,172055,1,0,0:0:0:0:
285,215,172137,1,0,0:0:0:0:
307,162,172218,1,0,0:0:0:0:
348,116,172300,1,0,0:0:0:0:
346,54,172381,1,0,0:0:0:0:
302,12,172463,1,0,0:0:0:0:
240,11,172545,5,0,0:0:0:0:
220,75,172626,1,0,0:0:0:0:
233,141,172707,1,0,0:0:0:0:
274,193,172789,1,0,0:0:0:0:
335,220,172870,1,0,0:0:0:0:
402,216,172952,1,0,0:0:0:0:
459,181,173033,1,0,0:0:0:0:
493,123,173115,1,0,0:0:0:0:
496,57,173196,5,0,0:0:0:0:
450,74,173277,1,0,0:0:0:0:
419,112,173358,1,0,0:0:0:0:
410,160,173440,1,0,0:0:0:0:
425,204,173522,5,0,0:0:0:0:
456,271,173603,1,0,0:0:0:0:
431,342,173684,1,0,0:0:0:0:
365,375,173766,1,0,0:0:0:0:
294,352,173847,1,0,0:0:0:0:
245,294,173929,1,0,0:0:0:0:
173,272,174010,1,0,0:0:0:0:
101,293,174092,1,0,0:0:0:0:
51,350,174173,5,0,0:0:0:0:
122,375,174255,1,0,0:0:0:0:
196,359,174336,1,0,0:0:0:0:
248,304,174418,1,0,0:0:0:0:
263,230,174499,1,0,0:0:0:0:
235,160,174581,1,0,0:0:0:0:
174,116,174662,1,0,0:0:0:0:
98,113,174744,1,0,0:0:0:0:
33,151,174826,2,0,L|34:223,3,53.9999983520508
94,121,202510,5,0,0:0:0:0:
81,167,202591,1,0,0:0:0:0:
107,208,202672,1,0,0:0:0:0:
155,216,202753,1,0,0:0:0:0:
198,193,202834,1,0,0:0:0:0:
242,174,202915,1,0,0:0:0:0:
287,192,202996,1,0,0:0:0:0:
305,237,203077,1,0,0:0:0:0:
297,285,203158,1,0,0:0:0:0:
314,329,203239,1,0,0:0:0:0:
360,343,203320,1,0,0:0:0:0:
399,317,203401,1,0,0:0:0:0:
360,286,203482,5,0,0:0:0:0:
311,290,203563,1,0,0:0:0:0:
271,318,203644,1,0,0:0:0:0:
249,363,203726,1,0,0:0:0:0:
202,376,203807,1,0,0:0:0:0:
160,352,203888,1,0,0:0:0:0:
148,305,203969,1,0,0:0:0:0:
173,264,204050,1,0,0:0:0:0:
220,250,204131,6,0,L|181:312,3,49.5000015106202
106,129,204455,2,0,L|145:191,3,49.5000015106202
246,34,204780,2,0,L|207:96,3,49.5000015106202
198,207,205104,5,0,0:0:0:0:
227,248,205185,1,0,0:0:0:0:
274,267,205266,1,0,0:0:0:0:
324,257,205347,1,0,0:0:0:0:
360,221,205428,1,0,0:0:0:0:
370,171,205509,1,0,0:0:0:0:
350,122,205591,1,0,0:0:0:0:
356,72,205672,1,0,0:0:0:0:
399,46,205753,1,0,0:0:0:0:
446,63,205834,1,0,0:0:0:0:
463,110,205915,1,0,0:0:0:0:
435,154,205996,1,0,0:0:0:0:
409,198,206077,1,0,0:0:0:0:
400,248,206158,1,0,0:0:0:0:
421,295,206239,1,0,0:0:0:0:
464,322,206320,1,0,0:0:0:0:
465,272,206401,6,0,L|397:268,3,49.5000015106202
323,313,206726,1,0,0:0:0:0:
283,341,206807,1,0,0:0:0:0:
234,339,206888,1,0,0:0:0:0:
196,309,206969,1,0,0:0:0:0:
184,262,207050,1,0,0:0:0:0:
202,217,207131,1,0,0:0:0:0:
242,188,207212,1,0,0:0:0:0:
289,178,207293,1,0,0:0:0:0:
318,139,207374,1,0,0:0:0:0:
314,91,207455,1,0,0:0:0:0:
279,57,207536,1,0,0:0:0:0:
229,66,207618,1,0,0:0:0:0:
261,105,207699,5,0,0:0:0:0:
308,124,207780,1,0,0:0:0:0:
358,114,207861,1,0,0:0:0:0:
394,79,207942,1,0,0:0:0:0:
428,40,208023,1,0,0:0:0:0:
478,37,208104,1,0,0:0:0:0:
512,74,208185,1,0,0:0:0:0:
504,124,208266,1,0,0:0:0:0:
458,147,208347,1,0,0:0:0:0:
408,159,208428,1,0,0:0:0:0:
376,198,208509,1,0,0:0:0:0:
373,249,208590,1,0,0:0:0:0:
400,293,208672,5,0,0:0:0:0:
400,343,208753,1,0,0:0:0:0:
361,374,208834,1,0,0:0:0:0:
312,364,208915,1,0,0:0:0:0:
293,316,208996,1,0,0:0:0:0:
264,274,209077,1,0,0:0:0:0:
215,260,209158,1,0,0:0:0:0:
169,280,209239,1,0,0:0:0:0:
145,326,209320,6,0,P|171:308|208:298,3,51.7500009870529
326,143,209645,2,0,P|300:125|263:115,3,51.7500009870529
114,217,209969,2,0,P|140:199|177:189,3,51.7500009870529
282,245,210293,1,0,0:0:0:0:
318,280,210374,1,0,0:0:0:0:
368,286,210455,1,0,0:0:0:0:
412,260,210536,1,0,0:0:0:0:
430,213,210617,1,0,0:0:0:0:
415,164,210698,1,0,0:0:0:0:
368,141,210780,5,0,0:0:0:0:
337,100,210861,1,0,0:0:0:0:
347,51,210942,1,0,0:0:0:0:
389,25,211023,1,0,0:0:0:0:
437,39,211104,1,0,0:0:0:0:
461,85,211185,1,0,0:0:0:0:
451,135,211266,1,0,0:0:0:0:
421,177,211347,1,0,0:0:0:0:
377,203,211428,1,0,0:0:0:0:
325,210,211510,1,0,0:0:0:0:
275,196,211591,1,0,0:0:0:0:
224,190,211672,1,0,0:0:0:0:
183,219,211753,1,0,0:0:0:0:
171,268,211834,5,0,0:0:0:0:
216,242,211915,1,0,0:0:0:0:
254,209,211996,1,0,0:0:0:0:
258,159,212077,1,0,0:0:0:0:
224,122,212158,1,0,0:0:0:0:
172,115,212239,1,0,0:0:0:0:
121,127,212320,1,0,0:0:0:0:
70,114,212401,1,0,0:0:0:0:
31,78,212482,1,0,0:0:0:0:
15,27,212564,1,0,0:0:0:0:
17,78,212645,1,0,0:0:0:0:
14,129,212726,6,0,P|14:155|-3:196,1,51.7500009870529
116,245,212888,2,0,P|116:271|133:312,3,51.7500009870529
118,137,213212,1,0,0:0:0:0:
151,98,213293,1,0,0:0:0:0:
200,85,213374,1,0,0:0:0:0:
248,101,213455,1,0,0:0:0:0:
279,142,213536,1,0,0:0:0:0:
286,194,213618,1,0,0:0:0:0:
313,236,213699,1,0,0:0:0:0:
361,253,213780,1,0,0:0:0:0:
393,293,213861,5,0,0:0:0:0:
343,280,213942,1,0,0:0:0:0:
294,296,214023,1,0,0:0:0:0:
261,334,214104,1,0,0:0:0:0:
216,360,214185,1,0,0:0:0:0:
166,371,214266,1,0,0:0:0:0:
123,346,214347,1,0,0:0:0:0:
109,297,214428,1,0,0:0:0:0:
131,250,214510,1,0,0:0:0:0:
170,217,214591,1,0,0:0:0:0:
189,169,214672,1,0,0:0:0:0:
182,119,214753,1,0,0:0:0:0:
144,84,214834,1,0,0:0:0:0:
94,92,214915,1,0,0:0:0:0:
67,134,214996,1,0,0:0:0:0:
80,183,215077,1,0,0:0:0:0:
128,203,215158,1,0,0:0:0:0:
174,179,215239,1,0,0:0:0:0:
222,161,215320,6,0,P|247:160|289:175,1,51.7500009870529
265,287,215482,2,0,P|290:287|332:272,3,51.7500009870529
435,244,215807,5,0,0:0:0:0:
483,230,215888,1,0,0:0:0:0:
509,187,215969,1,0,0:0:0:0:
499,138,216050,1,0,0:0:0:0:
457,110,216131,1,0,0:0:0:0:
407,118,216212,1,0,0:0:0:0:
375,159,216293,1,0,0:0:0:0:
335,190,216374,1,0,0:0:0:0:
285,183,216455,5,0,0:0:0:0:
306,135,216537,1,0,0:0:0:0:
353,118,216618,1,0,0:0:0:0:
401,134,216699,1,0,0:0:0:0:
429,177,216780,1,0,0:0:0:0:
422,228,216861,1,0,0:0:0:0:
383,262,216942,1,0,0:0:0:0:
331,263,217023,1,0,0:0:0:0:
290,231,217104,5,0,0:0:0:0:
241,247,217185,1,0,0:0:0:0:
210,287,217266,1,0,0:0:0:0:
207,338,217347,1,0,0:0:0:0:
239,378,217428,2,0,P|234:340|255:293,3,51.7500009870529
188,99,217753,2,0,P|208:67|209:16,3,51.7500009870529
171,223,218077,5,0,0:0:0:0:
207,182,218158,1,0,0:0:0:0:
262,178,218239,1,0,0:0:0:0:
305,213,218320,1,0,0:0:0:0:
312,267,218401,1,0,0:0:0:0:
325,321,218482,1,0,0:0:0:0:
368,354,218563,1,0,0:0:0:0:
423,349,218644,1,0,0:0:0:0:
460,308,218725,1,0,0:0:0:0:
459,253,218806,1,0,0:0:0:0:
421,214,218887,1,0,0:0:0:0:
366,197,218969,1,0,0:0:0:0:
319,167,219050,1,0,0:0:0:0:
306,113,219131,1,0,0:0:0:0:
332,65,219212,1,0,0:0:0:0:
384,47,219293,1,0,0:0:0:0:
434,70,219374,6,0,P|450:103|442:162,3,56.25
239,127,219699,2,0,P|223:159|231:218,3,56.25
457,244,220023,2,0,P|472:276|464:335,3,56.25
211,293,220347,2,0,P|195:325|203:384,3,56.25
80,194,220672,5,0,0:0:0:0:
67,131,220753,1,0,0:0:0:0:
104,80,220834,1,0,0:0:0:0:
167,73,220915,1,0,0:0:0:0:
217,116,220996,1,0,0:0:0:0:
233,176,221077,1,0,0:0:0:0:
292,199,221158,1,0,0:0:0:0:
345,166,221239,1,0,0:0:0:0:
296,123,221320,1,0,0:0:0:0:
232,128,221401,1,0,0:0:0:0:
193,177,221482,1,0,0:0:0:0:
203,240,221563,1,0,0:0:0:0:
256,279,221645,1,0,0:0:0:0:
261,339,221726,1,0,0:0:0:0:
205,364,221807,1,0,0:0:0:0:
164,319,221888,1,0,0:0:0:0:
189,259,221969,1,0,0:0:0:0:
211,200,222050,1,0,0:0:0:0:
173,151,222131,1,0,0:0:0:0:
111,158,222212,1,0,0:0:0:0:
90,220,222293,5,0,0:0:0:0:
92,154,222374,1,0,0:0:0:0:
94,89,222455,1,0,0:0:0:0:
96,24,222536,1,0,0:0:0:0:
118,85,222618,1,0,0:0:0:0:
182,97,222699,1,0,0:0:0:0:
249,92,222780,5,0,0:0:0:0:
288,176,222861,1,0,0:0:0:0:
268,267,222942,1,0,0:0:0:0:
199,328,223023,1,0,0:0:0:0:
106,335,223104,1,0,0:0:0:0:
28,285,223185,1,0,0:0:0:0:
4,233,223266,5,0,0:0:0:0:
55,229,223347,1,0,0:0:0:0:
105,242,223428,1,0,0:0:0:0:
147,271,223509,1,0,0:0:0:0:
178,312,223590,1,0,0:0:0:0:
207,356,223672,1,0,0:0:0:0:
255,371,223753,1,0,0:0:0:0:
299,347,223834,1,0,0:0:0:0:
324,302,223915,1,0,0:0:0:0:
351,258,223996,1,0,0:0:0:0:
398,239,224077,1,0,0:0:0:0:
447,251,224158,1,0,0:0:0:0:
483,289,224239,5,0,0:0:0:0:
436,310,224320,1,0,0:0:0:0:
385,307,224401,1,0,0:0:0:0:
340,282,224482,1,0,0:0:0:0:
312,239,224563,1,0,0:0:0:0:
305,187,224645,1,0,0:0:0:0:
302,136,224726,1,0,0:0:0:0:
266,100,224807,1,0,0:0:0:0:
219,78,224888,6,0,P|206:103|167:135,3,51.7500009870529,0|0|0|0,0:3|0:3|0:3|0:3,0:3:0:0:
68,197,225212,2,0,P|81:221|119:253,3,51.7500009870529,0|0|0|0,0:3|0:3|0:3|0:3,0:3:0:0:
213,295,225537,2,0,P|200:319|161:351,3,51.7500009870529,0|0|0|0,0:3|0:3|0:3|0:3,0:3:0:0:
247,68,225861,5,0,0:0:0:0:
292,45,225942,1,0,0:0:0:0:
343,48,226023,1,0,0:0:0:0:
385,77,226104,1,0,0:0:0:0:
407,123,226185,1,0,0:0:0:0:
402,174,226266,1,0,0:0:0:0:
369,214,226347,5,0,0:0:0:0:
345,169,226428,1,0,0:0:0:0:
336,117,226509,1,0,0:0:0:0:
356,70,226590,1,0,0:0:0:0:
399,42,226671,1,0,0:0:0:0:
451,38,226753,1,0,0:0:0:0:
493,66,226834,2,0,P|497:109|487:137,3,51.7500009870529
351,305,227158,2,0,P|346:261|356:233,3,51.7500009870529
171,133,227482,2,0,P|166:176|176:204,3,51.7500009870529
175,339,227807,2,0,P|170:295|180:267,3,51.7500009870529
238,39,228131,5,0,0:0:0:0:
238,64,228212,1,0,0:0:0:0:
238,90,228293,1,0,0:0:0:0:
238,116,228374,1,0,0:0:0:0:
238,142,228455,5,0,0:0:0:0:
187,137,228536,1,0,0:0:0:0:
145,166,228617,1,0,0:0:0:0:
133,215,228698,1,0,0:0:0:0:
155,260,228779,1,0,0:0:0:0:
201,280,228860,1,0,0:0:0:0:
250,266,228941,1,0,0:0:0:0:
280,223,229023,1,0,0:0:0:0:
307,180,229104,1,0,0:0:0:0:
355,166,229185,1,0,0:0:0:0:
401,188,229266,1,0,0:0:0:0:
420,235,229347,1,0,0:0:0:0:
402,283,229428,1,0,0:0:0:0:
358,307,229509,1,0,0:0:0:0:
307,296,229591,1,0,0:0:0:0:
266,263,229672,1,0,0:0:0:0:
218,246,229753,5,0,0:0:0:0:
166,245,229834,1,0,0:0:0:0:
117,261,229915,1,0,0:0:0:0:
76,292,229996,1,0,0:0:0:0:
47,335,230077,6,0,P|4:359|-8:354,3,51.7500009870529
157,170,230401,2,0,P|113:146|101:151,3,51.7500009870529
273,318,230726,2,0,P|229:341|217:336,3,51.7500009870529
66,85,231050,5,0,0:0:0:0:
105,52,231131,1,0,0:0:0:0:
155,44,231212,1,0,0:0:0:0:
203,63,231293,1,0,0:0:0:0:
233,104,231374,1,0,0:0:0:0:
257,148,231455,1,0,0:0:0:0:
303,169,231536,5,0,0:0:0:0:
353,157,231617,1,0,0:0:0:0:
385,117,231698,1,0,0:0:0:0:
417,79,231780,1,0,0:0:0:0:
467,76,231861,1,0,0:0:0:0:
504,110,231942,1,0,0:0:0:0:
504,160,232023,5,0,0:0:0:0:
461,133,232104,1,0,0:0:0:0:
445,85,232185,1,0,0:0:0:0:
462,37,232266,1,0,0:0:0:0:
501,4,232347,2,0,L|510:59,3,51.7500009870529
356,260,232672,2,0,L|365:205,3,51.7500009870529
259,34,232996,2,0,L|268:89,3,51.7500009870529
181,353,233320,5,0,0:0:0:0:
182,327,233401,1,0,0:0:0:0:
183,301,233482,1,0,0:0:0:0:
184,275,233563,1,0,0:0:0:0:
186,249,233645,5,0,0:0:0:0:
140,272,233726,1,0,0:0:0:0:
89,265,233807,1,0,0:0:0:0:
51,231,233888,1,0,0:0:0:0:
38,182,233969,1,0,0:0:0:0:
54,134,234050,1,0,0:0:0:0:
94,103,234131,1,0,0:0:0:0:
145,99,234212,1,0,0:0:0:0:
190,125,234293,5,0,0:0:0:0:
228,159,234374,1,0,0:0:0:0:
278,168,234455,1,0,0:0:0:0:
325,149,234536,1,0,0:0:0:0:
356,108,234617,1,0,0:0:0:0:
304,103,234699,1,0,0:0:0:0:
253,112,234780,1,0,0:0:0:0:
215,146,234861,1,0,0:0:0:0:
200,195,234942,2,0,P|198:244|204:258,3,51.7500009870529
379,61,235266,2,0,P|376:12|382:-1,3,51.7500009870529
425,203,235591,2,0,P|422:251|428:265,3,51.7500009870529
63,174,235915,5,0,0:0:0:0:
88,173,235996,1,0,0:0:0:0:
114,173,236077,1,0,0:0:0:0:
140,173,236158,1,0,0:0:0:0:
166,173,236239,5,0,0:0:0:0:
159,122,236320,1,0,0:0:0:0:
183,77,236401,1,0,0:0:0:0:
228,53,236482,1,0,0:0:0:0:
278,60,236563,1,0,0:0:0:0:
316,95,236644,1,0,0:0:0:0:
327,145,236725,1,0,0:0:0:0:
307,192,236806,1,0,0:0:0:0:
257,207,236888,1,0,0:0:0:0:
217,239,236969,1,0,0:0:0:0:
203,288,237050,1,0,0:0:0:0:
217,337,237131,1,0,0:0:0:0:
256,370,237212,5,0,0:0:0:0:
273,321,237293,1,0,0:0:0:0:
271,270,237374,1,0,0:0:0:0:
242,228,237455,1,0,0:0:0:0:
194,210,237537,2,0,P|140:200|131:202,3,51.7500009870529
89,53,237861,2,0,P|35:63|26:61,3,51.7500009870529
310,0,238185,5,0,0:0:0:0:
358,14,238266,1,0,0:0:0:0:
390,54,238347,1,0,0:0:0:0:
393,105,238428,1,0,0:0:0:0:
365,148,238509,1,0,0:0:0:0:
332,186,238590,1,0,0:0:0:0:
323,237,238671,1,0,0:0:0:0:
342,284,238752,1,0,0:0:0:0:
383,315,238834,5,0,0:0:0:0:
387,255,238915,1,0,0:0:0:0:
365,199,238996,1,0,0:0:0:0:
320,159,239077,1,0,0:0:0:0:
260,148,239158,1,0,0:0:0:0:
211,180,239239,1,0,0:0:0:0:
153,168,239320,1,0,0:0:0:0:
121,118,239401,1,0,0:0:0:0:
134,61,239482,1,0,0:0:0:0:
184,29,239563,1,0,0:0:0:0:
241,43,239645,1,0,0:0:0:0:
294,71,239726,1,0,0:0:0:0:
353,59,239807,1,0,0:0:0:0:
401,95,239888,1,0,0:0:0:0:
413,153,239969,1,0,0:0:0:0:
384,206,240050,1,0,0:0:0:0:
331,235,240131,5,0,0:0:0:0:
302,176,240212,1,0,0:0:0:0:
253,134,240293,1,0,0:0:0:0:
191,115,240374,1,0,0:0:0:0:
126,122,240455,1,0,0:0:0:0:
70,154,240536,1,0,0:0:0:0:
30,205,240617,1,0,0:0:0:0:
14,268,240698,1,0,0:0:0:0:
25,332,240779,1,0,0:0:0:0:
88,321,240861,1,0,0:0:0:0:
142,285,240942,1,0,0:0:0:0:
175,229,241023,1,0,0:0:0:0:
183,165,241104,1,0,0:0:0:0:
203,105,241185,1,0,0:0:0:0:
260,75,241266,1,0,0:0:0:0:
321,92,241347,1,0,0:0:0:0:
354,147,241428,5,0,0:0:0:0:
295,191,241509,1,0,0:0:0:0:
223,201,241590,1,0,0:0:0:0:
155,173,241671,1,0,0:0:0:0:
109,115,241753,1,0,0:0:0:0:
38,119,241834,1,0,0:0:0:0:
1,180,241915,1,0,0:0:0:0:
31,245,241996,1,0,0:0:0:0:
101,257,242077,1,0,0:0:0:0:
168,227,242158,1,0,0:0:0:0:
241,232,242239,1,0,0:0:0:0:
303,272,242320,1,0,0:0:0:0:
343,335,242401,1,0,0:0:0:0:
413,353,242482,1,0,0:0:0:0:
477,319,242563,1,0,0:0:0:0:
501,250,242644,1,0,0:0:0:0:
472,184,242726,5,0,0:0:0:0:
424,251,242807,1,0,0:0:0:0:
351,289,242888,1,0,0:0:0:0:
268,291,242969,1,0,0:0:0:0:
194,257,243050,1,0,0:0:0:0:
176,178,243131,1,0,0:0:0:0:
105,140,243212,1,0,0:0:0:0:
30,169,243293,1,0,0:0:0:0:
3,245,243374,1,0,0:0:0:0:
43,315,243455,1,0,0:0:0:0:
122,330,243536,1,0,0:0:0:0:
187,281,243618,1,0,0:0:0:0:
268,291,243699,2,0,P|370:285|378:281,3,83.2499996824265
453,55,244023,5,0,0:0:0:0:
392,15,244104,1,0,0:0:0:0:
320,24,244185,1,0,0:0:0:0:
272,79,244266,1,0,0:0:0:0:
272,152,244347,1,0,0:0:0:0:
238,216,244428,1,0,0:0:0:0:
169,238,244509,1,0,0:0:0:0:
105,204,244590,1,0,0:0:0:0:
84,135,244672,2,0,P|48:78|34:68,3,74.2500007081032
272,152,244996,2,0,P|308:209|322:219,3,74.2500007081032
503,216,245320,5,0,0:0:0:0:
497,296,245401,1,0,0:0:0:0:
437,351,245482,1,0,0:0:0:0:
356,347,245563,1,0,0:0:0:0:
300,287,245644,1,0,0:0:0:0:
253,220,245726,1,0,0:0:0:0:
181,180,245807,1,0,0:0:0:0:
99,175,245888,1,0,0:0:0:0:
22,206,245969,1,0,0:0:0:0:
93,248,246050,1,0,0:0:0:0:
175,250,246131,1,0,0:0:0:0:
248,212,246212,1,0,0:0:0:0:
293,143,246293,1,0,0:0:0:0:
372,144,246374,1,0,0:0:0:0:
409,214,246455,1,0,0:0:0:0:
365,280,246536,1,0,0:0:0:0:
286,273,246618,5,0,0:0:0:0:
255,352,246699,1,0,0:0:0:0:
176,383,246780,1,0,0:0:0:0:
99,345,246861,1,0,0:0:0:0:
76,263,246942,1,0,0:0:0:0:
146,215,247023,1,0,0:0:0:0:
157,131,247104,1,0,0:0:0:0:
101,66,247185,1,0,0:0:0:0:
17,65,247266,1,0,0:0:0:0:
25,150,247347,1,0,0:0:0:0:
82,215,247428,1,0,0:0:0:0:
166,233,247509,1,0,0:0:0:0:
245,198,247591,2,0,P|297:171|325:144,3,87.7500003347397
429,215,247915,5,0,0:0:0:0:
426,306,247996,1,0,0:0:0:0:
342,342,248077,1,0,0:0:0:0:
275,279,248158,1,0,0:0:0:0:
304,193,248239,1,0,0:0:0:0:
332,106,248320,1,0,0:0:0:0:
265,44,248401,1,0,0:0:0:0:
181,79,248482,1,0,0:0:0:0:
179,171,248563,1,0,0:0:0:0:
271,51,329291,5,0,0:0:0:0:
30,177,329444,1,0,0:0:0:0:
319,290,329598,1,0,0:0:0:0:
118,51,329752,5,0,0:0:0:0:
141,309,329906,1,0,0:0:0:0:
335,113,330060,1,0,0:0:0:0:
148,193,330214,1,0,0:0:0:0:
115,200,330675,1,0,0:0:0:0:
363,29,331137,5,0,0:0:0:0:
253,335,331291,1,0,0:0:0:0:
220,108,331444,1,0,0:0:0:0:
435,186,331598,1,0,0:0:0:0:
152,263,331752,1,0,0:0:0:0:
330,47,331906,1,0,0:0:0:0:
386,304,332060,1,0,0:0:0:0:
416,321,332521,1,0,0:0:0:0:
416,50,332983,5,0,0:0:0:0:
328,308,333137,1,0,0:0:0:0:
223,108,333291,1,0,0:0:0:0:
421,219,333444,1,0,0:0:0:0:
427,255,333906,5,0,0:0:0:0:
314,28,334060,1,0,0:0:0:0:
239,234,334214,1,0,0:0:0:0:
433,129,334367,1,0,0:0:0:0:
426,148,334829,5,0,0:0:0:0:
412,342,334983,1,0,0:0:0:0:
277,143,335137,1,0,0:0:0:0:
482,244,335291,1,0,0:0:0:0:
257,327,335444,1,0,0:0:0:0:
336,44,335598,1,0,0:0:0:0:
440,295,335752,1,0,0:0:0:0:
465,323,336214,1,0,0:0:0:0:
445,323,336675,6,0,B|383:298|336:361|252:292,1,167.999994873047
211,139,337137,1,0,0:0:0:0:
148,309,337291,1,0,0:0:0:0:
330,227,337444,1,0,0:0:0:0:
80,166,337598,6,0,P|70:94|136:8,1,167.999994873047
211,139,338060,2,0,P|229:192|211:250,1,83.9999974365235
157,324,338367,1,0,0:0:0:0:
172,63,338521,6,0,B|234:38|281:101|365:32,1,167.999994873047
394,212,338983,2,0,P|387:270|404:320,1,83.9999974365235
441,349,339291,1,0,0:0:0:0:
288,342,339444,6,0,B|295:309|295:309|141:348,1,167.999994873047
48,365,339906,1,0,0:0:0:0:
62,122,340060,2,0,P|116:132|166:115,1,83.9999974365235
216,8,340367,5,0,0:0:0:0:
327,229,340521,1,0,0:0:0:0:
209,154,340675,1,0,0:0:0:0:
330,77,340829,2,0,P|377:75|420:97,1,83.9999974365235
468,259,341137,1,0,0:0:0:0:
233,249,341291,2,0,P|185:250|142:228,1,83.9999974365235
55,133,341598,1,0,0:0:0:0:
346,185,341752,2,0,P|393:183|436:205,1,83.9999974365235
307,353,342060,6,0,L|297:241,1,83.9999974365235
358,136,342367,2,0,L|367:24,1,83.9999974365235
242,204,342675,1,0,0:0:0:0:
91,41,342829,1,0,0:0:0:0:
66,345,342983,1,0,0:0:0:0:
209,81,343137,1,0,0:0:0:0:
209,81,343214,1,0,0:0:0:0:
209,81,343291,2,0,P|265:74|311:83,1,83.9999974365235
413,182,343598,5,0,0:0:0:0:
313,371,343752,1,0,0:0:0:0:
296,218,343906,1,0,0:0:0:0:
33,96,344060,6,0,B|86:78|124:118|191:70,1,125.999996154785
186,57,344367,1,0,0:0:0:0:
223,39,344443,1,0,0:0:0:0:
265,41,344520,1,0,0:0:0:0:
301,61,344597,1,0,0:0:0:0:
325,95,344674,1,0,0:0:0:0:
330,137,344751,1,0,0:0:0:0:
314,176,344829,1,0,0:0:0:0:
301,215,344905,1,0,0:0:0:0:
312,255,344982,1,0,0:0:0:0:
343,283,345059,1,0,0:0:0:0:
383,291,345136,1,0,0:0:0:0:
422,276,345213,1,0,0:0:0:0:
452,245,345291,1,0,0:0:0:0:
449,203,345367,1,0,0:0:0:0:
437,162,345444,6,0,P|392:88|443:11,1,167.999994873047
373,209,345906,5,0,0:0:0:0:
349,164,345982,1,0,0:0:0:0:
309,133,346059,1,0,0:0:0:0:
259,123,346136,1,0,0:0:0:0:
210,135,346213,1,0,0:0:0:0:
171,167,346290,1,0,0:0:0:0:
149,212,346367,5,0,0:0:0:0:
203,207,346444,1,0,0:0:0:0:
252,186,346520,1,0,0:0:0:0:
282,142,346597,1,0,0:0:0:0:
285,89,346674,1,0,0:0:0:0:
259,43,346751,1,0,0:0:0:0:
207,23,346829,5,0,0:0:0:0:
201,75,346905,1,0,0:0:0:0:
224,124,346982,1,0,0:0:0:0:
269,152,347059,1,0,0:0:0:0:
322,152,347136,1,0,0:0:0:0:
367,125,347213,1,0,0:0:0:0:
391,77,347290,1,0,0:0:0:0:
441,59,347367,1,0,0:0:0:0:
489,79,347444,1,0,0:0:0:0:
512,126,347521,1,0,0:0:0:0:
496,177,347598,1,0,0:0:0:0:
450,203,347675,1,0,0:0:0:0:
399,191,347752,5,0,0:0:0:0:
349,159,347828,1,0,0:0:0:0:
290,156,347905,1,0,0:0:0:0:
237,184,347982,1,0,0:0:0:0:
206,234,348059,1,0,0:0:0:0:
204,294,348136,1,0,0:0:0:0:
233,345,348214,5,0,0:0:0:0:
292,318,348290,1,0,0:0:0:0:
329,264,348367,1,0,0:0:0:0:
332,199,348444,1,0,0:0:0:0:
301,141,348521,1,0,0:0:0:0:
245,108,348598,1,0,0:0:0:0:
180,109,348675,1,0,0:0:0:0:
193,172,348751,1,0,0:0:0:0:
236,221,348828,1,0,0:0:0:0:
298,243,348905,1,0,0:0:0:0:
362,232,348982,1,0,0:0:0:0:
413,190,349059,1,0,0:0:0:0:
437,130,349137,6,0,P|461:106|506:87,1,66.0000020141602
335,57,349291,2,0,P|307:39|275:31,1,66.0000020141602
315,193,349444,2,0,P|287:210|255:218,1,66.0000020141602
89,320,349598,5,0,0:0:0:0:
89,320,349675,1,0,0:0:0:0:
89,320,349752,1,0,0:0:0:0:
413,349,349906,1,0,0:0:0:0:
249,60,350060,1,0,0:0:0:0:
133,209,350214,2,0,P|195:227|257:206,1,132.00000402832
338,68,350521,1,0,0:0:0:0:
465,213,350675,1,0,0:0:0:0:
465,213,350752,1,0,0:0:0:0:
465,213,350829,1,0,0:0:0:0:
242,36,350983,1,0,0:0:0:0:
382,283,351137,1,0,0:0:0:0:
428,62,351291,1,0,0:0:0:0:
178,352,351444,5,0,0:0:0:0:
302,43,351598,1,0,0:0:0:0:
431,331,351752,1,0,0:0:0:0:
151,171,351906,2,0,B|218:127|294:204|364:142,1,204.000003890991
423,25,352367,5,0,0:0:0:0:
478,286,352521,1,0,0:0:0:0:
221,85,352675,1,0,0:0:0:0:
490,168,352829,2,0,P|460:81|338:43,1,204.000003890991
331,153,353291,5,0,0:0:0:0:
312,196,353367,1,0,0:0:0:0:
275,227,353444,1,0,0:0:0:0:
229,236,353521,1,0,0:0:0:0:
183,222,353598,1,0,0:0:0:0:
150,189,353675,1,0,0:0:0:0:
136,143,353752,1,0,0:0:0:0:
141,98,353829,1,0,0:0:0:0:
131,55,353905,1,0,0:0:0:0:
95,30,353982,1,0,0:0:0:0:
51,36,354059,1,0,0:0:0:0:
24,71,354136,1,0,0:0:0:0:
28,115,354213,5,0,0:0:0:0:
64,138,354291,1,0,0:0:0:0:
105,143,354367,1,0,0:0:0:0:
137,169,354444,1,0,0:0:0:0:
151,208,354521,1,0,0:0:0:0:
142,249,354598,1,0,0:0:0:0:
113,280,354675,1,0,0:0:0:0:
102,319,354751,1,0,0:0:0:0:
119,357,354828,1,0,0:0:0:0:
156,374,354905,1,0,0:0:0:0:
196,364,354982,1,0,0:0:0:0:
219,330,355059,1,0,0:0:0:0:
216,288,355137,5,0,0:0:0:0:
204,250,355214,1,0,0:0:0:0:
192,213,355290,1,0,0:0:0:0:
198,174,355367,1,0,0:0:0:0:
220,143,355444,1,0,0:0:0:0:
254,124,355521,1,0,0:0:0:0:
292,123,355598,5,0,0:0:0:0:
305,166,355675,1,0,0:0:0:0:
339,199,355752,1,0,0:0:0:0:
389,209,355829,1,0,0:0:0:0:
438,187,355906,1,0,0:0:0:0:
464,136,355983,1,0,0:0:0:0:
449,80,356060,6,0,B|408:113|384:65|321:104,1,113.999996955872
272,268,356367,2,0,P|215:255|143:285,1,113.999996955872
39,366,356675,1,0,0:0:0:0:
233,69,356829,1,0,0:0:0:0:
225,354,356983,1,0,0:0:0:0:
126,52,357137,1,0,0:0:0:0:
304,192,357291,6,0,P|361:179|433:209,1,113.999996955872
483,323,357598,1,0,0:0:0:0:
449,38,357752,1,0,0:0:0:0:
353,319,357906,1,0,0:0:0:0:
504,168,358060,1,0,0:0:0:0:
504,168,358137,1,0,0:0:0:0:
504,168,358214,1,0,0:0:0:0:
186,110,358367,1,0,0:0:0:0:
407,347,358521,1,0,0:0:0:0:
408,7,358675,1,0,0:0:0:0:
316,83,358829,5,0,0:0:0:0:
225,180,358983,1,0,0:0:0:0:
355,211,359137,1,0,0:0:0:0:
348,80,359291,5,0,0:0:0:0:
206,152,359445,1,0,0:0:0:0:
340,240,359599,1,0,0:0:0:0:
407,75,359752,5,0,0:0:0:0:
201,100,359906,1,0,0:0:0:0:
325,267,360060,1,0,0:0:0:0:
327,46,360214,5,0,0:0:0:0:
318,181,360367,1,0,0:0:0:0:
460,114,360521,1,0,0:0:0:0:
148,21,360675,5,0,0:0:0:0:
293,351,360829,1,0,0:0:0:0:
270,115,360983,1,0,0:0:0:0:
54,232,361137,1,0,0:0:0:0:
351,296,361291,1,0,0:0:0:0:
150,320,361444,1,0,0:0:0:0:
92,65,361598,6,0,L|85:133,1,56.9999984779358
193,268,361752,2,0,L|200:336,1,56.9999984779358
203,349,361906,1,0,0:0:0:0:
234,87,362060,6,0,P|313:134|444:71,1,227.999993911743
111,305,362521,5,0,0:0:0:0:
166,142,362675,1,0,0:0:0:0:
342,38,362829,1,0,0:0:0:0:
43,232,362983,5,0,0:0:0:0:
198,96,363137,1,0,0:0:0:0:
443,93,363291,1,0,0:0:0:0:
436,224,363444,5,0,0:0:0:0:
395,171,363520,1,0,0:0:0:0:
340,136,363597,1,0,0:0:0:0:
276,121,363674,1,0,0:0:0:0:
211,128,363751,1,0,0:0:0:0:
152,156,363828,1,0,0:0:0:0:
106,203,363905,5,0,0:0:0:0:
178,215,363983,1,0,0:0:0:0:
243,187,364059,1,0,0:0:0:0:
283,128,364136,1,0,0:0:0:0:
336,78,364214,1,0,0:0:0:0:
407,66,364291,1,0,0:0:0:0:
476,81,364367,5,0,0:0:0:0:
401,349,364521,1,0,0:0:0:0:
401,349,364598,1,0,0:0:0:0:
401,349,364675,1,0,0:0:0:0:
345,182,364829,2,0,P|258:203|190:168,2,143.999995605469
440,39,365291,1,0,0:0:0:0:
486,244,365444,1,0,0:0:0:0:
486,244,365521,1,0,0:0:0:0:
486,244,365598,1,0,0:0:0:0:
277,8,365752,2,0,P|256:84|280:150,1,143.999995605469
368,252,366060,1,0,0:0:0:0:
459,168,366214,5,0,0:0:0:0:
395,135,366290,1,0,0:0:0:0:
323,128,366367,1,0,0:0:0:0:
255,149,366444,1,0,0:0:0:0:
199,192,366521,1,0,0:0:0:0:
163,254,366598,1,0,0:0:0:0:
152,325,366675,5,0,0:0:0:0:
212,286,366752,1,0,0:0:0:0:
235,219,366828,1,0,0:0:0:0:
220,149,366905,1,0,0:0:0:0:
171,98,366982,1,0,0:0:0:0:
101,81,367059,1,0,0:0:0:0:
34,104,367137,5,0,0:0:0:0:
91,149,367214,1,0,0:0:0:0:
162,158,367290,1,0,0:0:0:0:
225,126,367367,1,0,0:0:0:0:
275,74,367444,1,0,0:0:0:0:
341,45,367521,1,0,0:0:0:0:
410,64,367598,5,0,0:0:0:0:
354,109,367675,1,0,0:0:0:0:
284,124,367751,1,0,0:0:0:0:
214,107,367828,1,0,0:0:0:0:
151,72,367905,1,0,0:0:0:0:
79,57,367983,1,0,0:0:0:0:
16,93,368060,2,0,P|3:123|24:184,1,71.9999978027344
199,302,368214,5,0,0:0:0:0:
261,331,368290,1,0,0:0:0:0:
323,300,368367,1,0,0:0:0:0:
337,232,368444,1,0,0:0:0:0:
291,180,368521,1,0,0:0:0:0:
222,160,368598,1,0,0:0:0:0:
159,128,368674,1,0,0:0:0:0:
147,60,368751,1,0,0:0:0:0:
194,9,368828,1,0,0:0:0:0:
264,17,368905,1,0,0:0:0:0:
292,84,368983,6,0,P|286:130|301:158,2,71.9999978027344
429,293,369214,2,0,P|435:247|420:219,2,71.9999978027344
211,356,369444,5,0,0:0:0:0:
153,325,369520,1,0,0:0:0:0:
115,272,369597,1,0,0:0:0:0:
106,207,369674,1,0,0:0:0:0:
128,145,369751,1,0,0:0:0:0:
176,101,369828,1,0,0:0:0:0:
239,83,369905,5,0,0:0:0:0:
214,145,369983,1,0,0:0:0:0:
159,180,370059,1,0,0:0:0:0:
94,175,370136,1,0,0:0:0:0:
46,132,370213,1,0,0:0:0:0:
27,68,370291,1,0,0:0:0:0:
35,3,370367,2,0,P|75:8|124:42,1,66.0000020141602
171,300,370521,5,0,0:0:0:0:
234,287,370597,1,0,0:0:0:0:
279,240,370674,1,0,0:0:0:0:
288,175,370751,1,0,0:0:0:0:
252,119,370829,1,0,0:0:0:0:
235,57,370905,1,0,0:0:0:0:
278,10,370982,1,0,0:0:0:0:
340,21,371059,1,0,0:0:0:0:
360,85,371137,1,0,0:0:0:0:
346,147,371213,1,0,0:0:0:0:
377,198,371291,2,0,P|419:222|469:213,1,66.0000020141602
293,135,733754,5,0,0:0:0:0:
143,124,771854,5,0,0:0:0:0:
142,93,771929,1,0,0:0:0:0:
141,62,772004,1,0,0:0:0:0:
140,31,772079,1,0,0:0:0:0:
139,1,772154,5,0,0:0:0:0:
90,39,772229,1,0,0:0:0:0:
78,99,772304,1,0,0:0:0:0:
109,152,772379,1,0,0:0:0:0:
167,173,772454,1,0,0:0:0:0:
223,197,772529,1,0,0:0:0:0:
245,254,772604,1,0,0:0:0:0:
221,311,772679,1,0,0:0:0:0:
163,335,772754,5,0,0:0:0:0:
106,306,772829,1,0,0:0:0:0:
90,244,772904,1,0,0:0:0:0:
115,186,772979,1,0,0:0:0:0:
170,156,773054,1,0,0:0:0:0:
231,143,773129,1,0,0:0:0:0:
287,114,773204,1,0,0:0:0:0:
329,67,773279,1,0,0:0:0:0:
331,4,773354,6,0,L|357:70,3,62.9999980773926
170,156,773654,2,0,L|144:222,3,62.9999980773926
283,309,773954,2,0,L|309:375,3,62.9999980773926
412,155,774254,5,0,0:0:0:0:
385,94,774329,1,0,0:0:0:0:
324,67,774404,1,0,0:0:0:0:
262,88,774479,1,0,0:0:0:0:
229,145,774554,1,0,0:0:0:0:
193,200,774629,1,0,0:0:0:0:
130,220,774704,1,0,0:0:0:0:
68,195,774779,1,0,0:0:0:0:
38,136,774854,5,0,0:0:0:0:
103,122,774929,1,0,0:0:0:0:
166,142,775004,1,0,0:0:0:0:
212,191,775079,1,0,0:0:0:0:
226,256,775154,1,0,0:0:0:0:
206,319,775229,1,0,0:0:0:0:
156,364,775304,1,0,0:0:0:0:
91,378,775379,1,0,0:0:0:0:
27,358,775454,6,0,L|108:335,3,67.5000025749208
272,208,775754,6,0,L|191:184,3,62.9999980773926
195,50,776054,2,0,L|114:73,3,62.9999980773926
63,164,776354,2,0,L|-17:140,3,62.9999980773926
346,0,776654,5,0,0:0:0:0:
344,31,776729,1,0,0:0:0:0:
342,62,776804,1,0,0:0:0:0:
341,94,776879,1,0,0:0:0:0:
339,125,776954,1,0,0:0:0:0:
308,71,777029,1,0,0:0:0:0:
253,42,777104,1,0,0:0:0:0:
191,47,777179,1,0,0:0:0:0:
141,85,777254,1,0,0:0:0:0:
120,143,777329,1,0,0:0:0:0:
134,204,777404,1,0,0:0:0:0:
178,247,777479,1,0,0:0:0:0:
239,261,777554,1,0,0:0:0:0:
296,234,777629,1,0,0:0:0:0:
343,193,777704,1,0,0:0:0:0:
405,187,777779,1,0,0:0:0:0:
459,217,777854,6,0,L|378:227,3,62.9999980773926
228,56,778154,2,0,L|309:65,3,62.9999980773926
266,180,778454,5,0,0:0:0:0:
219,138,778529,1,0,0:0:0:0:
158,123,778604,1,0,0:0:0:0:
97,136,778679,1,0,0:0:0:0:
48,174,778754,1,0,0:0:0:0:
22,231,778829,1,0,0:0:0:0:
24,294,778904,1,0,0:0:0:0:
54,348,778979,1,0,0:0:0:0:
105,384,779054,5,0,0:0:0:0:
109,316,779129,1,0,0:0:0:0:
113,249,779204,1,0,0:0:0:0:
117,181,779279,1,0,0:0:0:0:
121,114,779354,1,0,0:0:0:0:
156,170,779429,1,0,0:0:0:0:
218,192,779504,1,0,0:0:0:0:
280,167,779579,1,0,0:0:0:0:
311,109,779654,1,0,0:0:0:0:
351,57,779729,1,0,0:0:0:0:
416,44,779804,1,0,0:0:0:0:
473,78,779879,1,0,0:0:0:0:
493,141,779954,5,0,0:0:0:0:
427,176,780029,1,0,0:0:0:0:
394,244,780104,1,0,0:0:0:0:
408,318,780179,1,0,0:0:0:0:
463,369,780254,1,0,0:0:0:0:
400,327,780329,1,0,0:0:0:0:
325,310,780404,1,0,0:0:0:0:
250,322,780479,1,0,0:0:0:0:
185,360,780554,5,0,0:0:0:0:
115,323,780629,1,0,0:0:0:0:
90,248,780704,1,0,0:0:0:0:
124,177,780779,1,0,0:0:0:0:
198,149,780854,1,0,0:0:0:0:
246,211,780929,1,0,0:0:0:0:
324,226,781004,1,0,0:0:0:0:
393,186,781079,1,0,0:0:0:0:
418,111,781154,1,0,0:0:0:0:
388,38,781229,1,0,0:0:0:0:
317,2,781304,1,0,0:0:0:0:
240,23,781379,1,0,0:0:0:0:
196,88,781454,1,0,0:0:0:0:
154,152,781529,1,0,0:0:0:0:
78,142,781604,1,0,0:0:0:0:
55,68,781679,1,0,0:0:0:0:
112,17,781754,1,0,0:0:0:0:
116,128,1013801,5,0,0:0:0:0:
105,147,1013874,1,0,0:0:0:0:
101,169,1013947,1,0,0:0:0:0:
103,192,1014020,1,0,0:0:0:0:
111,213,1014093,1,0,0:0:0:0:
124,230,1014166,1,0,0:0:0:0:
145,243,1014240,5,0,0:0:0:0:
154,278,1014313,1,0,0:0:0:0:
178,307,1014386,1,0,0:0:0:0:
212,323,1014459,1,0,0:0:0:0:
249,325,1014532,1,0,0:0:0:0:
283,310,1014605,1,0,0:0:0:0:
309,283,1014679,5,0,0:0:0:0:
332,246,1014752,1,0,0:0:0:0:
373,228,1014825,1,0,0:0:0:0:
416,235,1014898,1,0,0:0:0:0:
448,266,1014972,5,0,0:0:0:0:
412,292,1015045,1,0,0:0:0:0:
368,301,1015118,1,0,0:0:0:0:
325,290,1015191,1,0,0:0:0:0:
290,262,1015264,1,0,0:0:0:0:
270,222,1015337,1,0,0:0:0:0:
269,178,1015411,5,0,0:0:0:0:
274,133,1015484,1,0,0:0:0:0:
260,91,1015557,1,0,0:0:0:0:
231,57,1015630,1,0,0:0:0:0:
190,38,1015703,1,0,0:0:0:0:
146,38,1015776,1,0,0:0:0:0:
104,55,1015850,5,0,0:0:0:0:
124,95,1015923,1,0,0:0:0:0:
161,120,1015996,1,0,0:0:0:0:
205,124,1016069,1,0,0:0:0:0:
245,105,1016142,5,0,0:0:0:0:
273,155,1016215,1,0,0:0:0:0:
277,213,1016288,1,0,0:0:0:0:
256,267,1016361,1,0,0:0:0:0:
214,307,1016434,1,0,0:0:0:0:
158,324,1016507,1,0,0:0:0:0:
101,316,1016581,5,0,0:0:0:0:
114,260,1016654,1,0,0:0:0:0:
149,214,1016727,1,0,0:0:0:0:
200,187,1016800,1,0,0:0:0:0:
258,184,1016873,1,0,0:0:0:0:
312,206,1016946,1,0,0:0:0:0:
352,248,1017020,1,0,0:0:0:0:
405,270,1017093,1,0,0:0:0:0:
460,254,1017166,1,0,0:0:0:0:
494,207,1017239,1,0,0:0:0:0:
491,150,1017312,1,0,0:0:0:0:
454,106,1017385,1,0,0:0:0:0:
395,95,1017459,5,0,0:0:0:0:
346,123,1017532,1,0,0:0:0:0:
293,103,1017605,1,0,0:0:0:0:
275,50,1017678,1,0,0:0:0:0:
304,1,1017751,1,0,0:0:0:0:
360,0,1017824,1,0,0:0:0:0:
402,32,1017898,6,0,P|422:65|399:101,3,58.4999973220826
384,271,1018191,2,0,P|357:241|373:201,3,58.4999973220826
253,172,1018484,5,0,0:0:0:0:
201,129,1018557,1,0,0:0:0:0:
135,122,1018630,1,0,0:0:0:0:
76,153,1018703,1,0,0:0:0:0:
44,211,1018776,1,0,0:0:0:0:
49,277,1018849,1,0,0:0:0:0:
90,330,1018923,1,0,0:0:0:0:
153,351,1018996,1,0,0:0:0:0:
217,333,1019069,1,0,0:0:0:0:
275,299,1019142,1,0,0:0:0:0:
341,289,1019215,1,0,0:0:0:0:
407,305,1019288,1,0,0:0:0:0:
462,343,1019362,5,0,0:0:0:0:
398,364,1019435,1,0,0:0:0:0:
331,358,1019508,1,0,0:0:0:0:
273,325,1019581,1,0,0:0:0:0:
232,272,1019654,1,0,0:0:0:0:
214,209,1019728,1,0,0:0:0:0:
160,170,1019801,1,0,0:0:0:0:
94,174,1019874,1,0,0:0:0:0:
44,218,1019947,1,0,0:0:0:0:
33,283,1020020,1,0,0:0:0:0:
66,341,1020094,1,0,0:0:0:0:
127,366,1020167,1,0,0:0:0:0:
190,347,1020240,1,0,0:0:0:0:
245,307,1020313,1,0,0:0:0:0:
308,284,1020386,1,0,0:0:0:0:
375,279,1020459,1,0,0:0:0:0:
440,293,1020533,2,0,L|438:139,1,116.999994644165
257,205,1020825,5,0,0:0:0:0:
204,264,1020898,1,0,0:0:0:0:
126,281,1020971,1,0,0:0:0:0:
54,247,1021044,1,0,0:0:0:0:
18,176,1021117,1,0,0:0:0:0:
31,97,1021190,1,0,0:0:0:0:
89,43,1021264,1,0,0:0:0:0:
168,34,1021337,1,0,0:0:0:0:
236,75,1021410,1,0,0:0:0:0:
260,151,1021484,1,0,0:0:0:0:
324,198,1021557,1,0,0:0:0:0:
404,197,1021630,1,0,0:0:0:0:
467,148,1021703,5,0,0:0:0:0:
401,103,1021776,1,0,0:0:0:0:
321,93,1021849,1,0,0:0:0:0:
245,120,1021922,1,0,0:0:0:0:
191,178,1021995,1,0,0:0:0:0:
156,249,1022069,1,0,0:0:0:0:
80,267,1022142,1,0,0:0:0:0:
18,220,1022215,1,0,0:0:0:0:
14,142,1022288,1,0,0:0:0:0:
72,90,1022361,1,0,0:0:0:0:
150,101,1022435,5,0,0:0:0:0:
191,177,1022508,1,0,0:0:0:0:
264,226,1022581,1,0,0:0:0:0:
350,235,1022654,1,0,0:0:0:0:
431,202,1022727,1,0,0:0:0:0:
487,136,1022800,1,0,0:0:0:0:
507,52,1022874,6,0,P|421:1|311:9,1,175.500000669479
256,171,1023094,1,0,0:0:0:0:
256,171,1023167,6,0,B|275:165|302:172|320:187|320:187|373:237|421:212|431:182|431:181|441:160|445:149|439:116|430:100|415:88|387:87|379:85|365:83|344:86|321:102|314:124|316:147|316:147,1,396
476,239,1025508,2,0,P|385:284|276:249,1,216
109,145,1026679,6,0,L|124:252,1,80.9999975280763
164,336,1026972,1,0,0:0:0:0:
237,143,1027118,1,0,0:0:0:0:
261,271,1027264,2,0,P|315:234|328:138,1,161.999995056153
291,41,1027703,1,0,0:0:0:0:
260,194,1027850,6,0,P|336:218|406:138,1,161.999995056153
392,21,1028289,2,0,P|326:89|326:159,1,161.999995056153
406,278,1028728,1,0,0:0:0:0:
242,162,1028874,1,0,0:0:0:0:
81,311,1029020,6,0,L|135:223,1,80.9999975280763
221,82,1029313,1,0,0:0:0:0:
201,283,1029459,1,0,0:0:0:0:
311,231,1029606,2,0,P|307:184|312:160,3,40.4999987640381
408,92,1029898,2,0,P|412:45|407:21,3,40.4999987640381
366,315,1030191,5,0,0:0:0:0:
345,280,1030264,1,0,0:0:0:0:
311,260,1030337,1,0,0:0:0:0:
271,260,1030410,1,0,0:0:0:0:
236,281,1030483,1,0,0:0:0:0:
214,315,1030557,5,0,0:0:0:0:
194,280,1030630,1,0,0:0:0:0:
194,240,1030703,1,0,0:0:0:0:
213,206,1030776,1,0,0:0:0:0:
248,185,1030849,1,0,0:0:0:0:
288,183,1030923,5,0,0:0:0:0:
328,184,1030996,1,0,0:0:0:0:
359,159,1031069,1,0,0:0:0:0:
367,121,1031142,1,0,0:0:0:0:
350,85,1031215,1,0,0:0:0:0:
315,62,1031289,1,0,0:0:0:0:
274,60,1031362,2,0,P|229:63|186:89,1,80.9999975280763
83,196,1031655,2,0,P|128:199|171:225,1,80.9999975280763
273,324,1031947,6,0,P|287:286|286:276,1,40.4999987640381
302,175,1032094,1,0,0:0:0:0:
276,143,1032167,1,0,0:0:0:0:
243,119,1032240,2,0,L|193:106,1,40.4999987640381
83,196,1032386,2,0,L|133:209,1,40.4999987640381
226,240,1032533,1,0,0:0:0:0:
169,38,1032679,6,0,P|130:85|131:133,1,80.9999975280763
287,171,1032972,1,0,0:0:0:0:
162,277,1033118,2,0,P|198:318|247:326,1,80.9999975280763
350,322,1033411,5,0,0:0:0:0:
350,301,1033484,1,0,0:0:0:0:
350,281,1033557,1,0,0:0:0:0:
350,261,1033630,1,0,0:0:0:0:
350,241,1033703,1,0,0:0:0:0:
347,212,1033777,1,0,0:0:0:0:
325,178,1033850,1,0,0:0:0:0:
287,167,1033923,1,0,0:0:0:0:
250,184,1033996,6,0,P|219:171|200:160,3,40.4999987640381
132,302,1034289,2,0,P|101:314|82:325,3,49.5000015106202
284,246,1034581,1,0,0:0:0:0:
332,243,1034654,1,0,0:0:0:0:
369,211,1034727,1,0,0:0:0:0:
378,164,1034800,1,0,0:0:0:0:
364,106,1034874,5,0,0:0:0:0:
330,152,1034947,1,0,0:0:0:0:
275,166,1035020,1,0,0:0:0:0:
224,140,1035093,1,0,0:0:0:0:
203,84,1035167,1,0,0:0:0:0:
158,48,1035240,1,0,0:0:0:0:
102,57,1035313,1,0,0:0:0:0:
71,104,1035386,1,0,0:0:0:0:
85,159,1035459,1,0,0:0:0:0:
140,182,1035533,1,0,0:0:0:0:
191,153,1035606,1,0,0:0:0:0:
228,108,1035679,1,0,0:0:0:0:
264,64,1035752,1,0,0:0:0:0:
321,61,1035825,1,0,0:0:0:0:
361,101,1035898,1,0,0:0:0:0:
363,160,1035972,1,0,0:0:0:0:
316,195,1036045,5,0,0:0:0:0:
352,148,1036118,1,0,0:0:0:0:
388,102,1036191,1,0,0:0:0:0:
424,57,1036264,1,0,0:0:0:0:
445,111,1036337,1,0,0:0:0:0:
440,168,1036410,1,0,0:0:0:0:
411,219,1036483,1,0,0:0:0:0:
364,252,1036556,1,0,0:0:0:0:
309,275,1036630,5,0,0:0:0:0:
251,265,1036703,1,0,0:0:0:0:
204,227,1036777,1,0,0:0:0:0:
179,174,1036850,1,0,0:0:0:0:
150,124,1036923,5,0,0:0:0:0:
95,111,1036996,1,0,0:0:0:0:
47,142,1037069,1,0,0:0:0:0:
42,200,1037142,1,0,0:0:0:0:
81,243,1037216,6,0,P|147:261|211:234,1,116.999994644165
285,91,1037508,1,0,0:0:0:0:
140,187,1037655,1,0,0:0:0:0:
351,169,1037801,1,0,0:0:0:0:
267,350,1037947,1,0,0:0:0:0:
316,33,1038094,1,0,0:0:0:0:
456,340,1038240,1,0,0:0:0:0:
200,132,1038386,5,0,0:0:0:0:
478,213,1038533,1,0,0:0:0:0:
245,334,1038679,1,0,0:0:0:0:
168,72,1038825,1,0,0:0:0:0:
383,350,1038972,1,0,0:0:0:0:
32,211,1039118,1,0,0:0:0:0:
200,44,1039264,1,0,0:0:0:0:
141,384,1039411,1,0,0:0:0:0:
280,192,1039557,5,0,0:0:0:0:
282,218,1039630,1,0,0:0:0:0:
283,245,1039703,1,0,0:0:0:0:
280,272,1039776,1,0,0:0:0:0:
276,299,1039849,1,0,0:0:0:0:
260,326,1039923,5,0,0:0:0:0:
229,329,1039996,1,0,0:0:0:0:
201,315,1040069,1,0,0:0:0:0:
187,287,1040142,1,0,0:0:0:0:
191,256,1040215,1,0,0:0:0:0:
218,232,1040289,1,0,0:0:0:0:
235,201,1040362,1,0,0:0:0:0:
237,165,1040435,1,0,0:0:0:0:
222,133,1040508,1,0,0:0:0:0:
198,106,1040581,1,0,0:0:0:0:
168,85,1040655,1,0,0:0:0:0:
128,62,1040728,5,0,0:0:0:0:
123,106,1040801,1,0,0:0:0:0:
142,146,1040874,1,0,0:0:0:0:
180,169,1040947,1,0,0:0:0:0:
225,168,1041020,1,0,0:0:0:0:
273,156,1041094,1,0,0:0:0:0:
297,198,1041167,1,0,0:0:0:0:
342,216,1041240,1,0,0:0:0:0:
388,201,1041313,1,0,0:0:0:0:
416,161,1041386,1,0,0:0:0:0:
412,112,1041459,1,0,0:0:0:0:
363,107,1041532,1,0,0:0:0:0:
321,81,1041605,5,0,0:0:0:0:
286,39,1041679,1,0,0:0:0:0:
234,23,1041752,1,0,0:0:0:0:
187,49,1041825,1,0,0:0:0:0:
176,101,1041898,2,0,P|182:157|160:217,1,107.999996704102
86,292,1042191,1,0,0:0:0:0:
87,115,1042338,5,0,0:0:0:0:
120,156,1042411,1,0,0:0:0:0:
170,174,1042484,1,0,0:0:0:0:
222,161,1042557,1,0,0:0:0:0:
259,123,1042630,1,0,0:0:0:0:
240,173,1042703,1,0,0:0:0:0:
246,226,1042776,1,0,0:0:0:0:
275,271,1042849,1,0,0:0:0:0:
328,286,1042923,1,0,0:0:0:0:
380,276,1042996,1,0,0:0:0:0:
422,242,1043069,5,0,0:0:0:0:
443,192,1043142,1,0,0:0:0:0:
436,137,1043216,1,0,0:0:0:0:
400,96,1043289,1,0,0:0:0:0:
354,67,1043362,1,0,0:0:0:0:
300,76,1043435,1,0,0:0:0:0:
258,110,1043508,1,0,0:0:0:0:
251,163,1043581,1,0,0:0:0:0:
208,194,1043654,1,0,0:0:0:0:
155,189,1043727,1,0,0:0:0:0:
118,152,1043800,1,0,0:0:0:0:
105,99,1043874,1,0,0:0:0:0:
90,47,1043947,5,0,0:0:0:0:
82,100,1044020,1,0,0:0:0:0:
75,153,1044093,1,0,0:0:0:0:
67,207,1044166,1,0,0:0:0:0:
60,260,1044239,1,0,0:0:0:0:
88,215,1044313,1,0,0:0:0:0:
136,194,1044386,1,0,0:0:0:0:
188,205,1044459,1,0,0:0:0:0:
225,243,1044533,1,0,0:0:0:0:
261,282,1044606,1,0,0:0:0:0:
313,291,1044679,1,0,0:0:0:0:
360,267,1044752,1,0,0:0:0:0:
383,219,1044825,1,0,0:0:0:0:
365,167,1044898,1,0,0:0:0:0:
318,138,1044972,1,0,0:0:0:0:
299,87,1045045,1,0,0:0:0:0:
292,33,1045118,5,0,0:0:0:0:
341,54,1045191,1,0,0:0:0:0:
394,58,1045264,1,0,0:0:0:0:
447,54,1045337,1,0,0:0:0:0:
496,33,1045410,1,0,0:0:0:0:
464,76,1045484,1,0,0:0:0:0:
449,127,1045557,1,0,0:0:0:0:
452,181,1045630,1,0,0:0:0:0:
471,231,1045703,1,0,0:0:0:0:
478,285,1045777,1,0,0:0:0:0:
467,337,1045850,5,0,0:0:0:0:
432,295,1045923,1,0,0:0:0:0:
382,275,1045996,1,0,0:0:0:0:
330,270,1046069,1,0,0:0:0:0:
277,282,1046142,1,0,0:0:0:0:
231,311,1046216,1,0,0:0:0:0:
184,338,1046289,1,0,0:0:0:0:
225,303,1046362,1,0,0:0:0:0:
265,269,1046435,1,0,0:0:0:0:
270,217,1046508,1,0,0:0:0:0:
253,166,1046581,5,0,0:0:0:0:
292,200,1046654,1,0,0:0:0:0:
345,199,1046727,1,0,0:0:0:0:
383,163,1046800,1,0,0:0:0:0:
390,108,1046874,1,0,0:0:0:0:
357,65,1046947,1,0,0:0:0:0:
309,39,1047020,1,0,0:0:0:0:
301,91,1047093,1,0,0:0:0:0:
319,142,1047166,1,0,0:0:0:0:
358,178,1047239,1,0,0:0:0:0:
411,191,1047313,1,0,0:0:0:0:
464,181,1047386,1,0,0:0:0:0:
488,133,1047459,5,0,0:0:0:0:
498,185,1047532,1,0,0:0:0:0:
483,236,1047605,1,0,0:0:0:0:
447,276,1047678,1,0,0:0:0:0:
397,299,1047752,1,0,0:0:0:0:
347,277,1047825,1,0,0:0:0:0:
295,262,1047898,1,0,0:0:0:0:
240,261,1047972,1,0,0:0:0:0:
191,284,1048045,1,0,0:0:0:0:
144,310,1048118,1,0,0:0:0:0:
91,308,1048191,1,0,0:0:0:0:
58,268,1048264,1,0,0:0:0:0:
67,216,1048337,5,0,0:0:0:0:
113,247,1048411,1,0,0:0:0:0:
161,270,1048484,1,0,0:0:0:0:
214,270,1048557,1,0,0:0:0:0:
262,246,1048630,1,0,0:0:0:0:
216,220,1048703,1,0,0:0:0:0:
200,170,1048776,1,0,0:0:0:0:
223,122,1048849,1,0,0:0:0:0:
255,78,1048923,1,0,0:0:0:0:
268,129,1048996,1,0,0:0:0:0:
246,177,1049069,1,0,0:0:0:0:
198,199,1049142,1,0,0:0:0:0:
147,186,1049215,1,0,0:0:0:0:
115,142,1049289,1,0,0:0:0:0:
100,89,1049362,5,0,0:0:0:0:
94,142,1049435,1,0,0:0:0:0:
89,196,1049508,1,0,0:0:0:0:
87,250,1049581,1,0,0:0:0:0:
121,291,1049654,1,0,0:0:0:0:
170,312,1049727,1,0,0:0:0:0:
224,312,1049801,1,0,0:0:0:0:
199,264,1049874,1,0,0:0:0:0:
195,210,1049947,1,0,0:0:0:0:
213,159,1050020,1,0,0:0:0:0:
240,125,1050094,5,0,0:0:0:0:
264,160,1050167,1,0,0:0:0:0:
298,186,1050240,1,0,0:0:0:0:
340,189,1050313,1,0,0:0:0:0:
381,178,1050386,1,0,0:0:0:0:
409,145,1050459,1,0,0:0:0:0:
412,101,1050533,1,0,0:0:0:0:
403,58,1050606,1,0,0:0:0:0:
410,15,1050679,5,0,0:0:0:0:
437,47,1050752,1,0,0:0:0:0:
451,87,1050825,1,0,0:0:0:0:
443,129,1050898,1,0,0:0:0:0:
417,157,1050972,1,0,0:0:0:0:
380,166,1051045,1,0,0:0:0:0:
342,159,1051118,1,0,0:0:0:0:
308,142,1051191,1,0,0:0:0:0:
270,138,1051264,6,0,P|218:175|160:157,1,107.999996704102
117,42,1051557,1,0,0:0:0:0:
205,109,1051703,1,0,0:0:0:0:
56,170,1051850,2,0,P|52:222|87:263,1,107.999996704102
207,321,1052142,1,0,0:0:0:0:
177,168,1052289,1,0,0:0:0:0:
263,34,1052435,5,0,0:0:0:0:
259,60,1052508,1,0,0:0:0:0:
264,86,1052581,1,0,0:0:0:0:
278,110,1052654,1,0,0:0:0:0:
303,129,1052728,6,0,P|316:186|267:233,1,107.999996704102
161,72,1053020,1,0,0:0:0:0:
274,323,1053167,2,0,P|331:336|378:287,1,107.999996704102
385,100,1053459,1,0,0:0:0:0:
256,192,1053606,12,0,1054191,0:0:0:0:
106,105,1056736,6,0,P|92:182|142:245,1,135.000005149842
233,313,1057020,1,0,0:0:0:0:
267,65,1057162,1,0,0:0:0:0:
377,183,1057304,1,0,0:0:0:0:
377,183,1057375,1,0,0:0:0:0:
377,183,1057446,2,0,P|391:260|341:323,1,135.000005149842
124,200,1057731,1,0,0:0:0:0:
215,346,1057873,1,0,0:0:0:0:
215,346,1057944,1,0,0:0:0:0:
215,346,1058015,2,0,P|244:286|227:222,1,135.000005149842
68,45,1058299,1,0,0:0:0:0:
71,214,1058442,5,0,0:0:0:0:
103,206,1058513,1,0,0:0:0:0:
136,199,1058584,1,0,0:0:0:0:
169,192,1058655,1,0,0:0:0:0:
202,183,1058726,2,0,B|177:114|177:114|122:55,1,135.000005149842
70,319,1059010,5,0,0:0:0:0:
140,137,1059153,1,0,0:0:0:0:
140,137,1059224,1,0,0:0:0:0:
140,137,1059295,2,0,L|298:123,1,135.000005149842
396,27,1059579,1,0,0:0:0:0:
282,234,1059721,1,0,0:0:0:0:
282,234,1059792,1,0,0:0:0:0:
282,234,1059863,2,0,L|147:222,1,135.000005149842
74,53,1060148,5,0,0:0:0:0:
71,294,1060290,1,0,0:0:0:0:
96,271,1060361,1,0,0:0:0:0:
127,258,1060432,1,0,0:0:0:0:
160,256,1060503,1,0,0:0:0:0:
204,274,1060574,2,0,B|179:170|179:170|206:74,1,202.500007724762
251,107,1060859,1,0,0:0:0:0:
285,148,1060930,1,0,0:0:0:0:
336,164,1061001,1,0,0:0:0:0:
387,148,1061072,1,0,0:0:0:0:
423,108,1061143,1,0,0:0:0:0:
436,55,1061214,1,0,0:0:0:0:
413,6,1061285,6,0,B|372:66|372:66|386:161,1,135.000005149842
400,178,1061499,1,0,0:0:0:0:
436,217,1061570,1,0,0:0:0:0:
312,315,1061712,1,0,0:0:0:0:
303,262,1061783,1,0,0:0:0:0:
293,209,1061854,1,0,0:0:0:0:
217,35,1061996,1,0,0:0:0:0:
207,88,1062067,1,0,0:0:0:0:
198,141,1062138,1,0,0:0:0:0:
160,309,1062281,1,0,0:0:0:0:
160,309,1062352,1,0,0:0:0:0:
160,309,1062423,6,0,P|114:190|117:171,1,135.000005149842
132,136,1062636,1,0,0:0:0:0:
163,92,1062707,1,0,0:0:0:0:
224,177,1062849,1,0,0:0:0:0:
241,220,1062920,1,0,0:0:0:0:
259,264,1062991,1,0,0:0:0:0:
277,308,1063062,1,0,0:0:0:0:
302,276,1063134,1,0,0:0:0:0:
315,243,1063205,1,0,0:0:0:0:
328,210,1063276,1,0,0:0:0:0:
341,178,1063347,1,0,0:0:0:0:
356,148,1063418,1,0,0:0:0:0:
421,32,1063560,6,0,L|433:179,1,135.000005149842
439,233,1063773,5,0,0:0:0:0:
444,300,1063844,1,0,0:0:0:0:
259,145,1063987,1,0,0:0:0:0:
253,77,1064058,1,0,0:0:0:0:
248,10,1064129,1,0,0:0:0:0:
127,244,1064271,1,0,0:0:0:0:
127,244,1064342,1,0,0:0:0:0:
127,244,1064413,6,0,L|294:258,1,135.000005149842
261,255,1064626,1,0,0:0:0:0:
261,255,1064698,1,0,0:0:0:0:
379,13,1064840,1,0,0:0:0:0:
373,80,1064911,1,0,0:0:0:0:
368,148,1064982,6,0,L|353:315,1,135.000005149842
81,176,1065266,5,0,0:0:0:0:
116,146,1065337,1,0,0:0:0:0:
161,137,1065408,1,0,0:0:0:0:
205,149,1065479,1,0,0:0:0:0:
239,180,1065550,1,0,0:0:0:0:
434,0,1065693,1,0,0:0:0:0:
428,67,1065764,1,0,0:0:0:0:
422,134,1065835,6,0,L|407:301,1,135.000005149842
224,357,1066119,1,0,0:0:0:0:
218,289,1066190,1,0,0:0:0:0:
212,222,1066261,1,0,0:0:0:0:
114,16,1066404,1,0,0:0:0:0:
108,83,1066475,1,0,0:0:0:0:
102,150,1066546,1,0,0:0:0:0:
238,98,1066688,1,0,0:0:0:0:
238,98,1066759,1,0,0:0:0:0:
238,98,1066830,6,0,L|405:112,1,135.000005149842
466,183,1067115,1,0,0:0:0:0:
466,183,1067186,1,0,0:0:0:0:
466,183,1067257,2,0,P|447:205|440:230,3,45
327,350,1067541,2,0,P|346:328|353:303,3,45
264,132,1067826,2,0,P|245:154|238:179,3,45
179,319,1068110,6,0,L|114:270,1,56.25
152,153,1068252,2,0,L|87:104,1,56.25
310,242,1068394,2,0,L|245:193,1,56.25
283,76,1068536,2,0,L|218:27,1,56.25
488,135,1068679,5,0,0:0:0:0:
469,84,1068750,1,0,0:0:0:0:
417,69,1068821,1,0,0:0:0:0:
374,102,1068892,1,0,0:0:0:0:
375,156,1068963,1,0,0:0:0:0:
418,193,1069034,1,0,0:0:0:0:
444,239,1069105,1,0,0:0:0:0:
417,285,1069176,1,0,0:0:0:0:
361,281,1069247,2,0,B|328:258|328:258|326:276|326:276|305:259|305:259|304:280|304:280|286:260|286:260|278:283|278:283|270:264|270:264|219:301,1,225
138,365,1069674,1,0,0:0:0:0:
137,248,1069816,5,0,0:0:0:0:
138,217,1069887,1,0,0:0:0:0:
139,187,1069958,1,0,0:0:0:0:
140,157,1070029,1,0,0:0:0:0:
141,127,1070100,1,0,0:0:0:0:
142,97,1070171,1,0,0:0:0:0:
143,67,1070242,1,0,0:0:0:0:
144,37,1070313,1,0,0:0:0:0:
