osu file format v14

[General]
AudioFilename: volar.mp3
AudioLeadIn: 0
PreviewTime: 66540
Countdown: 0
SampleSet: None
StackLeniency: 0.7
Mode: 3
LetterboxInBreaks: 0
SpecialStyle: 0
WidescreenStoryboard: 1

[Editor]
DistanceSpacing: 0.8
BeatDivisor: 4
GridSize: 8
TimelineZoom: 1

[Metadata]
Title:Touhou from the past
TitleUnicode:Touhou from the past
Artist:Various Artists
ArtistUnicode:Various Artists
Creator:LostCool
Version:Volar (Alice's Emotion) Challenge
Source:LCC
Tags:
BeatmapID:2093499
BeatmapSetID:1000237

[Difficulty]
HPDrainRate:8
CircleSize:4
OverallDifficulty:8.5
ApproachRate:10
SliderMultiplier:1.4
SliderTickRate:1

[Events]
//Background and Video events
//Break Periods
//Storyboard Layer 0 (Background)
//Storyboard Layer 1 (Fail)
//Storyboard Layer 2 (Pass)
//Storyboard Layer 3 (Foreground)
//Storyboard Sound Samples

[TimingPoints]
50,346.8208,4,2,0,15,1,0
47217.63,693.6416,4,2,0,15,1,0
66639.2,346.8208,4,2,0,15,1,0
68026.52,231.21387283237,4,2,0,15,1,0
68720.17,693.6416,4,2,0,15,1,0
80512.19,346.8208,4,2,0,15,1,0

[HitObjects]
320,192,656,5,0,0:0:0:0:
64,192,743,1,0,0:0:0:0:
448,192,830,1,0,0:0:0:0:
64,192,917,1,0,0:0:0:0:
448,192,1003,1,0,0:0:0:0:
192,192,1090,1,0,0:0:0:0:
320,192,1177,1,0,0:0:0:0:
192,192,1263,1,0,0:0:0:0:
320,192,1350,1,0,0:0:0:0:
192,0,1437,128,0,2130:1:0:0:0:
64,0,2130,128,0,2737:1:0:0:0:
448,0,2130,128,0,2737:1:0:0:0:
64,192,2824,1,0,0:0:0:0:
448,192,2824,1,0,0:0:0:0:
64,192,3171,1,0,0:0:0:0:
192,192,3171,1,0,0:0:0:0:
320,192,3171,1,0,0:0:0:0:
64,192,3518,1,0,0:0:0:0:
448,192,3518,1,0,0:0:0:0:
64,192,3865,1,0,0:0:0:0:
192,192,3865,1,0,0:0:0:0:
320,192,3865,1,0,0:0:0:0:
64,192,4211,1,0,0:0:0:0:
448,192,4211,1,0,0:0:0:0:
64,192,4558,1,0,0:0:0:0:
192,192,4558,1,0,0:0:0:0:
320,192,4558,1,0,0:0:0:0:
64,192,4905,1,0,0:0:0:0:
448,192,4905,1,0,0:0:0:0:
64,192,5252,1,0,0:0:0:0:
192,192,5252,1,0,0:0:0:0:
320,192,5252,1,0,0:0:0:0:
320,0,5599,128,0,5772:1:0:0:0:
448,0,5599,128,0,5772:1:0:0:0:
192,192,5772,128,0,5815:0:0:0:0:
192,0,5945,128,0,6119:1:0:0:0:
448,0,5945,128,0,6119:1:0:0:0:
64,192,6119,128,0,6162:0:0:0:0:
64,0,6292,128,0,6466:1:0:0:0:
448,0,6292,128,0,6466:1:0:0:0:
192,192,6466,128,0,6509:0:0:0:0:
192,0,6639,128,0,6813:1:0:0:0:
448,0,6639,128,0,6813:1:0:0:0:
320,192,6813,128,0,6856:0:0:0:0:
320,0,6986,128,0,7159:1:0:0:0:
448,0,6986,128,0,7159:1:0:0:0:
192,192,7159,128,0,7203:0:0:0:0:
192,0,7333,128,0,7506:1:0:0:0:
448,0,7333,128,0,7506:1:0:0:0:
64,192,7506,128,0,7549:0:0:0:0:
64,0,7680,128,0,7853:1:0:0:0:
448,0,7680,128,0,7853:1:0:0:0:
192,192,7853,128,0,7896:0:0:0:0:
192,0,8026,128,0,8200:1:0:0:0:
448,0,8026,128,0,8200:1:0:0:0:
320,192,8200,1,0,0:0:0:0:
64,192,8373,1,0,0:0:0:0:
448,192,8373,1,0,0:0:0:0:
192,192,8720,1,0,0:0:0:0:
320,192,8720,1,0,0:0:0:0:
448,192,8720,1,0,0:0:0:0:
64,192,9067,1,0,0:0:0:0:
448,192,9067,1,0,0:0:0:0:
192,192,9414,1,0,0:0:0:0:
320,192,9414,1,0,0:0:0:0:
448,192,9414,1,0,0:0:0:0:
64,192,9760,1,0,0:0:0:0:
448,192,9760,1,0,0:0:0:0:
192,192,10107,1,0,0:0:0:0:
320,192,10107,1,0,0:0:0:0:
448,192,10107,1,0,0:0:0:0:
64,192,10454,1,0,0:0:0:0:
448,192,10454,1,0,0:0:0:0:
192,192,10801,1,0,0:0:0:0:
320,192,10801,1,0,0:0:0:0:
448,192,10801,1,0,0:0:0:0:
64,0,11148,128,0,11321:1:0:0:0:
192,0,11148,128,0,11321:1:0:0:0:
320,192,11321,128,0,11365:0:0:0:0:
64,0,11495,128,0,11668:1:0:0:0:
320,0,11495,128,0,11668:1:0:0:0:
448,192,11668,128,0,11711:0:0:0:0:
64,0,11841,128,0,12015:1:0:0:0:
448,0,11841,128,0,12015:1:0:0:0:
320,192,12015,128,0,12058:0:0:0:0:
64,0,12188,128,0,12362:1:0:0:0:
320,0,12188,128,0,12362:1:0:0:0:
192,192,12362,128,0,12405:0:0:0:0:
64,0,12535,128,0,12708:1:0:0:0:
192,0,12535,128,0,12708:1:0:0:0:
320,192,12708,128,0,12752:0:0:0:0:
64,0,12882,128,0,13055:1:0:0:0:
320,0,12882,128,0,13055:1:0:0:0:
448,192,13055,128,0,13099:0:0:0:0:
64,0,13229,128,0,13402:1:0:0:0:
448,0,13229,128,0,13402:1:0:0:0:
320,192,13402,128,0,13445:0:0:0:0:
64,0,13576,128,0,13749:1:0:0:0:
320,0,13576,128,0,13749:1:0:0:0:
192,192,13749,1,0,0:0:0:0:
192,192,13922,1,0,0:0:0:0:
320,192,13922,1,0,0:0:0:0:
64,192,14269,1,0,0:0:0:0:
192,192,14269,1,0,0:0:0:0:
448,192,14269,1,0,0:0:0:0:
192,192,14616,1,0,0:0:0:0:
320,192,14616,1,0,0:0:0:0:
64,192,14963,1,0,0:0:0:0:
320,192,14963,1,0,0:0:0:0:
448,192,14963,1,0,0:0:0:0:
192,192,15310,1,0,0:0:0:0:
320,192,15310,1,0,0:0:0:0:
64,192,15656,1,0,0:0:0:0:
192,192,15656,1,0,0:0:0:0:
448,192,15656,1,0,0:0:0:0:
192,192,16003,1,0,0:0:0:0:
320,192,16003,1,0,0:0:0:0:
64,192,16350,1,0,0:0:0:0:
320,192,16350,1,0,0:0:0:0:
448,192,16350,1,0,0:0:0:0:
448,0,16697,128,0,16870:1:0:0:0:
192,192,16697,128,0,16740:0:0:0:0:
192,192,16870,1,0,0:0:0:0:
448,0,17044,128,0,17217:1:0:0:0:
64,192,17044,128,0,17087:0:0:0:0:
64,192,17217,1,0,0:0:0:0:
448,0,17391,128,0,17564:1:0:0:0:
192,192,17391,128,0,17434:0:0:0:0:
192,192,17564,1,0,0:0:0:0:
448,0,17737,128,0,17911:1:0:0:0:
320,192,17737,128,0,17781:0:0:0:0:
320,192,17911,1,0,0:0:0:0:
64,0,18084,128,0,18258:1:0:0:0:
320,192,18084,128,0,18128:0:0:0:0:
320,192,18258,1,0,0:0:0:0:
64,0,18431,128,0,18604:1:0:0:0:
192,192,18431,128,0,18474:0:0:0:0:
192,192,18604,1,0,0:0:0:0:
64,0,18778,128,0,18951:1:0:0:0:
320,192,18778,128,0,18821:0:0:0:0:
320,192,18951,1,0,0:0:0:0:
64,0,19125,128,0,19298:1:0:0:0:
448,192,19125,128,0,19168:0:0:0:0:
448,192,19298,1,0,0:0:0:0:
64,192,19471,1,0,0:0:0:0:
192,0,19471,128,0,19645:1:0:0:0:
448,0,19471,128,0,19645:1:0:0:0:
192,192,19818,1,0,0:0:0:0:
320,192,19818,1,0,0:0:0:0:
64,192,20165,1,0,0:0:0:0:
192,0,20165,128,0,20339:1:0:0:0:
448,0,20165,128,0,20339:1:0:0:0:
192,192,20512,1,0,0:0:0:0:
320,192,20512,1,0,0:0:0:0:
64,192,20859,1,0,0:0:0:0:
192,0,20859,128,0,21032:1:0:0:0:
448,0,20859,128,0,21032:1:0:0:0:
192,192,21206,1,0,0:0:0:0:
320,192,21206,1,0,0:0:0:0:
64,192,21552,1,0,0:0:0:0:
192,0,21552,128,0,21726:1:0:0:0:
448,0,21552,128,0,21726:1:0:0:0:
192,192,21899,1,0,0:0:0:0:
320,192,21899,1,0,0:0:0:0:
64,192,22073,1,0,0:0:0:0:
448,192,22073,1,0,0:0:0:0:
192,192,22246,1,0,0:0:0:0:
320,192,22246,1,0,0:0:0:0:
448,192,22246,128,0,22289:0:0:0:0:
64,192,22419,1,0,0:0:0:0:
192,192,22419,128,0,22463:0:0:0:0:
64,192,22593,1,0,0:0:0:0:
192,192,22593,1,0,0:0:0:0:
448,192,22593,128,0,22636:0:0:0:0:
448,192,22766,1,0,0:0:0:0:
320,192,22766,128,0,22810:0:0:0:0:
320,192,22940,1,0,0:0:0:0:
448,192,22940,1,0,0:0:0:0:
64,192,22940,128,0,22983:0:0:0:0:
192,192,23113,1,0,0:0:0:0:
320,192,23113,128,0,23156:0:0:0:0:
192,192,23286,1,0,0:0:0:0:
320,192,23286,1,0,0:0:0:0:
64,192,23286,128,0,23330:0:0:0:0:
64,192,23460,1,0,0:0:0:0:
192,192,23460,128,0,23503:0:0:0:0:
192,0,23633,128,0,24327:1:0:0:0:
64,0,23633,128,0,24674:1:0:0:0:
448,192,23633,1,0,0:0:0:0:
320,192,23662,1,0,0:0:0:0:
448,192,23807,1,0,0:0:0:0:
320,192,23836,1,0,0:0:0:0:
448,192,23980,1,0,0:0:0:0:
320,192,24009,1,0,0:0:0:0:
320,192,24154,1,0,0:0:0:0:
448,192,24182,1,0,0:0:0:0:
320,192,24327,1,0,0:0:0:0:
448,192,24356,1,0,0:0:0:0:
448,192,24500,1,0,0:0:0:0:
448,192,24674,1,0,0:0:0:0:
448,192,25021,1,0,0:0:0:0:
192,0,25021,128,0,25194:1:0:0:0:
448,192,25194,1,0,0:0:0:0:
320,192,25367,1,0,0:0:0:0:
64,0,25367,128,0,25541:1:0:0:0:
320,192,25541,1,0,0:0:0:0:
192,192,25714,1,0,0:0:0:0:
64,0,25714,128,0,25888:1:0:0:0:
192,192,25888,1,0,0:0:0:0:
320,192,26061,1,0,0:0:0:0:
64,0,26061,128,0,26234:1:0:0:0:
320,192,26234,1,0,0:0:0:0:
448,192,26408,1,0,0:0:0:0:
192,0,26408,128,0,26581:1:0:0:0:
448,192,26581,1,0,0:0:0:0:
320,192,26755,1,0,0:0:0:0:
64,0,26755,128,0,26928:1:0:0:0:
320,192,26928,1,0,0:0:0:0:
192,192,27102,1,0,0:0:0:0:
64,0,27102,128,0,27275:1:0:0:0:
192,192,27275,1,0,0:0:0:0:
320,192,27448,1,0,0:0:0:0:
64,0,27448,128,0,27622:1:0:0:0:
320,192,27622,1,0,0:0:0:0:
448,192,27795,1,0,0:0:0:0:
192,0,27795,128,0,27969:1:0:0:0:
448,192,27969,1,0,0:0:0:0:
320,192,28142,1,0,0:0:0:0:
64,0,28142,128,0,28315:1:0:0:0:
320,192,28315,1,0,0:0:0:0:
192,192,28489,1,0,0:0:0:0:
64,0,28489,128,0,28662:1:0:0:0:
192,192,28662,1,0,0:0:0:0:
320,192,28836,1,0,0:0:0:0:
64,0,28836,128,0,29009:1:0:0:0:
320,192,29009,1,0,0:0:0:0:
448,192,29182,1,0,0:0:0:0:
192,0,29182,128,0,29356:1:0:0:0:
448,192,29356,1,0,0:0:0:0:
320,192,29529,1,0,0:0:0:0:
64,0,29529,128,0,29703:1:0:0:0:
320,192,29703,1,0,0:0:0:0:
192,192,29876,1,0,0:0:0:0:
64,0,29876,128,0,30049:1:0:0:0:
192,192,30049,1,0,0:0:0:0:
320,192,30223,1,0,0:0:0:0:
64,0,30223,128,0,30396:1:0:0:0:
320,192,30396,1,0,0:0:0:0:
192,192,30570,1,0,0:0:0:0:
448,0,30570,128,0,30743:1:0:0:0:
192,192,30743,1,0,0:0:0:0:
64,192,30917,1,0,0:0:0:0:
320,0,30917,128,0,31090:1:0:0:0:
64,192,31090,1,0,0:0:0:0:
192,192,31263,1,0,0:0:0:0:
448,0,31263,128,0,31437:1:0:0:0:
192,192,31437,1,0,0:0:0:0:
320,192,31610,1,0,0:0:0:0:
448,0,31610,128,0,31784:1:0:0:0:
320,192,31784,1,0,0:0:0:0:
192,192,31957,1,0,0:0:0:0:
448,0,31957,128,0,32130:1:0:0:0:
192,192,32130,1,0,0:0:0:0:
64,192,32304,1,0,0:0:0:0:
320,0,32304,128,0,32477:1:0:0:0:
64,192,32477,1,0,0:0:0:0:
192,192,32651,1,0,0:0:0:0:
448,0,32651,128,0,32824:1:0:0:0:
192,192,32824,1,0,0:0:0:0:
320,192,32997,1,0,0:0:0:0:
448,0,32997,128,0,33171:1:0:0:0:
320,192,33171,1,0,0:0:0:0:
192,192,33344,1,0,0:0:0:0:
448,0,33344,128,0,33518:1:0:0:0:
192,192,33518,1,0,0:0:0:0:
64,192,33691,1,0,0:0:0:0:
320,0,33691,128,0,33865:1:0:0:0:
64,192,33865,1,0,0:0:0:0:
192,192,34038,1,0,0:0:0:0:
448,0,34038,128,0,34211:1:0:0:0:
192,192,34211,1,0,0:0:0:0:
320,192,34385,1,0,0:0:0:0:
448,0,34385,128,0,34558:1:0:0:0:
320,192,34558,1,0,0:0:0:0:
192,192,34732,1,0,0:0:0:0:
448,0,34732,128,0,34905:1:0:0:0:
192,192,34905,1,0,0:0:0:0:
64,192,35078,1,0,0:0:0:0:
320,0,35078,128,0,35252:1:0:0:0:
64,192,35252,1,0,0:0:0:0:
192,192,35425,1,0,0:0:0:0:
448,0,35425,128,0,35599:1:0:0:0:
192,192,35599,1,0,0:0:0:0:
320,192,35772,1,0,0:0:0:0:
448,0,35772,128,0,35945:1:0:0:0:
320,192,35945,1,0,0:0:0:0:
64,0,36119,128,0,36292:1:0:0:0:
448,0,36119,128,0,36292:1:0:0:0:
192,192,36119,128,0,36206:0:0:0:0:
192,192,36292,1,0,0:0:0:0:
192,0,36466,128,0,36639:1:0:0:0:
320,0,36466,128,0,36639:1:0:0:0:
448,192,36466,128,0,36552:0:0:0:0:
448,192,36639,1,0,0:0:0:0:
64,0,36813,128,0,36986:1:0:0:0:
448,0,36813,128,0,36986:1:0:0:0:
320,192,36813,128,0,36899:0:0:0:0:
320,192,36986,1,0,0:0:0:0:
192,0,37159,128,0,37333:1:0:0:0:
320,0,37159,128,0,37333:1:0:0:0:
64,192,37159,128,0,37246:0:0:0:0:
64,192,37333,1,0,0:0:0:0:
64,0,37506,128,0,37680:1:0:0:0:
448,0,37506,128,0,37680:1:0:0:0:
192,192,37506,128,0,37593:0:0:0:0:
192,192,37680,1,0,0:0:0:0:
192,0,37853,128,0,38026:1:0:0:0:
320,0,37853,128,0,38026:1:0:0:0:
448,192,37853,128,0,37940:0:0:0:0:
448,192,38026,1,0,0:0:0:0:
64,0,38200,128,0,38373:1:0:0:0:
448,0,38200,128,0,38373:1:0:0:0:
320,192,38200,128,0,38286:0:0:0:0:
320,192,38373,1,0,0:0:0:0:
192,0,38547,128,0,38720:1:0:0:0:
320,0,38547,128,0,38720:1:0:0:0:
64,192,38547,128,0,38633:0:0:0:0:
64,192,38720,1,0,0:0:0:0:
64,0,38893,128,0,39067:1:0:0:0:
448,0,38893,128,0,39067:1:0:0:0:
192,192,38893,128,0,38980:0:0:0:0:
192,192,39067,1,0,0:0:0:0:
192,0,39240,128,0,39414:1:0:0:0:
320,0,39240,128,0,39414:1:0:0:0:
448,192,39240,128,0,39327:0:0:0:0:
448,192,39414,1,0,0:0:0:0:
64,0,39587,128,0,39760:1:0:0:0:
448,0,39587,128,0,39760:1:0:0:0:
320,192,39587,128,0,39674:0:0:0:0:
320,192,39760,1,0,0:0:0:0:
192,0,39934,128,0,40107:1:0:0:0:
320,0,39934,128,0,40107:1:0:0:0:
64,192,39934,128,0,40021:0:0:0:0:
64,192,40107,1,0,0:0:0:0:
64,0,40281,128,0,40454:1:0:0:0:
448,0,40281,128,0,40454:1:0:0:0:
192,192,40281,128,0,40367:0:0:0:0:
192,192,40454,1,0,0:0:0:0:
192,0,40628,128,0,40801:1:0:0:0:
320,0,40628,128,0,40801:1:0:0:0:
448,192,40628,128,0,40714:0:0:0:0:
448,192,40801,1,0,0:0:0:0:
64,0,40974,128,0,41148:1:0:0:0:
448,0,40974,128,0,41148:1:0:0:0:
320,192,40974,128,0,41061:0:0:0:0:
320,192,41148,1,0,0:0:0:0:
192,0,41321,128,0,41495:1:0:0:0:
320,0,41321,128,0,41495:1:0:0:0:
64,192,41321,128,0,41408:0:0:0:0:
64,192,41495,1,0,0:0:0:0:
320,0,41668,128,0,41841:1:0:0:0:
448,0,41668,128,0,41841:1:0:0:0:
192,192,41841,128,0,41885:0:0:0:0:
192,0,42015,128,0,42188:1:0:0:0:
448,0,42015,128,0,42188:1:0:0:0:
64,192,42188,128,0,42232:0:0:0:0:
64,0,42362,128,0,42535:1:0:0:0:
448,0,42362,128,0,42535:1:0:0:0:
192,192,42535,128,0,42578:0:0:0:0:
192,0,42708,128,0,42882:1:0:0:0:
448,0,42708,128,0,42882:1:0:0:0:
320,192,42882,128,0,42925:0:0:0:0:
320,0,43055,128,0,43229:1:0:0:0:
448,0,43055,128,0,43229:1:0:0:0:
192,192,43229,128,0,43272:0:0:0:0:
192,0,43402,128,0,43576:1:0:0:0:
448,0,43402,128,0,43576:1:0:0:0:
64,192,43576,128,0,43619:0:0:0:0:
64,0,43749,128,0,43922:1:0:0:0:
448,0,43749,128,0,43922:1:0:0:0:
192,192,43922,128,0,43966:0:0:0:0:
192,0,44096,128,0,44269:1:0:0:0:
448,0,44096,128,0,44269:1:0:0:0:
64,0,44269,128,0,44443:1:0:0:0:
320,192,44269,1,0,0:0:0:0:
192,192,44443,1,0,0:0:0:0:
320,192,44443,1,0,0:0:0:0:
448,192,44443,1,0,0:0:0:0:
192,0,44616,128,0,44789:1:0:0:0:
64,192,44789,1,0,0:0:0:0:
320,192,44789,1,0,0:0:0:0:
448,192,44789,1,0,0:0:0:0:
320,0,44963,128,0,45136:1:0:0:0:
64,192,45136,1,0,0:0:0:0:
192,192,45136,1,0,0:0:0:0:
448,192,45136,1,0,0:0:0:0:
448,0,45310,128,0,45483:1:0:0:0:
64,192,45483,1,0,0:0:0:0:
192,192,45483,1,0,0:0:0:0:
320,192,45483,1,0,0:0:0:0:
448,0,45656,128,0,45743:1:0:0:0:
64,192,45830,1,0,0:0:0:0:
192,192,45830,1,0,0:0:0:0:
320,192,45830,1,0,0:0:0:0:
448,192,45830,1,0,0:0:0:0:
320,192,46003,1,0,0:0:0:0:
192,192,46177,1,0,0:0:0:0:
320,192,46350,1,0,0:0:0:0:
192,192,46437,1,0,0:0:0:0:
64,192,46523,1,0,0:0:0:0:
448,192,46610,1,0,0:0:0:0:
192,192,46697,1,0,0:0:0:0:
320,192,46784,1,0,0:0:0:0:
192,192,46870,1,0,0:0:0:0:
64,0,47044,128,0,47217:1:0:0:0:
448,0,47044,128,0,47217:1:0:0:0:
320,0,47217,128,0,49992:1:0:0:0:
192,192,47217,128,0,47391:0:0:0:0:
64,192,47391,1,0,0:0:0:0:
192,192,47564,128,0,47737:0:0:0:0:
448,192,47737,1,0,0:0:0:0:
192,192,47911,128,0,48084:0:0:0:0:
64,192,48084,1,0,0:0:0:0:
192,192,48258,128,0,48431:0:0:0:0:
448,192,48431,1,0,0:0:0:0:
192,192,48604,128,0,48778:0:0:0:0:
64,192,48778,1,0,0:0:0:0:
192,192,48951,128,0,49125:0:0:0:0:
448,192,49125,1,0,0:0:0:0:
192,192,49298,128,0,49471:0:0:0:0:
64,192,49471,1,0,0:0:0:0:
192,192,49645,128,0,49818:0:0:0:0:
448,192,49818,1,0,0:0:0:0:
64,0,49992,128,0,52766:1:0:0:0:
192,192,49992,128,0,50165:0:0:0:0:
320,192,50165,1,0,0:0:0:0:
448,192,50339,128,0,50512:0:0:0:0:
320,192,50512,1,0,0:0:0:0:
192,192,50685,128,0,50859:0:0:0:0:
320,192,50859,1,0,0:0:0:0:
448,192,51032,128,0,51206:0:0:0:0:
320,192,51206,1,0,0:0:0:0:
192,192,51379,128,0,51552:0:0:0:0:
320,192,51552,1,0,0:0:0:0:
448,192,51726,128,0,51899:0:0:0:0:
320,192,51899,1,0,0:0:0:0:
192,192,52073,128,0,52246:0:0:0:0:
320,192,52246,1,0,0:0:0:0:
448,192,52419,128,0,52593:0:0:0:0:
320,192,52593,1,0,0:0:0:0:
448,0,52766,128,0,55541:1:0:0:0:
192,192,52766,128,0,52940:0:0:0:0:
320,192,52940,1,0,0:0:0:0:
192,192,53113,128,0,53286:0:0:0:0:
64,192,53286,1,0,0:0:0:0:
192,192,53460,128,0,53633:0:0:0:0:
320,192,53633,1,0,0:0:0:0:
192,192,53807,128,0,53980:0:0:0:0:
64,192,53980,1,0,0:0:0:0:
192,192,54154,128,0,54327:0:0:0:0:
320,192,54327,1,0,0:0:0:0:
192,192,54500,128,0,54674:0:0:0:0:
64,192,54674,1,0,0:0:0:0:
192,192,54847,128,0,55021:0:0:0:0:
320,192,55021,1,0,0:0:0:0:
192,192,55194,128,0,55367:0:0:0:0:
64,192,55367,1,0,0:0:0:0:
192,0,55541,128,0,58315:1:0:0:0:
320,192,55541,128,0,55714:0:0:0:0:
64,192,55714,1,0,0:0:0:0:
320,192,55888,128,0,56061:0:0:0:0:
448,192,56061,1,0,0:0:0:0:
320,192,56234,128,0,56408:0:0:0:0:
64,192,56408,1,0,0:0:0:0:
320,192,56581,128,0,56755:0:0:0:0:
448,192,56755,1,0,0:0:0:0:
320,192,56928,128,0,57102:0:0:0:0:
64,192,57102,1,0,0:0:0:0:
320,192,57275,128,0,57448:0:0:0:0:
448,192,57448,1,0,0:0:0:0:
320,192,57622,128,0,57795:0:0:0:0:
64,192,57795,1,0,0:0:0:0:
320,192,57969,128,0,58142:0:0:0:0:
448,192,58142,1,0,0:0:0:0:
64,0,58315,128,0,61090:1:0:0:0:
320,192,58315,128,0,58489:0:0:0:0:
448,192,58489,1,0,0:0:0:0:
192,192,58662,128,0,58836:0:0:0:0:
320,192,58836,1,0,0:0:0:0:
448,192,59009,128,0,59182:0:0:0:0:
320,192,59182,1,0,0:0:0:0:
192,192,59356,128,0,59529:0:0:0:0:
320,192,59529,1,0,0:0:0:0:
448,192,59703,128,0,59876:0:0:0:0:
320,192,59876,1,0,0:0:0:0:
192,192,60049,128,0,60223:0:0:0:0:
320,192,60223,1,0,0:0:0:0:
448,192,60396,128,0,60570:0:0:0:0:
320,192,60570,1,0,0:0:0:0:
192,192,60743,128,0,60917:0:0:0:0:
320,192,60917,1,0,0:0:0:0:
320,192,61090,128,0,61263:0:0:0:0:
448,192,61263,128,0,61437:0:0:0:0:
192,192,61437,128,0,61610:0:0:0:0:
320,192,61610,128,0,61784:0:0:0:0:
64,192,61784,128,0,61957:0:0:0:0:
448,192,61784,1,0,0:0:0:0:
192,192,61957,128,0,62130:0:0:0:0:
64,192,62130,128,0,62304:0:0:0:0:
448,192,62130,1,0,0:0:0:0:
192,192,62304,128,0,62477:0:0:0:0:
320,0,62477,128,0,62651:1:0:0:0:
448,192,62477,1,0,0:0:0:0:
448,192,62651,128,0,62737:0:0:0:0:
448,0,62824,128,0,62997:1:0:0:0:
320,0,62997,128,0,63171:1:0:0:0:
192,0,63171,128,0,63344:1:0:0:0:
448,192,63171,1,0,0:0:0:0:
64,0,63344,128,0,63518:1:0:0:0:
320,0,63518,128,0,63691:1:0:0:0:
448,192,63518,1,0,0:0:0:0:
192,0,63691,128,0,63865:1:0:0:0:
320,192,63865,1,0,0:0:0:0:
64,0,63865,128,0,66639:1:0:0:0:
448,192,63865,1,0,0:0:0:0:
448,192,64038,1,0,0:0:0:0:
192,192,64211,1,0,0:0:0:0:
320,192,64385,1,0,0:0:0:0:
448,192,64558,1,0,0:0:0:0:
192,192,64732,1,0,0:0:0:0:
320,192,64905,1,0,0:0:0:0:
448,192,65078,1,0,0:0:0:0:
448,192,65252,1,0,0:0:0:0:
320,192,65425,1,0,0:0:0:0:
192,192,65599,1,0,0:0:0:0:
320,192,65772,1,0,0:0:0:0:
320,192,65945,1,0,0:0:0:0:
448,192,65945,1,0,0:0:0:0:
192,192,66119,1,0,0:0:0:0:
320,192,66119,1,0,0:0:0:0:
320,192,66292,1,0,0:0:0:0:
448,192,66292,1,0,0:0:0:0:
192,192,66466,1,0,0:0:0:0:
320,192,66466,1,0,0:0:0:0:
448,192,66639,1,0,0:0:0:0:
320,192,66812,1,0,0:0:0:0:
448,192,66812,1,0,0:0:0:0:
192,192,66986,1,0,0:0:0:0:
448,192,66986,1,0,0:0:0:0:
64,192,67159,1,0,0:0:0:0:
448,192,67159,1,0,0:0:0:0:
192,192,67332,1,0,0:0:0:0:
448,192,67332,1,0,0:0:0:0:
320,192,67506,1,0,0:0:0:0:
448,192,67506,1,0,0:0:0:0:
192,192,67679,1,0,0:0:0:0:
448,192,67679,1,0,0:0:0:0:
448,192,67853,1,0,0:0:0:0:
64,0,67853,128,0,68720:1:0:0:0:
448,0,68026,128,0,69066:1:0:0:0:
320,192,69413,1,0,0:0:0:0:
448,192,69413,1,0,0:0:0:0:
192,192,69413,1,0,0:0:0:0:
64,192,69413,1,0,0:0:0:0:
192,192,70801,1,0,0:0:0:0:
448,192,71841,1,0,0:0:0:0:
64,192,72188,1,0,0:0:0:0:
320,192,72535,1,0,0:0:0:0:
320,192,72708,1,0,0:0:0:0:
192,192,74962,1,0,0:0:0:0:
448,192,76350,1,0,0:0:0:0:
64,192,76350,1,0,0:0:0:0:
64,192,76523,1,0,0:0:0:0:
64,192,76697,1,0,0:0:0:0:
64,192,76870,1,0,0:0:0:0:
64,192,77043,1,0,0:0:0:0:
64,192,77217,1,0,0:0:0:0:
320,192,77390,1,0,0:0:0:0:
64,192,77390,1,0,0:0:0:0:
64,192,77564,1,0,0:0:0:0:
64,192,77737,1,0,0:0:0:0:
64,192,77910,1,0,0:0:0:0:
320,192,78084,1,0,0:0:0:0:
64,192,78084,1,0,0:0:0:0:
448,0,78257,128,0,80512:1:0:0:0:
64,192,78257,1,0,0:0:0:0:
320,192,78431,1,0,0:0:0:0:
64,192,78431,1,0,0:0:0:0:
192,192,78604,1,0,0:0:0:0:
64,192,78604,1,0,0:0:0:0:
64,192,78777,1,0,0:0:0:0:
320,192,78951,1,0,0:0:0:0:
64,192,78951,1,0,0:0:0:0:
192,192,79124,1,0,0:0:0:0:
64,192,79124,1,0,0:0:0:0:
64,192,79298,1,0,0:0:0:0:
320,192,79471,1,0,0:0:0:0:
64,192,79471,1,0,0:0:0:0:
192,192,79645,1,0,0:0:0:0:
64,192,79645,1,0,0:0:0:0:
64,192,79818,1,0,0:0:0:0:
320,192,79991,1,0,0:0:0:0:
64,192,79991,1,0,0:0:0:0:
192,192,80165,1,0,0:0:0:0:
64,192,80165,1,0,0:0:0:0:
64,192,80338,1,0,0:0:0:0:
320,0,80512,128,0,80685:1:0:0:0:
64,192,80512,1,0,0:0:0:0:
448,192,80598,128,0,80685:0:0:0:0:
192,192,80685,1,0,0:0:0:0:
448,192,80772,128,0,80859:0:0:0:0:
64,0,80859,128,0,81032:1:0:0:0:
320,192,80859,1,0,0:0:0:0:
192,192,80945,128,0,81032:0:0:0:0:
448,192,81032,1,0,0:0:0:0:
192,192,81119,128,0,81205:0:0:0:0:
320,0,81205,128,0,81379:1:0:0:0:
64,192,81292,128,0,81379:0:0:0:0:
192,192,81379,1,0,0:0:0:0:
320,192,81465,128,0,81552:0:0:0:0:
448,0,81552,128,0,81726:1:0:0:0:
64,192,81552,1,0,0:0:0:0:
192,192,81639,128,0,81726:0:0:0:0:
320,192,81726,1,0,0:0:0:0:
64,192,81812,1,0,0:0:0:0:
192,0,81899,128,0,82072:1:0:0:0:
448,192,81986,128,0,82072:0:0:0:0:
64,192,82072,1,0,0:0:0:0:
192,192,82159,128,0,82246:0:0:0:0:
448,0,82246,128,0,82419:1:0:0:0:
320,192,82246,1,0,0:0:0:0:
64,192,82332,1,0,0:0:0:0:
192,192,82419,1,0,0:0:0:0:
320,192,82506,128,0,82593:0:0:0:0:
64,0,82593,128,0,82766:1:0:0:0:
320,192,82679,128,0,82766:0:0:0:0:
448,192,82766,1,0,0:0:0:0:
192,192,82853,128,0,82939:0:0:0:0:
320,0,82939,128,0,83113:1:0:0:0:
64,192,83026,128,0,83113:0:0:0:0:
192,192,83113,1,0,0:0:0:0:
320,192,83200,1,0,0:0:0:0:
448,192,83286,1,0,0:0:0:0:
64,192,83286,1,0,0:0:0:0:
320,192,83373,1,0,0:0:0:0:
448,192,83460,1,0,0:0:0:0:
320,192,83546,1,0,0:0:0:0:
448,192,83633,1,0,0:0:0:0:
320,192,83720,1,0,0:0:0:0:
448,192,83806,1,0,0:0:0:0:
320,192,83893,1,0,0:0:0:0:
448,192,83980,1,0,0:0:0:0:
320,192,84067,1,0,0:0:0:0:
448,192,84153,1,0,0:0:0:0:
320,192,84240,1,0,0:0:0:0:
448,192,84327,1,0,0:0:0:0:
320,192,84413,1,0,0:0:0:0:
448,192,84500,1,0,0:0:0:0:
320,192,84587,1,0,0:0:0:0:
64,192,84674,1,0,0:0:0:0:
192,192,84760,1,0,0:0:0:0:
64,192,84847,1,0,0:0:0:0:
192,192,84934,1,0,0:0:0:0:
64,192,85020,1,0,0:0:0:0:
192,192,85107,1,0,0:0:0:0:
64,192,85194,1,0,0:0:0:0:
192,192,85280,1,0,0:0:0:0:
64,192,85367,1,0,0:0:0:0:
192,192,85454,1,0,0:0:0:0:
64,192,85541,1,0,0:0:0:0:
192,192,85627,1,0,0:0:0:0:
64,192,85714,1,0,0:0:0:0:
192,192,85801,1,0,0:0:0:0:
64,192,85887,1,0,0:0:0:0:
192,192,85974,1,0,0:0:0:0:
320,192,86061,1,0,0:0:0:0:
448,192,86148,1,0,0:0:0:0:
192,192,86234,1,0,0:0:0:0:
64,192,86321,1,0,0:0:0:0:
320,192,86408,1,0,0:0:0:0:
448,192,86494,1,0,0:0:0:0:
192,192,86581,1,0,0:0:0:0:
64,192,86668,1,0,0:0:0:0:
320,192,86754,1,0,0:0:0:0:
448,192,86841,1,0,0:0:0:0:
192,192,86928,1,0,0:0:0:0:
64,192,87015,1,0,0:0:0:0:
320,192,87101,1,0,0:0:0:0:
448,192,87188,1,0,0:0:0:0:
192,192,87275,1,0,0:0:0:0:
64,192,87361,1,0,0:0:0:0:
448,192,87448,1,0,0:0:0:0:
320,192,87535,1,0,0:0:0:0:
64,192,87622,1,0,0:0:0:0:
192,192,87708,1,0,0:0:0:0:
448,192,87795,1,0,0:0:0:0:
320,192,87882,1,0,0:0:0:0:
64,192,87968,1,0,0:0:0:0:
192,192,88055,1,0,0:0:0:0:
448,192,88142,1,0,0:0:0:0:
320,192,88228,1,0,0:0:0:0:
64,192,88315,1,0,0:0:0:0:
192,192,88402,1,0,0:0:0:0:
448,192,88489,1,0,0:0:0:0:
320,192,88575,1,0,0:0:0:0:
64,192,88662,1,0,0:0:0:0:
192,192,88749,1,0,0:0:0:0:
448,192,88835,1,0,0:0:0:0:
64,192,88879,1,0,0:0:0:0:
320,192,88922,1,0,0:0:0:0:
448,192,88965,1,0,0:0:0:0:
192,192,89009,1,0,0:0:0:0:
64,192,89052,1,0,0:0:0:0:
320,192,89096,1,0,0:0:0:0:
448,192,89139,1,0,0:0:0:0:
192,192,89182,1,0,0:0:0:0:
64,192,89226,1,0,0:0:0:0:
320,192,89269,1,0,0:0:0:0:
448,192,89312,1,0,0:0:0:0:
192,192,89356,1,0,0:0:0:0:
64,192,89399,1,0,0:0:0:0:
320,192,89442,1,0,0:0:0:0:
448,192,89486,1,0,0:0:0:0:
192,192,89529,1,0,0:0:0:0:
64,192,89572,1,0,0:0:0:0:
320,192,89616,1,0,0:0:0:0:
448,192,89659,1,0,0:0:0:0:
192,192,89702,1,0,0:0:0:0:
64,192,89746,1,0,0:0:0:0:
320,192,89789,1,0,0:0:0:0:
448,192,89832,1,0,0:0:0:0:
192,192,89876,1,0,0:0:0:0:
64,192,89919,1,0,0:0:0:0:
320,192,89963,1,0,0:0:0:0:
448,192,90006,1,0,0:0:0:0:
192,192,90049,1,0,0:0:0:0:
64,192,90093,1,0,0:0:0:0:
320,192,90136,1,0,0:0:0:0:
448,192,90179,1,0,0:0:0:0:
192,0,90223,128,0,90396:1:0:0:0:
320,192,90396,1,0,0:0:0:0:
64,192,90569,1,0,0:0:0:0:
448,192,90569,1,0,0:0:0:0:
192,192,90743,1,0,0:0:0:0:
320,192,90830,1,0,0:0:0:0:
448,192,90916,1,0,0:0:0:0:
320,192,91090,1,0,0:0:0:0:
192,0,91263,128,0,91437:1:0:0:0:
448,192,91263,1,0,0:0:0:0:
64,0,91437,128,0,91610:1:0:0:0:
320,192,91437,1,0,0:0:0:0:
320,192,91610,1,0,0:0:0:0:
448,0,91610,128,0,91957:1:0:0:0:
192,192,91783,128,0,92043:0:0:0:0:
64,192,91957,1,0,0:0:0:0:
320,192,91957,1,0,0:0:0:0:
192,192,92130,128,0,92737:0:0:0:0:
64,192,92304,1,0,0:0:0:0:
448,0,92304,128,0,92650:1:0:0:0:
320,192,92477,128,0,92564:0:0:0:0:
64,192,92650,1,0,0:0:0:0:
320,192,92650,1,0,0:0:0:0:
192,192,92824,128,0,93084:0:0:0:0:
320,192,92997,1,0,0:0:0:0:
448,0,92997,128,0,93344:1:0:0:0:
192,192,93171,128,0,93257:0:0:0:0:
64,192,93344,1,0,0:0:0:0:
192,192,93344,128,0,93951:0:0:0:0:
64,192,93517,128,0,93691:0:0:0:0:
320,192,93691,1,0,0:0:0:0:
448,0,93691,128,0,94038:1:0:0:0:
64,192,93864,1,0,0:0:0:0:
320,192,94038,1,0,0:0:0:0:
192,192,94038,128,0,94471:0:0:0:0:
320,192,94211,128,0,94818:0:0:0:0:
448,192,94385,1,0,0:0:0:0:
64,0,94385,128,0,94731:1:0:0:0:
192,192,94558,1,0,0:0:0:0:
192,192,94731,1,0,0:0:0:0:
448,192,94731,1,0,0:0:0:0:
320,192,94905,128,0,94991:0:0:0:0:
64,0,95078,128,0,95425:1:0:0:0:
320,192,95078,128,0,95859:0:0:0:0:
448,192,95252,1,0,0:0:0:0:
192,192,95425,1,0,0:0:0:0:
448,192,95425,1,0,0:0:0:0:
192,192,95598,128,0,96032:0:0:0:0:
448,192,95772,1,0,0:0:0:0:
64,0,95772,128,0,96119:1:0:0:0:
320,192,95945,128,0,96032:0:0:0:0:
192,192,96119,1,0,0:0:0:0:
320,192,96119,128,0,96726:0:0:0:0:
192,192,96292,1,0,0:0:0:0:
448,192,96465,1,0,0:0:0:0:
64,0,96465,128,0,96812:1:0:0:0:
192,192,96639,128,0,96899:0:0:0:0:
448,192,96812,1,0,0:0:0:0:
320,192,96812,128,0,97506:0:0:0:0:
192,192,96986,1,0,0:0:0:0:
64,0,97159,128,0,97332:1:0:0:0:
448,192,97159,1,0,0:0:0:0:
192,0,97332,128,0,97506:1:0:0:0:
448,192,97332,1,0,0:0:0:0:
448,0,97506,128,0,97679:1:0:0:0:
64,192,97506,1,0,0:0:0:0:
320,0,97679,128,0,97853:1:0:0:0:
64,192,97679,1,0,0:0:0:0:
64,0,97853,128,0,98026:1:0:0:0:
448,192,97853,1,0,0:0:0:0:
192,0,98026,128,0,98200:1:0:0:0:
448,192,98026,1,0,0:0:0:0:
448,0,98200,128,0,98373:1:0:0:0:
64,192,98200,1,0,0:0:0:0:
320,0,98373,128,0,98546:1:0:0:0:
64,192,98373,1,0,0:0:0:0:
192,192,98546,1,0,0:0:0:0:
64,0,98546,128,0,98893:1:0:0:0:
448,192,98546,1,0,0:0:0:0:
448,192,98720,1,0,0:0:0:0:
320,192,98720,1,0,0:0:0:0:
320,192,98893,1,0,0:0:0:0:
192,0,98893,128,0,99240:1:0:0:0:
448,192,98893,1,0,0:0:0:0:
448,192,99067,1,0,0:0:0:0:
64,192,99067,1,0,0:0:0:0:
64,192,99240,1,0,0:0:0:0:
448,0,99240,128,0,99587:1:0:0:0:
320,192,99240,1,0,0:0:0:0:
192,192,99413,1,0,0:0:0:0:
64,192,99413,1,0,0:0:0:0:
64,192,99587,1,0,0:0:0:0:
320,0,99587,128,0,99934:1:0:0:0:
192,192,99587,1,0,0:0:0:0:
64,192,99760,1,0,0:0:0:0:
448,192,99760,1,0,0:0:0:0:
448,192,99934,1,0,0:0:0:0:
192,0,99934,128,0,100107:1:0:0:0:
64,192,99934,1,0,0:0:0:0:
64,0,100107,128,0,100974:1:0:0:0:
320,192,100107,1,0,0:0:0:0:
320,0,100280,128,0,100454:1:0:0:0:
192,192,100280,1,0,0:0:0:0:
192,0,100454,128,0,100627:1:0:0:0:
448,192,100454,1,0,0:0:0:0:
448,0,100627,128,0,100801:1:0:0:0:
320,192,100627,1,0,0:0:0:0:
320,0,100801,128,0,100974:1:0:0:0:
192,192,100801,1,0,0:0:0:0:
448,0,100974,128,0,101148:1:0:0:0:
192,192,100974,1,0,0:0:0:0:
64,0,101148,128,0,101321:1:0:0:0:
320,192,101148,1,0,0:0:0:0:
320,0,101321,128,0,101494:1:0:0:0:
448,192,101321,1,0,0:0:0:0:
192,192,101321,1,0,0:0:0:0:
448,0,101494,128,0,101668:1:0:0:0:
192,192,101494,1,0,0:0:0:0:
64,192,101494,1,0,0:0:0:0:
192,0,101668,128,0,101841:1:0:0:0:
320,192,101668,1,0,0:0:0:0:
320,0,101841,128,0,102015:1:0:0:0:
64,192,101841,1,0,0:0:0:0:
448,192,101841,1,0,0:0:0:0:
64,0,102015,128,0,102188:1:0:0:0:
192,192,102015,1,0,0:0:0:0:
192,0,102188,128,0,102361:1:0:0:0:
320,192,102188,1,0,0:0:0:0:
64,0,102361,128,0,102535:1:0:0:0:
448,192,102361,1,0,0:0:0:0:
448,0,102535,128,0,102708:1:0:0:0:
320,192,102535,1,0,0:0:0:0:
192,192,102622,1,0,0:0:0:0:
320,192,102708,1,0,0:0:0:0:
64,0,102708,128,0,103055:1:0:0:0:
448,192,102882,1,0,0:0:0:0:
192,192,103055,1,0,0:0:0:0:
320,192,103055,1,0,0:0:0:0:
64,192,103228,1,0,0:0:0:0:
320,192,103402,1,0,0:0:0:0:
448,0,103402,128,0,103749:1:0:0:0:
192,192,103575,1,0,0:0:0:0:
192,192,103749,1,0,0:0:0:0:
320,192,103749,1,0,0:0:0:0:
320,192,103922,1,0,0:0:0:0:
448,192,104096,1,0,0:0:0:0:
64,0,104096,128,0,104442:1:0:0:0:
192,192,104269,1,0,0:0:0:0:
192,192,104442,1,0,0:0:0:0:
448,192,104442,1,0,0:0:0:0:
320,192,104616,1,0,0:0:0:0:
64,192,104789,1,0,0:0:0:0:
448,0,104789,128,0,105136:1:0:0:0:
192,192,104963,1,0,0:0:0:0:
64,192,105136,1,0,0:0:0:0:
192,192,105136,1,0,0:0:0:0:
64,192,105309,1,0,0:0:0:0:
64,192,105483,1,0,0:0:0:0:
192,192,105483,1,0,0:0:0:0:
320,192,105483,1,0,0:0:0:0:
448,0,105483,128,0,105830:1:0:0:0:
64,192,105656,1,0,0:0:0:0:
192,192,105656,1,0,0:0:0:0:
320,192,105656,1,0,0:0:0:0:
64,192,105830,1,0,0:0:0:0:
192,192,105830,1,0,0:0:0:0:
320,0,105830,128,0,106176:1:0:0:0:
64,192,106003,1,0,0:0:0:0:
192,192,106003,1,0,0:0:0:0:
448,192,106003,128,0,106090:0:0:0:0:
64,192,106176,1,0,0:0:0:0:
192,0,106176,128,0,106523:1:0:0:0:
448,192,106176,1,0,0:0:0:0:
64,192,106350,1,0,0:0:0:0:
320,192,106350,128,0,106437:0:0:0:0:
64,0,106523,128,0,106783:1:0:0:0:
320,192,106523,1,0,0:0:0:0:
448,192,106697,1,0,0:0:0:0:
192,192,106697,128,0,106783:0:0:0:0:
64,192,106870,1,0,0:0:0:0:
192,192,106870,1,0,0:0:0:0:
320,192,106870,1,0,0:0:0:0:
448,0,106870,128,0,107217:1:0:0:0:
64,192,107043,1,0,0:0:0:0:
192,192,107043,1,0,0:0:0:0:
320,192,107043,1,0,0:0:0:0:
64,192,107217,1,0,0:0:0:0:
192,192,107217,1,0,0:0:0:0:
320,0,107217,128,0,107564:1:0:0:0:
64,192,107390,1,0,0:0:0:0:
192,192,107390,1,0,0:0:0:0:
448,192,107390,128,0,107477:0:0:0:0:
64,192,107564,1,0,0:0:0:0:
192,0,107564,128,0,107911:1:0:0:0:
448,192,107564,1,0,0:0:0:0:
64,192,107737,1,0,0:0:0:0:
320,192,107737,128,0,107824:0:0:0:0:
64,0,107911,128,0,108257:1:0:0:0:
320,192,107911,1,0,0:0:0:0:
448,192,108084,1,0,0:0:0:0:
192,192,108084,128,0,108171:0:0:0:0:
320,192,108257,1,0,0:0:0:0:
192,192,108257,1,0,0:0:0:0:
448,192,108257,128,0,108431:0:0:0:0:
64,192,108431,1,0,0:0:0:0:
192,192,108604,1,0,0:0:0:0:
448,192,108604,1,0,0:0:0:0:
320,192,108604,128,0,108778:0:0:0:0:
64,192,108778,1,0,0:0:0:0:
320,192,108951,1,0,0:0:0:0:
448,192,108951,1,0,0:0:0:0:
192,192,108951,128,0,109124:0:0:0:0:
64,192,109124,1,0,0:0:0:0:
192,192,109298,1,0,0:0:0:0:
320,192,109298,1,0,0:0:0:0:
448,192,109298,128,0,109471:0:0:0:0:
64,192,109471,1,0,0:0:0:0:
448,192,109645,1,0,0:0:0:0:
320,192,109645,128,0,109818:0:0:0:0:
64,192,109818,1,0,0:0:0:0:
320,192,109991,1,0,0:0:0:0:
192,192,109991,128,0,110165:0:0:0:0:
64,192,110165,1,0,0:0:0:0:
320,192,110338,1,0,0:0:0:0:
448,192,110338,1,0,0:0:0:0:
192,192,110338,128,0,110512:0:0:0:0:
64,192,110512,1,0,0:0:0:0:
192,192,110685,1,0,0:0:0:0:
320,192,110685,128,0,110859:0:0:0:0:
64,192,110859,1,0,0:0:0:0:
448,192,110859,1,0,0:0:0:0:
64,192,111032,1,0,0:0:0:0:
192,192,111032,1,0,0:0:0:0:
448,192,111205,1,0,0:0:0:0:
320,192,111205,1,0,0:0:0:0:
64,192,111379,1,0,0:0:0:0:
192,192,111379,1,0,0:0:0:0:
448,192,111552,1,0,0:0:0:0:
320,192,111552,1,0,0:0:0:0:
64,192,111726,1,0,0:0:0:0:
192,192,111726,1,0,0:0:0:0:
320,192,111899,1,0,0:0:0:0:
448,192,111899,1,0,0:0:0:0:
64,192,112072,1,0,0:0:0:0:
192,192,112072,1,0,0:0:0:0:
320,192,112246,1,0,0:0:0:0:
448,192,112246,1,0,0:0:0:0:
64,0,112419,128,0,112593:1:0:0:0:
192,192,112419,128,0,112506:0:0:0:0:
192,0,112593,128,0,112766:1:0:0:0:
320,192,112593,128,0,112679:0:0:0:0:
320,0,112766,128,0,112939:1:0:0:0:
448,192,112766,128,0,112853:0:0:0:0:
448,0,112939,128,0,113113:1:0:0:0:
64,0,113113,128,0,113286:1:0:0:0:
192,192,113113,128,0,113720:0:0:0:0:
448,0,113286,128,0,113460:1:0:0:0:
64,0,113460,128,0,113633:1:0:0:0:
320,192,113460,128,0,113893:0:0:0:0:
448,0,113633,128,0,113806:1:0:0:0:
64,192,113806,1,0,0:0:0:0:
192,192,113806,128,0,114067:0:0:0:0:
320,192,113980,1,0,0:0:0:0:
192,192,114153,1,0,0:0:0:0:
448,192,114153,1,0,0:0:0:0:
64,0,114153,128,0,114500:1:0:0:0:
320,192,114327,1,0,0:0:0:0:
320,192,114500,1,0,0:0:0:0:
448,192,114500,128,0,114760:0:0:0:0:
192,192,114674,1,0,0:0:0:0:
192,192,114847,1,0,0:0:0:0:
320,192,114847,1,0,0:0:0:0:
448,0,114847,128,0,115194:1:0:0:0:
64,192,114847,1,0,0:0:0:0:
192,192,115020,1,0,0:0:0:0:
320,192,115194,1,0,0:0:0:0:
64,192,115194,128,0,115454:0:0:0:0:
320,192,115367,1,0,0:0:0:0:
320,192,115541,1,0,0:0:0:0:
448,192,115541,1,0,0:0:0:0:
64,0,115541,128,0,115887:1:0:0:0:
192,192,115541,1,0,0:0:0:0:
320,192,115714,1,0,0:0:0:0:
448,192,115887,128,0,116148:0:0:0:0:
192,192,115887,1,0,0:0:0:0:
192,192,116061,1,0,0:0:0:0:
64,192,116234,1,0,0:0:0:0:
320,192,116234,1,0,0:0:0:0:
448,0,116234,128,0,116581:1:0:0:0:
192,192,116234,1,0,0:0:0:0:
192,192,116408,1,0,0:0:0:0:
192,192,116581,128,0,116841:0:0:0:0:
320,192,116581,1,0,0:0:0:0:
64,192,116754,1,0,0:0:0:0:
320,192,116928,1,0,0:0:0:0:
448,192,116928,1,0,0:0:0:0:
192,0,116928,128,0,117275:1:0:0:0:
64,192,116928,1,0,0:0:0:0:
64,192,117101,1,0,0:0:0:0:
64,192,117275,128,0,117535:0:0:0:0:
320,192,117275,1,0,0:0:0:0:
320,192,117448,1,0,0:0:0:0:
64,192,117622,1,0,0:0:0:0:
192,192,117622,1,0,0:0:0:0:
320,0,117622,128,0,117968:1:0:0:0:
448,192,117795,1,0,0:0:0:0:
192,192,117968,128,0,118228:0:0:0:0:
64,192,117968,1,0,0:0:0:0:
448,192,118142,1,0,0:0:0:0:
192,192,118315,1,0,0:0:0:0:
448,192,118315,1,0,0:0:0:0:
64,0,118315,128,0,118662:1:0:0:0:
320,192,118315,1,0,0:0:0:0:
448,192,118489,1,0,0:0:0:0:
192,192,118662,128,0,119009:0:0:0:0:
320,192,118662,1,0,0:0:0:0:
64,192,118835,1,0,0:0:0:0:
64,192,119009,1,0,0:0:0:0:
448,192,119009,1,0,0:0:0:0:
320,0,119009,128,0,119356:1:0:0:0:
192,192,119182,1,0,0:0:0:0:
448,192,119356,128,0,119616:0:0:0:0:
64,192,119356,1,0,0:0:0:0:
64,192,119529,1,0,0:0:0:0:
192,192,119702,1,0,0:0:0:0:
320,192,119702,1,0,0:0:0:0:
448,0,119702,128,0,120049:1:0:0:0:
64,192,119702,1,0,0:0:0:0:
64,192,119876,1,0,0:0:0:0:
320,192,120049,128,0,120309:0:0:0:0:
192,192,120049,1,0,0:0:0:0:
192,192,120223,1,0,0:0:0:0:
320,192,120396,1,0,0:0:0:0:
448,192,120396,1,0,0:0:0:0:
192,0,120396,128,0,120743:1:0:0:0:
64,192,120396,1,0,0:0:0:0:
448,192,120569,1,0,0:0:0:0:
64,192,120743,128,0,121003:0:0:0:0:
448,192,120743,1,0,0:0:0:0:
320,192,120916,1,0,0:0:0:0:
64,192,121090,1,0,0:0:0:0:
448,192,121090,1,0,0:0:0:0:
320,0,121090,128,0,121437:1:0:0:0:
192,192,121090,1,0,0:0:0:0:
192,192,121263,1,0,0:0:0:0:
448,192,121437,128,0,121697:0:0:0:0:
64,192,121437,1,0,0:0:0:0:
192,192,121610,1,0,0:0:0:0:
192,192,121783,1,0,0:0:0:0:
448,192,121783,1,0,0:0:0:0:
64,0,121783,128,0,122130:1:0:0:0:
320,192,121783,1,0,0:0:0:0:
320,192,121957,1,0,0:0:0:0:
448,192,122130,128,0,122390:0:0:0:0:
192,192,122130,1,0,0:0:0:0:
64,192,122304,1,0,0:0:0:0:
64,192,122477,1,0,0:0:0:0:
192,192,122477,1,0,0:0:0:0:
448,0,122477,128,0,122824:1:0:0:0:
320,192,122477,1,0,0:0:0:0:
320,192,122650,1,0,0:0:0:0:
192,192,122824,128,0,123084:0:0:0:0:
64,192,122824,1,0,0:0:0:0:
320,192,122997,1,0,0:0:0:0:
320,192,123171,1,0,0:0:0:0:
448,192,123171,1,0,0:0:0:0:
192,0,123171,128,0,123517:1:0:0:0:
64,192,123171,1,0,0:0:0:0:
64,192,123344,1,0,0:0:0:0:
64,192,123517,128,0,123778:0:0:0:0:
320,192,123517,1,0,0:0:0:0:
448,192,123691,1,0,0:0:0:0:
64,192,123864,1,0,0:0:0:0:
192,192,123864,1,0,0:0:0:0:
320,0,123864,128,0,124211:1:0:0:0:
448,192,123864,1,0,0:0:0:0:
192,192,124038,1,0,0:0:0:0:
448,192,124211,128,0,124471:0:0:0:0:
64,192,124211,1,0,0:0:0:0:
320,192,124385,1,0,0:0:0:0:
192,192,124558,1,0,0:0:0:0:
448,192,124558,1,0,0:0:0:0:
64,0,124558,128,0,124905:1:0:0:0:
320,192,124558,1,0,0:0:0:0:
320,192,124731,1,0,0:0:0:0:
192,0,124905,128,0,125078:1:0:0:0:
448,0,124905,128,0,126465:1:0:0:0:
320,192,124905,1,0,0:0:0:0:
320,0,125078,128,0,125252:1:0:0:0:
64,192,125078,1,0,0:0:0:0:
64,0,125252,128,0,125425:1:0:0:0:
192,192,125252,1,0,0:0:0:0:
320,0,125425,128,0,125598:1:0:0:0:
192,192,125425,1,0,0:0:0:0:
192,0,125598,128,0,125772:1:0:0:0:
64,192,125598,1,0,0:0:0:0:
64,0,125772,128,0,125945:1:0:0:0:
320,192,125772,1,0,0:0:0:0:
320,0,125945,128,0,126119:1:0:0:0:
192,192,125945,1,0,0:0:0:0:
192,0,126119,128,0,126292:1:0:0:0:
64,192,126119,1,0,0:0:0:0:
320,192,126292,1,0,0:0:0:0:
64,0,126292,128,0,127332:1:0:0:0:
192,192,126465,1,0,0:0:0:0:
320,192,126465,128,0,126639:0:0:0:0:
448,192,126639,1,0,0:0:0:0:
192,192,126639,128,0,126812:0:0:0:0:
320,192,126812,1,0,0:0:0:0:
448,192,126812,128,0,126986:0:0:0:0:
192,192,126986,1,0,0:0:0:0:
320,192,126986,128,0,127159:0:0:0:0:
192,192,127159,128,0,127332:0:0:0:0:
448,192,127159,1,0,0:0:0:0:
448,192,127332,1,0,0:0:0:0:
320,0,127332,128,0,127679:1:0:0:0:
192,192,127506,1,0,0:0:0:0:
448,192,127506,1,0,0:0:0:0:
64,192,127506,128,0,127679:0:0:0:0:
192,0,127679,128,0,128026:1:0:0:0:
448,192,127679,128,0,127853:0:0:0:0:
64,192,127853,1,0,0:0:0:0:
320,192,127853,1,0,0:0:0:0:
448,192,128026,1,0,0:0:0:0:
64,0,128026,128,0,128200:1:0:0:0:
320,192,128026,128,0,128200:0:0:0:0:
448,0,128200,128,0,130367:1:0:0:0:
192,192,128200,128,0,128286:0:0:0:0:
192,192,128373,1,0,0:0:0:0:
320,192,128373,1,0,0:0:0:0:
64,192,128373,128,0,128546:0:0:0:0:
192,192,128546,1,0,0:0:0:0:
320,192,128546,128,0,128720:0:0:0:0:
64,192,128720,1,0,0:0:0:0:
192,192,128720,1,0,0:0:0:0:
64,192,128893,1,0,0:0:0:0:
320,192,128893,128,0,128980:0:0:0:0:
64,192,129067,1,0,0:0:0:0:
192,192,129067,1,0,0:0:0:0:
320,192,129067,1,0,0:0:0:0:
192,192,129240,1,0,0:0:0:0:
64,192,129240,128,0,129413:0:0:0:0:
192,192,129413,1,0,0:0:0:0:
320,192,129413,1,0,0:0:0:0:
320,192,129587,1,0,0:0:0:0:
64,192,129587,128,0,129674:0:0:0:0:
192,192,129760,1,0,0:0:0:0:
320,192,129760,1,0,0:0:0:0:
64,192,129760,1,0,0:0:0:0:
192,192,129934,1,0,0:0:0:0:
320,192,129934,128,0,130107:0:0:0:0:
64,192,130107,1,0,0:0:0:0:
192,192,130107,1,0,0:0:0:0:
64,192,130280,1,0,0:0:0:0:
320,192,130280,128,0,130454:0:0:0:0:
64,192,130454,1,0,0:0:0:0:
192,192,130454,1,0,0:0:0:0:
448,0,130454,128,0,131841:1:0:0:0:
192,192,130627,128,0,130714:0:0:0:0:
192,192,130801,1,0,0:0:0:0:
320,192,130801,1,0,0:0:0:0:
64,192,130974,128,0,131061:0:0:0:0:
64,192,131148,1,0,0:0:0:0:
192,192,131148,1,0,0:0:0:0:
192,192,131321,128,0,131408:0:0:0:0:
192,192,131494,1,0,0:0:0:0:
320,192,131494,1,0,0:0:0:0:
320,192,131668,128,0,131754:0:0:0:0:
64,192,131841,1,0,0:0:0:0:
320,192,131841,1,0,0:0:0:0:
192,0,131841,128,0,132882:1:0:0:0:
448,192,132015,128,0,132101:0:0:0:0:
320,192,132188,1,0,0:0:0:0:
448,192,132188,1,0,0:0:0:0:
320,192,132361,128,0,132448:0:0:0:0:
64,192,132535,1,0,0:0:0:0:
320,192,132535,1,0,0:0:0:0:
64,192,132708,128,0,132882:0:0:0:0:
448,192,132882,1,0,0:0:0:0:
320,0,132882,128,0,133228:1:0:0:0:
192,192,133055,128,0,133228:0:0:0:0:
64,192,133228,1,0,0:0:0:0:
448,0,133228,128,0,133575:1:0:0:0:
192,192,133402,1,0,0:0:0:0:
64,192,133402,1,0,0:0:0:0:
192,192,133575,1,0,0:0:0:0:
320,192,133575,1,0,0:0:0:0:
64,0,133749,128,0,134529:1:0:0:0:
320,192,133749,1,0,0:0:0:0:
448,192,133749,1,0,0:0:0:0:
192,192,133922,1,0,0:0:0:0:
448,192,133922,1,0,0:0:0:0:
320,192,134096,1,0,0:0:0:0:
192,192,134269,1,0,0:0:0:0:
448,192,134269,1,0,0:0:0:0:
320,192,134442,1,0,0:0:0:0:
192,192,134616,1,0,0:0:0:0:
448,192,134616,1,0,0:0:0:0:
64,192,134616,1,0,0:0:0:0:
320,192,134702,1,0,0:0:0:0:
64,192,134789,1,0,0:0:0:0:
320,192,134876,1,0,0:0:0:0:
192,192,134963,1,0,0:0:0:0:
448,192,135049,1,0,0:0:0:0:
320,192,135136,1,0,0:0:0:0:
192,192,135223,1,0,0:0:0:0:
448,192,135309,1,0,0:0:0:0:
192,192,135396,1,0,0:0:0:0:
320,192,135483,1,0,0:0:0:0:
64,192,135569,1,0,0:0:0:0:
192,192,135656,1,0,0:0:0:0:
320,192,135743,1,0,0:0:0:0:
64,192,135830,1,0,0:0:0:0:
448,192,135916,1,0,0:0:0:0:
64,192,136003,1,0,0:0:0:0:
192,192,136176,1,0,0:0:0:0:
320,192,136350,1,0,0:0:0:0:
192,192,136523,1,0,0:0:0:0:
448,192,136610,1,0,0:0:0:0:
192,192,136697,1,0,0:0:0:0:
320,192,136870,1,0,0:0:0:0:
64,192,137043,1,0,0:0:0:0:
448,192,137217,1,0,0:0:0:0:
192,192,137347,1,0,0:0:0:0:
64,192,137390,1,0,0:0:0:0:
320,192,137564,1,0,0:0:0:0:
64,192,137737,1,0,0:0:0:0:
192,192,137911,1,0,0:0:0:0:
320,192,137997,1,0,0:0:0:0:
448,192,138084,1,0,0:0:0:0:
320,192,138257,1,0,0:0:0:0:
448,192,138431,1,0,0:0:0:0:
320,192,138604,1,0,0:0:0:0:
192,192,138691,1,0,0:0:0:0:
448,192,138734,1,0,0:0:0:0:
64,192,138778,1,0,0:0:0:0:
64,192,138951,1,0,0:0:0:0:
448,192,139124,1,0,0:0:0:0:
192,192,139298,1,0,0:0:0:0:
64,192,139385,1,0,0:0:0:0:
320,192,139471,1,0,0:0:0:0:
192,192,139645,1,0,0:0:0:0:
448,192,139818,1,0,0:0:0:0:
448,192,139991,1,0,0:0:0:0:
64,192,140078,1,0,0:0:0:0:
192,192,140122,1,0,0:0:0:0:
320,192,140165,1,0,0:0:0:0:
320,192,140338,1,0,0:0:0:0:
64,192,140512,1,0,0:0:0:0:
320,192,140512,1,0,0:0:0:0:
192,192,140685,1,0,0:0:0:0:
448,192,140772,1,0,0:0:0:0:
320,192,140859,1,0,0:0:0:0:
64,192,141032,1,0,0:0:0:0:
64,192,141205,1,0,0:0:0:0:
448,192,141205,1,0,0:0:0:0:
320,192,141379,1,0,0:0:0:0:
192,192,141465,1,0,0:0:0:0:
448,192,141509,1,0,0:0:0:0:
320,192,141552,1,0,0:0:0:0:
64,192,141726,1,0,0:0:0:0:
64,192,141899,1,0,0:0:0:0:
320,192,141899,1,0,0:0:0:0:
192,192,142072,1,0,0:0:0:0:
320,192,142159,1,0,0:0:0:0:
320,192,142246,1,0,0:0:0:0:
192,192,142419,1,0,0:0:0:0:
320,192,142593,1,0,0:0:0:0:
448,192,142593,1,0,0:0:0:0:
64,192,142766,1,0,0:0:0:0:
320,192,142853,1,0,0:0:0:0:
192,192,142896,1,0,0:0:0:0:
320,192,142939,1,0,0:0:0:0:
192,192,143113,1,0,0:0:0:0:
64,192,143286,1,0,0:0:0:0:
192,192,143286,1,0,0:0:0:0:
64,192,143460,1,0,0:0:0:0:
64,192,143546,1,0,0:0:0:0:
448,192,143633,1,0,0:0:0:0:
448,192,143806,1,0,0:0:0:0:
192,192,143980,1,0,0:0:0:0:
320,192,143980,1,0,0:0:0:0:
64,192,144153,1,0,0:0:0:0:
448,192,144240,1,0,0:0:0:0:
192,192,144283,1,0,0:0:0:0:
64,192,144327,1,0,0:0:0:0:
448,192,144500,1,0,0:0:0:0:
320,192,144674,1,0,0:0:0:0:
448,192,144674,1,0,0:0:0:0:
320,192,144847,1,0,0:0:0:0:
320,192,144934,1,0,0:0:0:0:
64,192,145020,1,0,0:0:0:0:
192,192,145194,1,0,0:0:0:0:
64,192,145367,1,0,0:0:0:0:
320,192,145367,1,0,0:0:0:0:
448,192,145541,1,0,0:0:0:0:
192,192,145671,1,0,0:0:0:0:
320,192,145714,1,0,0:0:0:0:
448,192,145714,1,0,0:0:0:0:
320,192,145887,1,0,0:0:0:0:
192,192,146061,1,0,0:0:0:0:
320,192,146061,1,0,0:0:0:0:
192,192,146234,1,0,0:0:0:0:
192,192,146408,1,0,0:0:0:0:
64,0,146408,128,0,146754:1:0:0:0:
320,192,146754,1,0,0:0:0:0:
448,192,146841,1,0,0:0:0:0:
320,192,146928,1,0,0:0:0:0:
192,192,147015,1,0,0:0:0:0:
448,192,147058,1,0,0:0:0:0:
64,0,147101,128,0,147968:1:0:0:0:
320,0,147275,128,0,147622:1:0:0:0:
192,0,147448,128,0,147795:1:0:0:0:
448,0,147622,128,0,148142:1:0:0:0:
320,0,147795,128,0,148662:1:0:0:0:
192,0,147968,128,0,148315:1:0:0:0:
64,0,148142,128,0,148315:1:0:0:0:
448,0,148315,128,0,148662:1:0:0:0:
64,0,148489,128,0,149876:1:0:0:0:
192,192,148489,1,0,0:0:0:0:
448,0,148835,128,0,149529:1:0:0:0:
320,192,148835,1,0,0:0:0:0:
192,0,149182,128,0,149702:1:0:0:0:
320,192,149356,1,0,0:0:0:0:
320,0,149529,128,0,150049:1:0:0:0:
448,192,149702,128,0,150396:0:0:0:0:
192,192,149876,1,0,0:0:0:0:
64,0,150049,128,0,150916:1:0:0:0:
320,0,150223,128,0,150569:1:0:0:0:
192,0,150396,128,0,150743:1:0:0:0:
448,0,150569,128,0,150743:1:0:0:0:
320,0,150743,128,0,151090:1:0:0:0:
192,0,150916,128,0,151437:1:0:0:0:
448,192,150916,1,0,0:0:0:0:
64,0,151090,128,0,151783:1:0:0:0:
320,0,151263,128,0,151610:1:0:0:0:
448,0,151437,128,0,152130:1:0:0:0:
192,0,151610,128,0,151957:1:0:0:0:
320,0,151783,128,0,152477:1:0:0:0:
64,0,151957,128,0,152130:1:0:0:0:
192,0,152130,128,0,152997:1:0:0:0:
448,0,152304,128,0,153344:1:0:0:0:
64,192,152304,1,0,0:0:0:0:
64,192,152477,1,0,0:0:0:0:
64,192,152607,1,0,0:0:0:0:
320,192,152650,1,0,0:0:0:0:
64,192,152824,128,0,153691:0:0:0:0:
320,192,152997,128,0,153171:0:0:0:0:
192,192,153171,128,0,153821:0:0:0:0:
320,192,153344,128,0,153517:0:0:0:0:
448,192,153517,128,0,154558:0:0:0:0:
320,192,153691,128,0,153864:0:0:0:0:
64,192,153864,128,0,154558:0:0:0:0:
192,192,153994,1,0,0:0:0:0:
320,192,154038,128,0,154211:0:0:0:0:
320,192,154385,128,0,155078:0:0:0:0:
192,192,154385,128,0,155078:0:0:0:0:
64,192,154731,128,0,156032:0:0:0:0:
448,192,154731,128,0,155685:0:0:0:0:
192,0,155252,128,0,155685:1:0:0:0:
320,0,155252,128,0,155338:1:0:0:0:
320,0,155598,128,0,156379:1:0:0:0:
448,0,155772,128,0,156205:1:0:0:0:
192,192,155772,1,0,0:0:0:0:
192,0,155945,128,0,156379:1:0:0:0:
64,0,156119,128,0,156552:1:0:0:0:
448,0,156292,128,0,156379:1:0:0:0:
192,0,156465,128,0,156552:1:0:0:0:
320,192,156465,128,0,156552:0:0:0:0:
64,192,156639,128,0,156726:0:0:0:0:
448,192,156812,1,0,0:0:0:0:
320,192,156870,1,0,0:0:0:0:
192,192,156928,1,0,0:0:0:0:
64,192,156986,1,0,0:0:0:0:
192,192,157043,1,0,0:0:0:0:
320,192,157101,1,0,0:0:0:0:
448,192,157159,1,0,0:0:0:0:
64,192,157217,1,0,0:0:0:0:
192,192,157275,1,0,0:0:0:0:
320,192,157332,1,0,0:0:0:0:
448,192,157390,1,0,0:0:0:0:
320,192,157448,1,0,0:0:0:0:
192,192,157506,1,0,0:0:0:0:
64,192,157564,1,0,0:0:0:0:
448,192,157622,1,0,0:0:0:0:
192,192,157679,1,0,0:0:0:0:
320,192,157737,1,0,0:0:0:0:
64,192,157795,1,0,0:0:0:0:
448,192,157853,1,0,0:0:0:0:
192,192,157853,1,0,0:0:0:0:
448,192,157939,1,0,0:0:0:0:
192,192,157939,1,0,0:0:0:0:
64,192,158026,1,0,0:0:0:0:
320,192,158026,1,0,0:0:0:0:
64,192,158113,1,0,0:0:0:0:
320,192,158113,1,0,0:0:0:0:
192,192,158200,1,0,0:0:0:0:
448,192,158200,1,0,0:0:0:0:
64,192,158373,1,0,0:0:0:0:
320,192,158373,1,0,0:0:0:0:
448,192,158546,1,0,0:0:0:0:
192,192,158546,1,0,0:0:0:0:
448,192,158720,1,0,0:0:0:0:
64,192,158720,1,0,0:0:0:0:
64,192,158893,1,0,0:0:0:0:
320,192,158893,1,0,0:0:0:0:
192,192,159067,1,0,0:0:0:0:
448,192,159067,1,0,0:0:0:0:
64,192,159240,1,0,0:0:0:0:
448,192,159240,1,0,0:0:0:0:
320,192,159413,1,0,0:0:0:0:
192,192,159413,1,0,0:0:0:0:
320,192,159500,1,0,0:0:0:0:
192,192,159500,1,0,0:0:0:0:
192,192,159587,1,0,0:0:0:0:
320,192,159587,1,0,0:0:0:0:
448,192,159760,1,0,0:0:0:0:
320,192,159760,1,0,0:0:0:0:
64,192,159934,1,0,0:0:0:0:
192,192,159934,1,0,0:0:0:0:
64,192,160020,1,0,0:0:0:0:
192,192,160020,1,0,0:0:0:0:
448,192,160107,1,0,0:0:0:0:
320,192,160194,1,0,0:0:0:0:
192,192,160280,1,0,0:0:0:0:
64,192,160280,1,0,0:0:0:0:
192,192,160367,1,0,0:0:0:0:
64,192,160367,1,0,0:0:0:0:
448,192,160454,1,0,0:0:0:0:
320,192,160454,1,0,0:0:0:0:
64,192,160541,1,0,0:0:0:0:
192,192,160541,1,0,0:0:0:0:
320,192,160627,1,0,0:0:0:0:
448,192,160627,1,0,0:0:0:0:
320,192,160714,1,0,0:0:0:0:
448,192,160714,1,0,0:0:0:0:
192,192,160801,1,0,0:0:0:0:
64,192,160887,1,0,0:0:0:0:
448,0,160974,128,0,161148:1:0:0:0:
320,192,160974,1,0,0:0:0:0:
192,0,161148,128,0,161321:1:0:0:0:
448,0,161321,128,0,161494:1:0:0:0:
320,192,161321,1,0,0:0:0:0:
64,0,161494,128,0,161668:1:0:0:0:
448,0,161668,128,0,162015:1:0:0:0:
192,192,161668,1,0,0:0:0:0:
64,192,162015,1,0,0:0:0:0:
320,192,162015,1,0,0:0:0:0:
192,192,162015,1,0,0:0:0:0:
192,192,162188,1,0,0:0:0:0:
448,192,162188,1,0,0:0:0:0:
192,192,162275,1,0,0:0:0:0:
320,192,162275,1,0,0:0:0:0:
64,192,162361,1,0,0:0:0:0:
192,192,162361,1,0,0:0:0:0:
320,192,162535,1,0,0:0:0:0:
192,192,162535,1,0,0:0:0:0:
448,192,162708,1,0,0:0:0:0:
320,192,162708,1,0,0:0:0:0:
448,192,162795,1,0,0:0:0:0:
320,192,162795,1,0,0:0:0:0:
64,192,162882,1,0,0:0:0:0:
192,192,162968,1,0,0:0:0:0:
320,192,163055,1,0,0:0:0:0:
448,192,163055,1,0,0:0:0:0:
320,192,163142,1,0,0:0:0:0:
448,192,163142,1,0,0:0:0:0:
192,192,163228,1,0,0:0:0:0:
64,192,163315,1,0,0:0:0:0:
192,192,163402,1,0,0:0:0:0:
320,192,163402,1,0,0:0:0:0:
192,192,163489,1,0,0:0:0:0:
320,192,163489,1,0,0:0:0:0:
64,192,163575,1,0,0:0:0:0:
448,192,163575,1,0,0:0:0:0:
64,192,163662,1,0,0:0:0:0:
448,192,163662,1,0,0:0:0:0:
192,192,163749,1,0,0:0:0:0:
320,192,163749,1,0,0:0:0:0:
448,192,163922,1,0,0:0:0:0:
320,192,164096,1,0,0:0:0:0:
448,192,164096,1,0,0:0:0:0:
64,192,164269,1,0,0:0:0:0:
320,192,164269,1,0,0:0:0:0:
64,0,164442,128,0,164789:1:0:0:0:
320,0,164442,128,0,164789:1:0:0:0:
192,192,164789,1,0,0:0:0:0:
448,192,164789,1,0,0:0:0:0:
64,192,164963,1,0,0:0:0:0:
320,192,164963,1,0,0:0:0:0:
64,192,165049,1,0,0:0:0:0:
320,192,165049,1,0,0:0:0:0:
64,192,165136,1,0,0:0:0:0:
320,192,165136,1,0,0:0:0:0:
448,192,165309,1,0,0:0:0:0:
192,192,165309,1,0,0:0:0:0:
64,192,165483,1,0,0:0:0:0:
448,192,165483,1,0,0:0:0:0:
448,192,165569,1,0,0:0:0:0:
64,192,165656,1,0,0:0:0:0:
320,192,165656,1,0,0:0:0:0:
320,192,165743,1,0,0:0:0:0:
64,192,165830,1,0,0:0:0:0:
192,192,165830,1,0,0:0:0:0:
192,192,165916,1,0,0:0:0:0:
64,192,166003,1,0,0:0:0:0:
192,192,166090,1,0,0:0:0:0:
320,192,166176,1,0,0:0:0:0:
448,192,166176,1,0,0:0:0:0:
320,192,166263,1,0,0:0:0:0:
448,192,166350,1,0,0:0:0:0:
320,192,166437,1,0,0:0:0:0:
320,0,166523,128,0,166697:1:0:0:0:
64,192,166523,1,0,0:0:0:0:
192,0,166697,128,0,166870:1:0:0:0:
448,192,166697,1,0,0:0:0:0:
64,192,166870,1,0,0:0:0:0:
448,192,166870,128,0,167043:0:0:0:0:
64,0,167043,128,0,167217:1:0:0:0:
320,192,167043,1,0,0:0:0:0:
192,0,167217,128,0,167564:1:0:0:0:
320,0,167217,128,0,167564:1:0:0:0:
448,192,167217,1,0,0:0:0:0:
64,192,167564,1,0,0:0:0:0:
448,192,167564,1,0,0:0:0:0:
320,192,167737,1,0,0:0:0:0:
192,192,167737,1,0,0:0:0:0:
320,192,167824,1,0,0:0:0:0:
192,192,167824,1,0,0:0:0:0:
192,192,167911,1,0,0:0:0:0:
320,192,167911,1,0,0:0:0:0:
64,0,168084,128,0,168257:1:0:0:0:
320,192,168084,1,0,0:0:0:0:
448,0,168257,128,0,168431:1:0:0:0:
192,192,168257,1,0,0:0:0:0:
192,0,168431,128,0,168604:1:0:0:0:
64,192,168431,1,0,0:0:0:0:
448,192,168604,1,0,0:0:0:0:
320,0,168604,128,0,169298:1:0:0:0:
192,192,168691,1,0,0:0:0:0:
64,192,168778,1,0,0:0:0:0:
192,192,168864,1,0,0:0:0:0:
448,192,168951,1,0,0:0:0:0:
192,192,169038,1,0,0:0:0:0:
64,192,169124,1,0,0:0:0:0:
192,192,169211,1,0,0:0:0:0:
448,192,169298,1,0,0:0:0:0:
64,192,169298,1,0,0:0:0:0:
320,192,169471,1,0,0:0:0:0:
64,192,169645,1,0,0:0:0:0:
192,192,169645,1,0,0:0:0:0:
448,192,169645,1,0,0:0:0:0:
64,192,169818,1,0,0:0:0:0:
192,192,169991,1,0,0:0:0:0:
448,192,169991,1,0,0:0:0:0:
320,192,170165,1,0,0:0:0:0:
192,192,170338,1,0,0:0:0:0:
320,192,170338,1,0,0:0:0:0:
64,192,170338,1,0,0:0:0:0:
64,192,170512,1,0,0:0:0:0:
320,192,170512,1,0,0:0:0:0:
448,192,170598,1,0,0:0:0:0:
192,192,170598,1,0,0:0:0:0:
64,192,170685,1,0,0:0:0:0:
320,192,170685,1,0,0:0:0:0:
320,192,170859,1,0,0:0:0:0:
192,192,170859,1,0,0:0:0:0:
192,192,171032,1,0,0:0:0:0:
448,192,171032,1,0,0:0:0:0:
64,192,171119,1,0,0:0:0:0:
192,192,171119,1,0,0:0:0:0:
320,192,171205,1,0,0:0:0:0:
448,192,171205,1,0,0:0:0:0:
448,192,171292,1,0,0:0:0:0:
192,192,171379,1,0,0:0:0:0:
320,192,171379,1,0,0:0:0:0:
64,192,171465,1,0,0:0:0:0:
192,192,171465,1,0,0:0:0:0:
448,192,171552,1,0,0:0:0:0:
320,192,171552,1,0,0:0:0:0:
192,192,171639,1,0,0:0:0:0:
64,192,171726,1,0,0:0:0:0:
320,192,171726,1,0,0:0:0:0:
448,192,171812,1,0,0:0:0:0:
320,192,171812,1,0,0:0:0:0:
192,192,171899,1,0,0:0:0:0:
64,192,171899,1,0,0:0:0:0:
320,192,171986,1,0,0:0:0:0:
64,192,172072,1,0,0:0:0:0:
448,192,172072,1,0,0:0:0:0:
192,192,172072,1,0,0:0:0:0:
320,192,172246,1,0,0:0:0:0:
64,192,172419,1,0,0:0:0:0:
448,192,172419,1,0,0:0:0:0:
320,192,172419,1,0,0:0:0:0:
192,192,172593,1,0,0:0:0:0:
64,192,172766,1,0,0:0:0:0:
448,192,172766,1,0,0:0:0:0:
192,192,172766,1,0,0:0:0:0:
320,192,172939,1,0,0:0:0:0:
192,192,173113,1,0,0:0:0:0:
320,192,173113,1,0,0:0:0:0:
448,192,173113,1,0,0:0:0:0:
64,192,173113,1,0,0:0:0:0:
192,192,173286,1,0,0:0:0:0:
320,192,173286,1,0,0:0:0:0:
192,192,173373,1,0,0:0:0:0:
320,192,173373,1,0,0:0:0:0:
192,192,173460,1,0,0:0:0:0:
320,192,173460,1,0,0:0:0:0:
448,192,173633,1,0,0:0:0:0:
192,192,173633,1,0,0:0:0:0:
64,192,173806,1,0,0:0:0:0:
320,192,173806,1,0,0:0:0:0:
448,192,173893,1,0,0:0:0:0:
192,192,173980,1,0,0:0:0:0:
320,192,173980,1,0,0:0:0:0:
64,192,174067,1,0,0:0:0:0:
448,192,174067,1,0,0:0:0:0:
192,192,174153,1,0,0:0:0:0:
320,192,174153,1,0,0:0:0:0:
448,192,174240,1,0,0:0:0:0:
64,192,174327,1,0,0:0:0:0:
192,192,174327,1,0,0:0:0:0:
320,192,174413,1,0,0:0:0:0:
192,192,174500,1,0,0:0:0:0:
448,192,174500,1,0,0:0:0:0:
64,192,174587,1,0,0:0:0:0:
320,192,174674,1,0,0:0:0:0:
448,192,174674,1,0,0:0:0:0:
192,192,174760,1,0,0:0:0:0:
64,192,174847,1,0,0:0:0:0:
448,192,174847,1,0,0:0:0:0:
192,192,175020,1,0,0:0:0:0:
64,192,175194,1,0,0:0:0:0:
448,192,175194,1,0,0:0:0:0:
320,192,175367,1,0,0:0:0:0:
64,192,175541,1,0,0:0:0:0:
448,192,175541,1,0,0:0:0:0:
192,192,175714,1,0,0:0:0:0:
192,192,175887,1,0,0:0:0:0:
320,192,175887,1,0,0:0:0:0:
320,192,176061,1,0,0:0:0:0:
192,192,176061,1,0,0:0:0:0:
320,192,176148,1,0,0:0:0:0:
192,192,176148,1,0,0:0:0:0:
192,192,176234,1,0,0:0:0:0:
320,192,176234,1,0,0:0:0:0:
448,192,176408,1,0,0:0:0:0:
64,192,176408,1,0,0:0:0:0:
64,192,176581,1,0,0:0:0:0:
448,192,176581,1,0,0:0:0:0:
320,192,176581,1,0,0:0:0:0:
320,192,176668,1,0,0:0:0:0:
192,192,176668,1,0,0:0:0:0:
448,192,176754,1,0,0:0:0:0:
192,192,176754,1,0,0:0:0:0:
64,192,176841,1,0,0:0:0:0:
320,192,176928,1,0,0:0:0:0:
448,192,176928,1,0,0:0:0:0:
192,192,177015,1,0,0:0:0:0:
320,192,177015,1,0,0:0:0:0:
64,192,177101,1,0,0:0:0:0:
448,192,177101,1,0,0:0:0:0:
320,192,177188,1,0,0:0:0:0:
192,192,177275,1,0,0:0:0:0:
448,192,177275,1,0,0:0:0:0:
320,192,177361,1,0,0:0:0:0:
192,192,177361,1,0,0:0:0:0:
64,192,177448,1,0,0:0:0:0:
448,192,177448,1,0,0:0:0:0:
448,192,177535,1,0,0:0:0:0:
64,192,177622,1,0,0:0:0:0:
192,192,177622,1,0,0:0:0:0:
320,192,177622,1,0,0:0:0:0:
192,192,177795,1,0,0:0:0:0:
320,192,177795,1,0,0:0:0:0:
320,192,177968,1,0,0:0:0:0:
448,192,177968,1,0,0:0:0:0:
448,192,178142,1,0,0:0:0:0:
64,192,178142,1,0,0:0:0:0:
192,192,178315,1,0,0:0:0:0:
320,192,178315,1,0,0:0:0:0:
320,192,178489,1,0,0:0:0:0:
448,192,178489,1,0,0:0:0:0:
64,192,178662,1,0,0:0:0:0:
192,192,178662,1,0,0:0:0:0:
320,192,178835,1,0,0:0:0:0:
192,192,178835,1,0,0:0:0:0:
64,0,179009,128,0,179269:1:0:0:0:
448,192,179009,1,0,0:0:0:0:
192,192,179182,1,0,0:0:0:0:
320,192,179182,1,0,0:0:0:0:
320,192,179356,1,0,0:0:0:0:
448,192,179356,1,0,0:0:0:0:
64,192,179356,1,0,0:0:0:0:
448,192,179529,1,0,0:0:0:0:
192,192,179529,1,0,0:0:0:0:
448,0,179702,128,0,180049:1:0:0:0:
320,192,179702,1,0,0:0:0:0:
320,192,180049,1,0,0:0:0:0:
448,0,180396,128,0,182824:1:0:0:0:
64,0,180396,128,0,183171:1:0:0:0:
320,0,180396,128,0,183171:1:0:0:0:
192,0,180396,128,0,183691:1:0:0:0:
320,192,184211,1,0,0:0:0:0:
64,192,184385,1,0,0:0:0:0:
448,192,184731,1,0,0:0:0:0:
192,192,184905,1,0,0:0:0:0:
320,192,185078,1,0,0:0:0:0:
448,192,185252,1,0,0:0:0:0:
320,192,185425,1,0,0:0:0:0:
64,192,185598,1,0,0:0:0:0:
192,192,185772,1,0,0:0:0:0:
448,0,185945,128,0,187332:1:0:0:0:
320,192,187332,1,0,0:0:0:0:
320,192,187853,128,0,188373:0:0:0:0:
192,192,188373,1,0,0:0:0:0:
192,192,188546,128,0,189240:0:0:0:0:
64,192,189240,1,0,0:0:0:0:
64,192,189760,1,0,0:0:0:0:
448,192,189934,1,0,0:0:0:0:
64,192,190280,1,0,0:0:0:0:
320,192,190454,1,0,0:0:0:0:
192,192,190627,1,0,0:0:0:0:
448,192,190801,1,0,0:0:0:0:
64,192,190974,1,0,0:0:0:0:
192,192,191148,1,0,0:0:0:0:
320,192,191321,1,0,0:0:0:0:
448,192,191494,1,0,0:0:0:0:
