osu file format v14

[General]
AudioFilename: STMN.mp3
AudioLeadIn: 0
PreviewTime: 190729
Countdown: 0
SampleSet: None
StackLeniency: 0.7
Mode: 3
LetterboxInBreaks: 0
SpecialStyle: 0
WidescreenStoryboard: 1

[Editor]
DistanceSpacing: 0.8
BeatDivisor: 4
GridSize: 8
TimelineZoom: 1

[Metadata]
Title:Touhou from the past
TitleUnicode:Touhou from the past
Artist:Various Artists
ArtistUnicode:Various Artists
Creator:LostCool
Version:Sweets Time Midnight
Source:LCC
Tags:
BeatmapID:2093492
BeatmapSetID:1000237

[Difficulty]
HPDrainRate:7.5
CircleSize:4
OverallDifficulty:8
ApproachRate:10
SliderMultiplier:1.4
SliderTickRate:1

[Events]
//Background and Video events
0,0,"bg ja.png",0,0
//Break Periods
2,35078,49486
//Storyboard Layer 0 (Background)
//Storyboard Layer 1 (Fail)
//Storyboard Layer 2 (Pass)
//Storyboard Layer 3 (Foreground)
//Storyboard Sound Samples

[TimingPoints]
1837.83908610808,400,4,1,0,15,1,0
27437,465.116279069767,4,1,0,15,1,0
34878,470.588235294118,4,1,0,15,1,0
49936,468.75,4,1,0,15,1,0
64936,413.793103448276,4,1,0,15,1,0

[HitObjects]
192,192,1837,128,0,2637:0:0:0:0:
320,192,2637,128,0,3437:0:0:0:0:
64,192,3437,128,0,4237:0:0:0:0:
192,192,4237,128,0,5037:0:0:0:0:
320,192,5037,1,0,0:0:0:0:
320,192,5237,128,0,5637:0:0:0:0:
64,192,5637,128,0,6037:0:0:0:0:
448,192,6037,128,0,6437:0:0:0:0:
192,192,6437,128,0,6837:0:0:0:0:
320,192,6837,128,0,7237:0:0:0:0:
64,192,7237,128,0,7637:0:0:0:0:
448,192,7637,128,0,8037:0:0:0:0:
192,192,8037,128,0,8237:0:0:0:0:
448,192,8237,1,0,0:0:0:0:
448,192,8437,128,0,8837:0:0:0:0:
320,192,8837,128,0,9237:0:0:0:0:
192,192,9237,128,0,9637:0:0:0:0:
64,192,9637,128,0,10037:0:0:0:0:
320,192,10037,128,0,10437:0:0:0:0:
192,192,10437,128,0,10837:0:0:0:0:
64,192,10837,128,0,11237:0:0:0:0:
448,192,11237,1,0,0:0:0:0:
448,192,11437,128,0,11637:0:0:0:0:
64,192,11637,128,0,12037:0:0:0:0:
192,192,12037,128,0,12437:0:0:0:0:
320,192,12437,128,0,12837:0:0:0:0:
64,192,12837,128,0,13237:0:0:0:0:
192,192,13237,128,0,13637:0:0:0:0:
320,192,13637,128,0,14037:0:0:0:0:
448,192,14037,128,0,14437:0:0:0:0:
320,192,14437,128,0,14637:0:0:0:0:
64,192,14637,5,0,0:0:0:0:
192,192,14637,1,0,0:0:0:0:
64,192,15037,1,0,0:0:0:0:
192,192,15037,1,0,0:0:0:0:
192,192,15237,1,0,0:0:0:0:
320,192,15437,1,0,0:0:0:0:
320,192,15637,1,0,0:0:0:0:
320,192,16037,1,0,0:0:0:0:
320,192,16237,1,0,0:0:0:0:
192,192,16837,1,0,0:0:0:0:
448,0,17237,128,0,17637:1:0:0:0:
192,192,17837,1,0,0:0:0:0:
320,192,17837,1,0,0:0:0:0:
192,192,18237,1,0,0:0:0:0:
192,192,18437,1,0,0:0:0:0:
320,192,18437,1,0,0:0:0:0:
320,192,18637,1,0,0:0:0:0:
320,192,18837,1,0,0:0:0:0:
320,192,19237,1,0,0:0:0:0:
320,192,19437,1,0,0:0:0:0:
192,192,19837,1,0,0:0:0:0:
64,192,20037,1,0,0:0:0:0:
192,192,20237,1,0,0:0:0:0:
192,192,20437,1,0,0:0:0:0:
448,192,20437,128,0,20837:0:0:0:0:
192,192,21037,1,0,0:0:0:0:
320,192,21037,1,0,0:0:0:0:
64,192,21437,1,0,0:0:0:0:
192,192,21437,1,0,0:0:0:0:
192,192,21637,1,0,0:0:0:0:
64,192,21837,1,0,0:0:0:0:
192,192,22037,1,0,0:0:0:0:
320,192,22437,1,0,0:0:0:0:
320,192,22637,1,0,0:0:0:0:
64,192,23237,1,0,0:0:0:0:
192,192,23237,1,0,0:0:0:0:
448,0,23637,128,0,24037:1:0:0:0:
320,0,23637,128,0,24037:1:0:0:0:
192,192,24237,1,0,0:0:0:0:
320,192,24237,1,0,0:0:0:0:
320,192,24637,1,0,0:0:0:0:
64,0,24637,128,0,34878:1:0:0:0:
192,192,25037,1,0,0:0:0:0:
448,192,25037,1,0,0:0:0:0:
448,0,25237,128,0,34878:1:0:0:0:
192,0,25237,128,0,27437:1:0:0:0:
320,192,25637,1,0,0:0:0:0:
320,0,25837,128,0,27437:1:0:0:0:
64,192,49936,5,0,0:0:0:0:
192,192,50873,1,0,0:0:0:0:
320,192,51342,1,0,0:0:0:0:
192,192,51811,1,0,0:0:0:0:
64,192,52279,1,0,0:0:0:0:
192,192,52514,1,0,0:0:0:0:
320,192,52748,1,0,0:0:0:0:
320,192,53217,1,0,0:0:0:0:
192,192,53686,1,0,0:0:0:0:
64,192,53920,1,0,0:0:0:0:
192,192,54154,1,0,0:0:0:0:
320,192,54389,1,0,0:0:0:0:
192,192,54623,1,0,0:0:0:0:
448,192,54857,1,0,0:0:0:0:
320,192,54975,1,0,0:0:0:0:
192,192,55092,1,0,0:0:0:0:
64,192,55326,1,0,0:0:0:0:
192,192,55561,1,0,0:0:0:0:
320,192,55795,1,0,0:0:0:0:
192,192,56029,1,0,0:0:0:0:
320,192,56264,1,0,0:0:0:0:
448,192,56498,1,0,0:0:0:0:
64,192,56498,128,0,56732:0:0:0:0:
320,192,56732,128,0,56967:0:0:0:0:
64,192,56967,128,0,57201:0:0:0:0:
448,192,57201,128,0,57436:0:0:0:0:
320,192,57436,1,0,0:0:0:0:
192,192,57670,128,0,57904:0:0:0:0:
64,192,57904,128,0,58139:0:0:0:0:
320,192,58139,128,0,58373:0:0:0:0:
192,192,58373,1,0,0:0:0:0:
448,192,58607,128,0,58842:0:0:0:0:
192,192,58842,128,0,59076:0:0:0:0:
320,192,59076,128,0,59311:0:0:0:0:
64,192,59311,1,0,0:0:0:0:
192,192,59311,1,0,0:0:0:0:
320,192,59545,128,0,59779:0:0:0:0:
64,192,59779,128,0,60014:0:0:0:0:
448,192,60014,128,0,60248:0:0:0:0:
192,192,60248,1,0,0:0:0:0:
320,192,60482,128,0,60717:0:0:0:0:
192,192,60717,128,0,60951:0:0:0:0:
64,192,60951,128,0,61186:0:0:0:0:
320,192,61186,1,0,0:0:0:0:
192,192,61420,128,0,61654:0:0:0:0:
320,192,61654,128,0,61889:0:0:0:0:
64,192,61889,128,0,62123:0:0:0:0:
448,192,62123,1,0,0:0:0:0:
192,192,62357,128,0,62592:0:0:0:0:
320,192,62592,128,0,62826:0:0:0:0:
448,192,62826,128,0,63061:0:0:0:0:
192,0,63061,128,0,64936:1:0:0:0:
320,0,63061,128,0,64936:1:0:0:0:
448,192,64936,1,0,0:0:0:0:
64,192,64936,1,0,0:0:0:0:
64,192,65142,1,0,0:0:0:0:
448,192,65142,1,0,0:0:0:0:
320,192,65246,1,0,0:0:0:0:
64,192,65349,1,0,0:0:0:0:
192,192,65453,1,0,0:0:0:0:
320,192,65556,1,0,0:0:0:0:
64,192,65660,1,0,0:0:0:0:
192,192,65763,1,0,0:0:0:0:
448,192,65867,1,0,0:0:0:0:
320,192,65970,1,0,0:0:0:0:
192,192,66073,1,0,0:0:0:0:
448,192,66177,1,0,0:0:0:0:
320,192,66280,1,0,0:0:0:0:
64,192,66384,1,0,0:0:0:0:
448,192,66487,1,0,0:0:0:0:
192,192,66591,1,0,0:0:0:0:
320,192,66591,1,0,0:0:0:0:
192,192,66798,1,0,0:0:0:0:
320,192,66798,1,0,0:0:0:0:
64,192,66901,1,0,0:0:0:0:
448,192,67004,1,0,0:0:0:0:
192,192,67108,1,0,0:0:0:0:
320,192,67211,1,0,0:0:0:0:
64,192,67315,1,0,0:0:0:0:
320,192,67418,1,0,0:0:0:0:
192,192,67522,1,0,0:0:0:0:
64,192,67625,1,0,0:0:0:0:
320,192,67729,1,0,0:0:0:0:
192,192,67832,1,0,0:0:0:0:
448,192,67936,1,0,0:0:0:0:
320,192,68039,1,0,0:0:0:0:
192,192,68142,1,0,0:0:0:0:
64,192,68246,1,0,0:0:0:0:
448,192,68246,1,0,0:0:0:0:
64,192,68453,1,0,0:0:0:0:
448,192,68453,1,0,0:0:0:0:
320,192,68556,1,0,0:0:0:0:
192,192,68660,1,0,0:0:0:0:
64,192,68763,1,0,0:0:0:0:
448,192,68867,1,0,0:0:0:0:
192,192,68970,1,0,0:0:0:0:
320,192,69073,1,0,0:0:0:0:
448,192,69177,1,0,0:0:0:0:
64,192,69280,1,0,0:0:0:0:
192,192,69384,1,0,0:0:0:0:
64,192,69487,1,0,0:0:0:0:
448,192,69487,1,0,0:0:0:0:
320,192,69591,1,0,0:0:0:0:
192,192,69694,1,0,0:0:0:0:
448,192,69798,1,0,0:0:0:0:
192,192,69901,1,0,0:0:0:0:
320,192,69901,1,0,0:0:0:0:
192,192,70108,1,0,0:0:0:0:
320,192,70108,1,0,0:0:0:0:
64,192,70211,1,0,0:0:0:0:
320,192,70315,1,0,0:0:0:0:
192,192,70418,1,0,0:0:0:0:
448,192,70522,1,0,0:0:0:0:
64,192,70625,1,0,0:0:0:0:
192,192,70729,1,0,0:0:0:0:
320,192,70832,1,0,0:0:0:0:
192,192,70936,1,0,0:0:0:0:
320,192,71039,1,0,0:0:0:0:
448,192,71142,1,0,0:0:0:0:
192,192,71246,1,0,0:0:0:0:
64,192,71349,1,0,0:0:0:0:
320,192,71453,1,0,0:0:0:0:
448,192,71556,1,0,0:0:0:0:
64,0,71556,128,0,72384:1:0:0:0:
448,192,71763,1,0,0:0:0:0:
192,192,71867,1,0,0:0:0:0:
320,192,71970,1,0,0:0:0:0:
448,192,72073,1,0,0:0:0:0:
320,192,72177,1,0,0:0:0:0:
192,192,72280,1,0,0:0:0:0:
320,0,72384,128,0,73211:1:0:0:0:
192,192,72487,1,0,0:0:0:0:
64,192,72591,1,0,0:0:0:0:
448,192,72694,1,0,0:0:0:0:
192,192,72798,1,0,0:0:0:0:
64,192,72901,1,0,0:0:0:0:
448,192,72901,1,0,0:0:0:0:
192,192,73004,1,0,0:0:0:0:
448,192,73108,1,0,0:0:0:0:
192,192,73211,1,0,0:0:0:0:
192,192,73418,1,0,0:0:0:0:
320,192,73418,1,0,0:0:0:0:
64,192,73522,1,0,0:0:0:0:
448,192,73625,1,0,0:0:0:0:
192,192,73729,1,0,0:0:0:0:
320,192,73832,1,0,0:0:0:0:
192,192,73936,1,0,0:0:0:0:
64,192,74039,1,0,0:0:0:0:
320,192,74142,1,0,0:0:0:0:
192,192,74246,1,0,0:0:0:0:
448,192,74349,1,0,0:0:0:0:
320,192,74453,1,0,0:0:0:0:
64,192,74556,1,0,0:0:0:0:
192,192,74660,1,0,0:0:0:0:
320,192,74763,1,0,0:0:0:0:
64,192,74867,1,0,0:0:0:0:
448,192,74867,1,0,0:0:0:0:
64,192,75073,1,0,0:0:0:0:
448,192,75073,1,0,0:0:0:0:
320,192,75177,1,0,0:0:0:0:
192,192,75280,1,0,0:0:0:0:
64,192,75384,1,0,0:0:0:0:
320,192,75487,1,0,0:0:0:0:
192,192,75591,1,0,0:0:0:0:
320,192,75694,1,0,0:0:0:0:
448,192,75798,1,0,0:0:0:0:
320,192,75901,1,0,0:0:0:0:
192,192,76004,1,0,0:0:0:0:
448,192,76108,1,0,0:0:0:0:
192,192,76211,1,0,0:0:0:0:
64,192,76315,1,0,0:0:0:0:
448,192,76418,1,0,0:0:0:0:
192,192,76522,1,0,0:0:0:0:
320,192,76522,1,0,0:0:0:0:
192,192,76729,1,0,0:0:0:0:
320,192,76729,1,0,0:0:0:0:
448,192,76832,1,0,0:0:0:0:
64,192,76936,1,0,0:0:0:0:
192,192,77039,1,0,0:0:0:0:
320,192,77142,1,0,0:0:0:0:
64,192,77246,1,0,0:0:0:0:
448,192,77349,1,0,0:0:0:0:
192,192,77453,1,0,0:0:0:0:
320,192,77556,1,0,0:0:0:0:
192,192,77660,1,0,0:0:0:0:
64,192,77763,1,0,0:0:0:0:
448,192,77867,1,0,0:0:0:0:
192,192,77970,1,0,0:0:0:0:
320,192,78073,1,0,0:0:0:0:
64,192,78177,1,0,0:0:0:0:
448,192,78177,1,0,0:0:0:0:
64,192,78384,1,0,0:0:0:0:
448,192,78384,1,0,0:0:0:0:
320,192,78487,1,0,0:0:0:0:
192,192,78591,1,0,0:0:0:0:
64,192,78694,1,0,0:0:0:0:
448,192,78798,1,0,0:0:0:0:
320,192,78901,1,0,0:0:0:0:
192,192,79004,1,0,0:0:0:0:
448,192,79108,1,0,0:0:0:0:
64,192,79211,1,0,0:0:0:0:
192,192,79315,1,0,0:0:0:0:
448,192,79418,1,0,0:0:0:0:
64,192,79522,1,0,0:0:0:0:
320,192,79625,1,0,0:0:0:0:
448,192,79729,1,0,0:0:0:0:
192,192,79832,1,0,0:0:0:0:
320,192,79832,1,0,0:0:0:0:
192,192,80039,1,0,0:0:0:0:
320,192,80039,1,0,0:0:0:0:
64,192,80142,1,0,0:0:0:0:
448,192,80246,1,0,0:0:0:0:
192,192,80349,1,0,0:0:0:0:
320,192,80453,1,0,0:0:0:0:
448,192,80556,1,0,0:0:0:0:
64,192,80660,1,0,0:0:0:0:
320,192,80763,1,0,0:0:0:0:
448,192,80867,1,0,0:0:0:0:
64,192,80970,1,0,0:0:0:0:
448,192,81073,1,0,0:0:0:0:
64,192,81177,1,0,0:0:0:0:
320,192,81280,1,0,0:0:0:0:
192,192,81384,1,0,0:0:0:0:
64,192,81487,1,0,0:0:0:0:
448,192,81487,1,0,0:0:0:0:
64,192,81694,1,0,0:0:0:0:
448,192,81694,1,0,0:0:0:0:
192,192,81798,1,0,0:0:0:0:
320,192,81901,1,0,0:0:0:0:
64,192,82004,1,0,0:0:0:0:
448,192,82108,1,0,0:0:0:0:
192,192,82211,1,0,0:0:0:0:
448,192,82315,1,0,0:0:0:0:
192,192,82418,1,0,0:0:0:0:
320,192,82522,1,0,0:0:0:0:
64,192,82625,1,0,0:0:0:0:
448,192,82729,1,0,0:0:0:0:
192,192,82832,1,0,0:0:0:0:
320,192,82936,1,0,0:0:0:0:
64,192,83039,1,0,0:0:0:0:
192,192,83142,1,0,0:0:0:0:
320,192,83142,1,0,0:0:0:0:
192,192,83349,1,0,0:0:0:0:
320,192,83349,1,0,0:0:0:0:
64,192,83453,1,0,0:0:0:0:
448,192,83556,1,0,0:0:0:0:
192,192,83660,1,0,0:0:0:0:
320,192,83763,1,0,0:0:0:0:
64,192,83867,1,0,0:0:0:0:
448,0,83970,128,0,84798:1:0:0:0:
64,192,84798,1,0,0:0:0:0:
192,192,84901,1,0,0:0:0:0:
320,192,85004,1,0,0:0:0:0:
192,192,85108,1,0,0:0:0:0:
320,192,85211,1,0,0:0:0:0:
448,192,85315,1,0,0:0:0:0:
320,192,85418,1,0,0:0:0:0:
192,192,85522,1,0,0:0:0:0:
448,192,85625,1,0,0:0:0:0:
192,192,85729,1,0,0:0:0:0:
64,192,85832,1,0,0:0:0:0:
320,192,85936,1,0,0:0:0:0:
192,192,86039,1,0,0:0:0:0:
448,192,86142,1,0,0:0:0:0:
64,192,86246,1,0,0:0:0:0:
320,192,86349,1,0,0:0:0:0:
192,0,86453,128,0,87073:1:0:0:0:
448,192,87384,1,0,0:0:0:0:
320,192,87487,1,0,0:0:0:0:
192,192,87591,1,0,0:0:0:0:
320,192,87694,1,0,0:0:0:0:
448,192,87798,1,0,0:0:0:0:
192,192,87901,1,0,0:0:0:0:
448,192,88004,1,0,0:0:0:0:
64,192,88108,1,0,0:0:0:0:
192,192,88211,1,0,0:0:0:0:
320,192,88315,1,0,0:0:0:0:
448,192,88418,1,0,0:0:0:0:
320,192,88522,1,0,0:0:0:0:
192,192,88625,1,0,0:0:0:0:
320,192,88729,1,0,0:0:0:0:
192,192,88832,1,0,0:0:0:0:
64,192,88936,1,0,0:0:0:0:
192,192,89039,1,0,0:0:0:0:
320,192,89142,1,0,0:0:0:0:
192,192,89246,1,0,0:0:0:0:
64,192,89349,1,0,0:0:0:0:
192,192,89453,1,0,0:0:0:0:
320,192,89556,1,0,0:0:0:0:
448,192,89660,1,0,0:0:0:0:
192,192,89763,1,0,0:0:0:0:
64,192,94729,1,0,0:0:0:0:
448,192,94729,128,0,111280:0:0:0:0:
64,192,97004,1,0,0:0:0:0:
192,192,98039,1,0,0:0:0:0:
192,192,98349,1,0,0:0:0:0:
192,192,98660,1,0,0:0:0:0:
192,192,100108,1,0,0:0:0:0:
192,192,100418,1,0,0:0:0:0:
192,192,100729,1,0,0:0:0:0:
192,192,102177,1,0,0:0:0:0:
192,192,102487,1,0,0:0:0:0:
192,192,102798,1,0,0:0:0:0:
192,192,104246,1,0,0:0:0:0:
192,192,104556,1,0,0:0:0:0:
192,192,104867,1,0,0:0:0:0:
192,192,106315,1,0,0:0:0:0:
192,192,106625,5,0,0:0:0:0:
192,192,106936,1,0,0:0:0:0:
192,192,108384,1,0,0:0:0:0:
192,192,108694,1,0,0:0:0:0:
192,192,109004,1,0,0:0:0:0:
192,192,110453,1,0,0:0:0:0:
192,192,110763,1,0,0:0:0:0:
192,192,111073,1,0,0:0:0:0:
64,192,111280,5,0,0:0:0:0:
192,192,111384,1,0,0:0:0:0:
320,192,111487,1,0,0:0:0:0:
64,192,111591,1,0,0:0:0:0:
192,192,111694,1,0,0:0:0:0:
320,192,111798,1,0,0:0:0:0:
64,192,111901,1,0,0:0:0:0:
192,192,112004,1,0,0:0:0:0:
320,192,112108,1,0,0:0:0:0:
448,192,112211,1,0,0:0:0:0:
192,192,112315,1,0,0:0:0:0:
320,192,112418,1,0,0:0:0:0:
64,192,112522,1,0,0:0:0:0:
448,192,112522,1,0,0:0:0:0:
64,192,112832,1,0,0:0:0:0:
448,192,112832,1,0,0:0:0:0:
64,192,113142,1,0,0:0:0:0:
448,192,113142,1,0,0:0:0:0:
320,192,113349,1,0,0:0:0:0:
192,192,113453,1,0,0:0:0:0:
64,192,113556,1,0,0:0:0:0:
448,192,113660,1,0,0:0:0:0:
320,192,113763,1,0,0:0:0:0:
192,192,113867,1,0,0:0:0:0:
448,192,113970,1,0,0:0:0:0:
192,192,114073,1,0,0:0:0:0:
64,192,114177,1,0,0:0:0:0:
320,192,114280,1,0,0:0:0:0:
192,192,114384,1,0,0:0:0:0:
320,192,114487,1,0,0:0:0:0:
64,192,114591,1,0,0:0:0:0:
448,192,114591,1,0,0:0:0:0:
64,192,114901,1,0,0:0:0:0:
448,192,114901,1,0,0:0:0:0:
64,192,115211,1,0,0:0:0:0:
448,192,115211,1,0,0:0:0:0:
448,192,115418,1,0,0:0:0:0:
192,192,115522,1,0,0:0:0:0:
320,192,115625,1,0,0:0:0:0:
64,192,115729,1,0,0:0:0:0:
448,192,115832,1,0,0:0:0:0:
192,192,115936,1,0,0:0:0:0:
320,192,116039,1,0,0:0:0:0:
64,192,116142,1,0,0:0:0:0:
192,192,116246,1,0,0:0:0:0:
320,192,116349,1,0,0:0:0:0:
448,192,116453,1,0,0:0:0:0:
320,192,116556,1,0,0:0:0:0:
64,192,116660,1,0,0:0:0:0:
448,192,116660,1,0,0:0:0:0:
64,192,116970,1,0,0:0:0:0:
448,192,116970,1,0,0:0:0:0:
64,192,117280,1,0,0:0:0:0:
448,192,117280,1,0,0:0:0:0:
320,192,117487,1,0,0:0:0:0:
192,192,117591,1,0,0:0:0:0:
320,192,117694,1,0,0:0:0:0:
192,192,117798,1,0,0:0:0:0:
64,192,117901,1,0,0:0:0:0:
448,192,118004,1,0,0:0:0:0:
320,192,118108,1,0,0:0:0:0:
192,192,118211,1,0,0:0:0:0:
320,192,118315,1,0,0:0:0:0:
192,192,118418,1,0,0:0:0:0:
64,192,118522,1,0,0:0:0:0:
192,192,118625,1,0,0:0:0:0:
448,192,118729,1,0,0:0:0:0:
64,192,118729,1,0,0:0:0:0:
64,192,119039,1,0,0:0:0:0:
448,192,119039,1,0,0:0:0:0:
64,192,119349,1,0,0:0:0:0:
448,192,119349,1,0,0:0:0:0:
320,192,119556,1,0,0:0:0:0:
192,192,119660,1,0,0:0:0:0:
320,192,119763,1,0,0:0:0:0:
192,192,119867,1,0,0:0:0:0:
320,192,119970,1,0,0:0:0:0:
192,192,120073,1,0,0:0:0:0:
320,192,120177,1,0,0:0:0:0:
192,192,120280,1,0,0:0:0:0:
320,192,120384,1,0,0:0:0:0:
192,192,120487,1,0,0:0:0:0:
320,192,120591,1,0,0:0:0:0:
192,192,120694,1,0,0:0:0:0:
320,192,120798,1,0,0:0:0:0:
64,192,121108,1,0,0:0:0:0:
448,192,121108,1,0,0:0:0:0:
448,192,121418,1,0,0:0:0:0:
64,192,121418,1,0,0:0:0:0:
64,192,121625,1,0,0:0:0:0:
448,192,121729,1,0,0:0:0:0:
64,192,121832,1,0,0:0:0:0:
448,192,121936,1,0,0:0:0:0:
64,192,122039,1,0,0:0:0:0:
448,192,122142,1,0,0:0:0:0:
64,192,122246,1,0,0:0:0:0:
448,192,122349,1,0,0:0:0:0:
64,192,122453,1,0,0:0:0:0:
448,192,122556,1,0,0:0:0:0:
64,192,122660,1,0,0:0:0:0:
448,192,122763,1,0,0:0:0:0:
64,192,122867,1,0,0:0:0:0:
192,192,122867,1,0,0:0:0:0:
64,192,123177,1,0,0:0:0:0:
192,192,123177,1,0,0:0:0:0:
64,192,123487,1,0,0:0:0:0:
192,192,123487,1,0,0:0:0:0:
320,192,123694,1,0,0:0:0:0:
448,192,123798,1,0,0:0:0:0:
320,192,123901,1,0,0:0:0:0:
192,192,124004,1,0,0:0:0:0:
448,192,124108,1,0,0:0:0:0:
320,192,124211,1,0,0:0:0:0:
192,192,124315,1,0,0:0:0:0:
320,192,124418,1,0,0:0:0:0:
448,192,124522,1,0,0:0:0:0:
320,192,124625,1,0,0:0:0:0:
192,192,124729,1,0,0:0:0:0:
320,192,124832,1,0,0:0:0:0:
192,192,124936,1,0,0:0:0:0:
448,192,124936,1,0,0:0:0:0:
192,192,125246,1,0,0:0:0:0:
448,192,125246,1,0,0:0:0:0:
192,192,125556,1,0,0:0:0:0:
448,192,125556,1,0,0:0:0:0:
192,192,125763,1,0,0:0:0:0:
320,192,125867,1,0,0:0:0:0:
192,192,125970,1,0,0:0:0:0:
320,192,126073,1,0,0:0:0:0:
64,192,126177,1,0,0:0:0:0:
192,192,126280,1,0,0:0:0:0:
320,192,126384,1,0,0:0:0:0:
64,192,126487,1,0,0:0:0:0:
192,192,126591,1,0,0:0:0:0:
320,192,126694,1,0,0:0:0:0:
192,192,126798,1,0,0:0:0:0:
320,192,126901,1,0,0:0:0:0:
448,192,126901,1,0,0:0:0:0:
192,192,127004,1,0,0:0:0:0:
64,192,127004,1,0,0:0:0:0:
320,192,127108,1,0,0:0:0:0:
192,192,127211,1,0,0:0:0:0:
448,192,127315,1,0,0:0:0:0:
64,192,127315,1,0,0:0:0:0:
320,192,127418,1,0,0:0:0:0:
192,192,127522,1,0,0:0:0:0:
448,192,127625,1,0,0:0:0:0:
64,192,127625,1,0,0:0:0:0:
192,192,127729,1,0,0:0:0:0:
320,192,127832,1,0,0:0:0:0:
448,192,127832,1,0,0:0:0:0:
64,192,128246,1,0,0:0:0:0:
192,192,128246,1,0,0:0:0:0:
64,192,128453,1,0,0:0:0:0:
64,192,128660,1,0,0:0:0:0:
192,192,128867,1,0,0:0:0:0:
320,192,128867,1,0,0:0:0:0:
192,192,129073,1,0,0:0:0:0:
320,192,129280,1,0,0:0:0:0:
448,192,129280,1,0,0:0:0:0:
64,192,129384,1,0,0:0:0:0:
192,192,129487,1,0,0:0:0:0:
64,192,129591,1,0,0:0:0:0:
320,192,129694,1,0,0:0:0:0:
448,192,129798,1,0,0:0:0:0:
192,192,129901,1,0,0:0:0:0:
192,192,130108,1,0,0:0:0:0:
64,192,130315,1,0,0:0:0:0:
192,192,130315,1,0,0:0:0:0:
320,192,130522,1,0,0:0:0:0:
320,192,130729,1,0,0:0:0:0:
448,192,130936,1,0,0:0:0:0:
320,192,130936,1,0,0:0:0:0:
192,192,131142,1,0,0:0:0:0:
192,192,131349,1,0,0:0:0:0:
320,192,131349,1,0,0:0:0:0:
448,192,131453,1,0,0:0:0:0:
192,192,131556,1,0,0:0:0:0:
64,192,131660,1,0,0:0:0:0:
320,192,131763,1,0,0:0:0:0:
192,192,131867,1,0,0:0:0:0:
320,192,131970,1,0,0:0:0:0:
320,192,132177,1,0,0:0:0:0:
64,192,132384,1,0,0:0:0:0:
192,192,132384,1,0,0:0:0:0:
64,192,132591,1,0,0:0:0:0:
64,192,132798,1,0,0:0:0:0:
192,192,133004,1,0,0:0:0:0:
320,192,133004,1,0,0:0:0:0:
192,192,133211,1,0,0:0:0:0:
192,192,133418,1,0,0:0:0:0:
448,192,133418,1,0,0:0:0:0:
320,192,133522,1,0,0:0:0:0:
448,192,133625,1,0,0:0:0:0:
64,192,133729,1,0,0:0:0:0:
448,192,133832,1,0,0:0:0:0:
192,192,133936,1,0,0:0:0:0:
448,192,134039,1,0,0:0:0:0:
320,192,134246,1,0,0:0:0:0:
64,192,134453,1,0,0:0:0:0:
192,192,134453,1,0,0:0:0:0:
64,192,134660,1,0,0:0:0:0:
64,192,134867,1,0,0:0:0:0:
192,192,135073,1,0,0:0:0:0:
320,192,135073,1,0,0:0:0:0:
192,192,135280,1,0,0:0:0:0:
192,192,135487,1,0,0:0:0:0:
320,192,135487,1,0,0:0:0:0:
448,192,135591,1,0,0:0:0:0:
64,192,135694,1,0,0:0:0:0:
320,192,135798,1,0,0:0:0:0:
192,192,135901,1,0,0:0:0:0:
64,192,136004,1,0,0:0:0:0:
192,192,136108,1,0,0:0:0:0:
320,192,136315,1,0,0:0:0:0:
192,192,136522,1,0,0:0:0:0:
448,192,136522,1,0,0:0:0:0:
64,192,136729,1,0,0:0:0:0:
320,192,136936,1,0,0:0:0:0:
64,192,137142,1,0,0:0:0:0:
192,192,137142,1,0,0:0:0:0:
448,192,137349,1,0,0:0:0:0:
192,192,137556,1,0,0:0:0:0:
320,192,137556,1,0,0:0:0:0:
64,192,137660,1,0,0:0:0:0:
320,192,137763,1,0,0:0:0:0:
192,192,137867,1,0,0:0:0:0:
448,192,137970,1,0,0:0:0:0:
320,192,138073,1,0,0:0:0:0:
64,192,138177,1,0,0:0:0:0:
320,192,138384,1,0,0:0:0:0:
192,192,138591,1,0,0:0:0:0:
320,192,138591,1,0,0:0:0:0:
320,192,138798,1,0,0:0:0:0:
448,192,139004,1,0,0:0:0:0:
320,192,139211,1,0,0:0:0:0:
448,192,139211,1,0,0:0:0:0:
192,192,139418,1,0,0:0:0:0:
64,192,139625,1,0,0:0:0:0:
192,192,139625,1,0,0:0:0:0:
320,192,139729,1,0,0:0:0:0:
64,192,139832,1,0,0:0:0:0:
192,192,139936,1,0,0:0:0:0:
448,192,139936,1,0,0:0:0:0:
320,192,140039,1,0,0:0:0:0:
192,192,140142,1,0,0:0:0:0:
320,192,140246,1,0,0:0:0:0:
192,192,140453,1,0,0:0:0:0:
192,192,140660,1,0,0:0:0:0:
448,192,140660,1,0,0:0:0:0:
320,192,140867,1,0,0:0:0:0:
192,192,141073,1,0,0:0:0:0:
192,192,141280,1,0,0:0:0:0:
320,192,141280,1,0,0:0:0:0:
64,192,141487,1,0,0:0:0:0:
320,192,141694,1,0,0:0:0:0:
192,192,141798,1,0,0:0:0:0:
448,192,141901,1,0,0:0:0:0:
320,192,142004,1,0,0:0:0:0:
64,192,142108,1,0,0:0:0:0:
192,192,142211,1,0,0:0:0:0:
320,192,142315,1,0,0:0:0:0:
192,192,142522,1,0,0:0:0:0:
192,192,142729,1,0,0:0:0:0:
448,192,142729,1,0,0:0:0:0:
320,192,142936,1,0,0:0:0:0:
320,192,143142,1,0,0:0:0:0:
64,192,143349,1,0,0:0:0:0:
192,192,143349,1,0,0:0:0:0:
64,192,143556,1,0,0:0:0:0:
64,192,143867,1,0,0:0:0:0:
64,192,144177,1,0,0:0:0:0:
192,192,144384,1,0,0:0:0:0:
448,0,144384,128,0,144798:1:0:0:0:
192,192,144591,1,0,0:0:0:0:
64,192,144798,1,0,0:0:0:0:
320,0,144798,128,0,145211:1:0:0:0:
192,192,145004,1,0,0:0:0:0:
448,192,145211,1,0,0:0:0:0:
192,0,145211,128,0,145625:1:0:0:0:
64,192,145418,1,0,0:0:0:0:
448,192,145625,1,0,0:0:0:0:
320,0,145625,128,0,146039:1:0:0:0:
64,192,145832,1,0,0:0:0:0:
192,192,145936,1,0,0:0:0:0:
448,192,146039,1,0,0:0:0:0:
64,0,146039,128,0,146453:1:0:0:0:
192,192,146142,1,0,0:0:0:0:
448,192,146246,1,0,0:0:0:0:
192,192,146349,1,0,0:0:0:0:
448,192,146453,1,0,0:0:0:0:
320,0,146453,128,0,146660:1:0:0:0:
192,192,146660,1,0,0:0:0:0:
448,0,146660,128,0,146867:1:0:0:0:
320,192,146867,1,0,0:0:0:0:
64,0,146867,128,0,147280:1:0:0:0:
448,192,147073,1,0,0:0:0:0:
320,192,147280,1,0,0:0:0:0:
192,0,147280,128,0,147694:1:0:0:0:
64,192,147487,1,0,0:0:0:0:
320,192,147694,1,0,0:0:0:0:
448,0,147694,128,0,147901:1:0:0:0:
64,192,147901,1,0,0:0:0:0:
192,0,147901,128,0,148108:1:0:0:0:
448,192,148108,1,0,0:0:0:0:
320,0,148108,128,0,148315:1:0:0:0:
192,192,148315,1,0,0:0:0:0:
64,0,148315,128,0,148522:1:0:0:0:
320,192,148522,1,0,0:0:0:0:
448,0,148522,128,0,148729:1:0:0:0:
64,192,148729,1,0,0:0:0:0:
192,0,148729,128,0,148936:1:0:0:0:
448,192,148936,1,0,0:0:0:0:
64,0,148936,128,0,149142:1:0:0:0:
192,192,149142,1,0,0:0:0:0:
448,0,149142,128,0,149349:1:0:0:0:
64,192,149349,1,0,0:0:0:0:
192,0,149349,128,0,149556:1:0:0:0:
448,192,149556,1,0,0:0:0:0:
320,0,149556,128,0,149763:1:0:0:0:
64,192,149763,1,0,0:0:0:0:
448,0,149763,128,0,149970:1:0:0:0:
320,192,149970,1,0,0:0:0:0:
192,0,149970,128,0,150177:1:0:0:0:
64,0,150177,128,0,151004:1:0:0:0:
320,192,150384,1,0,0:0:0:0:
448,192,150487,1,0,0:0:0:0:
192,192,150591,1,0,0:0:0:0:
320,192,150694,1,0,0:0:0:0:
448,192,150798,1,0,0:0:0:0:
192,192,150901,1,0,0:0:0:0:
320,192,151004,1,0,0:0:0:0:
448,0,151004,128,0,151418:1:0:0:0:
192,192,151315,1,0,0:0:0:0:
320,0,151418,128,0,151832:1:0:0:0:
64,192,151418,1,0,0:0:0:0:
192,192,151625,1,0,0:0:0:0:
192,0,151832,128,0,152246:1:0:0:0:
448,192,151832,1,0,0:0:0:0:
320,192,152039,1,0,0:0:0:0:
64,192,152039,1,0,0:0:0:0:
320,0,152246,128,0,152660:1:0:0:0:
192,192,152453,1,0,0:0:0:0:
448,192,152453,1,0,0:0:0:0:
64,0,152660,128,0,153073:1:0:0:0:
448,192,152660,1,0,0:0:0:0:
320,192,152763,1,0,0:0:0:0:
192,192,152867,1,0,0:0:0:0:
448,192,152970,1,0,0:0:0:0:
320,0,153073,128,0,153280:1:0:0:0:
192,192,153073,1,0,0:0:0:0:
448,0,153280,128,0,153487:1:0:0:0:
192,192,153280,1,0,0:0:0:0:
320,192,153384,1,0,0:0:0:0:
192,0,153487,128,0,153901:1:0:0:0:
320,192,153591,1,0,0:0:0:0:
64,192,153694,1,0,0:0:0:0:
448,192,153798,1,0,0:0:0:0:
320,0,153901,128,0,154315:1:0:0:0:
64,192,154004,1,0,0:0:0:0:
192,192,154108,1,0,0:0:0:0:
448,192,154211,1,0,0:0:0:0:
64,0,154315,128,0,154522:1:0:0:0:
192,192,154315,1,0,0:0:0:0:
192,0,154522,128,0,154729:1:0:0:0:
320,192,154522,1,0,0:0:0:0:
64,0,154729,128,0,154936:1:0:0:0:
448,192,154729,1,0,0:0:0:0:
448,0,154936,128,0,155142:1:0:0:0:
320,192,154936,1,0,0:0:0:0:
320,0,155142,128,0,155349:1:0:0:0:
64,192,155142,1,0,0:0:0:0:
192,0,155349,128,0,155556:1:0:0:0:
448,192,155349,1,0,0:0:0:0:
448,0,155556,128,0,155763:1:0:0:0:
64,192,155556,1,0,0:0:0:0:
64,0,155763,128,0,155970:1:0:0:0:
320,192,155763,1,0,0:0:0:0:
320,0,155970,128,0,157625:1:0:0:0:
192,192,155970,1,0,0:0:0:0:
448,192,156073,1,0,0:0:0:0:
64,192,156177,1,0,0:0:0:0:
448,192,156280,1,0,0:0:0:0:
192,192,156384,1,0,0:0:0:0:
448,192,156591,1,0,0:0:0:0:
64,192,156591,1,0,0:0:0:0:
192,192,156798,1,0,0:0:0:0:
64,192,156798,1,0,0:0:0:0:
64,192,157108,1,0,0:0:0:0:
192,192,157108,1,0,0:0:0:0:
192,192,157418,1,0,0:0:0:0:
64,192,157418,1,0,0:0:0:0:
64,192,157625,1,0,0:0:0:0:
448,192,157625,1,0,0:0:0:0:
192,192,157729,1,0,0:0:0:0:
448,192,157832,1,0,0:0:0:0:
192,192,157936,1,0,0:0:0:0:
320,192,158039,1,0,0:0:0:0:
448,192,158039,1,0,0:0:0:0:
192,192,158142,1,0,0:0:0:0:
64,192,158246,1,0,0:0:0:0:
192,192,158349,1,0,0:0:0:0:
448,192,158453,1,0,0:0:0:0:
320,192,158556,1,0,0:0:0:0:
192,192,158660,1,0,0:0:0:0:
448,192,158660,1,0,0:0:0:0:
64,192,158763,1,0,0:0:0:0:
448,192,158867,1,0,0:0:0:0:
192,192,158970,1,0,0:0:0:0:
320,192,159073,1,0,0:0:0:0:
448,192,159073,1,0,0:0:0:0:
64,192,159177,1,0,0:0:0:0:
448,192,159280,1,0,0:0:0:0:
192,192,159384,1,0,0:0:0:0:
64,192,159487,1,0,0:0:0:0:
192,192,159591,1,0,0:0:0:0:
448,192,159591,1,0,0:0:0:0:
320,192,159694,1,0,0:0:0:0:
448,192,159798,1,0,0:0:0:0:
192,192,159901,1,0,0:0:0:0:
320,192,160004,1,0,0:0:0:0:
448,192,160108,1,0,0:0:0:0:
64,192,160108,1,0,0:0:0:0:
320,192,160211,1,0,0:0:0:0:
192,192,160315,1,0,0:0:0:0:
64,192,160418,1,0,0:0:0:0:
448,192,160522,1,0,0:0:0:0:
192,192,160625,1,0,0:0:0:0:
320,192,160729,1,0,0:0:0:0:
64,192,160729,1,0,0:0:0:0:
448,192,160832,1,0,0:0:0:0:
320,192,160936,1,0,0:0:0:0:
192,192,161039,1,0,0:0:0:0:
320,192,161142,1,0,0:0:0:0:
64,192,161246,1,0,0:0:0:0:
448,192,161349,1,0,0:0:0:0:
320,192,161349,1,0,0:0:0:0:
192,192,161453,1,0,0:0:0:0:
320,192,161556,1,0,0:0:0:0:
448,192,161660,1,0,0:0:0:0:
320,192,161763,1,0,0:0:0:0:
192,192,161867,1,0,0:0:0:0:
64,192,161970,1,0,0:0:0:0:
448,192,161970,1,0,0:0:0:0:
320,192,162073,1,0,0:0:0:0:
192,192,162177,1,0,0:0:0:0:
64,192,162280,1,0,0:0:0:0:
448,192,162384,1,0,0:0:0:0:
320,192,162384,1,0,0:0:0:0:
192,192,162487,1,0,0:0:0:0:
64,192,162487,1,0,0:0:0:0:
448,192,162591,1,0,0:0:0:0:
320,192,162694,1,0,0:0:0:0:
192,192,162798,1,0,0:0:0:0:
64,192,162901,1,0,0:0:0:0:
448,192,162901,1,0,0:0:0:0:
320,192,163004,1,0,0:0:0:0:
192,192,163108,1,0,0:0:0:0:
64,192,163211,1,0,0:0:0:0:
320,192,163211,1,0,0:0:0:0:
448,192,163315,1,0,0:0:0:0:
192,192,163418,1,0,0:0:0:0:
320,192,163522,1,0,0:0:0:0:
64,192,163625,1,0,0:0:0:0:
192,192,163625,1,0,0:0:0:0:
448,192,163729,1,0,0:0:0:0:
320,192,163832,1,0,0:0:0:0:
448,192,163936,1,0,0:0:0:0:
192,192,164039,1,0,0:0:0:0:
320,192,164039,1,0,0:0:0:0:
64,192,164142,1,0,0:0:0:0:
448,192,164142,1,0,0:0:0:0:
320,192,164246,1,0,0:0:0:0:
192,192,164349,1,0,0:0:0:0:
320,192,164453,1,0,0:0:0:0:
448,192,164556,1,0,0:0:0:0:
192,192,164660,1,0,0:0:0:0:
64,192,164660,1,0,0:0:0:0:
320,192,164763,1,0,0:0:0:0:
64,192,164867,1,0,0:0:0:0:
448,192,164970,1,0,0:0:0:0:
192,192,165073,1,0,0:0:0:0:
320,192,165177,1,0,0:0:0:0:
192,192,165280,1,0,0:0:0:0:
448,192,165280,1,0,0:0:0:0:
64,192,165384,1,0,0:0:0:0:
192,192,165487,1,0,0:0:0:0:
320,192,165591,1,0,0:0:0:0:
448,192,165694,1,0,0:0:0:0:
64,192,165694,1,0,0:0:0:0:
320,192,165798,1,0,0:0:0:0:
192,192,165901,1,0,0:0:0:0:
448,192,166004,1,0,0:0:0:0:
192,192,166108,1,0,0:0:0:0:
64,192,166211,1,0,0:0:0:0:
320,192,166211,1,0,0:0:0:0:
448,192,166315,1,0,0:0:0:0:
192,192,166418,1,0,0:0:0:0:
320,192,166522,1,0,0:0:0:0:
64,192,166625,1,0,0:0:0:0:
192,192,166729,1,0,0:0:0:0:
320,192,166729,1,0,0:0:0:0:
448,192,166832,1,0,0:0:0:0:
320,192,166936,1,0,0:0:0:0:
448,192,167039,1,0,0:0:0:0:
192,192,167142,1,0,0:0:0:0:
64,192,167246,1,0,0:0:0:0:
192,192,167349,1,0,0:0:0:0:
448,192,167349,1,0,0:0:0:0:
320,192,167453,1,0,0:0:0:0:
64,192,167556,1,0,0:0:0:0:
320,192,167660,1,0,0:0:0:0:
448,192,167763,1,0,0:0:0:0:
320,192,167867,1,0,0:0:0:0:
192,192,167970,1,0,0:0:0:0:
64,192,167970,1,0,0:0:0:0:
320,192,168073,1,0,0:0:0:0:
64,192,168177,1,0,0:0:0:0:
448,192,168280,1,0,0:0:0:0:
192,192,168384,1,0,0:0:0:0:
64,192,168487,1,0,0:0:0:0:
448,192,168591,1,0,0:0:0:0:
192,192,168591,1,0,0:0:0:0:
320,192,168694,1,0,0:0:0:0:
192,192,168798,1,0,0:0:0:0:
64,192,168901,1,0,0:0:0:0:
448,192,169004,1,0,0:0:0:0:
320,192,169004,1,0,0:0:0:0:
192,192,169108,1,0,0:0:0:0:
320,192,169211,1,0,0:0:0:0:
192,192,169315,1,0,0:0:0:0:
448,192,169418,1,0,0:0:0:0:
320,192,169522,1,0,0:0:0:0:
64,192,169522,1,0,0:0:0:0:
192,192,169625,1,0,0:0:0:0:
320,192,169729,1,0,0:0:0:0:
64,192,169832,1,0,0:0:0:0:
448,192,169832,1,0,0:0:0:0:
192,192,169936,1,0,0:0:0:0:
320,192,170039,1,0,0:0:0:0:
448,192,170039,1,0,0:0:0:0:
192,192,170349,1,0,0:0:0:0:
320,192,170349,1,0,0:0:0:0:
64,192,170660,1,0,0:0:0:0:
192,192,170660,1,0,0:0:0:0:
64,192,170867,1,0,0:0:0:0:
192,192,170970,1,0,0:0:0:0:
320,192,171073,1,0,0:0:0:0:
64,192,171177,1,0,0:0:0:0:
192,192,171280,1,0,0:0:0:0:
320,192,171384,1,0,0:0:0:0:
64,192,171487,1,0,0:0:0:0:
192,192,171591,1,0,0:0:0:0:
320,192,171694,1,0,0:0:0:0:
64,192,171798,1,0,0:0:0:0:
192,192,171901,1,0,0:0:0:0:
320,192,172004,1,0,0:0:0:0:
64,192,172108,1,0,0:0:0:0:
192,192,172108,1,0,0:0:0:0:
64,192,172418,1,0,0:0:0:0:
192,192,172418,1,0,0:0:0:0:
64,192,172729,1,0,0:0:0:0:
192,192,172729,1,0,0:0:0:0:
448,192,172936,1,0,0:0:0:0:
320,192,173039,1,0,0:0:0:0:
192,192,173142,1,0,0:0:0:0:
448,192,173246,1,0,0:0:0:0:
320,192,173349,1,0,0:0:0:0:
192,192,173453,1,0,0:0:0:0:
448,192,173556,1,0,0:0:0:0:
320,192,173660,1,0,0:0:0:0:
192,192,173763,1,0,0:0:0:0:
448,192,173867,1,0,0:0:0:0:
320,192,173970,1,0,0:0:0:0:
192,192,174073,1,0,0:0:0:0:
320,192,174177,1,0,0:0:0:0:
448,192,174177,1,0,0:0:0:0:
320,192,174487,1,0,0:0:0:0:
448,192,174487,1,0,0:0:0:0:
320,192,174798,1,0,0:0:0:0:
448,192,174798,1,0,0:0:0:0:
64,192,175004,1,0,0:0:0:0:
192,192,175108,1,0,0:0:0:0:
320,192,175211,1,0,0:0:0:0:
64,192,175315,1,0,0:0:0:0:
192,192,175418,1,0,0:0:0:0:
320,192,175522,1,0,0:0:0:0:
64,192,175625,1,0,0:0:0:0:
192,192,175729,1,0,0:0:0:0:
320,192,175832,1,0,0:0:0:0:
64,192,175936,1,0,0:0:0:0:
192,192,176039,1,0,0:0:0:0:
320,192,176142,1,0,0:0:0:0:
64,192,176246,1,0,0:0:0:0:
192,192,176246,1,0,0:0:0:0:
64,192,176556,1,0,0:0:0:0:
192,192,176556,1,0,0:0:0:0:
64,192,176867,1,0,0:0:0:0:
192,192,176867,1,0,0:0:0:0:
448,192,177073,1,0,0:0:0:0:
320,192,177177,1,0,0:0:0:0:
192,192,177280,1,0,0:0:0:0:
448,192,177384,1,0,0:0:0:0:
320,192,177487,1,0,0:0:0:0:
192,192,177591,1,0,0:0:0:0:
448,192,177694,1,0,0:0:0:0:
320,192,177798,1,0,0:0:0:0:
192,192,177901,1,0,0:0:0:0:
448,192,178004,1,0,0:0:0:0:
320,192,178108,1,0,0:0:0:0:
192,192,178211,1,0,0:0:0:0:
448,192,178315,1,0,0:0:0:0:
320,192,178315,1,0,0:0:0:0:
320,192,178625,1,0,0:0:0:0:
448,192,178625,1,0,0:0:0:0:
320,192,178936,1,0,0:0:0:0:
448,192,178936,1,0,0:0:0:0:
64,192,179142,1,0,0:0:0:0:
192,192,179246,1,0,0:0:0:0:
320,192,179349,1,0,0:0:0:0:
64,192,179453,1,0,0:0:0:0:
192,192,179556,1,0,0:0:0:0:
320,192,179660,1,0,0:0:0:0:
64,192,179763,1,0,0:0:0:0:
192,192,179867,1,0,0:0:0:0:
320,192,179970,1,0,0:0:0:0:
64,192,180073,1,0,0:0:0:0:
192,192,180177,1,0,0:0:0:0:
320,192,180280,1,0,0:0:0:0:
64,192,180384,1,0,0:0:0:0:
192,192,180384,1,0,0:0:0:0:
64,192,180694,1,0,0:0:0:0:
192,192,180694,1,0,0:0:0:0:
64,192,181004,1,0,0:0:0:0:
192,192,181004,1,0,0:0:0:0:
448,192,181211,1,0,0:0:0:0:
320,192,181315,1,0,0:0:0:0:
192,192,181418,1,0,0:0:0:0:
448,192,181522,1,0,0:0:0:0:
320,192,181625,1,0,0:0:0:0:
192,192,181729,1,0,0:0:0:0:
448,192,181832,1,0,0:0:0:0:
320,192,181936,1,0,0:0:0:0:
192,192,182039,1,0,0:0:0:0:
448,192,182142,1,0,0:0:0:0:
320,192,182246,1,0,0:0:0:0:
192,192,182349,1,0,0:0:0:0:
320,192,182453,1,0,0:0:0:0:
448,192,182453,1,0,0:0:0:0:
320,192,182763,1,0,0:0:0:0:
448,192,182763,1,0,0:0:0:0:
320,192,183073,1,0,0:0:0:0:
448,192,183073,1,0,0:0:0:0:
64,192,183280,1,0,0:0:0:0:
192,192,183384,1,0,0:0:0:0:
320,192,183487,1,0,0:0:0:0:
64,192,183591,1,0,0:0:0:0:
192,192,183694,1,0,0:0:0:0:
320,192,183798,1,0,0:0:0:0:
64,192,183901,1,0,0:0:0:0:
192,192,184004,1,0,0:0:0:0:
320,192,184108,1,0,0:0:0:0:
64,192,184211,1,0,0:0:0:0:
192,192,184315,1,0,0:0:0:0:
320,192,184418,1,0,0:0:0:0:
64,192,184522,1,0,0:0:0:0:
192,192,184522,1,0,0:0:0:0:
64,192,184832,1,0,0:0:0:0:
192,192,184832,1,0,0:0:0:0:
64,192,185142,1,0,0:0:0:0:
192,192,185142,1,0,0:0:0:0:
320,192,185349,1,0,0:0:0:0:
448,192,185453,1,0,0:0:0:0:
192,192,185556,1,0,0:0:0:0:
64,192,185660,1,0,0:0:0:0:
320,192,185763,1,0,0:0:0:0:
448,192,185867,1,0,0:0:0:0:
192,192,185970,1,0,0:0:0:0:
64,192,186073,1,0,0:0:0:0:
320,192,186177,1,0,0:0:0:0:
448,192,186280,1,0,0:0:0:0:
192,192,186384,1,0,0:0:0:0:
64,192,186487,1,0,0:0:0:0:
192,192,186591,1,0,0:0:0:0:
320,192,186591,1,0,0:0:0:0:
192,192,186901,1,0,0:0:0:0:
320,192,186901,1,0,0:0:0:0:
192,192,187211,1,0,0:0:0:0:
320,192,187211,1,0,0:0:0:0:
64,192,188246,1,0,0:0:0:0:
64,192,188349,1,0,0:0:0:0:
192,192,188453,1,0,0:0:0:0:
192,192,188556,1,0,0:0:0:0:
320,192,188660,1,0,0:0:0:0:
192,192,188763,1,0,0:0:0:0:
64,192,188867,1,0,0:0:0:0:
448,192,188970,1,0,0:0:0:0:
320,192,189073,1,0,0:0:0:0:
320,192,189177,1,0,0:0:0:0:
192,192,189280,1,0,0:0:0:0:
448,192,189384,1,0,0:0:0:0:
192,192,189487,1,0,0:0:0:0:
320,192,189591,1,0,0:0:0:0:
64,192,189694,1,0,0:0:0:0:
192,192,189798,1,0,0:0:0:0:
448,192,189798,1,0,0:0:0:0:
192,192,190729,1,0,0:0:0:0:
64,0,190729,128,0,191142:1:0:0:0:
320,192,191556,1,0,0:0:0:0:
192,0,191556,128,0,191970:1:0:0:0:
448,192,192384,1,0,0:0:0:0:
320,0,192384,128,0,192798:1:0:0:0:
448,192,192798,1,0,0:0:0:0:
320,192,193004,1,0,0:0:0:0:
192,192,193211,1,0,0:0:0:0:
192,192,193625,1,0,0:0:0:0:
64,192,194039,1,0,0:0:0:0:
192,192,194246,1,0,0:0:0:0:
320,192,194453,1,0,0:0:0:0:
192,192,194660,1,0,0:0:0:0:
320,192,194867,1,0,0:0:0:0:
448,192,195073,1,0,0:0:0:0:
192,192,195177,1,0,0:0:0:0:
320,192,195280,1,0,0:0:0:0:
192,192,195487,1,0,0:0:0:0:
64,192,195694,1,0,0:0:0:0:
448,192,195901,1,0,0:0:0:0:
192,192,196108,1,0,0:0:0:0:
320,192,196315,1,0,0:0:0:0:
192,192,196522,1,0,0:0:0:0:
192,192,197349,1,0,0:0:0:0:
64,0,197349,128,0,197763:1:0:0:0:
320,192,198177,1,0,0:0:0:0:
192,0,198177,128,0,198591:1:0:0:0:
448,192,199004,1,0,0:0:0:0:
320,0,199004,128,0,199418:1:0:0:0:
192,192,199418,1,0,0:0:0:0:
448,192,199625,1,0,0:0:0:0:
192,192,199832,1,0,0:0:0:0:
320,192,200246,1,0,0:0:0:0:
192,192,200660,1,0,0:0:0:0:
448,192,200867,1,0,0:0:0:0:
192,192,201073,1,0,0:0:0:0:
320,192,201280,1,0,0:0:0:0:
192,192,201487,1,0,0:0:0:0:
64,192,201694,1,0,0:0:0:0:
192,192,201798,1,0,0:0:0:0:
320,192,201901,1,0,0:0:0:0:
64,192,202108,1,0,0:0:0:0:
192,0,202315,128,0,203970:1:0:0:0:
320,192,203970,1,0,0:0:0:0:
448,192,203970,1,0,0:0:0:0:
320,192,204073,1,0,0:0:0:0:
64,192,204177,1,0,0:0:0:0:
192,192,204177,1,0,0:0:0:0:
192,192,204280,1,0,0:0:0:0:
320,192,204384,1,0,0:0:0:0:
448,192,204487,1,0,0:0:0:0:
192,192,204591,1,0,0:0:0:0:
64,192,204694,1,0,0:0:0:0:
192,0,204798,128,0,205625:1:0:0:0:
320,0,204798,128,0,205625:1:0:0:0:
448,192,205315,1,0,0:0:0:0:
448,192,205418,1,0,0:0:0:0:
64,192,205625,1,0,0:0:0:0:
448,192,205625,1,0,0:0:0:0:
64,192,205832,1,0,0:0:0:0:
448,192,205832,1,0,0:0:0:0:
320,192,205936,1,0,0:0:0:0:
192,192,206039,1,0,0:0:0:0:
64,192,206142,1,0,0:0:0:0:
448,192,206246,1,0,0:0:0:0:
192,192,206349,1,0,0:0:0:0:
320,192,206453,1,0,0:0:0:0:
64,0,206453,128,0,207280:1:0:0:0:
448,0,206453,128,0,207280:1:0:0:0:
320,192,206970,1,0,0:0:0:0:
320,192,207073,1,0,0:0:0:0:
192,192,207280,1,0,0:0:0:0:
320,192,207280,1,0,0:0:0:0:
192,192,207487,1,0,0:0:0:0:
320,192,207487,1,0,0:0:0:0:
64,192,207591,1,0,0:0:0:0:
448,192,207694,1,0,0:0:0:0:
192,192,207798,1,0,0:0:0:0:
320,192,207901,1,0,0:0:0:0:
64,192,208004,1,0,0:0:0:0:
448,192,208108,1,0,0:0:0:0:
320,0,208108,128,0,208936:1:0:0:0:
192,0,208108,128,0,208936:1:0:0:0:
448,192,208625,1,0,0:0:0:0:
448,192,208729,1,0,0:0:0:0:
64,192,208936,1,0,0:0:0:0:
448,192,208936,1,0,0:0:0:0:
64,192,209142,1,0,0:0:0:0:
448,192,209142,1,0,0:0:0:0:
192,192,209246,1,0,0:0:0:0:
320,192,209349,1,0,0:0:0:0:
64,192,209453,1,0,0:0:0:0:
448,192,209556,1,0,0:0:0:0:
192,192,209660,1,0,0:0:0:0:
320,192,209763,1,0,0:0:0:0:
448,0,209763,128,0,210591:1:0:0:0:
64,0,209763,128,0,210591:1:0:0:0:
320,192,210280,1,0,0:0:0:0:
320,192,210384,1,0,0:0:0:0:
192,192,210591,1,0,0:0:0:0:
320,192,210591,1,0,0:0:0:0:
192,192,210798,1,0,0:0:0:0:
320,192,210798,1,0,0:0:0:0:
64,192,210901,1,0,0:0:0:0:
448,192,211004,1,0,0:0:0:0:
192,192,211108,1,0,0:0:0:0:
320,192,211211,1,0,0:0:0:0:
448,192,211315,1,0,0:0:0:0:
320,0,211418,128,0,212246:1:0:0:0:
64,192,211418,1,0,0:0:0:0:
192,0,211418,128,0,212246:1:0:0:0:
64,192,211936,1,0,0:0:0:0:
64,192,212039,1,0,0:0:0:0:
64,192,212246,1,0,0:0:0:0:
448,192,212246,1,0,0:0:0:0:
64,192,212453,1,0,0:0:0:0:
448,192,212453,1,0,0:0:0:0:
192,192,212556,1,0,0:0:0:0:
320,192,212660,1,0,0:0:0:0:
192,192,212763,1,0,0:0:0:0:
448,192,212867,1,0,0:0:0:0:
64,192,212970,1,0,0:0:0:0:
320,192,213073,1,0,0:0:0:0:
448,0,213073,128,0,217211:1:0:0:0:
64,0,213073,128,0,217211:1:0:0:0:
192,192,213591,1,0,0:0:0:0:
192,192,213694,1,0,0:0:0:0:
192,192,213901,128,0,215556:0:0:0:0:
320,192,215556,128,0,217211:0:0:0:0:
192,192,217211,5,0,0:0:0:0:
320,192,217315,1,0,0:0:0:0:
192,192,217418,1,0,0:0:0:0:
64,192,217522,1,0,0:0:0:0:
320,192,217625,1,0,0:0:0:0:
192,192,217625,1,0,0:0:0:0:
448,192,217729,1,0,0:0:0:0:
320,192,217832,1,0,0:0:0:0:
192,192,217936,1,0,0:0:0:0:
320,192,218039,1,0,0:0:0:0:
64,192,218142,1,0,0:0:0:0:
192,192,218246,1,0,0:0:0:0:
448,192,218246,1,0,0:0:0:0:
320,192,218349,1,0,0:0:0:0:
448,192,218453,1,0,0:0:0:0:
192,192,218556,1,0,0:0:0:0:
320,192,218660,1,0,0:0:0:0:
64,192,218660,1,0,0:0:0:0:
448,192,218763,1,0,0:0:0:0:
192,192,218867,1,0,0:0:0:0:
64,192,218970,1,0,0:0:0:0:
320,192,218970,1,0,0:0:0:0:
448,192,219073,1,0,0:0:0:0:
320,192,219177,1,0,0:0:0:0:
192,192,219177,1,0,0:0:0:0:
64,192,219280,1,0,0:0:0:0:
320,192,219384,1,0,0:0:0:0:
192,192,219487,1,0,0:0:0:0:
64,192,219487,1,0,0:0:0:0:
448,192,219591,1,0,0:0:0:0:
320,192,219694,1,0,0:0:0:0:
192,192,219694,1,0,0:0:0:0:
64,192,219798,1,0,0:0:0:0:
192,192,219901,1,0,0:0:0:0:
448,192,220004,1,0,0:0:0:0:
320,192,220108,1,0,0:0:0:0:
192,192,220211,1,0,0:0:0:0:
64,192,220315,1,0,0:0:0:0:
448,192,220315,1,0,0:0:0:0:
320,192,220418,1,0,0:0:0:0:
448,192,220522,1,0,0:0:0:0:
64,192,220522,1,0,0:0:0:0:
320,192,220625,1,0,0:0:0:0:
192,192,220729,1,0,0:0:0:0:
64,192,220832,1,0,0:0:0:0:
320,192,220936,1,0,0:0:0:0:
192,192,220936,1,0,0:0:0:0:
448,192,221039,1,0,0:0:0:0:
192,192,221142,1,0,0:0:0:0:
64,192,221246,1,0,0:0:0:0:
320,192,221349,1,0,0:0:0:0:
192,192,221453,1,0,0:0:0:0:
64,192,221556,1,0,0:0:0:0:
448,192,221556,1,0,0:0:0:0:
320,192,221660,1,0,0:0:0:0:
448,192,221763,1,0,0:0:0:0:
320,192,221867,1,0,0:0:0:0:
192,192,221970,1,0,0:0:0:0:
448,192,221970,1,0,0:0:0:0:
64,192,222073,1,0,0:0:0:0:
320,192,222177,1,0,0:0:0:0:
192,192,222280,1,0,0:0:0:0:
448,192,222384,1,0,0:0:0:0:
64,192,222487,1,0,0:0:0:0:
192,192,222487,1,0,0:0:0:0:
320,192,222591,1,0,0:0:0:0:
448,192,222694,1,0,0:0:0:0:
192,192,222798,1,0,0:0:0:0:
320,192,222798,1,0,0:0:0:0:
64,192,222901,1,0,0:0:0:0:
320,192,223004,1,0,0:0:0:0:
448,192,223004,1,0,0:0:0:0:
192,192,223108,1,0,0:0:0:0:
64,192,223211,1,0,0:0:0:0:
320,192,223211,1,0,0:0:0:0:
448,192,223315,1,0,0:0:0:0:
192,192,223418,1,0,0:0:0:0:
64,192,223522,1,0,0:0:0:0:
320,192,223625,1,0,0:0:0:0:
448,192,223729,1,0,0:0:0:0:
64,192,223729,1,0,0:0:0:0:
192,192,223832,1,0,0:0:0:0:
320,192,223936,1,0,0:0:0:0:
448,192,224039,1,0,0:0:0:0:
192,192,224142,1,0,0:0:0:0:
320,192,224246,1,0,0:0:0:0:
448,192,224246,1,0,0:0:0:0:
64,192,224349,1,0,0:0:0:0:
192,192,224453,1,0,0:0:0:0:
448,192,224556,1,0,0:0:0:0:
320,192,224660,1,0,0:0:0:0:
192,192,224763,1,0,0:0:0:0:
320,192,224867,1,0,0:0:0:0:
64,192,224867,1,0,0:0:0:0:
192,192,224970,1,0,0:0:0:0:
448,192,225073,1,0,0:0:0:0:
320,192,225177,1,0,0:0:0:0:
192,192,225280,1,0,0:0:0:0:
448,192,225384,1,0,0:0:0:0:
320,192,225487,1,0,0:0:0:0:
192,192,225487,1,0,0:0:0:0:
64,192,225591,1,0,0:0:0:0:
448,192,225694,1,0,0:0:0:0:
192,192,225798,1,0,0:0:0:0:
320,192,225798,1,0,0:0:0:0:
448,192,225901,1,0,0:0:0:0:
64,192,226004,1,0,0:0:0:0:
448,192,226108,1,0,0:0:0:0:
192,192,226211,1,0,0:0:0:0:
320,192,226315,1,0,0:0:0:0:
448,192,226315,1,0,0:0:0:0:
64,192,226418,1,0,0:0:0:0:
448,192,226522,1,0,0:0:0:0:
320,192,226625,1,0,0:0:0:0:
192,192,226729,1,0,0:0:0:0:
64,192,226729,1,0,0:0:0:0:
320,192,226832,1,0,0:0:0:0:
192,192,226936,1,0,0:0:0:0:
448,192,226936,1,0,0:0:0:0:
64,192,227039,1,0,0:0:0:0:
320,192,227142,1,0,0:0:0:0:
448,192,227142,1,0,0:0:0:0:
192,192,227246,1,0,0:0:0:0:
448,192,227349,1,0,0:0:0:0:
64,192,227349,1,0,0:0:0:0:
320,192,227453,1,0,0:0:0:0:
448,192,227556,1,0,0:0:0:0:
64,192,227556,1,0,0:0:0:0:
192,192,227660,1,0,0:0:0:0:
64,192,227763,1,0,0:0:0:0:
320,192,227763,1,0,0:0:0:0:
192,192,227867,1,0,0:0:0:0:
64,192,227970,1,0,0:0:0:0:
320,192,227970,1,0,0:0:0:0:
448,192,228073,1,0,0:0:0:0:
192,192,228177,1,0,0:0:0:0:
64,192,228177,1,0,0:0:0:0:
320,192,228280,1,0,0:0:0:0:
64,192,228384,1,0,0:0:0:0:
448,192,228384,1,0,0:0:0:0:
192,192,228487,1,0,0:0:0:0:
448,192,228591,1,0,0:0:0:0:
320,192,228591,1,0,0:0:0:0:
192,192,228694,1,0,0:0:0:0:
320,192,228798,1,0,0:0:0:0:
64,192,228798,1,0,0:0:0:0:
448,192,228901,1,0,0:0:0:0:
320,192,229004,1,0,0:0:0:0:
448,192,229108,1,0,0:0:0:0:
64,192,229108,1,0,0:0:0:0:
192,192,229211,1,0,0:0:0:0:
64,192,229315,1,0,0:0:0:0:
192,192,229418,1,0,0:0:0:0:
320,192,229522,1,0,0:0:0:0:
64,192,229625,1,0,0:0:0:0:
448,192,229625,1,0,0:0:0:0:
320,192,229729,1,0,0:0:0:0:
192,192,229832,1,0,0:0:0:0:
64,192,229936,1,0,0:0:0:0:
448,192,229936,1,0,0:0:0:0:
320,192,230039,1,0,0:0:0:0:
192,192,230142,1,0,0:0:0:0:
64,192,230246,1,0,0:0:0:0:
448,192,230246,1,0,0:0:0:0:
320,192,230349,1,0,0:0:0:0:
64,192,230453,1,0,0:0:0:0:
192,192,230453,1,0,0:0:0:0:
320,192,230556,1,0,0:0:0:0:
448,192,230660,1,0,0:0:0:0:
64,192,230763,1,0,0:0:0:0:
192,192,230867,1,0,0:0:0:0:
448,192,230867,1,0,0:0:0:0:
320,192,230970,1,0,0:0:0:0:
192,192,231073,1,0,0:0:0:0:
64,192,231177,1,0,0:0:0:0:
192,192,231280,1,0,0:0:0:0:
320,192,231280,1,0,0:0:0:0:
448,192,231384,1,0,0:0:0:0:
320,192,231487,1,0,0:0:0:0:
64,192,231487,1,0,0:0:0:0:
192,192,231591,1,0,0:0:0:0:
448,192,231694,1,0,0:0:0:0:
320,192,231694,1,0,0:0:0:0:
64,192,231798,1,0,0:0:0:0:
192,192,231901,1,0,0:0:0:0:
320,192,231901,1,0,0:0:0:0:
448,192,232004,1,0,0:0:0:0:
64,192,232108,1,0,0:0:0:0:
192,192,232108,1,0,0:0:0:0:
320,192,232211,1,0,0:0:0:0:
192,192,232315,1,0,0:0:0:0:
320,192,232418,1,0,0:0:0:0:
64,192,232418,1,0,0:0:0:0:
448,192,232522,1,0,0:0:0:0:
192,192,232522,1,0,0:0:0:0:
64,192,232625,1,0,0:0:0:0:
320,192,232729,1,0,0:0:0:0:
64,192,232832,1,0,0:0:0:0:
192,192,232936,1,0,0:0:0:0:
448,192,232936,1,0,0:0:0:0:
320,192,233039,1,0,0:0:0:0:
192,192,233142,1,0,0:0:0:0:
64,192,233246,1,0,0:0:0:0:
448,192,233349,1,0,0:0:0:0:
320,192,233349,1,0,0:0:0:0:
64,192,233453,1,0,0:0:0:0:
320,192,233556,1,0,0:0:0:0:
192,192,233556,1,0,0:0:0:0:
448,192,233660,1,0,0:0:0:0:
64,192,233763,1,0,0:0:0:0:
192,192,233763,1,0,0:0:0:0:
448,192,233867,1,0,0:0:0:0:
192,192,233970,1,0,0:0:0:0:
64,192,233970,1,0,0:0:0:0:
320,192,234073,1,0,0:0:0:0:
64,192,234177,1,0,0:0:0:0:
448,192,234177,1,0,0:0:0:0:
192,192,234177,1,0,0:0:0:0:
320,192,234280,1,0,0:0:0:0:
192,192,234384,1,0,0:0:0:0:
64,192,234384,1,0,0:0:0:0:
448,192,234487,1,0,0:0:0:0:
64,192,234591,1,0,0:0:0:0:
320,192,234591,1,0,0:0:0:0:
192,192,234694,1,0,0:0:0:0:
320,192,234798,1,0,0:0:0:0:
64,192,234798,1,0,0:0:0:0:
448,192,234901,1,0,0:0:0:0:
192,192,235004,1,0,0:0:0:0:
64,192,235004,1,0,0:0:0:0:
320,192,235108,1,0,0:0:0:0:
192,192,235211,1,0,0:0:0:0:
448,192,235211,1,0,0:0:0:0:
320,192,235315,1,0,0:0:0:0:
64,192,235315,1,0,0:0:0:0:
192,192,235418,1,0,0:0:0:0:
448,192,235418,1,0,0:0:0:0:
64,192,235522,1,0,0:0:0:0:
448,192,235625,1,0,0:0:0:0:
320,192,235625,1,0,0:0:0:0:
192,192,235729,1,0,0:0:0:0:
64,192,235729,1,0,0:0:0:0:
320,192,235832,1,0,0:0:0:0:
448,192,235832,1,0,0:0:0:0:
192,192,235936,1,0,0:0:0:0:
320,192,236039,1,0,0:0:0:0:
64,192,236039,1,0,0:0:0:0:
192,192,236142,1,0,0:0:0:0:
448,192,236246,1,0,0:0:0:0:
320,192,236246,1,0,0:0:0:0:
192,192,236349,1,0,0:0:0:0:
64,192,236453,1,0,0:0:0:0:
320,192,236453,1,0,0:0:0:0:
448,192,236453,1,0,0:0:0:0:
192,192,236556,1,0,0:0:0:0:
448,192,236660,1,0,0:0:0:0:
64,192,236660,1,0,0:0:0:0:
320,192,236763,1,0,0:0:0:0:
192,192,236867,1,0,0:0:0:0:
64,192,236970,1,0,0:0:0:0:
320,192,237073,1,0,0:0:0:0:
192,192,237073,1,0,0:0:0:0:
448,192,237177,1,0,0:0:0:0:
192,192,237280,1,0,0:0:0:0:
320,192,237384,1,0,0:0:0:0:
448,192,237487,1,0,0:0:0:0:
192,192,237487,1,0,0:0:0:0:
64,192,237591,1,0,0:0:0:0:
320,192,237694,1,0,0:0:0:0:
192,192,237798,1,0,0:0:0:0:
448,192,237901,1,0,0:0:0:0:
320,192,237901,1,0,0:0:0:0:
64,192,238004,1,0,0:0:0:0:
192,192,238108,1,0,0:0:0:0:
320,192,238108,1,0,0:0:0:0:
448,192,238211,1,0,0:0:0:0:
192,192,238315,1,0,0:0:0:0:
64,192,238315,1,0,0:0:0:0:
448,192,238418,1,0,0:0:0:0:
64,192,238522,1,0,0:0:0:0:
320,192,238522,1,0,0:0:0:0:
192,192,238625,1,0,0:0:0:0:
448,192,238729,1,0,0:0:0:0:
320,192,238832,1,0,0:0:0:0:
448,192,238936,1,0,0:0:0:0:
64,192,239039,1,0,0:0:0:0:
320,192,239039,1,0,0:0:0:0:
192,192,239142,1,0,0:0:0:0:
320,192,239246,1,0,0:0:0:0:
192,192,239349,1,0,0:0:0:0:
64,192,239453,1,0,0:0:0:0:
320,192,239556,1,0,0:0:0:0:
448,192,239556,1,0,0:0:0:0:
64,192,239660,1,0,0:0:0:0:
320,192,239763,1,0,0:0:0:0:
64,192,239867,1,0,0:0:0:0:
448,192,239970,1,0,0:0:0:0:
320,192,239970,1,0,0:0:0:0:
192,192,240073,1,0,0:0:0:0:
64,192,240177,1,0,0:0:0:0:
448,192,240177,1,0,0:0:0:0:
192,192,240280,1,0,0:0:0:0:
448,192,240384,1,0,0:0:0:0:
64,192,240384,1,0,0:0:0:0:
320,192,240487,1,0,0:0:0:0:
192,192,240591,1,0,0:0:0:0:
448,192,240591,1,0,0:0:0:0:
64,192,240694,1,0,0:0:0:0:
192,192,240798,1,0,0:0:0:0:
448,192,240798,1,0,0:0:0:0:
320,192,240901,1,0,0:0:0:0:
64,192,241004,1,0,0:0:0:0:
448,192,241004,1,0,0:0:0:0:
320,192,241108,1,0,0:0:0:0:
192,192,241211,1,0,0:0:0:0:
64,192,241211,1,0,0:0:0:0:
448,192,241315,1,0,0:0:0:0:
192,192,241418,1,0,0:0:0:0:
320,192,241418,1,0,0:0:0:0:
64,192,241522,1,0,0:0:0:0:
448,192,241625,1,0,0:0:0:0:
320,192,241625,1,0,0:0:0:0:
192,192,241729,1,0,0:0:0:0:
64,192,241832,1,0,0:0:0:0:
320,192,241832,1,0,0:0:0:0:
192,192,241936,1,0,0:0:0:0:
448,192,242039,1,0,0:0:0:0:
320,192,242039,1,0,0:0:0:0:
192,192,242142,1,0,0:0:0:0:
320,192,242246,1,0,0:0:0:0:
64,192,242349,1,0,0:0:0:0:
192,192,242453,1,0,0:0:0:0:
320,192,242556,1,0,0:0:0:0:
192,192,242660,1,0,0:0:0:0:
320,192,242763,1,0,0:0:0:0:
64,192,242867,1,0,0:0:0:0:
448,192,242867,1,0,0:0:0:0:
64,192,243177,1,0,0:0:0:0:
448,192,243177,1,0,0:0:0:0:
64,192,243487,1,0,0:0:0:0:
448,192,243487,1,0,0:0:0:0:
64,192,243694,1,0,0:0:0:0:
192,192,243694,1,0,0:0:0:0:
192,192,243901,1,0,0:0:0:0:
64,192,244108,1,0,0:0:0:0:
192,192,244315,1,0,0:0:0:0:
320,192,244315,1,0,0:0:0:0:
320,192,244522,1,0,0:0:0:0:
320,192,244729,1,0,0:0:0:0:
448,192,244729,1,0,0:0:0:0:
192,192,244832,1,0,0:0:0:0:
64,192,244936,1,0,0:0:0:0:
192,192,245039,1,0,0:0:0:0:
320,192,245142,1,0,0:0:0:0:
192,192,245246,1,0,0:0:0:0:
448,192,245349,1,0,0:0:0:0:
320,192,245556,1,0,0:0:0:0:
64,192,245763,1,0,0:0:0:0:
192,192,245763,1,0,0:0:0:0:
192,192,245970,1,0,0:0:0:0:
64,192,246177,1,0,0:0:0:0:
64,192,246384,1,0,0:0:0:0:
320,192,246384,1,0,0:0:0:0:
192,192,246591,1,0,0:0:0:0:
320,192,246798,1,0,0:0:0:0:
192,192,247004,1,0,0:0:0:0:
448,192,247004,1,0,0:0:0:0:
320,192,247211,1,0,0:0:0:0:
192,192,247418,1,0,0:0:0:0:
320,192,247625,1,0,0:0:0:0:
448,192,247625,1,0,0:0:0:0:
192,192,247832,1,0,0:0:0:0:
64,192,248039,1,0,0:0:0:0:
320,192,248039,1,0,0:0:0:0:
448,192,248246,1,0,0:0:0:0:
320,192,248349,1,0,0:0:0:0:
192,192,248453,1,0,0:0:0:0:
448,192,248556,1,0,0:0:0:0:
320,192,248660,1,0,0:0:0:0:
64,192,248867,1,0,0:0:0:0:
192,192,248867,1,0,0:0:0:0:
448,192,249073,1,0,0:0:0:0:
192,192,249280,1,0,0:0:0:0:
320,192,249280,1,0,0:0:0:0:
448,192,249384,1,0,0:0:0:0:
64,192,249487,1,0,0:0:0:0:
448,192,249591,1,0,0:0:0:0:
192,192,249694,1,0,0:0:0:0:
320,192,249798,1,0,0:0:0:0:
192,192,249901,1,0,0:0:0:0:
64,192,250108,1,0,0:0:0:0:
192,192,250315,1,0,0:0:0:0:
448,192,250315,1,0,0:0:0:0:
320,192,250522,1,0,0:0:0:0:
192,192,250729,1,0,0:0:0:0:
64,192,250936,1,0,0:0:0:0:
192,192,250936,1,0,0:0:0:0:
192,192,251142,1,0,0:0:0:0:
64,192,251349,1,0,0:0:0:0:
448,192,251349,1,0,0:0:0:0:
64,192,251556,1,0,0:0:0:0:
448,192,251660,1,0,0:0:0:0:
320,192,251763,1,0,0:0:0:0:
192,192,251867,1,0,0:0:0:0:
320,192,251970,1,0,0:0:0:0:
64,192,252177,1,0,0:0:0:0:
192,192,252384,1,0,0:0:0:0:
320,192,252384,1,0,0:0:0:0:
448,192,252591,1,0,0:0:0:0:
192,192,252798,1,0,0:0:0:0:
192,192,253004,1,0,0:0:0:0:
448,192,253004,1,0,0:0:0:0:
320,192,253211,1,0,0:0:0:0:
192,192,253418,1,0,0:0:0:0:
320,192,253625,1,0,0:0:0:0:
448,192,253625,1,0,0:0:0:0:
64,192,253832,1,0,0:0:0:0:
192,192,254039,1,0,0:0:0:0:
64,192,254246,1,0,0:0:0:0:
192,192,254246,1,0,0:0:0:0:
320,192,254453,1,0,0:0:0:0:
192,192,254660,1,0,0:0:0:0:
448,192,254867,1,0,0:0:0:0:
192,192,254970,1,0,0:0:0:0:
320,192,255073,1,0,0:0:0:0:
64,192,255177,1,0,0:0:0:0:
192,192,255280,1,0,0:0:0:0:
448,192,255384,1,0,0:0:0:0:
320,192,255487,1,0,0:0:0:0:
64,192,255591,1,0,0:0:0:0:
192,192,255591,1,0,0:0:0:0:
320,192,255694,1,0,0:0:0:0:
448,192,255694,1,0,0:0:0:0:
192,192,255798,1,0,0:0:0:0:
448,192,255901,1,0,0:0:0:0:
64,192,255901,1,0,0:0:0:0:
64,192,256108,1,0,0:0:0:0:
192,192,256108,1,0,0:0:0:0:
320,192,256108,1,0,0:0:0:0:
448,192,256108,1,0,0:0:0:0:
64,192,256418,1,0,0:0:0:0:
192,192,256418,1,0,0:0:0:0:
320,192,256418,1,0,0:0:0:0:
448,192,256418,1,0,0:0:0:0:
64,192,256729,1,0,0:0:0:0:
320,192,256729,1,0,0:0:0:0:
448,192,256729,1,0,0:0:0:0:
192,192,256729,1,0,0:0:0:0:
64,192,256936,1,0,0:0:0:0:
192,192,256936,1,0,0:0:0:0:
64,192,257039,1,0,0:0:0:0:
192,192,257142,1,0,0:0:0:0:
320,192,257246,1,0,0:0:0:0:
448,192,257349,1,0,0:0:0:0:
320,192,257453,1,0,0:0:0:0:
192,192,257556,1,0,0:0:0:0:
320,192,257660,1,0,0:0:0:0:
192,192,257763,1,0,0:0:0:0:
64,192,257867,1,0,0:0:0:0:
192,192,257970,1,0,0:0:0:0:
320,192,258073,1,0,0:0:0:0:
192,192,258177,1,0,0:0:0:0:
320,192,258280,1,0,0:0:0:0:
448,192,258384,1,0,0:0:0:0:
320,192,258487,1,0,0:0:0:0:
192,192,258591,1,0,0:0:0:0:
320,192,258694,1,0,0:0:0:0:
448,192,258798,1,0,0:0:0:0:
320,192,258901,1,0,0:0:0:0:
192,192,259004,1,0,0:0:0:0:
64,192,259108,1,0,0:0:0:0:
192,192,259211,1,0,0:0:0:0:
320,192,259315,1,0,0:0:0:0:
192,192,259418,1,0,0:0:0:0:
64,192,259522,1,0,0:0:0:0:
448,192,259625,1,0,0:0:0:0:
320,192,259729,1,0,0:0:0:0:
192,192,259832,1,0,0:0:0:0:
320,192,259936,1,0,0:0:0:0:
448,192,260039,1,0,0:0:0:0:
192,192,260142,1,0,0:0:0:0:
320,192,260246,1,0,0:0:0:0:
192,192,260349,1,0,0:0:0:0:
320,192,260453,1,0,0:0:0:0:
192,192,260556,1,0,0:0:0:0:
64,192,260660,1,0,0:0:0:0:
192,192,260763,1,0,0:0:0:0:
320,192,260867,1,0,0:0:0:0:
448,192,260970,1,0,0:0:0:0:
320,192,261073,1,0,0:0:0:0:
192,192,261177,1,0,0:0:0:0:
320,192,261280,1,0,0:0:0:0:
448,192,261384,1,0,0:0:0:0:
320,192,261487,1,0,0:0:0:0:
192,192,261591,1,0,0:0:0:0:
64,192,261694,1,0,0:0:0:0:
192,192,261798,1,0,0:0:0:0:
320,192,261901,1,0,0:0:0:0:
448,192,262004,1,0,0:0:0:0:
320,192,262108,1,0,0:0:0:0:
448,192,262211,1,0,0:0:0:0:
320,192,262315,1,0,0:0:0:0:
192,192,262418,1,0,0:0:0:0:
64,192,262522,1,0,0:0:0:0:
192,192,262625,1,0,0:0:0:0:
64,192,262729,1,0,0:0:0:0:
192,192,262832,1,0,0:0:0:0:
320,192,262936,1,0,0:0:0:0:
192,192,263039,1,0,0:0:0:0:
320,192,263142,1,0,0:0:0:0:
192,192,263246,1,0,0:0:0:0:
320,192,263349,1,0,0:0:0:0:
192,192,263453,1,0,0:0:0:0:
64,192,263556,1,0,0:0:0:0:
448,192,263660,1,0,0:0:0:0:
192,192,263763,1,0,0:0:0:0:
320,192,263867,1,0,0:0:0:0:
64,192,263970,1,0,0:0:0:0:
448,192,264073,1,0,0:0:0:0:
192,192,264177,1,0,0:0:0:0:
320,192,264280,1,0,0:0:0:0:
64,192,264384,1,0,0:0:0:0:
448,192,264487,1,0,0:0:0:0:
192,192,264591,1,0,0:0:0:0:
320,192,264694,1,0,0:0:0:0:
64,192,264798,1,0,0:0:0:0:
192,192,264901,1,0,0:0:0:0:
320,192,265004,1,0,0:0:0:0:
448,192,265108,1,0,0:0:0:0:
64,192,265211,1,0,0:0:0:0:
192,192,265315,1,0,0:0:0:0:
320,192,265418,1,0,0:0:0:0:
448,192,265522,1,0,0:0:0:0:
64,192,265625,1,0,0:0:0:0:
192,192,265729,1,0,0:0:0:0:
320,192,265832,1,0,0:0:0:0:
448,192,265936,1,0,0:0:0:0:
320,192,266039,1,0,0:0:0:0:
192,192,266142,1,0,0:0:0:0:
320,192,266246,1,0,0:0:0:0:
64,192,266349,1,0,0:0:0:0:
448,192,266453,1,0,0:0:0:0:
192,192,266556,1,0,0:0:0:0:
320,192,266660,1,0,0:0:0:0:
64,192,266763,1,0,0:0:0:0:
320,192,266867,1,0,0:0:0:0:
192,192,266970,1,0,0:0:0:0:
448,192,267073,1,0,0:0:0:0:
192,192,267177,1,0,0:0:0:0:
448,192,267280,1,0,0:0:0:0:
64,192,267384,1,0,0:0:0:0:
448,192,267487,1,0,0:0:0:0:
192,192,267591,1,0,0:0:0:0:
320,192,267694,1,0,0:0:0:0:
64,192,267798,1,0,0:0:0:0:
192,192,267901,1,0,0:0:0:0:
448,192,268004,1,0,0:0:0:0:
64,192,268108,1,0,0:0:0:0:
320,192,268211,1,0,0:0:0:0:
192,192,268315,1,0,0:0:0:0:
320,192,268418,1,0,0:0:0:0:
192,192,268522,1,0,0:0:0:0:
64,192,268625,1,0,0:0:0:0:
320,192,268729,1,0,0:0:0:0:
192,192,268832,1,0,0:0:0:0:
320,192,268936,1,0,0:0:0:0:
448,192,269039,1,0,0:0:0:0:
192,192,269142,1,0,0:0:0:0:
64,192,269246,1,0,0:0:0:0:
192,192,269349,1,0,0:0:0:0:
320,192,269349,1,0,0:0:0:0:
192,192,269660,1,0,0:0:0:0:
320,192,269660,1,0,0:0:0:0:
192,192,269970,1,0,0:0:0:0:
320,192,269970,1,0,0:0:0:0:
64,192,270177,1,0,0:0:0:0:
448,192,270177,1,0,0:0:0:0:
192,192,270384,1,0,0:0:0:0:
192,192,270591,1,0,0:0:0:0:
320,192,270591,1,0,0:0:0:0:
320,192,270798,1,0,0:0:0:0:
192,192,271004,1,0,0:0:0:0:
192,192,271211,1,0,0:0:0:0:
448,192,271211,1,0,0:0:0:0:
320,192,271418,1,0,0:0:0:0:
192,192,271625,1,0,0:0:0:0:
448,192,271625,1,0,0:0:0:0:
320,192,271729,1,0,0:0:0:0:
64,192,271832,1,0,0:0:0:0:
192,192,271936,1,0,0:0:0:0:
448,192,272039,1,0,0:0:0:0:
320,192,272142,1,0,0:0:0:0:
192,192,272246,1,0,0:0:0:0:
64,192,272453,1,0,0:0:0:0:
64,192,272660,1,0,0:0:0:0:
448,192,272660,1,0,0:0:0:0:
192,192,272867,1,0,0:0:0:0:
320,192,273073,1,0,0:0:0:0:
192,192,273280,1,0,0:0:0:0:
320,192,273280,1,0,0:0:0:0:
192,192,273487,1,0,0:0:0:0:
64,192,273694,1,0,0:0:0:0:
448,192,273901,1,0,0:0:0:0:
192,192,273901,1,0,0:0:0:0:
320,192,274108,1,0,0:0:0:0:
320,192,274315,1,0,0:0:0:0:
192,192,274522,1,0,0:0:0:0:
448,192,274522,1,0,0:0:0:0:
448,192,274729,1,0,0:0:0:0:
192,192,274936,1,0,0:0:0:0:
320,192,274936,1,0,0:0:0:0:
448,192,275142,1,0,0:0:0:0:
192,192,275246,1,0,0:0:0:0:
64,192,275349,1,0,0:0:0:0:
320,192,275453,1,0,0:0:0:0:
192,192,275556,1,0,0:0:0:0:
320,192,275763,1,0,0:0:0:0:
192,192,275763,1,0,0:0:0:0:
448,192,275970,1,0,0:0:0:0:
64,192,276177,1,0,0:0:0:0:
192,192,276177,1,0,0:0:0:0:
320,192,276384,1,0,0:0:0:0:
448,192,276487,1,0,0:0:0:0:
192,192,276591,1,0,0:0:0:0:
64,192,276694,1,0,0:0:0:0:
448,192,276798,1,0,0:0:0:0:
448,192,276901,1,0,0:0:0:0:
320,192,277004,1,0,0:0:0:0:
320,192,277108,1,0,0:0:0:0:
192,192,277211,1,0,0:0:0:0:
192,192,277315,1,0,0:0:0:0:
64,192,277418,1,0,0:0:0:0:
64,192,277522,1,0,0:0:0:0:
320,192,277625,1,0,0:0:0:0:
192,192,277729,1,0,0:0:0:0:
448,192,277832,1,0,0:0:0:0:
64,192,277936,1,0,0:0:0:0:
64,192,278039,1,0,0:0:0:0:
192,192,278142,1,0,0:0:0:0:
192,192,278246,1,0,0:0:0:0:
320,192,278349,1,0,0:0:0:0:
320,192,278453,1,0,0:0:0:0:
448,192,278556,1,0,0:0:0:0:
448,192,278660,1,0,0:0:0:0:
64,192,278763,1,0,0:0:0:0:
320,192,278867,1,0,0:0:0:0:
192,192,278970,1,0,0:0:0:0:
448,192,279073,1,0,0:0:0:0:
448,192,279177,1,0,0:0:0:0:
320,192,279280,1,0,0:0:0:0:
320,192,279384,1,0,0:0:0:0:
192,192,279487,1,0,0:0:0:0:
192,192,279591,1,0,0:0:0:0:
64,192,279694,1,0,0:0:0:0:
64,192,279798,1,0,0:0:0:0:
448,192,279901,1,0,0:0:0:0:
192,192,280004,1,0,0:0:0:0:
320,192,280108,1,0,0:0:0:0:
64,192,280211,1,0,0:0:0:0:
64,192,280315,1,0,0:0:0:0:
192,192,280418,1,0,0:0:0:0:
192,192,280522,1,0,0:0:0:0:
320,192,280625,1,0,0:0:0:0:
320,192,280729,1,0,0:0:0:0:
448,192,280832,1,0,0:0:0:0:
448,192,280936,1,0,0:0:0:0:
64,192,281039,1,0,0:0:0:0:
320,192,281142,1,0,0:0:0:0:
192,192,281246,1,0,0:0:0:0:
448,192,281349,1,0,0:0:0:0:
448,192,281453,1,0,0:0:0:0:
320,192,281556,1,0,0:0:0:0:
320,192,281660,1,0,0:0:0:0:
192,192,281763,1,0,0:0:0:0:
192,192,281867,1,0,0:0:0:0:
64,192,281970,1,0,0:0:0:0:
64,192,282073,1,0,0:0:0:0:
320,192,282177,1,0,0:0:0:0:
192,192,282384,1,0,0:0:0:0:
320,192,282384,1,0,0:0:0:0:
64,192,282591,1,0,0:0:0:0:
192,192,282591,1,0,0:0:0:0:
320,192,282591,1,0,0:0:0:0:
448,192,282591,1,0,0:0:0:0:
64,192,282901,1,0,0:0:0:0:
192,192,282901,1,0,0:0:0:0:
320,192,282901,1,0,0:0:0:0:
448,192,282901,1,0,0:0:0:0:
64,192,283211,1,0,0:0:0:0:
192,192,283211,1,0,0:0:0:0:
320,192,283211,1,0,0:0:0:0:
448,192,283211,1,0,0:0:0:0:
192,0,283418,128,0,285073:1:0:0:0:
320,0,283418,128,0,285073:1:0:0:0:
64,192,283418,1,0,0:0:0:0:
448,192,283418,1,0,0:0:0:0:
