osu file format v14

[General]
AudioFilename: Nightmare before xxx.mp3
AudioLeadIn: 0
PreviewTime: 50546
Countdown: 0
SampleSet: None
StackLeniency: 0.7
Mode: 3
LetterboxInBreaks: 0
SpecialStyle: 0
WidescreenStoryboard: 1

[Editor]
DistanceSpacing: 0.8
BeatDivisor: 4
GridSize: 8
TimelineZoom: 1

[Metadata]
Title:Touhou from the past
TitleUnicode:Touhou from the past
Artist:Various Artists
ArtistUnicode:Various Artists
Creator:LostCool
Version:Nightmare before xxx
Source:LCC
Tags:
BeatmapID:2093490
BeatmapSetID:1000237

[Difficulty]
HPDrainRate:7.5
CircleSize:4
OverallDifficulty:7.5
ApproachRate:10
SliderMultiplier:1.4
SliderTickRate:1

[Events]
//Background and Video events
0,0,"bg ja.png",0,0
//Break Periods
//Storyboard Layer 0 (Background)
//Storyboard Layer 1 (Fail)
//Storyboard Layer 2 (Pass)
//Storyboard Layer 3 (Foreground)
//Storyboard Sound Samples

[TimingPoints]
50,333.333333333333,4,1,0,20,1,0
42716,222.222222222222,4,1,0,20,1,0
43049,666.666666666667,4,1,0,20,1,0
43382,333.333333333333,4,1,0,20,1,0
43715,666.666666666667,4,1,0,20,1,0
44048,333.333333333333,4,1,0,20,1,0
48048,222.222222222222,4,1,0,20,1,0
48381,666.666666666667,4,1,0,20,1,0
48713.51,333.333333333333,4,1,0,20,1,0
49213,666.666666666667,4,1,0,20,1,0
49379,333.333333333333,4,1,0,20,1,0
50713,666.666666666667,4,1,0,20,1,0
50879,333.333333333333,4,1,0,20,1,0
52045,666.666666666667,4,1,0,20,1,0
54378.78,333.333333333333,4,1,0,20,1,0
55712,222.222222222222,4,1,0,20,1,0
56045,333.333333333333,4,1,0,20,1,0
86711,222.222222222222,4,1,0,20,1,0
87377,666.666666666667,4,1,0,20,1,0
88043,333.333333333333,4,1,0,20,1,0
109376,666.666666666667,4,1,0,20,1,0
109709,222.222222222222,4,1,0,20,1,0
110042,333.333333333333,4,1,0,20,1,0
110375,666.666666666667,4,1,0,20,1,0
110708,333.333333333333,4,1,0,20,1,0
114708,666.666666666667,4,1,0,20,1,0
115041,222.222222222222,4,1,0,20,1,0
115374,333.333333333333,4,1,0,20,1,0
115707,666.666666666667,4,1,0,20,1,0
116040,333.333333333333,4,1,0,20,1,0
117374,666.666666666667,4,1,0,20,1,0
117540,333.333333333333,4,1,0,20,1,0
120040,666.666666666667,4,1,0,20,1,0
120206,333.333333333333,4,1,0,20,1,0
122373,222.222222222222,4,1,0,20,1,0
122706,333.333333333333,4,1,0,20,1,0

[HitObjects]
320,192,5383,5,0,0:0:0:0:
320,192,5716,1,0,0:0:0:0:
320,192,6049,1,0,0:0:0:0:
320,192,6383,1,0,0:0:0:0:
320,192,6716,1,0,0:0:0:0:
320,192,7049,1,0,0:0:0:0:
320,192,7383,1,0,0:0:0:0:
320,192,7716,1,0,0:0:0:0:
64,192,8049,1,0,0:0:0:0:
192,192,8216,1,0,0:0:0:0:
192,192,8383,1,0,0:0:0:0:
64,192,8549,1,0,0:0:0:0:
320,192,8716,1,0,0:0:0:0:
320,192,8883,1,0,0:0:0:0:
64,192,9049,1,0,0:0:0:0:
192,192,9216,1,0,0:0:0:0:
192,192,9299,1,0,0:0:0:0:
320,192,9383,1,0,0:0:0:0:
448,192,9549,1,0,0:0:0:0:
448,192,9716,1,0,0:0:0:0:
448,192,9883,1,0,0:0:0:0:
448,192,10049,1,0,0:0:0:0:
448,0,10216,128,0,10716:1:0:0:0:
64,192,10716,1,0,0:0:0:0:
320,192,10883,1,0,0:0:0:0:
192,192,10966,1,0,0:0:0:0:
64,192,11049,1,0,0:0:0:0:
192,192,11133,1,0,0:0:0:0:
320,192,11216,1,0,0:0:0:0:
64,192,11299,1,0,0:0:0:0:
448,192,11383,1,0,0:0:0:0:
64,192,11549,1,0,0:0:0:0:
320,192,11716,1,0,0:0:0:0:
192,192,11883,1,0,0:0:0:0:
192,192,12049,1,0,0:0:0:0:
448,192,12216,1,0,0:0:0:0:
320,192,12299,1,0,0:0:0:0:
192,192,12383,1,0,0:0:0:0:
64,192,12466,1,0,0:0:0:0:
320,192,12549,1,0,0:0:0:0:
448,192,12633,1,0,0:0:0:0:
192,192,12716,1,0,0:0:0:0:
64,192,12883,1,0,0:0:0:0:
192,192,13049,1,0,0:0:0:0:
320,192,13216,1,0,0:0:0:0:
448,192,13383,1,0,0:0:0:0:
192,192,13549,1,0,0:0:0:0:
320,192,13633,1,0,0:0:0:0:
64,192,13716,1,0,0:0:0:0:
192,192,13799,1,0,0:0:0:0:
320,192,13883,1,0,0:0:0:0:
192,192,13966,1,0,0:0:0:0:
64,192,14049,1,0,0:0:0:0:
320,192,14216,1,0,0:0:0:0:
192,192,14383,1,0,0:0:0:0:
448,192,14549,1,0,0:0:0:0:
448,192,14716,1,0,0:0:0:0:
320,192,14883,1,0,0:0:0:0:
192,192,14966,1,0,0:0:0:0:
448,192,15049,1,0,0:0:0:0:
320,192,15133,1,0,0:0:0:0:
448,192,15216,1,0,0:0:0:0:
64,192,15299,1,0,0:0:0:0:
192,192,15383,1,0,0:0:0:0:
320,192,15549,1,0,0:0:0:0:
192,192,15716,1,0,0:0:0:0:
448,192,15883,1,0,0:0:0:0:
64,192,16049,1,0,0:0:0:0:
192,192,16216,1,0,0:0:0:0:
320,192,16299,1,0,0:0:0:0:
192,192,16383,1,0,0:0:0:0:
64,192,16466,1,0,0:0:0:0:
192,192,16549,1,0,0:0:0:0:
64,192,16633,1,0,0:0:0:0:
320,192,16716,1,0,0:0:0:0:
192,192,16883,1,0,0:0:0:0:
192,192,17049,1,0,0:0:0:0:
320,192,17216,1,0,0:0:0:0:
64,192,17383,1,0,0:0:0:0:
448,192,17549,1,0,0:0:0:0:
192,192,17633,1,0,0:0:0:0:
320,192,17716,1,0,0:0:0:0:
64,192,17799,1,0,0:0:0:0:
192,192,17883,1,0,0:0:0:0:
320,192,17966,1,0,0:0:0:0:
64,192,18049,1,0,0:0:0:0:
192,192,18216,1,0,0:0:0:0:
320,192,18383,1,0,0:0:0:0:
448,192,18549,1,0,0:0:0:0:
192,192,18716,1,0,0:0:0:0:
320,192,19049,1,0,0:0:0:0:
192,192,19383,1,0,0:0:0:0:
64,192,19549,1,0,0:0:0:0:
448,192,19716,1,0,0:0:0:0:
192,192,19883,1,0,0:0:0:0:
192,192,20049,1,0,0:0:0:0:
320,192,20383,1,0,0:0:0:0:
64,192,20549,1,0,0:0:0:0:
192,192,20549,1,0,0:0:0:0:
192,192,20883,1,0,0:0:0:0:
320,192,21049,1,0,0:0:0:0:
192,192,21133,1,0,0:0:0:0:
320,192,21216,1,0,0:0:0:0:
192,192,21299,1,0,0:0:0:0:
64,192,21383,1,0,0:0:0:0:
192,192,21549,1,0,0:0:0:0:
192,192,21716,1,0,0:0:0:0:
448,0,21716,128,0,22049:1:0:0:0:
320,192,21883,1,0,0:0:0:0:
64,192,22049,1,0,0:0:0:0:
192,192,22216,1,0,0:0:0:0:
448,0,22383,128,0,22716:1:0:0:0:
192,192,22716,1,0,0:0:0:0:
448,192,22883,1,0,0:0:0:0:
320,192,23049,1,0,0:0:0:0:
64,0,23049,128,0,23383:1:0:0:0:
320,192,23216,1,0,0:0:0:0:
448,192,23383,1,0,0:0:0:0:
320,192,23549,1,0,0:0:0:0:
64,0,23716,128,0,24049:1:0:0:0:
320,192,24049,1,0,0:0:0:0:
192,192,24216,1,0,0:0:0:0:
320,192,24383,1,0,0:0:0:0:
448,0,24383,128,0,24716:1:0:0:0:
64,192,24549,1,0,0:0:0:0:
192,192,24716,1,0,0:0:0:0:
320,192,24883,1,0,0:0:0:0:
448,0,25049,128,0,25383:1:0:0:0:
192,192,25383,1,0,0:0:0:0:
448,192,25549,1,0,0:0:0:0:
64,192,25716,1,0,0:0:0:0:
192,0,25716,128,0,26049:1:0:0:0:
64,192,25883,1,0,0:0:0:0:
320,192,26049,1,0,0:0:0:0:
448,192,26216,1,0,0:0:0:0:
192,0,26383,128,0,26716:1:0:0:0:
448,0,26549,128,0,26716:1:0:0:0:
320,192,26716,1,0,0:0:0:0:
64,192,26883,1,0,0:0:0:0:
192,192,27049,1,0,0:0:0:0:
320,0,27049,128,0,27383:1:0:0:0:
448,192,27216,1,0,0:0:0:0:
64,192,27383,1,0,0:0:0:0:
192,192,27549,1,0,0:0:0:0:
320,0,27716,128,0,28049:1:0:0:0:
448,192,28049,1,0,0:0:0:0:
64,192,28216,1,0,0:0:0:0:
448,192,28383,1,0,0:0:0:0:
192,0,28383,128,0,28716:1:0:0:0:
320,192,28549,1,0,0:0:0:0:
64,192,28716,1,0,0:0:0:0:
320,192,28883,1,0,0:0:0:0:
192,0,29049,128,0,29383:1:0:0:0:
320,192,29383,1,0,0:0:0:0:
320,192,29549,1,0,0:0:0:0:
192,192,29716,1,0,0:0:0:0:
320,0,29716,128,0,30049:1:0:0:0:
64,192,29883,1,0,0:0:0:0:
192,192,30049,1,0,0:0:0:0:
448,192,30216,1,0,0:0:0:0:
320,0,30383,128,0,30716:1:0:0:0:
192,192,30716,1,0,0:0:0:0:
448,0,30716,128,0,30737:1:0:0:0:
320,192,30883,1,0,0:0:0:0:
448,192,31049,1,0,0:0:0:0:
64,0,31049,128,0,31383:1:0:0:0:
192,192,31216,1,0,0:0:0:0:
448,192,31383,1,0,0:0:0:0:
320,192,31549,1,0,0:0:0:0:
64,0,31716,128,0,32049:1:0:0:0:
192,0,31883,128,0,32049:1:0:0:0:
320,0,32049,128,0,32070:1:0:0:0:
448,192,32216,1,0,0:0:0:0:
64,192,32383,1,0,0:0:0:0:
192,0,32383,128,0,32716:1:0:0:0:
448,192,32549,1,0,0:0:0:0:
64,192,32716,1,0,0:0:0:0:
192,192,32883,1,0,0:0:0:0:
192,0,33049,128,0,33383:1:0:0:0:
320,192,33383,1,0,0:0:0:0:
320,192,33549,1,0,0:0:0:0:
64,192,33716,1,0,0:0:0:0:
448,0,33716,128,0,34049:1:0:0:0:
320,192,33883,1,0,0:0:0:0:
192,192,34049,1,0,0:0:0:0:
192,192,34216,1,0,0:0:0:0:
448,0,34383,128,0,34716:1:0:0:0:
64,192,34716,1,0,0:0:0:0:
320,192,34883,1,0,0:0:0:0:
192,192,35049,1,0,0:0:0:0:
320,0,35049,128,0,35383:1:0:0:0:
192,192,35216,1,0,0:0:0:0:
64,192,35383,1,0,0:0:0:0:
448,192,35549,1,0,0:0:0:0:
320,0,35716,128,0,36049:1:0:0:0:
192,192,36049,1,0,0:0:0:0:
448,192,36216,1,0,0:0:0:0:
64,192,36383,1,0,0:0:0:0:
192,0,36383,128,0,36716:1:0:0:0:
320,192,36549,1,0,0:0:0:0:
64,192,36716,1,0,0:0:0:0:
320,192,36883,1,0,0:0:0:0:
192,0,37049,128,0,37383:1:0:0:0:
448,192,37383,1,0,0:0:0:0:
320,192,37549,1,0,0:0:0:0:
192,192,37716,1,0,0:0:0:0:
64,0,37716,128,0,38049:1:0:0:0:
192,192,37883,1,0,0:0:0:0:
320,192,38049,1,0,0:0:0:0:
448,192,38216,1,0,0:0:0:0:
64,0,38383,128,0,38716:1:0:0:0:
448,192,38716,1,0,0:0:0:0:
192,192,38883,1,0,0:0:0:0:
320,192,39049,1,0,0:0:0:0:
448,0,39049,128,0,39383:1:0:0:0:
64,192,39216,1,0,0:0:0:0:
192,192,39383,1,0,0:0:0:0:
320,192,39549,1,0,0:0:0:0:
448,0,39716,128,0,40049:1:0:0:0:
64,192,39883,1,0,0:0:0:0:
192,192,39883,1,0,0:0:0:0:
192,192,40049,1,0,0:0:0:0:
64,192,40049,1,0,0:0:0:0:
64,192,40383,1,0,0:0:0:0:
192,192,40383,1,0,0:0:0:0:
64,192,40716,1,0,0:0:0:0:
192,192,40716,1,0,0:0:0:0:
64,192,41049,1,0,0:0:0:0:
192,192,41049,1,0,0:0:0:0:
64,192,41383,1,0,0:0:0:0:
192,192,41383,1,0,0:0:0:0:
320,192,41383,1,0,0:0:0:0:
448,192,41383,1,0,0:0:0:0:
192,192,41716,1,0,0:0:0:0:
320,192,41883,1,0,0:0:0:0:
192,192,42216,1,0,0:0:0:0:
320,192,42383,1,0,0:0:0:0:
64,192,42466,1,0,0:0:0:0:
192,192,42549,1,0,0:0:0:0:
448,192,42633,1,0,0:0:0:0:
64,0,42716,128,0,43382:1:0:0:0:
320,0,42716,128,0,43382:1:0:0:0:
448,0,43382,128,0,44048:1:0:0:0:
192,0,43382,128,0,44048:1:0:0:0:
320,192,43881,1,0,0:0:0:0:
320,192,44048,1,0,0:0:0:0:
64,192,44381,1,0,0:0:0:0:
320,192,44714,1,0,0:0:0:0:
192,192,44881,1,0,0:0:0:0:
64,192,45048,1,0,0:0:0:0:
320,192,45048,1,0,0:0:0:0:
64,192,45381,1,0,0:0:0:0:
192,192,45381,1,0,0:0:0:0:
192,192,45714,1,0,0:0:0:0:
192,192,46048,1,0,0:0:0:0:
192,192,46381,1,0,0:0:0:0:
192,192,46714,1,0,0:0:0:0:
192,192,47048,1,0,0:0:0:0:
192,192,47381,1,0,0:0:0:0:
448,192,47548,1,0,0:0:0:0:
192,192,47714,1,0,0:0:0:0:
448,192,47881,1,0,0:0:0:0:
320,0,48048,128,0,48714:1:0:0:0:
448,0,48048,128,0,48714:1:0:0:0:
64,0,48714,128,0,49379:1:0:0:0:
192,0,48714,128,0,49379:1:0:0:0:
320,192,49213,1,0,0:0:0:0:
320,192,49379,1,0,0:0:0:0:
64,192,49712,1,0,0:0:0:0:
192,192,49712,1,0,0:0:0:0:
64,192,49879,1,0,0:0:0:0:
192,192,49879,1,0,0:0:0:0:
320,192,50045,1,0,0:0:0:0:
448,192,50045,1,0,0:0:0:0:
320,192,50212,1,0,0:0:0:0:
448,192,50212,1,0,0:0:0:0:
64,192,50379,1,0,0:0:0:0:
192,192,50379,1,0,0:0:0:0:
320,192,50379,1,0,0:0:0:0:
448,192,50379,1,0,0:0:0:0:
64,192,50712,1,0,0:0:0:0:
320,192,50712,1,0,0:0:0:0:
192,0,50879,128,0,52045:1:0:0:0:
448,0,50879,128,0,52045:1:0:0:0:
192,192,53378,1,0,0:0:0:0:
448,192,53378,1,0,0:0:0:0:
64,0,53545,128,0,54378:1:0:0:0:
320,0,53545,128,0,54378:1:0:0:0:
192,192,54378,1,0,0:0:0:0:
448,192,54378,1,0,0:0:0:0:
320,192,54545,1,0,0:0:0:0:
64,192,54628,1,0,0:0:0:0:
320,192,54712,1,0,0:0:0:0:
192,192,54878,1,0,0:0:0:0:
320,192,54878,1,0,0:0:0:0:
64,192,55212,1,0,0:0:0:0:
320,192,55212,1,0,0:0:0:0:
64,192,55378,1,0,0:0:0:0:
448,192,55378,1,0,0:0:0:0:
320,0,55712,128,0,56045:1:0:0:0:
64,192,56045,1,0,0:0:0:0:
448,192,56128,1,0,0:0:0:0:
192,192,56211,1,0,0:0:0:0:
320,192,56295,1,0,0:0:0:0:
64,192,56378,1,0,0:0:0:0:
192,192,56461,1,0,0:0:0:0:
64,192,56545,1,0,0:0:0:0:
192,192,56711,1,0,0:0:0:0:
320,192,56878,1,0,0:0:0:0:
64,192,56961,1,0,0:0:0:0:
448,192,57045,1,0,0:0:0:0:
448,192,57211,1,0,0:0:0:0:
448,192,57378,1,0,0:0:0:0:
64,192,57461,1,0,0:0:0:0:
448,192,57545,1,0,0:0:0:0:
192,192,57628,1,0,0:0:0:0:
320,192,57711,1,0,0:0:0:0:
448,192,57795,1,0,0:0:0:0:
320,192,57878,1,0,0:0:0:0:
192,192,58045,1,0,0:0:0:0:
64,192,58211,1,0,0:0:0:0:
320,192,58295,1,0,0:0:0:0:
64,192,58378,1,0,0:0:0:0:
192,192,58545,1,0,0:0:0:0:
320,192,58711,1,0,0:0:0:0:
448,192,58878,1,0,0:0:0:0:
320,192,58961,1,0,0:0:0:0:
192,192,59045,1,0,0:0:0:0:
448,192,59128,1,0,0:0:0:0:
192,192,59211,1,0,0:0:0:0:
320,192,59295,1,0,0:0:0:0:
192,192,59378,1,0,0:0:0:0:
320,192,59545,1,0,0:0:0:0:
192,192,59711,1,0,0:0:0:0:
64,192,59878,1,0,0:0:0:0:
448,192,60044,1,0,0:0:0:0:
192,192,60211,1,0,0:0:0:0:
320,192,60294,1,0,0:0:0:0:
64,192,60378,1,0,0:0:0:0:
192,192,60461,1,0,0:0:0:0:
320,192,60544,1,0,0:0:0:0:
192,192,60628,1,0,0:0:0:0:
64,192,60711,1,0,0:0:0:0:
192,192,60878,1,0,0:0:0:0:
320,192,61044,1,0,0:0:0:0:
192,192,61211,1,0,0:0:0:0:
192,192,61378,1,0,0:0:0:0:
64,192,61461,1,0,0:0:0:0:
320,192,61544,1,0,0:0:0:0:
448,192,61628,1,0,0:0:0:0:
320,192,61711,1,0,0:0:0:0:
64,192,61794,1,0,0:0:0:0:
192,192,61878,1,0,0:0:0:0:
64,192,62044,1,0,0:0:0:0:
192,192,62211,1,0,0:0:0:0:
320,192,62378,1,0,0:0:0:0:
192,192,62461,1,0,0:0:0:0:
320,192,62544,1,0,0:0:0:0:
64,192,62711,1,0,0:0:0:0:
448,192,62794,1,0,0:0:0:0:
192,192,62878,1,0,0:0:0:0:
320,192,62961,1,0,0:0:0:0:
192,192,63044,1,0,0:0:0:0:
64,192,63128,1,0,0:0:0:0:
320,192,63211,1,0,0:0:0:0:
448,192,63378,1,0,0:0:0:0:
64,192,63544,1,0,0:0:0:0:
320,192,63628,1,0,0:0:0:0:
64,192,63711,1,0,0:0:0:0:
320,192,63878,1,0,0:0:0:0:
192,192,64044,1,0,0:0:0:0:
320,192,64211,1,0,0:0:0:0:
64,192,64294,1,0,0:0:0:0:
320,192,64378,1,0,0:0:0:0:
192,192,64544,1,0,0:0:0:0:
448,192,64711,1,0,0:0:0:0:
192,192,64878,1,0,0:0:0:0:
320,192,64961,1,0,0:0:0:0:
192,192,65044,1,0,0:0:0:0:
320,192,65211,1,0,0:0:0:0:
448,192,65378,1,0,0:0:0:0:
320,192,65544,1,0,0:0:0:0:
192,192,65628,1,0,0:0:0:0:
320,192,65711,1,0,0:0:0:0:
64,192,65878,1,0,0:0:0:0:
64,192,66044,1,0,0:0:0:0:
192,192,66211,1,0,0:0:0:0:
320,192,66294,1,0,0:0:0:0:
192,192,66378,1,0,0:0:0:0:
448,192,66461,1,0,0:0:0:0:
320,192,66544,1,0,0:0:0:0:
192,192,66628,1,0,0:0:0:0:
448,192,66711,1,0,0:0:0:0:
64,0,66711,128,0,67378:1:0:0:0:
320,192,66878,1,0,0:0:0:0:
192,192,67044,1,0,0:0:0:0:
448,192,67044,1,0,0:0:0:0:
320,192,67211,1,0,0:0:0:0:
448,192,67378,1,0,0:0:0:0:
192,192,67544,1,0,0:0:0:0:
64,192,67711,1,0,0:0:0:0:
320,192,67711,1,0,0:0:0:0:
192,192,67878,1,0,0:0:0:0:
320,192,68044,1,0,0:0:0:0:
64,192,68211,1,0,0:0:0:0:
192,192,68378,1,0,0:0:0:0:
448,192,68378,1,0,0:0:0:0:
320,192,68544,1,0,0:0:0:0:
192,192,68711,1,0,0:0:0:0:
320,192,68878,1,0,0:0:0:0:
64,192,69044,1,0,0:0:0:0:
320,192,69044,1,0,0:0:0:0:
192,192,69211,1,0,0:0:0:0:
64,192,69378,1,0,0:0:0:0:
192,192,69544,1,0,0:0:0:0:
64,192,69711,1,0,0:0:0:0:
192,192,69711,1,0,0:0:0:0:
64,192,69878,1,0,0:0:0:0:
448,192,70044,1,0,0:0:0:0:
192,192,70211,1,0,0:0:0:0:
192,192,70378,1,0,0:0:0:0:
448,192,70378,1,0,0:0:0:0:
320,192,70544,1,0,0:0:0:0:
64,192,70711,1,0,0:0:0:0:
320,192,70878,1,0,0:0:0:0:
192,192,71044,1,0,0:0:0:0:
320,192,71044,1,0,0:0:0:0:
448,192,71211,1,0,0:0:0:0:
64,192,71378,1,0,0:0:0:0:
320,192,71544,1,0,0:0:0:0:
192,192,71711,1,0,0:0:0:0:
320,192,71711,1,0,0:0:0:0:
64,192,71878,1,0,0:0:0:0:
64,192,72044,1,0,0:0:0:0:
192,192,72044,1,0,0:0:0:0:
320,192,72044,1,0,0:0:0:0:
448,192,72044,1,0,0:0:0:0:
192,192,72378,1,0,0:0:0:0:
320,192,72378,1,0,0:0:0:0:
64,192,72711,1,0,0:0:0:0:
448,192,72711,1,0,0:0:0:0:
64,192,73044,1,0,0:0:0:0:
320,192,73044,1,0,0:0:0:0:
192,192,73378,1,0,0:0:0:0:
448,192,73378,1,0,0:0:0:0:
64,192,73711,1,0,0:0:0:0:
192,192,73711,1,0,0:0:0:0:
320,192,74044,1,0,0:0:0:0:
448,192,74044,1,0,0:0:0:0:
192,192,74378,1,0,0:0:0:0:
320,192,74378,1,0,0:0:0:0:
64,192,74711,1,0,0:0:0:0:
448,192,74711,1,0,0:0:0:0:
64,192,74878,1,0,0:0:0:0:
320,192,74878,1,0,0:0:0:0:
64,192,75044,1,0,0:0:0:0:
448,192,75044,1,0,0:0:0:0:
192,192,75211,1,0,0:0:0:0:
448,192,75211,1,0,0:0:0:0:
320,192,75378,1,0,0:0:0:0:
448,192,75378,1,0,0:0:0:0:
64,192,75544,1,0,0:0:0:0:
448,192,75544,1,0,0:0:0:0:
192,192,75711,1,0,0:0:0:0:
448,192,75711,1,0,0:0:0:0:
64,192,75878,1,0,0:0:0:0:
448,192,75878,1,0,0:0:0:0:
192,192,76044,1,0,0:0:0:0:
448,192,76044,1,0,0:0:0:0:
64,192,76211,1,0,0:0:0:0:
64,192,76378,1,0,0:0:0:0:
192,192,76544,1,0,0:0:0:0:
448,192,76544,1,0,0:0:0:0:
64,192,76711,1,0,0:0:0:0:
64,192,76878,1,0,0:0:0:0:
192,192,77044,1,0,0:0:0:0:
448,192,77044,1,0,0:0:0:0:
320,192,77128,1,0,0:0:0:0:
64,192,77211,1,0,0:0:0:0:
448,192,77294,1,0,0:0:0:0:
192,192,77378,1,0,0:0:0:0:
320,192,77461,1,0,0:0:0:0:
64,192,77544,1,0,0:0:0:0:
448,192,77628,1,0,0:0:0:0:
192,192,77711,1,0,0:0:0:0:
320,192,77794,1,0,0:0:0:0:
192,192,77878,1,0,0:0:0:0:
320,192,77961,1,0,0:0:0:0:
192,192,78044,1,0,0:0:0:0:
64,192,78128,1,0,0:0:0:0:
448,192,78211,1,0,0:0:0:0:
192,192,78294,1,0,0:0:0:0:
448,192,78378,1,0,0:0:0:0:
320,192,78461,1,0,0:0:0:0:
64,192,78544,1,0,0:0:0:0:
448,192,78628,1,0,0:0:0:0:
192,192,78711,1,0,0:0:0:0:
64,192,78794,1,0,0:0:0:0:
192,192,78878,1,0,0:0:0:0:
320,192,78961,1,0,0:0:0:0:
192,192,79044,1,0,0:0:0:0:
320,192,79128,1,0,0:0:0:0:
448,192,79211,1,0,0:0:0:0:
192,192,79294,1,0,0:0:0:0:
448,192,79378,1,0,0:0:0:0:
320,192,79461,1,0,0:0:0:0:
192,192,79544,1,0,0:0:0:0:
448,192,79628,1,0,0:0:0:0:
64,192,79711,1,0,0:0:0:0:
192,192,79794,1,0,0:0:0:0:
320,192,79878,1,0,0:0:0:0:
64,192,79961,1,0,0:0:0:0:
192,192,80044,1,0,0:0:0:0:
64,192,80128,1,0,0:0:0:0:
320,192,80211,1,0,0:0:0:0:
448,192,80294,1,0,0:0:0:0:
192,192,80378,1,0,0:0:0:0:
448,192,80461,1,0,0:0:0:0:
64,192,80544,1,0,0:0:0:0:
448,192,80628,1,0,0:0:0:0:
320,192,80711,1,0,0:0:0:0:
192,192,80794,1,0,0:0:0:0:
64,192,80878,1,0,0:0:0:0:
448,192,80961,1,0,0:0:0:0:
192,192,81044,1,0,0:0:0:0:
320,192,81128,1,0,0:0:0:0:
64,192,81211,1,0,0:0:0:0:
192,192,81294,1,0,0:0:0:0:
320,192,81378,1,0,0:0:0:0:
448,0,81378,128,0,81628:1:0:0:0:
192,192,81461,1,0,0:0:0:0:
320,192,81544,1,0,0:0:0:0:
64,192,81628,1,0,0:0:0:0:
320,192,81711,1,0,0:0:0:0:
192,0,81711,128,0,81961:1:0:0:0:
448,192,81794,1,0,0:0:0:0:
64,192,81878,1,0,0:0:0:0:
320,192,81961,1,0,0:0:0:0:
192,192,82044,1,0,0:0:0:0:
448,0,82044,128,0,82128:1:0:0:0:
320,192,82128,1,0,0:0:0:0:
192,192,82211,1,0,0:0:0:0:
64,0,82211,128,0,82461:1:0:0:0:
448,192,82294,1,0,0:0:0:0:
320,192,82378,1,0,0:0:0:0:
448,192,82461,1,0,0:0:0:0:
192,192,82544,1,0,0:0:0:0:
320,192,82628,1,0,0:0:0:0:
64,192,82711,1,0,0:0:0:0:
192,192,82794,1,0,0:0:0:0:
64,192,82878,1,0,0:0:0:0:
448,192,82961,1,0,0:0:0:0:
192,192,83044,1,0,0:0:0:0:
448,192,83128,1,0,0:0:0:0:
320,192,83211,1,0,0:0:0:0:
192,192,83294,1,0,0:0:0:0:
448,192,83378,1,0,0:0:0:0:
64,192,83461,1,0,0:0:0:0:
448,192,83544,1,0,0:0:0:0:
64,192,83628,1,0,0:0:0:0:
320,192,83711,1,0,0:0:0:0:
192,192,83794,1,0,0:0:0:0:
320,192,83878,1,0,0:0:0:0:
448,192,83961,1,0,0:0:0:0:
64,192,84044,1,0,0:0:0:0:
192,192,84128,1,0,0:0:0:0:
320,192,84211,1,0,0:0:0:0:
64,192,84294,1,0,0:0:0:0:
320,192,84378,1,0,0:0:0:0:
192,192,84461,1,0,0:0:0:0:
448,192,84544,1,0,0:0:0:0:
64,192,84628,1,0,0:0:0:0:
448,192,84711,1,0,0:0:0:0:
320,192,84794,1,0,0:0:0:0:
448,192,84878,1,0,0:0:0:0:
64,192,84961,1,0,0:0:0:0:
192,192,85044,1,0,0:0:0:0:
448,192,85128,1,0,0:0:0:0:
192,192,85211,1,0,0:0:0:0:
448,192,85294,1,0,0:0:0:0:
192,192,85378,1,0,0:0:0:0:
320,192,85461,1,0,0:0:0:0:
64,192,85544,1,0,0:0:0:0:
320,192,85628,1,0,0:0:0:0:
192,192,85711,1,0,0:0:0:0:
448,192,85794,1,0,0:0:0:0:
64,192,85878,1,0,0:0:0:0:
192,192,85961,1,0,0:0:0:0:
320,192,86044,1,0,0:0:0:0:
192,192,86128,1,0,0:0:0:0:
320,192,86211,1,0,0:0:0:0:
448,192,86294,1,0,0:0:0:0:
64,192,86378,1,0,0:0:0:0:
320,192,86461,1,0,0:0:0:0:
192,192,86544,1,0,0:0:0:0:
320,192,86628,1,0,0:0:0:0:
448,0,86712,128,0,88047:1:0:0:0:
64,192,88043,1,0,0:0:0:0:
192,192,88376,1,0,0:0:0:0:
192,192,88876,1,0,0:0:0:0:
320,192,89043,1,0,0:0:0:0:
320,192,89376,1,0,0:0:0:0:
448,192,89709,1,0,0:0:0:0:
448,192,90209,1,0,0:0:0:0:
320,192,90376,1,0,0:0:0:0:
320,192,90709,1,0,0:0:0:0:
192,192,91043,1,0,0:0:0:0:
192,192,91376,1,0,0:0:0:0:
64,192,91543,1,0,0:0:0:0:
192,192,91709,1,0,0:0:0:0:
320,192,91876,1,0,0:0:0:0:
320,192,92043,1,0,0:0:0:0:
448,192,92043,1,0,0:0:0:0:
192,192,92376,1,0,0:0:0:0:
320,192,92376,1,0,0:0:0:0:
64,192,92709,1,0,0:0:0:0:
192,192,92876,1,0,0:0:0:0:
320,192,93043,1,0,0:0:0:0:
192,192,93209,1,0,0:0:0:0:
192,192,93376,1,0,0:0:0:0:
448,192,93376,1,0,0:0:0:0:
64,192,93709,1,0,0:0:0:0:
320,192,93709,1,0,0:0:0:0:
192,192,94209,1,0,0:0:0:0:
64,192,94376,1,0,0:0:0:0:
448,192,94376,1,0,0:0:0:0:
320,192,94709,1,0,0:0:0:0:
64,192,95043,1,0,0:0:0:0:
192,192,95043,1,0,0:0:0:0:
448,192,95376,1,0,0:0:0:0:
320,192,95542,1,0,0:0:0:0:
448,192,95542,1,0,0:0:0:0:
320,192,95709,1,0,0:0:0:0:
192,192,96042,1,0,0:0:0:0:
320,192,96042,1,0,0:0:0:0:
64,192,96376,1,0,0:0:0:0:
192,192,96376,1,0,0:0:0:0:
192,192,96709,1,0,0:0:0:0:
320,192,96876,1,0,0:0:0:0:
448,192,97042,1,0,0:0:0:0:
64,192,97209,1,0,0:0:0:0:
64,192,97376,1,0,0:0:0:0:
320,192,97376,1,0,0:0:0:0:
192,192,97709,1,0,0:0:0:0:
320,192,97709,1,0,0:0:0:0:
448,192,98042,1,0,0:0:0:0:
64,192,98209,1,0,0:0:0:0:
320,192,98376,1,0,0:0:0:0:
192,192,98542,1,0,0:0:0:0:
64,192,98709,1,0,0:0:0:0:
320,192,98709,1,0,0:0:0:0:
192,192,99042,1,0,0:0:0:0:
320,192,99042,1,0,0:0:0:0:
192,192,99542,1,0,0:0:0:0:
448,192,99542,1,0,0:0:0:0:
64,192,99709,1,0,0:0:0:0:
320,192,99709,1,0,0:0:0:0:
192,192,100042,1,0,0:0:0:0:
320,192,100042,1,0,0:0:0:0:
64,192,100376,1,0,0:0:0:0:
320,192,100376,1,0,0:0:0:0:
192,192,100709,1,0,0:0:0:0:
448,192,100876,1,0,0:0:0:0:
64,192,101042,1,0,0:0:0:0:
320,192,101042,1,0,0:0:0:0:
64,192,101376,1,0,0:0:0:0:
192,192,101376,1,0,0:0:0:0:
192,192,101709,1,0,0:0:0:0:
320,192,101709,1,0,0:0:0:0:
448,192,102042,1,0,0:0:0:0:
64,192,102209,1,0,0:0:0:0:
64,192,102376,1,0,0:0:0:0:
320,192,102542,1,0,0:0:0:0:
192,192,102709,1,0,0:0:0:0:
320,192,102709,1,0,0:0:0:0:
64,192,103042,1,0,0:0:0:0:
320,192,103042,1,0,0:0:0:0:
192,192,103376,1,0,0:0:0:0:
448,192,103542,1,0,0:0:0:0:
320,192,103709,1,0,0:0:0:0:
320,192,103876,1,0,0:0:0:0:
192,192,104042,1,0,0:0:0:0:
448,192,104042,1,0,0:0:0:0:
64,192,104376,1,0,0:0:0:0:
192,192,104376,1,0,0:0:0:0:
320,192,104876,1,0,0:0:0:0:
64,192,105042,1,0,0:0:0:0:
192,192,105042,1,0,0:0:0:0:
192,192,105376,1,0,0:0:0:0:
448,192,105376,1,0,0:0:0:0:
192,192,105709,1,0,0:0:0:0:
320,192,105709,1,0,0:0:0:0:
64,192,106209,1,0,0:0:0:0:
192,192,106376,1,0,0:0:0:0:
448,192,106376,1,0,0:0:0:0:
320,192,106542,1,0,0:0:0:0:
448,192,106709,1,0,0:0:0:0:
64,192,107042,1,0,0:0:0:0:
448,192,107042,1,0,0:0:0:0:
448,192,107376,1,0,0:0:0:0:
320,192,107709,1,0,0:0:0:0:
448,192,107709,1,0,0:0:0:0:
192,192,108042,1,0,0:0:0:0:
320,192,108042,1,0,0:0:0:0:
192,192,108376,1,0,0:0:0:0:
192,192,108542,1,0,0:0:0:0:
64,192,108876,1,0,0:0:0:0:
64,192,109042,1,0,0:0:0:0:
192,192,109126,1,0,0:0:0:0:
320,192,109209,1,0,0:0:0:0:
448,192,109292,1,0,0:0:0:0:
320,0,109376,128,0,110042:1:0:0:0:
192,0,110042,128,0,110708:1:0:0:0:
64,192,110542,1,0,0:0:0:0:
64,192,110708,1,0,0:0:0:0:
64,192,111042,1,0,0:0:0:0:
448,192,111042,1,0,0:0:0:0:
320,192,111375,1,0,0:0:0:0:
320,192,111542,1,0,0:0:0:0:
192,192,111708,1,0,0:0:0:0:
320,192,111708,1,0,0:0:0:0:
192,192,111875,1,0,0:0:0:0:
64,192,112042,1,0,0:0:0:0:
448,192,112042,1,0,0:0:0:0:
64,192,112375,1,0,0:0:0:0:
448,192,112375,1,0,0:0:0:0:
64,192,112708,1,0,0:0:0:0:
448,192,112708,1,0,0:0:0:0:
64,192,113042,1,0,0:0:0:0:
448,192,113042,1,0,0:0:0:0:
64,192,113375,1,0,0:0:0:0:
448,192,113375,1,0,0:0:0:0:
64,192,113708,1,0,0:0:0:0:
448,192,113708,1,0,0:0:0:0:
64,192,114042,1,0,0:0:0:0:
448,192,114042,1,0,0:0:0:0:
320,192,114208,1,0,0:0:0:0:
320,192,114375,1,0,0:0:0:0:
192,192,114375,1,0,0:0:0:0:
192,192,114542,1,0,0:0:0:0:
64,0,114708,128,0,115374:1:0:0:0:
448,0,114708,128,0,115374:1:0:0:0:
192,0,115374,128,0,116040:1:0:0:0:
320,0,115374,128,0,116040:1:0:0:0:
448,192,115874,1,0,0:0:0:0:
448,192,116040,1,0,0:0:0:0:
64,192,116040,1,0,0:0:0:0:
192,192,116374,1,0,0:0:0:0:
448,192,116374,1,0,0:0:0:0:
320,192,116540,1,0,0:0:0:0:
320,192,116707,1,0,0:0:0:0:
320,192,116874,1,0,0:0:0:0:
64,192,117040,1,0,0:0:0:0:
192,192,117040,1,0,0:0:0:0:
320,192,117040,1,0,0:0:0:0:
448,192,117040,1,0,0:0:0:0:
320,192,117374,1,0,0:0:0:0:
192,192,117374,1,0,0:0:0:0:
64,0,117540,128,0,118706:1:0:0:0:
448,0,117540,128,0,118706:1:0:0:0:
448,192,120040,1,0,0:0:0:0:
320,192,120040,1,0,0:0:0:0:
64,0,120206,128,0,121040:1:0:0:0:
192,0,120206,128,0,121040:1:0:0:0:
320,192,121040,1,0,0:0:0:0:
448,192,121040,1,0,0:0:0:0:
64,192,121206,1,0,0:0:0:0:
192,192,121290,1,0,0:0:0:0:
64,192,121373,1,0,0:0:0:0:
192,192,121540,1,0,0:0:0:0:
64,192,121873,1,0,0:0:0:0:
320,192,121873,1,0,0:0:0:0:
64,192,122040,1,0,0:0:0:0:
192,192,122040,1,0,0:0:0:0:
320,0,122373,128,0,122706:1:0:0:0:
192,192,122706,1,0,0:0:0:0:
64,0,122706,128,0,124039:1:0:0:0:
448,192,122789,1,0,0:0:0:0:
320,192,122872,1,0,0:0:0:0:
448,192,122956,1,0,0:0:0:0:
192,192,123039,1,0,0:0:0:0:
320,192,123122,1,0,0:0:0:0:
192,192,123206,1,0,0:0:0:0:
448,192,123289,1,0,0:0:0:0:
320,192,123372,1,0,0:0:0:0:
448,192,123456,1,0,0:0:0:0:
192,192,123539,1,0,0:0:0:0:
448,192,123622,1,0,0:0:0:0:
192,192,123706,1,0,0:0:0:0:
320,192,123789,1,0,0:0:0:0:
448,192,123872,1,0,0:0:0:0:
320,192,123956,1,0,0:0:0:0:
192,192,124039,1,0,0:0:0:0:
320,192,124122,1,0,0:0:0:0:
448,192,124206,1,0,0:0:0:0:
320,192,124289,1,0,0:0:0:0:
192,192,124372,1,0,0:0:0:0:
64,192,124456,1,0,0:0:0:0:
192,192,124539,1,0,0:0:0:0:
64,192,124622,1,0,0:0:0:0:
320,192,124706,1,0,0:0:0:0:
192,192,124789,1,0,0:0:0:0:
320,192,124872,1,0,0:0:0:0:
64,192,124956,1,0,0:0:0:0:
448,192,125039,1,0,0:0:0:0:
64,192,125122,1,0,0:0:0:0:
320,192,125206,1,0,0:0:0:0:
192,192,125289,1,0,0:0:0:0:
64,192,125372,1,0,0:0:0:0:
448,0,125372,128,0,126706:1:0:0:0:
192,192,125456,1,0,0:0:0:0:
64,192,125539,1,0,0:0:0:0:
320,192,125622,1,0,0:0:0:0:
192,192,125706,1,0,0:0:0:0:
64,192,125706,1,0,0:0:0:0:
320,192,125789,1,0,0:0:0:0:
192,192,125872,1,0,0:0:0:0:
64,192,125956,1,0,0:0:0:0:
192,192,126039,1,0,0:0:0:0:
320,192,126122,1,0,0:0:0:0:
64,192,126206,1,0,0:0:0:0:
192,192,126289,1,0,0:0:0:0:
320,192,126372,1,0,0:0:0:0:
64,192,126456,1,0,0:0:0:0:
320,192,126539,1,0,0:0:0:0:
64,192,126622,1,0,0:0:0:0:
192,192,126706,1,0,0:0:0:0:
320,192,126789,1,0,0:0:0:0:
448,192,126872,1,0,0:0:0:0:
192,192,126956,1,0,0:0:0:0:
320,192,127039,1,0,0:0:0:0:
448,192,127039,1,0,0:0:0:0:
192,192,127122,1,0,0:0:0:0:
64,192,127206,1,0,0:0:0:0:
448,192,127289,1,0,0:0:0:0:
64,192,127372,1,0,0:0:0:0:
448,192,127456,1,0,0:0:0:0:
192,192,127539,1,0,0:0:0:0:
320,192,127622,1,0,0:0:0:0:
448,192,127706,1,0,0:0:0:0:
320,192,127789,1,0,0:0:0:0:
192,192,127872,1,0,0:0:0:0:
320,192,127956,1,0,0:0:0:0:
448,192,128039,1,0,0:0:0:0:
64,0,128039,128,0,129372:1:0:0:0:
192,192,128122,1,0,0:0:0:0:
320,192,128206,1,0,0:0:0:0:
448,192,128289,1,0,0:0:0:0:
320,192,128372,1,0,0:0:0:0:
192,192,128372,1,0,0:0:0:0:
448,192,128456,1,0,0:0:0:0:
192,192,128539,1,0,0:0:0:0:
320,192,128622,1,0,0:0:0:0:
192,192,128706,1,0,0:0:0:0:
320,192,128789,1,0,0:0:0:0:
448,192,128872,1,0,0:0:0:0:
192,192,128956,1,0,0:0:0:0:
448,192,129039,1,0,0:0:0:0:
320,192,129122,1,0,0:0:0:0:
192,192,129206,1,0,0:0:0:0:
448,192,129289,1,0,0:0:0:0:
192,192,129372,1,0,0:0:0:0:
448,192,129456,1,0,0:0:0:0:
64,192,129539,1,0,0:0:0:0:
192,192,129622,1,0,0:0:0:0:
320,192,129706,1,0,0:0:0:0:
448,192,129789,1,0,0:0:0:0:
320,192,129872,1,0,0:0:0:0:
64,192,129955,1,0,0:0:0:0:
448,192,130039,1,0,0:0:0:0:
192,192,130122,1,0,0:0:0:0:
320,192,130205,1,0,0:0:0:0:
64,192,130289,1,0,0:0:0:0:
320,192,130372,1,0,0:0:0:0:
448,192,130455,1,0,0:0:0:0:
320,192,130539,1,0,0:0:0:0:
192,192,130622,1,0,0:0:0:0:
64,192,130705,1,0,0:0:0:0:
320,0,130705,128,0,132039:1:0:0:0:
192,192,130789,1,0,0:0:0:0:
448,192,130872,1,0,0:0:0:0:
192,192,130955,1,0,0:0:0:0:
448,192,131039,1,0,0:0:0:0:
64,192,131039,1,0,0:0:0:0:
64,192,131122,1,0,0:0:0:0:
192,192,131206,1,0,0:0:0:0:
448,192,131289,1,0,0:0:0:0:
64,192,131372,1,0,0:0:0:0:
448,192,131456,1,0,0:0:0:0:
192,192,131539,1,0,0:0:0:0:
64,192,131622,1,0,0:0:0:0:
192,192,131706,1,0,0:0:0:0:
448,192,131789,1,0,0:0:0:0:
64,192,131872,1,0,0:0:0:0:
448,192,131956,1,0,0:0:0:0:
64,192,132039,1,0,0:0:0:0:
192,192,132206,1,0,0:0:0:0:
192,192,132372,1,0,0:0:0:0:
320,192,132372,1,0,0:0:0:0:
64,192,132456,1,0,0:0:0:0:
448,192,132539,1,0,0:0:0:0:
192,192,132622,1,0,0:0:0:0:
448,192,132706,1,0,0:0:0:0:
192,192,132872,1,0,0:0:0:0:
320,192,133039,1,0,0:0:0:0:
448,192,133039,1,0,0:0:0:0:
64,192,133039,1,0,0:0:0:0:
192,192,133122,1,0,0:0:0:0:
448,192,133206,1,0,0:0:0:0:
320,192,133206,1,0,0:0:0:0:
192,192,133289,1,0,0:0:0:0:
320,192,133372,1,0,0:0:0:0:
448,192,133372,1,0,0:0:0:0:
64,192,133372,1,0,0:0:0:0:
192,192,133539,1,0,0:0:0:0:
192,192,133706,1,0,0:0:0:0:
448,192,133706,1,0,0:0:0:0:
320,192,133872,1,0,0:0:0:0:
192,0,133872,128,0,134039:1:0:0:0:
448,192,134039,1,0,0:0:0:0:
320,192,134206,1,0,0:0:0:0:
192,0,134206,128,0,134372:1:0:0:0:
64,192,134372,1,0,0:0:0:0:
448,192,134372,1,0,0:0:0:0:
320,192,134539,1,0,0:0:0:0:
192,0,134539,128,0,134706:1:0:0:0:
64,192,134706,1,0,0:0:0:0:
64,192,134872,1,0,0:0:0:0:
192,0,134872,128,0,135039:1:0:0:0:
320,192,135039,1,0,0:0:0:0:
448,192,135039,1,0,0:0:0:0:
64,192,135206,1,0,0:0:0:0:
192,0,135206,128,0,135372:1:0:0:0:
320,192,135372,1,0,0:0:0:0:
192,192,135539,1,0,0:0:0:0:
448,192,135539,1,0,0:0:0:0:
320,192,135706,1,0,0:0:0:0:
192,0,135706,128,0,136039:1:0:0:0:
448,192,135872,1,0,0:0:0:0:
320,192,136039,1,0,0:0:0:0:
64,192,136039,1,0,0:0:0:0:
320,192,136206,1,0,0:0:0:0:
320,192,136372,1,0,0:0:0:0:
448,192,136372,1,0,0:0:0:0:
192,192,136539,1,0,0:0:0:0:
320,0,136539,128,0,136706:1:0:0:0:
192,192,136706,1,0,0:0:0:0:
448,192,136872,1,0,0:0:0:0:
320,0,136872,128,0,137039:1:0:0:0:
64,192,137039,1,0,0:0:0:0:
192,192,137039,1,0,0:0:0:0:
64,192,137205,1,0,0:0:0:0:
320,0,137205,128,0,137372:1:0:0:0:
448,192,137372,1,0,0:0:0:0:
64,192,137539,1,0,0:0:0:0:
320,0,137539,128,0,137705:1:0:0:0:
192,192,137705,1,0,0:0:0:0:
448,192,137705,1,0,0:0:0:0:
64,192,137872,1,0,0:0:0:0:
320,0,137872,128,0,138039:1:0:0:0:
192,192,138039,1,0,0:0:0:0:
192,192,138205,1,0,0:0:0:0:
320,192,138205,1,0,0:0:0:0:
64,192,138372,1,0,0:0:0:0:
448,192,138372,1,0,0:0:0:0:
320,0,138372,128,0,138705:1:0:0:0:
192,192,138539,1,0,0:0:0:0:
448,192,138705,1,0,0:0:0:0:
192,192,138789,1,0,0:0:0:0:
64,192,138872,1,0,0:0:0:0:
448,192,138955,1,0,0:0:0:0:
192,192,139039,1,0,0:0:0:0:
320,192,139039,1,0,0:0:0:0:
64,192,139122,1,0,0:0:0:0:
448,192,139205,1,0,0:0:0:0:
320,192,139289,1,0,0:0:0:0:
64,192,139372,1,0,0:0:0:0:
192,192,139372,1,0,0:0:0:0:
320,192,139455,1,0,0:0:0:0:
448,192,139539,1,0,0:0:0:0:
64,192,139622,1,0,0:0:0:0:
192,192,139705,1,0,0:0:0:0:
320,192,139705,1,0,0:0:0:0:
448,192,139789,1,0,0:0:0:0:
64,192,139872,1,0,0:0:0:0:
192,192,139955,1,0,0:0:0:0:
320,192,140039,1,0,0:0:0:0:
448,192,140039,1,0,0:0:0:0:
64,192,140122,1,0,0:0:0:0:
192,192,140205,1,0,0:0:0:0:
320,192,140289,1,0,0:0:0:0:
192,192,140372,1,0,0:0:0:0:
320,192,140372,1,0,0:0:0:0:
64,192,140455,1,0,0:0:0:0:
192,192,140539,1,0,0:0:0:0:
192,192,140622,1,0,0:0:0:0:
64,192,140705,1,0,0:0:0:0:
192,192,140705,1,0,0:0:0:0:
448,192,140789,1,0,0:0:0:0:
320,192,140872,1,0,0:0:0:0:
192,192,140955,1,0,0:0:0:0:
192,192,141039,1,0,0:0:0:0:
320,192,141039,1,0,0:0:0:0:
448,192,141122,1,0,0:0:0:0:
320,192,141205,1,0,0:0:0:0:
192,192,141289,1,0,0:0:0:0:
64,192,141372,1,0,0:0:0:0:
192,192,141372,1,0,0:0:0:0:
320,192,141455,1,0,0:0:0:0:
64,192,141539,1,0,0:0:0:0:
192,192,141539,1,0,0:0:0:0:
320,192,141622,1,0,0:0:0:0:
192,192,141705,1,0,0:0:0:0:
320,192,141705,1,0,0:0:0:0:
64,192,141789,1,0,0:0:0:0:
192,192,141872,1,0,0:0:0:0:
320,192,141872,1,0,0:0:0:0:
64,192,141955,1,0,0:0:0:0:
320,192,142039,1,0,0:0:0:0:
448,192,142039,1,0,0:0:0:0:
192,192,142122,1,0,0:0:0:0:
320,192,142205,1,0,0:0:0:0:
448,192,142205,1,0,0:0:0:0:
192,192,142289,1,0,0:0:0:0:
192,192,142372,1,0,0:0:0:0:
320,192,142372,1,0,0:0:0:0:
448,192,142455,1,0,0:0:0:0:
192,192,142539,1,0,0:0:0:0:
320,192,142539,1,0,0:0:0:0:
448,192,142622,1,0,0:0:0:0:
64,192,142705,1,0,0:0:0:0:
448,192,142705,1,0,0:0:0:0:
192,192,142872,1,0,0:0:0:0:
320,192,142872,1,0,0:0:0:0:
192,192,143039,1,0,0:0:0:0:
320,192,143039,1,0,0:0:0:0:
64,192,143205,1,0,0:0:0:0:
448,192,143205,1,0,0:0:0:0:
320,192,143372,1,0,0:0:0:0:
192,192,143372,1,0,0:0:0:0:
320,192,143539,1,0,0:0:0:0:
192,192,143539,1,0,0:0:0:0:
192,192,143705,1,0,0:0:0:0:
448,192,143705,1,0,0:0:0:0:
320,192,143789,1,0,0:0:0:0:
64,192,143789,1,0,0:0:0:0:
192,192,143872,1,0,0:0:0:0:
448,192,143872,1,0,0:0:0:0:
320,192,143955,1,0,0:0:0:0:
64,192,143955,1,0,0:0:0:0:
192,0,144039,128,0,149372:1:0:0:0:
448,192,144039,1,0,0:0:0:0:
320,192,144205,1,0,0:0:0:0:
320,192,144372,1,0,0:0:0:0:
64,192,144539,1,0,0:0:0:0:
64,192,144705,1,0,0:0:0:0:
448,192,144872,1,0,0:0:0:0:
448,192,145039,1,0,0:0:0:0:
448,192,145205,1,0,0:0:0:0:
320,192,145539,1,0,0:0:0:0:
320,192,145705,1,0,0:0:0:0:
64,192,145872,1,0,0:0:0:0:
64,192,146039,1,0,0:0:0:0:
320,192,146205,1,0,0:0:0:0:
448,192,146372,1,0,0:0:0:0:
320,192,146539,1,0,0:0:0:0:
320,192,146872,1,0,0:0:0:0:
320,192,147039,1,0,0:0:0:0:
64,192,147205,1,0,0:0:0:0:
64,192,147372,1,0,0:0:0:0:
448,192,147539,1,0,0:0:0:0:
320,192,147705,1,0,0:0:0:0:
64,192,147872,1,0,0:0:0:0:
320,192,148205,1,0,0:0:0:0:
320,192,148372,1,0,0:0:0:0:
64,192,148539,1,0,0:0:0:0:
64,192,148705,1,0,0:0:0:0:
320,192,148872,1,0,0:0:0:0:
448,192,149039,1,0,0:0:0:0:
448,192,149205,1,0,0:0:0:0:
448,192,149372,1,0,0:0:0:0:
