osu file format v14

[General]
AudioFilename: Bad Apple Rock.mp3
AudioLeadIn: 0
PreviewTime: 171834
Countdown: 0
SampleSet: None
StackLeniency: 0.7
Mode: 3
LetterboxInBreaks: 0
SpecialStyle: 0
WidescreenStoryboard: 1

[Editor]
DistanceSpacing: 0.8
BeatDivisor: 4
GridSize: 8
TimelineZoom: 1

[Metadata]
Title:Touhou from the past
TitleUnicode:Touhou from the past
Artist:Various Artists
ArtistUnicode:Various Artists
Creator:LostCool
Version:Bad Apple Metal Remix Stepmania
Source:LCC
Tags:
BeatmapID:2093483
BeatmapSetID:1000237

[Difficulty]
HPDrainRate:7.5
CircleSize:4
OverallDifficulty:8.5
ApproachRate:10
SliderMultiplier:1.4
SliderTickRate:1

[Events]
//Background and Video events
0,0,"bg ja.png",0,0
//Break Periods
//Storyboard Layer 0 (Background)
//Storyboard Layer 1 (Fail)
//Storyboard Layer 2 (Pass)
//Storyboard Layer 3 (Foreground)
//Storyboard Sound Samples

[TimingPoints]
1168,333.333333333333,4,1,0,15,1,0

[HitObjects]
192,192,1168,5,0,0:0:0:0:
320,192,1334,5,0,0:0:0:0:
448,192,1501,1,0,0:0:0:0:
64,192,1667,1,0,0:0:0:0:
192,192,1834,1,0,0:0:0:0:
192,192,2001,1,0,0:0:0:0:
320,192,2167,1,0,0:0:0:0:
448,192,2334,1,0,0:0:0:0:
192,192,2501,1,0,0:0:0:0:
320,192,2667,1,0,0:0:0:0:
448,192,2834,1,0,0:0:0:0:
64,192,3001,1,0,0:0:0:0:
448,192,3167,1,0,0:0:0:0:
192,192,3334,1,0,0:0:0:0:
320,192,3501,1,0,0:0:0:0:
64,192,3667,1,0,0:0:0:0:
448,192,3834,1,0,0:0:0:0:
192,192,4001,1,0,0:0:0:0:
448,192,4167,1,0,0:0:0:0:
320,192,4334,1,0,0:0:0:0:
320,192,4501,1,0,0:0:0:0:
448,192,4667,1,0,0:0:0:0:
192,192,4834,1,0,0:0:0:0:
448,192,5001,1,0,0:0:0:0:
64,192,5167,1,0,0:0:0:0:
64,192,5334,1,0,0:0:0:0:
448,192,5501,1,0,0:0:0:0:
192,192,5667,1,0,0:0:0:0:
320,192,5834,1,0,0:0:0:0:
320,192,6001,1,0,0:0:0:0:
64,192,6167,1,0,0:0:0:0:
448,192,6334,1,0,0:0:0:0:
192,192,6501,1,0,0:0:0:0:
448,192,6667,1,0,0:0:0:0:
448,192,6834,1,0,0:0:0:0:
320,192,7001,1,0,0:0:0:0:
192,192,7167,1,0,0:0:0:0:
448,192,7334,1,0,0:0:0:0:
448,192,7501,1,0,0:0:0:0:
64,192,7667,1,0,0:0:0:0:
448,192,7834,1,0,0:0:0:0:
64,192,8001,1,0,0:0:0:0:
64,192,8167,1,0,0:0:0:0:
320,192,8334,1,0,0:0:0:0:
192,192,8501,1,0,0:0:0:0:
448,192,8667,1,0,0:0:0:0:
320,192,8834,1,0,0:0:0:0:
192,192,9001,1,0,0:0:0:0:
448,192,9167,1,0,0:0:0:0:
64,192,9334,1,0,0:0:0:0:
320,192,9501,1,0,0:0:0:0:
192,192,9667,1,0,0:0:0:0:
448,192,9834,1,0,0:0:0:0:
64,192,10001,1,0,0:0:0:0:
320,192,10167,1,0,0:0:0:0:
192,192,10334,1,0,0:0:0:0:
64,192,10501,1,0,0:0:0:0:
192,192,10667,1,0,0:0:0:0:
448,192,10834,1,0,0:0:0:0:
320,192,11001,1,0,0:0:0:0:
192,192,11167,1,0,0:0:0:0:
64,192,11334,1,0,0:0:0:0:
448,192,11501,1,0,0:0:0:0:
192,192,11667,1,0,0:0:0:0:
320,192,11834,1,0,0:0:0:0:
64,192,11834,1,0,0:0:0:0:
192,192,14501,1,0,0:0:0:0:
320,192,14501,1,0,0:0:0:0:
192,192,15001,1,0,0:0:0:0:
192,192,15334,1,0,0:0:0:0:
192,192,15501,1,0,0:0:0:0:
320,192,16334,1,0,0:0:0:0:
192,192,16667,1,0,0:0:0:0:
192,192,16834,1,0,0:0:0:0:
192,192,17001,1,0,0:0:0:0:
320,192,17167,1,0,0:0:0:0:
320,192,19501,1,0,0:0:0:0:
64,192,19667,1,0,0:0:0:0:
192,192,19834,1,0,0:0:0:0:
192,192,21001,1,0,0:0:0:0:
448,192,21167,1,0,0:0:0:0:
448,192,21334,1,0,0:0:0:0:
320,192,21501,1,0,0:0:0:0:
192,192,21584,1,0,0:0:0:0:
448,192,21751,1,0,0:0:0:0:
448,192,21834,1,0,0:0:0:0:
320,192,22001,1,0,0:0:0:0:
192,192,22167,1,0,0:0:0:0:
320,192,22251,1,0,0:0:0:0:
448,192,22334,1,0,0:0:0:0:
320,192,22501,1,0,0:0:0:0:
192,192,22667,1,0,0:0:0:0:
64,192,22834,1,0,0:0:0:0:
192,192,23001,1,0,0:0:0:0:
320,192,23167,1,0,0:0:0:0:
448,192,23334,1,0,0:0:0:0:
192,192,23501,1,0,0:0:0:0:
320,192,23667,1,0,0:0:0:0:
192,192,23834,1,0,0:0:0:0:
448,192,24001,1,0,0:0:0:0:
320,192,24167,1,0,0:0:0:0:
192,192,24334,1,0,0:0:0:0:
64,192,24501,1,0,0:0:0:0:
192,192,24667,1,0,0:0:0:0:
320,192,24834,1,0,0:0:0:0:
448,192,25001,1,0,0:0:0:0:
64,192,25167,1,0,0:0:0:0:
64,192,25334,1,0,0:0:0:0:
192,192,25334,1,0,0:0:0:0:
192,192,25501,1,0,0:0:0:0:
192,192,25667,1,0,0:0:0:0:
320,192,25667,1,0,0:0:0:0:
320,192,25834,1,0,0:0:0:0:
320,192,26001,1,0,0:0:0:0:
448,192,26001,1,0,0:0:0:0:
448,192,26167,1,0,0:0:0:0:
320,192,26334,1,0,0:0:0:0:
448,192,26334,1,0,0:0:0:0:
320,192,26501,1,0,0:0:0:0:
192,192,26667,1,0,0:0:0:0:
320,192,26667,1,0,0:0:0:0:
192,192,26834,1,0,0:0:0:0:
64,192,27001,1,0,0:0:0:0:
192,192,27001,1,0,0:0:0:0:
192,192,27167,1,0,0:0:0:0:
192,192,27334,1,0,0:0:0:0:
320,192,27334,1,0,0:0:0:0:
320,192,27501,1,0,0:0:0:0:
320,192,27667,1,0,0:0:0:0:
448,192,27667,1,0,0:0:0:0:
448,192,27834,1,0,0:0:0:0:
320,192,28001,1,0,0:0:0:0:
448,192,28001,1,0,0:0:0:0:
320,192,28167,1,0,0:0:0:0:
192,192,28334,1,0,0:0:0:0:
320,192,28334,1,0,0:0:0:0:
192,192,28501,1,0,0:0:0:0:
64,192,28667,1,0,0:0:0:0:
192,192,28667,1,0,0:0:0:0:
64,192,28834,1,0,0:0:0:0:
64,192,29001,1,0,0:0:0:0:
192,192,29001,1,0,0:0:0:0:
192,192,29167,1,0,0:0:0:0:
192,192,29334,1,0,0:0:0:0:
320,192,29334,1,0,0:0:0:0:
320,192,29501,1,0,0:0:0:0:
320,192,29667,1,0,0:0:0:0:
448,192,29667,1,0,0:0:0:0:
448,192,29834,1,0,0:0:0:0:
320,192,30001,1,0,0:0:0:0:
448,192,30001,1,0,0:0:0:0:
320,192,30167,1,0,0:0:0:0:
192,192,30334,1,0,0:0:0:0:
320,192,30334,1,0,0:0:0:0:
64,192,30501,1,0,0:0:0:0:
448,192,30501,1,0,0:0:0:0:
192,192,30584,1,0,0:0:0:0:
448,192,30667,1,0,0:0:0:0:
320,192,30751,1,0,0:0:0:0:
192,192,30834,1,0,0:0:0:0:
64,192,30917,1,0,0:0:0:0:
448,192,31001,1,0,0:0:0:0:
192,192,31001,1,0,0:0:0:0:
320,192,31084,1,0,0:0:0:0:
192,192,31167,1,0,0:0:0:0:
64,192,31251,1,0,0:0:0:0:
192,192,31334,1,0,0:0:0:0:
448,192,31334,1,0,0:0:0:0:
320,192,31417,1,0,0:0:0:0:
64,192,31501,1,0,0:0:0:0:
192,192,31584,1,0,0:0:0:0:
320,192,31667,1,0,0:0:0:0:
64,192,31667,1,0,0:0:0:0:
448,192,31751,1,0,0:0:0:0:
320,192,31834,1,0,0:0:0:0:
448,192,31917,1,0,0:0:0:0:
64,192,32001,1,0,0:0:0:0:
320,192,32001,1,0,0:0:0:0:
192,192,32084,1,0,0:0:0:0:
64,192,32167,1,0,0:0:0:0:
192,192,32251,1,0,0:0:0:0:
320,192,32334,1,0,0:0:0:0:
448,192,32334,1,0,0:0:0:0:
64,192,32417,1,0,0:0:0:0:
320,192,32501,1,0,0:0:0:0:
448,192,32501,1,0,0:0:0:0:
192,192,32584,1,0,0:0:0:0:
64,192,32667,1,0,0:0:0:0:
448,192,32667,1,0,0:0:0:0:
192,192,32751,1,0,0:0:0:0:
320,192,32834,1,0,0:0:0:0:
448,192,32834,1,0,0:0:0:0:
64,192,32917,1,0,0:0:0:0:
192,192,33001,1,0,0:0:0:0:
320,192,33084,1,0,0:0:0:0:
448,192,33167,1,0,0:0:0:0:
64,192,33167,1,0,0:0:0:0:
192,192,33251,1,0,0:0:0:0:
64,192,33334,1,0,0:0:0:0:
192,192,33417,1,0,0:0:0:0:
320,192,33501,1,0,0:0:0:0:
448,192,33584,1,0,0:0:0:0:
320,192,33667,1,0,0:0:0:0:
192,192,33751,1,0,0:0:0:0:
64,192,33834,1,0,0:0:0:0:
192,192,33917,1,0,0:0:0:0:
320,192,34001,1,0,0:0:0:0:
448,192,34084,1,0,0:0:0:0:
320,192,34167,1,0,0:0:0:0:
192,192,34251,1,0,0:0:0:0:
64,192,34334,1,0,0:0:0:0:
192,192,34417,1,0,0:0:0:0:
320,192,34501,1,0,0:0:0:0:
448,192,34584,1,0,0:0:0:0:
320,192,34667,1,0,0:0:0:0:
192,192,34751,1,0,0:0:0:0:
64,192,34834,1,0,0:0:0:0:
192,192,34917,1,0,0:0:0:0:
320,192,35001,1,0,0:0:0:0:
448,192,35084,1,0,0:0:0:0:
320,192,35167,1,0,0:0:0:0:
192,192,35251,1,0,0:0:0:0:
64,192,35334,1,0,0:0:0:0:
448,192,35417,1,0,0:0:0:0:
320,192,35501,1,0,0:0:0:0:
192,192,35584,1,0,0:0:0:0:
64,192,35667,1,0,0:0:0:0:
448,192,35751,1,0,0:0:0:0:
320,192,35834,1,0,0:0:0:0:
64,192,35834,1,0,0:0:0:0:
192,192,35917,1,0,0:0:0:0:
448,192,36001,1,0,0:0:0:0:
320,192,36084,1,0,0:0:0:0:
64,192,36167,1,0,0:0:0:0:
192,192,36167,1,0,0:0:0:0:
320,192,36251,1,0,0:0:0:0:
448,192,36334,1,0,0:0:0:0:
320,192,36417,1,0,0:0:0:0:
64,192,36501,1,0,0:0:0:0:
192,192,36501,1,0,0:0:0:0:
320,192,36584,1,0,0:0:0:0:
448,192,36667,1,0,0:0:0:0:
320,192,36751,1,0,0:0:0:0:
64,192,36834,1,0,0:0:0:0:
192,192,36834,1,0,0:0:0:0:
320,192,36917,1,0,0:0:0:0:
448,192,37001,1,0,0:0:0:0:
320,192,37084,1,0,0:0:0:0:
64,192,37167,1,0,0:0:0:0:
192,192,37167,1,0,0:0:0:0:
320,192,37251,1,0,0:0:0:0:
448,192,37334,1,0,0:0:0:0:
320,192,37417,1,0,0:0:0:0:
64,192,37501,1,0,0:0:0:0:
192,192,37501,1,0,0:0:0:0:
320,192,37584,1,0,0:0:0:0:
448,192,37667,1,0,0:0:0:0:
320,192,37751,1,0,0:0:0:0:
64,192,37834,1,0,0:0:0:0:
192,192,37834,1,0,0:0:0:0:
320,192,37917,1,0,0:0:0:0:
448,192,38001,1,0,0:0:0:0:
320,192,38084,1,0,0:0:0:0:
64,192,38167,1,0,0:0:0:0:
192,192,38167,1,0,0:0:0:0:
320,192,38251,1,0,0:0:0:0:
448,192,38334,1,0,0:0:0:0:
320,192,38417,1,0,0:0:0:0:
64,192,38501,1,0,0:0:0:0:
192,192,38667,1,0,0:0:0:0:
320,192,38834,1,0,0:0:0:0:
448,192,39001,1,0,0:0:0:0:
192,192,39167,1,0,0:0:0:0:
320,192,39334,1,0,0:0:0:0:
448,192,39501,1,0,0:0:0:0:
320,192,39667,1,0,0:0:0:0:
192,192,39834,1,0,0:0:0:0:
448,192,40001,1,0,0:0:0:0:
320,192,40167,1,0,0:0:0:0:
192,192,40334,1,0,0:0:0:0:
64,192,40501,1,0,0:0:0:0:
192,192,40667,1,0,0:0:0:0:
320,192,40834,1,0,0:0:0:0:
64,192,41001,1,0,0:0:0:0:
192,192,41167,1,0,0:0:0:0:
320,192,41334,1,0,0:0:0:0:
448,192,41501,1,0,0:0:0:0:
320,192,41667,1,0,0:0:0:0:
192,192,41834,1,0,0:0:0:0:
320,192,42001,1,0,0:0:0:0:
64,192,42167,1,0,0:0:0:0:
448,192,42334,1,0,0:0:0:0:
320,192,42501,1,0,0:0:0:0:
192,192,42751,1,0,0:0:0:0:
192,192,42834,1,0,0:0:0:0:
320,192,43001,1,0,0:0:0:0:
192,192,43167,1,0,0:0:0:0:
192,192,43251,1,0,0:0:0:0:
320,192,43334,1,0,0:0:0:0:
64,192,43417,1,0,0:0:0:0:
448,192,43501,1,0,0:0:0:0:
320,192,43667,1,0,0:0:0:0:
192,192,43751,1,0,0:0:0:0:
64,192,43834,1,0,0:0:0:0:
448,0,43834,128,0,44001:1:0:0:0:
192,192,44001,1,0,0:0:0:0:
320,0,44001,128,0,44167:1:0:0:0:
192,192,44167,1,0,0:0:0:0:
448,0,44167,128,0,44334:1:0:0:0:
64,192,44334,1,0,0:0:0:0:
320,0,44334,128,0,44501:1:0:0:0:
64,192,44501,1,0,0:0:0:0:
192,0,44501,128,0,44834:1:0:0:0:
448,192,44667,1,0,0:0:0:0:
64,192,44834,1,0,0:0:0:0:
320,0,44834,128,0,45001:1:0:0:0:
192,192,45001,1,0,0:0:0:0:
448,0,45001,128,0,45167:1:0:0:0:
64,192,45167,1,0,0:0:0:0:
320,0,45167,128,0,45501:1:0:0:0:
192,192,45334,1,0,0:0:0:0:
192,192,45501,1,0,0:0:0:0:
448,0,45501,128,0,45834:1:0:0:0:
64,192,45667,1,0,0:0:0:0:
64,0,45834,128,0,46001:1:0:0:0:
320,192,45917,1,0,0:0:0:0:
192,0,46001,128,0,46167:1:0:0:0:
448,192,46084,1,0,0:0:0:0:
320,0,46167,128,0,46334:1:0:0:0:
64,192,46251,1,0,0:0:0:0:
448,0,46334,128,0,46501:1:0:0:0:
64,192,46417,1,0,0:0:0:0:
320,192,46501,1,0,0:0:0:0:
192,0,46501,128,0,46667:1:0:0:0:
448,192,46667,1,0,0:0:0:0:
320,0,46667,128,0,46834:1:0:0:0:
64,192,46834,1,0,0:0:0:0:
192,0,46834,128,0,47001:1:0:0:0:
448,192,47001,1,0,0:0:0:0:
320,0,47001,128,0,47167:1:0:0:0:
192,192,47167,1,0,0:0:0:0:
448,0,47167,128,0,47501:1:0:0:0:
320,192,47334,1,0,0:0:0:0:
192,192,47501,1,0,0:0:0:0:
64,0,47501,128,0,47667:1:0:0:0:
320,192,47667,1,0,0:0:0:0:
192,0,47667,128,0,47834:1:0:0:0:
448,192,47834,1,0,0:0:0:0:
320,0,47834,128,0,48001:1:0:0:0:
64,192,48001,1,0,0:0:0:0:
448,0,48001,128,0,48167:1:0:0:0:
64,192,48167,1,0,0:0:0:0:
192,0,48167,128,0,48334:1:0:0:0:
320,192,48251,1,0,0:0:0:0:
320,0,48334,128,0,48667:1:0:0:0:
192,192,48667,1,0,0:0:0:0:
448,0,48667,128,0,48834:1:0:0:0:
64,192,48834,1,0,0:0:0:0:
320,0,48834,128,0,49001:1:0:0:0:
448,192,49001,1,0,0:0:0:0:
192,0,49001,128,0,49167:1:0:0:0:
320,192,49167,1,0,0:0:0:0:
64,0,49167,128,0,49334:1:0:0:0:
320,192,49334,1,0,0:0:0:0:
448,0,49334,128,0,49501:1:0:0:0:
64,192,49501,1,0,0:0:0:0:
192,0,49501,128,0,49667:1:0:0:0:
64,192,49667,1,0,0:0:0:0:
320,0,49667,128,0,49834:1:0:0:0:
192,192,49834,1,0,0:0:0:0:
448,0,49834,128,0,50167:1:0:0:0:
192,192,50001,1,0,0:0:0:0:
64,192,50167,1,0,0:0:0:0:
320,0,50167,128,0,50334:1:0:0:0:
192,192,50334,1,0,0:0:0:0:
64,0,50334,128,0,50501:1:0:0:0:
320,192,50501,1,0,0:0:0:0:
448,0,50501,128,0,51167:1:0:0:0:
192,192,50667,1,0,0:0:0:0:
64,192,50834,1,0,0:0:0:0:
64,192,51001,1,0,0:0:0:0:
320,192,51167,1,0,0:0:0:0:
64,0,51167,128,0,51501:1:0:0:0:
192,192,51334,1,0,0:0:0:0:
320,0,51501,128,0,51834:1:0:0:0:
448,192,51584,1,0,0:0:0:0:
192,192,51667,1,0,0:0:0:0:
448,192,51834,1,0,0:0:0:0:
320,192,52001,1,0,0:0:0:0:
192,192,52167,1,0,0:0:0:0:
320,192,52334,1,0,0:0:0:0:
448,0,52501,128,0,52834:1:0:0:0:
320,192,52834,1,0,0:0:0:0:
192,192,53001,1,0,0:0:0:0:
320,192,53167,1,0,0:0:0:0:
448,192,53251,1,0,0:0:0:0:
192,192,53334,1,0,0:0:0:0:
320,192,53417,1,0,0:0:0:0:
64,192,53501,1,0,0:0:0:0:
192,192,53584,1,0,0:0:0:0:
64,192,53667,1,0,0:0:0:0:
320,192,53751,1,0,0:0:0:0:
192,192,53834,1,0,0:0:0:0:
448,192,53917,1,0,0:0:0:0:
320,192,54001,1,0,0:0:0:0:
448,192,54084,1,0,0:0:0:0:
192,192,54167,1,0,0:0:0:0:
320,192,54251,1,0,0:0:0:0:
64,192,54334,1,0,0:0:0:0:
192,192,54417,1,0,0:0:0:0:
64,192,54501,1,0,0:0:0:0:
192,192,54667,1,0,0:0:0:0:
320,192,54834,1,0,0:0:0:0:
192,192,55001,1,0,0:0:0:0:
192,0,55167,128,0,55501:1:0:0:0:
448,192,55501,1,0,0:0:0:0:
64,192,55667,1,0,0:0:0:0:
448,0,55834,128,0,56167:1:0:0:0:
192,0,56167,128,0,56501:1:0:0:0:
320,192,56501,1,0,0:0:0:0:
448,192,56667,1,0,0:0:0:0:
192,192,56834,1,0,0:0:0:0:
192,192,57001,1,0,0:0:0:0:
320,192,57167,1,0,0:0:0:0:
448,192,57334,1,0,0:0:0:0:
192,192,57501,1,0,0:0:0:0:
64,192,57667,1,0,0:0:0:0:
320,0,57834,128,0,58167:1:0:0:0:
448,192,58167,1,0,0:0:0:0:
64,192,58334,1,0,0:0:0:0:
448,192,58501,1,0,0:0:0:0:
64,192,58667,1,0,0:0:0:0:
64,192,58834,1,0,0:0:0:0:
192,192,58917,1,0,0:0:0:0:
448,0,59001,128,0,59334:1:0:0:0:
192,192,59334,1,0,0:0:0:0:
64,192,59501,1,0,0:0:0:0:
320,192,59667,1,0,0:0:0:0:
64,192,59834,1,0,0:0:0:0:
448,192,59834,1,0,0:0:0:0:
64,192,60001,1,0,0:0:0:0:
448,192,60001,1,0,0:0:0:0:
64,192,60167,1,0,0:0:0:0:
320,192,60251,1,0,0:0:0:0:
192,192,60334,1,0,0:0:0:0:
448,192,60417,1,0,0:0:0:0:
192,192,60501,1,0,0:0:0:0:
448,192,60667,1,0,0:0:0:0:
320,192,60751,1,0,0:0:0:0:
192,192,60834,1,0,0:0:0:0:
320,192,61001,1,0,0:0:0:0:
64,0,61167,128,0,61834:1:0:0:0:
320,0,61834,128,0,62167:1:0:0:0:
64,192,62501,1,0,0:0:0:0:
192,192,62501,1,0,0:0:0:0:
192,192,62667,1,0,0:0:0:0:
320,192,62667,1,0,0:0:0:0:
64,192,62834,1,0,0:0:0:0:
448,192,62834,1,0,0:0:0:0:
192,192,63001,1,0,0:0:0:0:
448,192,63001,1,0,0:0:0:0:
320,0,63167,128,0,63501:1:0:0:0:
448,0,63167,128,0,63501:1:0:0:0:
192,192,63501,1,0,0:0:0:0:
64,192,63667,1,0,0:0:0:0:
64,0,63834,128,0,64084:1:0:0:0:
192,0,63834,128,0,64084:1:0:0:0:
192,0,64167,128,0,64417:1:0:0:0:
320,0,64167,128,0,64417:1:0:0:0:
320,0,64480,128,0,64730:1:0:0:0:
448,0,64480,128,0,64730:1:0:0:0:
64,0,64834,128,0,65167:1:0:0:0:
448,0,64834,128,0,65167:1:0:0:0:
192,0,65167,128,0,67834:1:0:0:0:
320,192,65667,1,0,0:0:0:0:
320,192,65834,1,0,0:0:0:0:
64,192,66167,1,0,0:0:0:0:
448,192,66167,1,0,0:0:0:0:
64,192,66480,1,0,0:0:0:0:
448,192,66480,1,0,0:0:0:0:
320,192,66667,1,0,0:0:0:0:
320,192,66980,1,0,0:0:0:0:
64,192,67167,1,0,0:0:0:0:
448,192,67167,1,0,0:0:0:0:
320,192,67480,1,0,0:0:0:0:
320,192,67834,1,0,0:0:0:0:
320,192,68167,1,0,0:0:0:0:
192,192,68334,1,0,0:0:0:0:
192,192,68480,1,0,0:0:0:0:
320,192,68480,1,0,0:0:0:0:
448,192,68834,1,0,0:0:0:0:
320,192,69167,1,0,0:0:0:0:
64,192,69334,1,0,0:0:0:0:
192,192,69667,1,0,0:0:0:0:
320,192,69751,1,0,0:0:0:0:
448,192,69813,1,0,0:0:0:0:
64,192,69834,1,0,0:0:0:0:
192,192,70063,1,0,0:0:0:0:
64,192,70084,1,0,0:0:0:0:
320,192,70167,1,0,0:0:0:0:
448,192,70188,1,0,0:0:0:0:
320,192,70334,1,0,0:0:0:0:
448,192,70355,1,0,0:0:0:0:
192,192,70501,1,0,0:0:0:0:
64,192,71001,1,0,0:0:0:0:
192,192,71001,1,0,0:0:0:0:
448,192,71167,1,0,0:0:0:0:
320,192,71188,1,0,0:0:0:0:
64,192,71334,1,0,0:0:0:0:
192,192,71501,1,0,0:0:0:0:
192,192,71834,1,0,0:0:0:0:
192,192,72001,1,0,0:0:0:0:
320,192,72334,1,0,0:0:0:0:
192,192,72501,1,0,0:0:0:0:
192,192,72834,1,0,0:0:0:0:
64,192,73167,1,0,0:0:0:0:
448,192,73167,1,0,0:0:0:0:
320,192,73501,1,0,0:0:0:0:
192,192,73667,1,0,0:0:0:0:
320,192,73834,1,0,0:0:0:0:
448,192,73834,1,0,0:0:0:0:
192,192,74167,1,0,0:0:0:0:
320,192,74501,1,0,0:0:0:0:
320,192,74667,1,0,0:0:0:0:
64,192,75001,1,0,0:0:0:0:
192,192,75084,1,0,0:0:0:0:
320,192,75167,1,0,0:0:0:0:
448,192,75334,1,0,0:0:0:0:
320,192,75417,1,0,0:0:0:0:
192,192,75501,1,0,0:0:0:0:
448,192,75584,1,0,0:0:0:0:
320,192,75667,1,0,0:0:0:0:
64,192,75751,1,0,0:0:0:0:
448,192,75834,1,0,0:0:0:0:
448,192,76001,1,0,0:0:0:0:
192,192,76167,1,0,0:0:0:0:
448,192,76167,1,0,0:0:0:0:
448,192,76334,1,0,0:0:0:0:
448,192,76501,1,0,0:0:0:0:
448,192,76667,1,0,0:0:0:0:
192,192,76834,1,0,0:0:0:0:
448,192,76834,1,0,0:0:0:0:
448,192,77001,1,0,0:0:0:0:
320,192,77167,1,0,0:0:0:0:
320,192,77334,1,0,0:0:0:0:
64,192,77501,1,0,0:0:0:0:
320,192,77501,1,0,0:0:0:0:
320,192,77667,1,0,0:0:0:0:
320,192,77834,1,0,0:0:0:0:
320,192,78001,1,0,0:0:0:0:
64,192,78167,1,0,0:0:0:0:
320,192,78167,1,0,0:0:0:0:
320,192,78334,1,0,0:0:0:0:
192,192,78501,1,0,0:0:0:0:
192,192,78667,1,0,0:0:0:0:
192,192,78834,1,0,0:0:0:0:
448,192,78834,1,0,0:0:0:0:
192,192,79001,1,0,0:0:0:0:
192,192,79167,1,0,0:0:0:0:
192,192,79334,1,0,0:0:0:0:
192,192,79501,1,0,0:0:0:0:
448,192,79501,1,0,0:0:0:0:
192,192,79667,1,0,0:0:0:0:
64,192,79834,1,0,0:0:0:0:
64,192,80001,1,0,0:0:0:0:
64,192,80167,1,0,0:0:0:0:
320,192,80167,1,0,0:0:0:0:
64,192,80334,1,0,0:0:0:0:
64,192,80501,1,0,0:0:0:0:
64,192,80667,1,0,0:0:0:0:
320,192,80667,1,0,0:0:0:0:
192,192,80751,1,0,0:0:0:0:
64,192,80834,1,0,0:0:0:0:
320,192,80834,1,0,0:0:0:0:
448,192,80855,1,0,0:0:0:0:
64,192,81001,1,0,0:0:0:0:
320,192,81001,1,0,0:0:0:0:
192,192,81022,1,0,0:0:0:0:
448,192,81042,1,0,0:0:0:0:
192,192,81167,1,0,0:0:0:0:
448,192,81167,1,0,0:0:0:0:
192,192,81334,1,0,0:0:0:0:
448,192,81334,1,0,0:0:0:0:
64,192,81501,1,0,0:0:0:0:
192,192,81501,1,0,0:0:0:0:
448,192,81501,1,0,0:0:0:0:
192,192,81667,1,0,0:0:0:0:
448,192,81667,1,0,0:0:0:0:
192,192,81834,1,0,0:0:0:0:
448,192,81834,1,0,0:0:0:0:
192,192,82001,1,0,0:0:0:0:
448,192,82001,1,0,0:0:0:0:
64,192,82167,1,0,0:0:0:0:
192,192,82167,1,0,0:0:0:0:
448,192,82167,1,0,0:0:0:0:
192,192,82334,1,0,0:0:0:0:
448,192,82334,1,0,0:0:0:0:
64,192,82501,1,0,0:0:0:0:
320,192,82501,1,0,0:0:0:0:
64,192,82667,1,0,0:0:0:0:
320,192,82667,1,0,0:0:0:0:
64,192,82834,1,0,0:0:0:0:
320,192,82834,1,0,0:0:0:0:
448,192,82834,1,0,0:0:0:0:
64,192,83001,1,0,0:0:0:0:
320,192,83001,1,0,0:0:0:0:
64,192,83167,1,0,0:0:0:0:
320,192,83167,1,0,0:0:0:0:
64,192,83334,1,0,0:0:0:0:
320,192,83334,1,0,0:0:0:0:
64,192,83501,1,0,0:0:0:0:
320,192,83501,1,0,0:0:0:0:
448,192,83501,1,0,0:0:0:0:
64,192,83667,1,0,0:0:0:0:
320,192,83667,1,0,0:0:0:0:
64,192,83834,1,0,0:0:0:0:
192,192,83834,1,0,0:0:0:0:
320,192,83834,1,0,0:0:0:0:
64,192,84001,1,0,0:0:0:0:
192,192,84001,1,0,0:0:0:0:
448,192,84001,1,0,0:0:0:0:
64,192,84167,1,0,0:0:0:0:
320,192,84167,1,0,0:0:0:0:
448,192,84167,1,0,0:0:0:0:
192,192,84334,1,0,0:0:0:0:
320,192,84334,1,0,0:0:0:0:
448,192,84334,1,0,0:0:0:0:
64,192,84501,1,0,0:0:0:0:
320,192,84501,1,0,0:0:0:0:
448,192,84501,1,0,0:0:0:0:
64,192,84667,1,0,0:0:0:0:
192,192,84667,1,0,0:0:0:0:
448,192,84667,1,0,0:0:0:0:
64,192,84834,1,0,0:0:0:0:
192,192,84834,1,0,0:0:0:0:
320,192,84834,1,0,0:0:0:0:
64,192,85001,1,0,0:0:0:0:
192,192,85001,1,0,0:0:0:0:
320,192,85001,1,0,0:0:0:0:
448,192,85001,1,0,0:0:0:0:
64,192,85167,1,0,0:0:0:0:
192,192,85167,1,0,0:0:0:0:
320,192,85167,1,0,0:0:0:0:
448,192,85167,1,0,0:0:0:0:
320,192,85334,1,0,0:0:0:0:
192,192,85501,1,0,0:0:0:0:
64,192,85667,1,0,0:0:0:0:
192,192,85834,1,0,0:0:0:0:
192,192,85917,1,0,0:0:0:0:
320,192,86001,1,0,0:0:0:0:
448,192,86167,1,0,0:0:0:0:
192,192,86251,1,0,0:0:0:0:
320,192,86334,1,0,0:0:0:0:
64,192,86417,1,0,0:0:0:0:
192,192,86501,1,0,0:0:0:0:
448,192,86584,1,0,0:0:0:0:
192,192,86667,1,0,0:0:0:0:
448,192,86751,1,0,0:0:0:0:
192,192,86834,1,0,0:0:0:0:
448,192,86917,1,0,0:0:0:0:
192,192,87001,1,0,0:0:0:0:
448,192,87084,1,0,0:0:0:0:
192,192,87167,1,0,0:0:0:0:
448,192,87251,1,0,0:0:0:0:
192,192,87334,1,0,0:0:0:0:
448,192,87417,1,0,0:0:0:0:
192,192,87501,1,0,0:0:0:0:
448,192,87584,1,0,0:0:0:0:
192,192,87667,1,0,0:0:0:0:
448,192,87751,1,0,0:0:0:0:
64,192,87834,1,0,0:0:0:0:
320,192,87917,1,0,0:0:0:0:
64,192,88001,1,0,0:0:0:0:
320,192,88084,1,0,0:0:0:0:
64,192,88167,1,0,0:0:0:0:
320,192,88251,1,0,0:0:0:0:
64,192,88334,1,0,0:0:0:0:
320,192,88417,1,0,0:0:0:0:
64,192,88501,1,0,0:0:0:0:
320,192,88584,1,0,0:0:0:0:
64,192,88667,1,0,0:0:0:0:
320,192,88751,1,0,0:0:0:0:
64,192,88834,1,0,0:0:0:0:
320,192,88917,1,0,0:0:0:0:
64,192,89001,1,0,0:0:0:0:
320,192,89084,1,0,0:0:0:0:
448,192,89167,1,0,0:0:0:0:
192,192,89251,1,0,0:0:0:0:
448,192,89334,1,0,0:0:0:0:
192,192,89417,1,0,0:0:0:0:
448,192,89501,1,0,0:0:0:0:
192,192,89584,1,0,0:0:0:0:
448,192,89667,1,0,0:0:0:0:
192,192,89751,1,0,0:0:0:0:
448,192,89834,1,0,0:0:0:0:
192,192,89917,1,0,0:0:0:0:
448,192,90001,1,0,0:0:0:0:
192,192,90084,1,0,0:0:0:0:
448,192,90167,1,0,0:0:0:0:
192,192,90251,1,0,0:0:0:0:
448,192,90334,1,0,0:0:0:0:
192,192,90417,1,0,0:0:0:0:
320,192,90501,1,0,0:0:0:0:
64,192,90584,1,0,0:0:0:0:
320,192,90667,1,0,0:0:0:0:
64,192,90751,1,0,0:0:0:0:
320,192,90834,1,0,0:0:0:0:
64,192,90917,1,0,0:0:0:0:
320,192,91001,1,0,0:0:0:0:
64,192,91084,1,0,0:0:0:0:
320,192,91167,1,0,0:0:0:0:
64,192,91251,1,0,0:0:0:0:
320,192,91334,1,0,0:0:0:0:
64,192,91417,1,0,0:0:0:0:
320,192,91501,1,0,0:0:0:0:
64,192,91584,1,0,0:0:0:0:
320,192,91667,1,0,0:0:0:0:
64,192,91751,1,0,0:0:0:0:
448,192,91834,1,0,0:0:0:0:
320,192,91917,1,0,0:0:0:0:
192,192,92001,1,0,0:0:0:0:
64,192,92084,1,0,0:0:0:0:
320,192,92167,1,0,0:0:0:0:
192,192,92251,1,0,0:0:0:0:
320,192,92334,1,0,0:0:0:0:
192,192,92417,1,0,0:0:0:0:
64,192,92501,1,0,0:0:0:0:
192,192,92584,1,0,0:0:0:0:
320,192,92667,1,0,0:0:0:0:
448,192,92751,1,0,0:0:0:0:
192,192,92834,1,0,0:0:0:0:
320,192,92917,1,0,0:0:0:0:
192,192,93001,1,0,0:0:0:0:
320,192,93084,1,0,0:0:0:0:
448,192,93167,1,0,0:0:0:0:
320,192,93251,1,0,0:0:0:0:
192,192,93334,1,0,0:0:0:0:
64,192,93417,1,0,0:0:0:0:
320,192,93501,1,0,0:0:0:0:
192,192,93584,1,0,0:0:0:0:
320,192,93667,1,0,0:0:0:0:
192,192,93751,1,0,0:0:0:0:
64,192,93834,1,0,0:0:0:0:
192,192,93917,1,0,0:0:0:0:
320,192,94001,1,0,0:0:0:0:
448,192,94084,1,0,0:0:0:0:
192,192,94167,1,0,0:0:0:0:
320,192,94251,1,0,0:0:0:0:
192,192,94334,1,0,0:0:0:0:
320,192,94417,1,0,0:0:0:0:
448,192,94501,1,0,0:0:0:0:
320,192,94584,1,0,0:0:0:0:
192,192,94667,1,0,0:0:0:0:
64,192,94751,1,0,0:0:0:0:
320,192,94834,1,0,0:0:0:0:
192,192,94917,1,0,0:0:0:0:
320,192,95001,1,0,0:0:0:0:
192,192,95084,1,0,0:0:0:0:
64,192,95167,1,0,0:0:0:0:
192,192,95251,1,0,0:0:0:0:
320,192,95334,1,0,0:0:0:0:
448,192,95417,1,0,0:0:0:0:
192,192,95501,1,0,0:0:0:0:
320,192,95584,1,0,0:0:0:0:
192,192,95667,1,0,0:0:0:0:
320,192,95751,1,0,0:0:0:0:
448,192,95834,1,0,0:0:0:0:
64,0,95834,128,0,97167:1:0:0:0:
320,192,96001,1,0,0:0:0:0:
448,192,96001,1,0,0:0:0:0:
320,192,96167,1,0,0:0:0:0:
192,192,96334,1,0,0:0:0:0:
320,192,96334,1,0,0:0:0:0:
192,192,96501,1,0,0:0:0:0:
320,192,96501,1,0,0:0:0:0:
448,192,96584,1,0,0:0:0:0:
320,192,96667,1,0,0:0:0:0:
192,192,96751,1,0,0:0:0:0:
448,192,96834,1,0,0:0:0:0:
320,192,96917,1,0,0:0:0:0:
448,192,97001,1,0,0:0:0:0:
192,192,97084,1,0,0:0:0:0:
320,192,97167,1,0,0:0:0:0:
192,192,97251,1,0,0:0:0:0:
64,192,97334,1,0,0:0:0:0:
448,192,97417,1,0,0:0:0:0:
192,192,97501,1,0,0:0:0:0:
320,192,97584,1,0,0:0:0:0:
448,192,97667,1,0,0:0:0:0:
64,192,97751,1,0,0:0:0:0:
448,192,97834,1,0,0:0:0:0:
320,192,97917,1,0,0:0:0:0:
192,192,98001,1,0,0:0:0:0:
448,192,98084,1,0,0:0:0:0:
64,192,98167,1,0,0:0:0:0:
192,192,98251,1,0,0:0:0:0:
320,192,98334,1,0,0:0:0:0:
64,192,98417,1,0,0:0:0:0:
448,192,98501,1,0,0:0:0:0:
320,192,98584,1,0,0:0:0:0:
192,192,98667,1,0,0:0:0:0:
448,192,98751,1,0,0:0:0:0:
64,192,98834,1,0,0:0:0:0:
192,192,98917,1,0,0:0:0:0:
320,192,99001,1,0,0:0:0:0:
64,192,99084,1,0,0:0:0:0:
448,192,99167,1,0,0:0:0:0:
320,192,99251,1,0,0:0:0:0:
192,192,99334,1,0,0:0:0:0:
448,192,99417,1,0,0:0:0:0:
64,192,99501,1,0,0:0:0:0:
192,192,99584,1,0,0:0:0:0:
320,192,99667,1,0,0:0:0:0:
64,192,99751,1,0,0:0:0:0:
448,192,99834,1,0,0:0:0:0:
320,192,99917,1,0,0:0:0:0:
448,192,100001,1,0,0:0:0:0:
192,192,100084,1,0,0:0:0:0:
320,192,100167,1,0,0:0:0:0:
64,192,100251,1,0,0:0:0:0:
192,192,100334,1,0,0:0:0:0:
64,192,100417,1,0,0:0:0:0:
320,192,100501,1,0,0:0:0:0:
192,192,100584,1,0,0:0:0:0:
448,192,100667,1,0,0:0:0:0:
320,192,100751,1,0,0:0:0:0:
448,192,100834,1,0,0:0:0:0:
192,192,100917,1,0,0:0:0:0:
320,192,101001,1,0,0:0:0:0:
64,192,101084,1,0,0:0:0:0:
192,192,101167,1,0,0:0:0:0:
64,192,101251,1,0,0:0:0:0:
320,192,101334,1,0,0:0:0:0:
192,192,101417,1,0,0:0:0:0:
448,192,101501,1,0,0:0:0:0:
320,192,101584,1,0,0:0:0:0:
448,192,101667,1,0,0:0:0:0:
192,192,101751,1,0,0:0:0:0:
320,192,101834,1,0,0:0:0:0:
64,192,101917,1,0,0:0:0:0:
192,192,102001,1,0,0:0:0:0:
64,192,102084,1,0,0:0:0:0:
320,192,102167,1,0,0:0:0:0:
192,192,102251,1,0,0:0:0:0:
448,192,102334,1,0,0:0:0:0:
320,192,102417,1,0,0:0:0:0:
64,192,102501,1,0,0:0:0:0:
192,192,102584,1,0,0:0:0:0:
320,192,102667,1,0,0:0:0:0:
448,192,102751,1,0,0:0:0:0:
448,192,102834,1,0,0:0:0:0:
320,192,102917,1,0,0:0:0:0:
192,192,103001,1,0,0:0:0:0:
64,192,103084,1,0,0:0:0:0:
64,192,103167,1,0,0:0:0:0:
192,192,103251,1,0,0:0:0:0:
320,192,103334,1,0,0:0:0:0:
448,192,103417,1,0,0:0:0:0:
448,192,103501,1,0,0:0:0:0:
320,192,103584,1,0,0:0:0:0:
192,192,103667,1,0,0:0:0:0:
64,192,103751,1,0,0:0:0:0:
448,192,103834,1,0,0:0:0:0:
320,192,103917,1,0,0:0:0:0:
192,192,104001,1,0,0:0:0:0:
64,192,104084,1,0,0:0:0:0:
448,192,104167,1,0,0:0:0:0:
320,192,104251,1,0,0:0:0:0:
192,192,104334,1,0,0:0:0:0:
64,192,104417,1,0,0:0:0:0:
448,192,104501,1,0,0:0:0:0:
320,192,104584,1,0,0:0:0:0:
192,192,104667,1,0,0:0:0:0:
64,192,104751,1,0,0:0:0:0:
448,192,104834,1,0,0:0:0:0:
320,192,104917,1,0,0:0:0:0:
192,192,105001,1,0,0:0:0:0:
64,192,105084,1,0,0:0:0:0:
64,192,105167,1,0,0:0:0:0:
192,192,105251,1,0,0:0:0:0:
320,192,105334,1,0,0:0:0:0:
448,192,105417,1,0,0:0:0:0:
64,192,105501,1,0,0:0:0:0:
192,192,105584,1,0,0:0:0:0:
320,192,105667,1,0,0:0:0:0:
448,192,105751,1,0,0:0:0:0:
64,192,105834,1,0,0:0:0:0:
192,192,105917,1,0,0:0:0:0:
320,192,106001,1,0,0:0:0:0:
448,192,106084,1,0,0:0:0:0:
64,192,106167,1,0,0:0:0:0:
192,192,106251,1,0,0:0:0:0:
320,192,106334,1,0,0:0:0:0:
448,192,106417,1,0,0:0:0:0:
192,192,106501,1,0,0:0:0:0:
320,192,106584,1,0,0:0:0:0:
64,192,106667,1,0,0:0:0:0:
192,192,106751,1,0,0:0:0:0:
448,192,106834,1,0,0:0:0:0:
320,192,106917,1,0,0:0:0:0:
448,192,107001,1,0,0:0:0:0:
192,192,107084,1,0,0:0:0:0:
448,192,107167,1,0,0:0:0:0:
64,192,107251,1,0,0:0:0:0:
320,192,107334,1,0,0:0:0:0:
192,192,107417,1,0,0:0:0:0:
448,192,107501,1,0,0:0:0:0:
64,192,107584,1,0,0:0:0:0:
320,192,107667,1,0,0:0:0:0:
192,192,107751,1,0,0:0:0:0:
64,192,107834,1,0,0:0:0:0:
192,192,107834,1,0,0:0:0:0:
320,192,107834,1,0,0:0:0:0:
448,192,107834,1,0,0:0:0:0:
64,0,109167,128,0,110501:1:0:0:0:
192,0,109167,128,0,110501:1:0:0:0:
320,0,109167,128,0,110501:1:0:0:0:
448,0,109167,128,0,110501:1:0:0:0:
64,0,111834,128,0,113167:1:0:0:0:
448,0,111834,128,0,113167:1:0:0:0:
192,192,113167,1,0,0:0:0:0:
320,192,113167,1,0,0:0:0:0:
192,192,114501,1,0,0:0:0:0:
320,192,114501,1,0,0:0:0:0:
64,0,114501,128,0,115834:1:0:0:0:
448,0,114501,128,0,115834:1:0:0:0:
192,192,115834,1,0,0:0:0:0:
320,192,115834,1,0,0:0:0:0:
64,192,117167,1,0,0:0:0:0:
448,192,117167,1,0,0:0:0:0:
192,0,117167,128,0,118501:1:0:0:0:
320,0,117167,128,0,118501:1:0:0:0:
64,192,118501,1,0,0:0:0:0:
64,192,118667,1,0,0:0:0:0:
192,192,118834,1,0,0:0:0:0:
192,192,119001,1,0,0:0:0:0:
320,192,119167,1,0,0:0:0:0:
320,192,119334,1,0,0:0:0:0:
448,192,119501,1,0,0:0:0:0:
448,192,119667,1,0,0:0:0:0:
320,192,119834,1,0,0:0:0:0:
320,192,120001,1,0,0:0:0:0:
192,192,120167,1,0,0:0:0:0:
192,192,120334,1,0,0:0:0:0:
64,192,120501,1,0,0:0:0:0:
64,192,120667,1,0,0:0:0:0:
192,192,120834,1,0,0:0:0:0:
192,192,121001,1,0,0:0:0:0:
320,192,121167,1,0,0:0:0:0:
320,192,121334,1,0,0:0:0:0:
448,192,121501,1,0,0:0:0:0:
448,192,121667,1,0,0:0:0:0:
320,192,121834,1,0,0:0:0:0:
320,192,122001,1,0,0:0:0:0:
192,192,122167,1,0,0:0:0:0:
192,192,122334,1,0,0:0:0:0:
64,192,122501,1,0,0:0:0:0:
64,192,122667,1,0,0:0:0:0:
192,192,122834,1,0,0:0:0:0:
192,192,123001,1,0,0:0:0:0:
320,192,123167,1,0,0:0:0:0:
320,192,123334,1,0,0:0:0:0:
448,192,123501,1,0,0:0:0:0:
448,192,123667,1,0,0:0:0:0:
320,192,123834,1,0,0:0:0:0:
320,192,124001,1,0,0:0:0:0:
192,192,124167,1,0,0:0:0:0:
192,192,124334,1,0,0:0:0:0:
64,192,124501,1,0,0:0:0:0:
64,192,124667,1,0,0:0:0:0:
192,192,124834,1,0,0:0:0:0:
192,192,125001,1,0,0:0:0:0:
320,192,125167,1,0,0:0:0:0:
320,192,125334,1,0,0:0:0:0:
448,192,125501,1,0,0:0:0:0:
448,192,125667,1,0,0:0:0:0:
320,192,125834,1,0,0:0:0:0:
320,192,126001,1,0,0:0:0:0:
192,192,126167,1,0,0:0:0:0:
192,192,126334,1,0,0:0:0:0:
64,192,126501,1,0,0:0:0:0:
64,192,126751,1,0,0:0:0:0:
192,192,126834,1,0,0:0:0:0:
320,192,127001,1,0,0:0:0:0:
320,192,127251,1,0,0:0:0:0:
448,192,127334,1,0,0:0:0:0:
448,192,127501,1,0,0:0:0:0:
448,192,127751,1,0,0:0:0:0:
320,192,127834,1,0,0:0:0:0:
192,192,128001,1,0,0:0:0:0:
192,192,128251,1,0,0:0:0:0:
64,192,128334,1,0,0:0:0:0:
64,192,128501,1,0,0:0:0:0:
448,192,128751,1,0,0:0:0:0:
192,192,128834,1,0,0:0:0:0:
320,192,128834,1,0,0:0:0:0:
64,192,129001,1,0,0:0:0:0:
448,192,129084,1,0,0:0:0:0:
320,192,129167,1,0,0:0:0:0:
192,192,129167,1,0,0:0:0:0:
64,192,129251,1,0,0:0:0:0:
192,192,129334,1,0,0:0:0:0:
320,192,129334,1,0,0:0:0:0:
64,192,129397,1,0,0:0:0:0:
448,192,129501,1,0,0:0:0:0:
64,192,129584,1,0,0:0:0:0:
192,192,129667,1,0,0:0:0:0:
320,192,129667,1,0,0:0:0:0:
64,192,129751,1,0,0:0:0:0:
448,192,129834,1,0,0:0:0:0:
64,192,129917,1,0,0:0:0:0:
192,192,130001,1,0,0:0:0:0:
320,192,130001,1,0,0:0:0:0:
64,192,130084,1,0,0:0:0:0:
448,192,130167,1,0,0:0:0:0:
64,192,130251,1,0,0:0:0:0:
192,192,130334,1,0,0:0:0:0:
320,192,130334,1,0,0:0:0:0:
64,192,130417,1,0,0:0:0:0:
448,192,130501,1,0,0:0:0:0:
64,192,130584,1,0,0:0:0:0:
192,192,130667,1,0,0:0:0:0:
320,192,130667,1,0,0:0:0:0:
64,192,130751,1,0,0:0:0:0:
448,192,130834,1,0,0:0:0:0:
64,192,130917,1,0,0:0:0:0:
192,192,131001,1,0,0:0:0:0:
320,192,131001,1,0,0:0:0:0:
64,192,131084,1,0,0:0:0:0:
448,192,131167,1,0,0:0:0:0:
64,192,131251,1,0,0:0:0:0:
192,192,131334,1,0,0:0:0:0:
320,192,131334,1,0,0:0:0:0:
64,192,131417,1,0,0:0:0:0:
448,192,131501,1,0,0:0:0:0:
64,192,131584,1,0,0:0:0:0:
192,192,131667,1,0,0:0:0:0:
320,192,131667,1,0,0:0:0:0:
448,192,131751,1,0,0:0:0:0:
64,192,131834,1,0,0:0:0:0:
192,192,131834,1,0,0:0:0:0:
448,192,131917,1,0,0:0:0:0:
192,192,132001,1,0,0:0:0:0:
320,192,132001,1,0,0:0:0:0:
448,192,132084,1,0,0:0:0:0:
64,192,132167,1,0,0:0:0:0:
448,192,132251,1,0,0:0:0:0:
192,192,132334,1,0,0:0:0:0:
320,192,132334,1,0,0:0:0:0:
448,192,132417,1,0,0:0:0:0:
64,192,132501,1,0,0:0:0:0:
448,192,132584,1,0,0:0:0:0:
192,192,132667,1,0,0:0:0:0:
320,192,132667,1,0,0:0:0:0:
448,192,132751,1,0,0:0:0:0:
64,192,132834,1,0,0:0:0:0:
448,192,132917,1,0,0:0:0:0:
192,192,133001,1,0,0:0:0:0:
320,192,133001,1,0,0:0:0:0:
448,192,133084,1,0,0:0:0:0:
64,192,133167,1,0,0:0:0:0:
448,192,133251,1,0,0:0:0:0:
192,192,133334,1,0,0:0:0:0:
320,192,133334,1,0,0:0:0:0:
448,192,133417,1,0,0:0:0:0:
64,192,133501,1,0,0:0:0:0:
448,192,133584,1,0,0:0:0:0:
192,192,133667,1,0,0:0:0:0:
320,192,133667,1,0,0:0:0:0:
448,192,133751,1,0,0:0:0:0:
64,192,133834,1,0,0:0:0:0:
448,192,133917,1,0,0:0:0:0:
192,192,134001,1,0,0:0:0:0:
320,192,134001,1,0,0:0:0:0:
448,192,134084,1,0,0:0:0:0:
64,192,134167,1,0,0:0:0:0:
448,192,134251,1,0,0:0:0:0:
192,192,134334,1,0,0:0:0:0:
320,192,134334,1,0,0:0:0:0:
64,192,134417,1,0,0:0:0:0:
192,0,134501,128,0,135834:1:0:0:0:
320,192,134501,1,0,0:0:0:0:
448,192,134667,1,0,0:0:0:0:
64,192,134834,1,0,0:0:0:0:
320,0,135001,128,0,136334:1:0:0:0:
448,192,135001,1,0,0:0:0:0:
64,192,135001,1,0,0:0:0:0:
448,192,135167,1,0,0:0:0:0:
64,192,135334,1,0,0:0:0:0:
448,192,135501,1,0,0:0:0:0:
448,192,135667,1,0,0:0:0:0:
64,192,135667,1,0,0:0:0:0:
64,192,135834,1,0,0:0:0:0:
448,192,136001,1,0,0:0:0:0:
64,192,136167,1,0,0:0:0:0:
192,192,136334,1,0,0:0:0:0:
448,192,136334,1,0,0:0:0:0:
320,192,136501,1,0,0:0:0:0:
448,192,136667,1,0,0:0:0:0:
64,192,136667,1,0,0:0:0:0:
192,192,136834,1,0,0:0:0:0:
64,192,137001,1,0,0:0:0:0:
448,192,137001,1,0,0:0:0:0:
320,192,137084,1,0,0:0:0:0:
448,192,137167,1,0,0:0:0:0:
320,192,137251,1,0,0:0:0:0:
192,192,137334,1,0,0:0:0:0:
64,192,137417,1,0,0:0:0:0:
192,192,137501,1,0,0:0:0:0:
320,192,137584,1,0,0:0:0:0:
448,192,137667,1,0,0:0:0:0:
320,192,137751,1,0,0:0:0:0:
192,192,137834,1,0,0:0:0:0:
448,192,137917,1,0,0:0:0:0:
192,192,138001,1,0,0:0:0:0:
320,192,138084,1,0,0:0:0:0:
192,192,138167,1,0,0:0:0:0:
64,192,138251,1,0,0:0:0:0:
192,192,138334,1,0,0:0:0:0:
320,192,138417,1,0,0:0:0:0:
448,192,138501,1,0,0:0:0:0:
64,192,138584,1,0,0:0:0:0:
192,192,138667,1,0,0:0:0:0:
320,192,138751,1,0,0:0:0:0:
448,192,138834,1,0,0:0:0:0:
448,192,138917,1,0,0:0:0:0:
320,192,139001,1,0,0:0:0:0:
448,192,139084,1,0,0:0:0:0:
192,192,139167,1,0,0:0:0:0:
64,192,139251,1,0,0:0:0:0:
320,192,139334,1,0,0:0:0:0:
192,192,139417,1,0,0:0:0:0:
320,192,139501,1,0,0:0:0:0:
448,192,139584,1,0,0:0:0:0:
320,192,139667,1,0,0:0:0:0:
192,192,139751,1,0,0:0:0:0:
64,192,139834,1,0,0:0:0:0:
448,192,139917,1,0,0:0:0:0:
192,192,140001,1,0,0:0:0:0:
320,192,140084,1,0,0:0:0:0:
192,192,140167,1,0,0:0:0:0:
64,192,140251,1,0,0:0:0:0:
192,192,140334,1,0,0:0:0:0:
320,192,140417,1,0,0:0:0:0:
448,0,140501,128,0,141001:1:0:0:0:
320,192,141001,1,0,0:0:0:0:
192,192,141084,1,0,0:0:0:0:
64,192,141167,1,0,0:0:0:0:
448,192,141251,1,0,0:0:0:0:
192,192,141334,1,0,0:0:0:0:
320,192,141417,1,0,0:0:0:0:
192,192,141501,1,0,0:0:0:0:
64,192,141584,1,0,0:0:0:0:
192,192,141667,1,0,0:0:0:0:
320,192,141751,1,0,0:0:0:0:
64,192,141834,1,0,0:0:0:0:
448,192,141917,1,0,0:0:0:0:
192,192,142001,1,0,0:0:0:0:
320,192,142084,1,0,0:0:0:0:
448,192,142167,1,0,0:0:0:0:
192,192,142251,1,0,0:0:0:0:
448,192,142334,1,0,0:0:0:0:
320,192,142417,1,0,0:0:0:0:
448,192,142501,1,0,0:0:0:0:
192,192,142584,1,0,0:0:0:0:
448,192,142667,1,0,0:0:0:0:
64,192,142751,1,0,0:0:0:0:
320,192,142834,1,0,0:0:0:0:
192,192,142917,1,0,0:0:0:0:
64,192,143001,1,0,0:0:0:0:
448,192,143084,1,0,0:0:0:0:
192,192,143167,1,0,0:0:0:0:
448,192,143251,1,0,0:0:0:0:
192,192,143334,1,0,0:0:0:0:
64,192,143417,1,0,0:0:0:0:
320,192,143501,1,0,0:0:0:0:
192,192,143584,1,0,0:0:0:0:
64,192,143667,1,0,0:0:0:0:
448,192,143751,1,0,0:0:0:0:
192,192,143834,1,0,0:0:0:0:
64,192,143917,1,0,0:0:0:0:
320,192,144001,1,0,0:0:0:0:
192,192,144084,1,0,0:0:0:0:
64,192,144167,1,0,0:0:0:0:
448,192,144251,1,0,0:0:0:0:
192,192,144334,1,0,0:0:0:0:
320,192,144417,1,0,0:0:0:0:
448,192,144501,1,0,0:0:0:0:
64,192,144584,1,0,0:0:0:0:
448,192,144667,1,0,0:0:0:0:
192,192,144751,1,0,0:0:0:0:
64,192,144834,1,0,0:0:0:0:
320,192,144917,1,0,0:0:0:0:
192,192,145001,1,0,0:0:0:0:
448,192,145084,1,0,0:0:0:0:
64,0,145167,128,0,145834:1:0:0:0:
448,192,145834,1,0,0:0:0:0:
192,192,145917,1,0,0:0:0:0:
448,192,146001,1,0,0:0:0:0:
64,192,146084,1,0,0:0:0:0:
320,192,146167,1,0,0:0:0:0:
192,192,146251,1,0,0:0:0:0:
448,192,146334,1,0,0:0:0:0:
320,192,146417,1,0,0:0:0:0:
448,192,146501,1,0,0:0:0:0:
192,192,146584,1,0,0:0:0:0:
64,192,146667,1,0,0:0:0:0:
448,192,146751,1,0,0:0:0:0:
192,192,146834,1,0,0:0:0:0:
448,192,146917,1,0,0:0:0:0:
64,192,147001,1,0,0:0:0:0:
448,192,147084,1,0,0:0:0:0:
192,192,147167,1,0,0:0:0:0:
64,192,147251,1,0,0:0:0:0:
192,192,147334,1,0,0:0:0:0:
448,192,147417,1,0,0:0:0:0:
320,192,147501,1,0,0:0:0:0:
448,192,147584,1,0,0:0:0:0:
192,192,147667,1,0,0:0:0:0:
64,192,147751,1,0,0:0:0:0:
448,192,147834,1,0,0:0:0:0:
192,192,147917,1,0,0:0:0:0:
320,192,148001,1,0,0:0:0:0:
448,192,148084,1,0,0:0:0:0:
64,192,148167,1,0,0:0:0:0:
448,192,148251,1,0,0:0:0:0:
192,192,148334,1,0,0:0:0:0:
64,192,148417,1,0,0:0:0:0:
448,192,148501,1,0,0:0:0:0:
320,192,148584,1,0,0:0:0:0:
192,192,148667,1,0,0:0:0:0:
64,192,148751,1,0,0:0:0:0:
448,192,148834,1,0,0:0:0:0:
192,192,148917,1,0,0:0:0:0:
320,192,149001,1,0,0:0:0:0:
448,192,149084,1,0,0:0:0:0:
192,192,149167,1,0,0:0:0:0:
64,192,149251,1,0,0:0:0:0:
448,192,149334,1,0,0:0:0:0:
320,192,149417,1,0,0:0:0:0:
192,192,149501,1,0,0:0:0:0:
448,192,149584,1,0,0:0:0:0:
64,192,149667,1,0,0:0:0:0:
320,192,149751,1,0,0:0:0:0:
192,192,149834,1,0,0:0:0:0:
64,192,149917,1,0,0:0:0:0:
320,192,150001,1,0,0:0:0:0:
448,192,150084,1,0,0:0:0:0:
192,192,150167,1,0,0:0:0:0:
64,192,150251,1,0,0:0:0:0:
448,192,150334,1,0,0:0:0:0:
64,192,150417,1,0,0:0:0:0:
448,192,150501,1,0,0:0:0:0:
192,0,150501,128,0,152001:1:0:0:0:
320,192,150667,1,0,0:0:0:0:
448,192,150834,1,0,0:0:0:0:
320,192,151001,1,0,0:0:0:0:
448,192,151167,1,0,0:0:0:0:
64,192,151334,1,0,0:0:0:0:
320,192,151501,1,0,0:0:0:0:
448,192,151667,1,0,0:0:0:0:
64,192,151834,1,0,0:0:0:0:
320,192,152001,1,0,0:0:0:0:
192,192,152167,1,0,0:0:0:0:
64,192,152334,1,0,0:0:0:0:
192,192,152501,1,0,0:0:0:0:
320,192,152667,1,0,0:0:0:0:
448,192,152751,1,0,0:0:0:0:
320,192,152834,1,0,0:0:0:0:
320,192,153001,1,0,0:0:0:0:
320,0,153167,128,0,154501:1:0:0:0:
192,192,153334,1,0,0:0:0:0:
64,192,153501,1,0,0:0:0:0:
192,192,153667,1,0,0:0:0:0:
64,192,153834,1,0,0:0:0:0:
448,192,154001,1,0,0:0:0:0:
64,192,154167,1,0,0:0:0:0:
192,192,154334,1,0,0:0:0:0:
192,192,154501,1,0,0:0:0:0:
64,192,154667,1,0,0:0:0:0:
320,192,154834,1,0,0:0:0:0:
192,192,155001,1,0,0:0:0:0:
192,192,155167,1,0,0:0:0:0:
448,192,155334,1,0,0:0:0:0:
320,192,155501,1,0,0:0:0:0:
448,192,155667,1,0,0:0:0:0:
64,0,155834,128,0,157167:1:0:0:0:
320,192,155834,1,0,0:0:0:0:
192,192,156001,1,0,0:0:0:0:
448,192,156167,1,0,0:0:0:0:
320,192,156334,1,0,0:0:0:0:
448,192,156501,1,0,0:0:0:0:
320,192,156667,1,0,0:0:0:0:
192,192,156834,1,0,0:0:0:0:
320,192,157001,1,0,0:0:0:0:
448,0,157167,128,0,158501:1:0:0:0:
192,192,157334,1,0,0:0:0:0:
320,192,157501,1,0,0:0:0:0:
192,192,157667,1,0,0:0:0:0:
192,0,157834,128,0,158167:1:0:0:0:
64,192,157834,1,0,0:0:0:0:
320,192,158001,1,0,0:0:0:0:
320,192,158167,1,0,0:0:0:0:
64,192,158334,1,0,0:0:0:0:
192,0,158501,128,0,159834:1:0:0:0:
64,192,158501,1,0,0:0:0:0:
448,192,158667,1,0,0:0:0:0:
320,192,158834,1,0,0:0:0:0:
448,192,159001,1,0,0:0:0:0:
448,0,159167,128,0,159834:1:0:0:0:
320,192,159167,1,0,0:0:0:0:
64,192,159334,1,0,0:0:0:0:
320,192,159501,1,0,0:0:0:0:
64,192,159667,1,0,0:0:0:0:
320,192,159751,1,0,0:0:0:0:
64,192,159834,1,0,0:0:0:0:
320,192,159917,1,0,0:0:0:0:
192,192,160001,1,0,0:0:0:0:
64,192,160084,1,0,0:0:0:0:
448,192,160167,1,0,0:0:0:0:
320,192,160251,1,0,0:0:0:0:
64,192,160334,1,0,0:0:0:0:
192,192,160417,1,0,0:0:0:0:
448,192,160501,1,0,0:0:0:0:
320,192,160501,1,0,0:0:0:0:
192,192,160584,1,0,0:0:0:0:
320,192,160667,1,0,0:0:0:0:
448,192,160667,1,0,0:0:0:0:
64,192,160751,1,0,0:0:0:0:
192,192,160834,1,0,0:0:0:0:
320,192,160917,1,0,0:0:0:0:
448,192,161001,1,0,0:0:0:0:
64,192,161084,1,0,0:0:0:0:
192,192,161167,1,0,0:0:0:0:
448,192,161167,1,0,0:0:0:0:
320,192,161251,1,0,0:0:0:0:
64,192,161334,1,0,0:0:0:0:
192,192,161334,1,0,0:0:0:0:
448,192,161417,1,0,0:0:0:0:
320,192,161501,1,0,0:0:0:0:
64,192,161584,1,0,0:0:0:0:
320,192,161667,1,0,0:0:0:0:
448,192,161667,1,0,0:0:0:0:
64,192,161751,1,0,0:0:0:0:
192,192,161834,1,0,0:0:0:0:
448,192,161917,1,0,0:0:0:0:
64,192,162001,1,0,0:0:0:0:
192,192,162001,1,0,0:0:0:0:
448,192,162084,1,0,0:0:0:0:
320,192,162167,1,0,0:0:0:0:
192,192,162251,1,0,0:0:0:0:
320,192,162334,1,0,0:0:0:0:
448,192,162334,1,0,0:0:0:0:
64,192,162417,1,0,0:0:0:0:
192,192,162501,1,0,0:0:0:0:
320,192,162584,1,0,0:0:0:0:
64,192,162667,1,0,0:0:0:0:
192,192,162667,1,0,0:0:0:0:
448,192,162751,1,0,0:0:0:0:
320,192,162834,1,0,0:0:0:0:
192,192,162917,1,0,0:0:0:0:
320,192,163001,1,0,0:0:0:0:
448,192,163001,1,0,0:0:0:0:
64,192,163084,1,0,0:0:0:0:
192,192,163167,1,0,0:0:0:0:
320,192,163251,1,0,0:0:0:0:
64,192,163334,1,0,0:0:0:0:
192,192,163334,1,0,0:0:0:0:
448,192,163417,1,0,0:0:0:0:
64,192,163501,1,0,0:0:0:0:
192,192,163584,1,0,0:0:0:0:
320,192,163667,1,0,0:0:0:0:
448,192,163667,1,0,0:0:0:0:
64,192,163751,1,0,0:0:0:0:
448,192,163834,1,0,0:0:0:0:
64,192,163917,1,0,0:0:0:0:
192,192,164001,1,0,0:0:0:0:
320,192,164001,1,0,0:0:0:0:
448,192,164084,1,0,0:0:0:0:
64,192,164167,1,0,0:0:0:0:
320,192,164251,1,0,0:0:0:0:
64,192,164334,1,0,0:0:0:0:
448,192,164334,1,0,0:0:0:0:
192,192,164417,1,0,0:0:0:0:
448,192,164501,1,0,0:0:0:0:
64,192,164584,1,0,0:0:0:0:
192,192,164667,1,0,0:0:0:0:
320,192,164667,1,0,0:0:0:0:
448,192,164751,1,0,0:0:0:0:
64,192,164834,1,0,0:0:0:0:
320,192,164917,1,0,0:0:0:0:
64,192,165001,1,0,0:0:0:0:
448,192,165001,1,0,0:0:0:0:
192,192,165084,1,0,0:0:0:0:
448,192,165167,1,0,0:0:0:0:
64,192,165251,1,0,0:0:0:0:
192,192,165334,1,0,0:0:0:0:
320,192,165334,1,0,0:0:0:0:
64,192,165417,1,0,0:0:0:0:
192,192,165501,1,0,0:0:0:0:
320,192,165584,1,0,0:0:0:0:
64,192,165667,1,0,0:0:0:0:
448,192,165667,1,0,0:0:0:0:
192,192,165751,1,0,0:0:0:0:
448,192,165834,1,0,0:0:0:0:
64,192,165917,1,0,0:0:0:0:
192,192,166001,1,0,0:0:0:0:
320,192,166001,1,0,0:0:0:0:
448,192,166084,1,0,0:0:0:0:
320,192,166167,1,0,0:0:0:0:
192,192,166251,1,0,0:0:0:0:
64,192,166334,1,0,0:0:0:0:
448,192,166334,1,0,0:0:0:0:
320,192,166417,1,0,0:0:0:0:
448,192,166501,1,0,0:0:0:0:
192,192,166584,1,0,0:0:0:0:
64,192,166667,1,0,0:0:0:0:
320,192,166667,1,0,0:0:0:0:
192,192,166751,1,0,0:0:0:0:
64,192,166834,1,0,0:0:0:0:
320,192,166917,1,0,0:0:0:0:
192,192,167001,1,0,0:0:0:0:
448,192,167001,1,0,0:0:0:0:
320,192,167084,1,0,0:0:0:0:
192,192,167167,1,0,0:0:0:0:
448,192,167251,1,0,0:0:0:0:
64,192,167334,1,0,0:0:0:0:
320,192,167334,1,0,0:0:0:0:
192,192,167417,1,0,0:0:0:0:
64,192,167501,1,0,0:0:0:0:
320,192,167584,1,0,0:0:0:0:
192,192,167667,1,0,0:0:0:0:
448,192,167667,1,0,0:0:0:0:
320,192,167751,1,0,0:0:0:0:
64,192,167834,1,0,0:0:0:0:
448,192,167917,1,0,0:0:0:0:
64,192,168001,1,0,0:0:0:0:
320,192,168001,1,0,0:0:0:0:
192,192,168084,1,0,0:0:0:0:
320,192,168167,1,0,0:0:0:0:
64,192,168251,1,0,0:0:0:0:
192,192,168334,1,0,0:0:0:0:
448,192,168334,1,0,0:0:0:0:
320,192,168417,1,0,0:0:0:0:
448,192,168501,1,0,0:0:0:0:
192,192,168584,1,0,0:0:0:0:
64,192,168667,1,0,0:0:0:0:
320,192,168667,1,0,0:0:0:0:
192,192,168751,1,0,0:0:0:0:
448,192,168834,1,0,0:0:0:0:
320,192,168917,1,0,0:0:0:0:
192,192,169001,1,0,0:0:0:0:
448,192,169001,1,0,0:0:0:0:
64,192,169084,1,0,0:0:0:0:
320,192,169167,1,0,0:0:0:0:
192,192,169251,1,0,0:0:0:0:
320,192,169334,1,0,0:0:0:0:
448,192,169334,1,0,0:0:0:0:
64,192,169417,1,0,0:0:0:0:
448,192,169501,1,0,0:0:0:0:
64,192,169584,1,0,0:0:0:0:
192,192,169667,1,0,0:0:0:0:
320,192,169667,1,0,0:0:0:0:
448,192,169751,1,0,0:0:0:0:
320,192,169834,1,0,0:0:0:0:
448,192,169917,1,0,0:0:0:0:
64,192,170001,1,0,0:0:0:0:
192,192,170001,1,0,0:0:0:0:
320,192,170084,1,0,0:0:0:0:
192,192,170167,1,0,0:0:0:0:
448,192,170251,1,0,0:0:0:0:
64,192,170334,1,0,0:0:0:0:
320,192,170334,1,0,0:0:0:0:
320,192,170501,1,0,0:0:0:0:
320,192,170751,1,0,0:0:0:0:
192,192,170834,1,0,0:0:0:0:
320,192,171001,1,0,0:0:0:0:
320,192,171167,1,0,0:0:0:0:
192,192,171251,1,0,0:0:0:0:
64,192,171334,1,0,0:0:0:0:
320,192,171417,1,0,0:0:0:0:
192,192,171501,1,0,0:0:0:0:
320,192,171667,1,0,0:0:0:0:
448,192,171751,1,0,0:0:0:0:
64,192,171834,1,0,0:0:0:0:
320,192,171834,1,0,0:0:0:0:
64,0,172001,128,0,172334:1:0:0:0:
192,192,172167,1,0,0:0:0:0:
192,0,172334,128,0,172667:1:0:0:0:
320,0,172501,128,0,172834:1:0:0:0:
448,192,172834,1,0,0:0:0:0:
320,192,173001,1,0,0:0:0:0:
192,192,173167,1,0,0:0:0:0:
320,192,173501,1,0,0:0:0:0:
64,192,173834,1,0,0:0:0:0:
448,192,173917,1,0,0:0:0:0:
64,192,174001,1,0,0:0:0:0:
448,192,174167,1,0,0:0:0:0:
192,192,174251,1,0,0:0:0:0:
448,192,174334,1,0,0:0:0:0:
320,192,174501,1,0,0:0:0:0:
192,192,174667,1,0,0:0:0:0:
320,192,174834,1,0,0:0:0:0:
64,192,175001,1,0,0:0:0:0:
448,0,175167,128,0,175501:1:0:0:0:
192,192,175501,1,0,0:0:0:0:
320,192,175667,1,0,0:0:0:0:
192,192,175834,1,0,0:0:0:0:
448,192,176001,1,0,0:0:0:0:
320,192,176167,1,0,0:0:0:0:
64,192,176251,1,0,0:0:0:0:
320,0,176334,128,0,176667:1:0:0:0:
192,192,176667,1,0,0:0:0:0:
192,192,176834,1,0,0:0:0:0:
320,192,177001,1,0,0:0:0:0:
320,192,177167,1,0,0:0:0:0:
448,192,177334,1,0,0:0:0:0:
448,192,177501,1,0,0:0:0:0:
320,192,177667,1,0,0:0:0:0:
320,0,177834,128,0,178167:1:0:0:0:
192,192,178167,1,0,0:0:0:0:
64,192,178334,1,0,0:0:0:0:
64,0,178501,128,0,179167:1:0:0:0:
320,0,179167,128,0,179501:1:0:0:0:
192,192,179501,1,0,0:0:0:0:
64,192,179584,1,0,0:0:0:0:
192,192,179667,1,0,0:0:0:0:
320,192,179834,1,0,0:0:0:0:
192,192,180001,1,0,0:0:0:0:
448,192,180167,1,0,0:0:0:0:
320,192,180334,1,0,0:0:0:0:
320,0,180501,128,0,180834:1:0:0:0:
192,192,180834,1,0,0:0:0:0:
448,192,181001,1,0,0:0:0:0:
320,192,181167,1,0,0:0:0:0:
448,192,181251,1,0,0:0:0:0:
192,192,181334,1,0,0:0:0:0:
320,192,181417,1,0,0:0:0:0:
64,192,181501,1,0,0:0:0:0:
192,192,181584,1,0,0:0:0:0:
320,192,181667,1,0,0:0:0:0:
448,192,181751,1,0,0:0:0:0:
192,192,181834,1,0,0:0:0:0:
320,192,181917,1,0,0:0:0:0:
64,192,182001,1,0,0:0:0:0:
192,192,182084,1,0,0:0:0:0:
320,192,182167,1,0,0:0:0:0:
448,192,182251,1,0,0:0:0:0:
192,192,182334,1,0,0:0:0:0:
320,192,182417,1,0,0:0:0:0:
448,192,182501,1,0,0:0:0:0:
448,192,182647,1,0,0:0:0:0:
320,192,182834,1,0,0:0:0:0:
320,192,183001,1,0,0:0:0:0:
192,0,183167,128,0,183501:1:0:0:0:
320,192,183501,1,0,0:0:0:0:
320,192,183647,1,0,0:0:0:0:
192,0,183834,128,0,184167:1:0:0:0:
64,0,184167,128,0,184501:1:0:0:0:
448,192,184501,1,0,0:0:0:0:
192,192,184667,1,0,0:0:0:0:
448,192,184834,1,0,0:0:0:0:
64,192,185001,1,0,0:0:0:0:
448,192,185167,1,0,0:0:0:0:
320,192,185334,1,0,0:0:0:0:
192,192,185501,1,0,0:0:0:0:
192,192,185667,1,0,0:0:0:0:
448,192,185834,1,0,0:0:0:0:
320,192,186167,1,0,0:0:0:0:
64,192,186334,1,0,0:0:0:0:
448,192,186501,1,0,0:0:0:0:
192,192,186667,1,0,0:0:0:0:
320,192,186834,1,0,0:0:0:0:
448,192,186917,1,0,0:0:0:0:
320,0,187001,128,0,187334:1:0:0:0:
192,192,187334,1,0,0:0:0:0:
64,192,187501,1,0,0:0:0:0:
448,192,187667,1,0,0:0:0:0:
320,192,187834,1,0,0:0:0:0:
320,192,188001,1,0,0:0:0:0:
448,192,188167,1,0,0:0:0:0:
64,192,188334,1,0,0:0:0:0:
192,0,188501,128,0,188834:1:0:0:0:
320,192,188834,1,0,0:0:0:0:
192,192,189001,1,0,0:0:0:0:
64,0,189167,128,0,189834:1:0:0:0:
320,0,189834,128,0,190501:1:0:0:0:
192,0,190167,128,0,190501:1:0:0:0:
448,192,190501,1,0,0:0:0:0:
448,192,190667,1,0,0:0:0:0:
320,192,190834,1,0,0:0:0:0:
320,192,191001,1,0,0:0:0:0:
192,0,191167,128,0,191501:1:0:0:0:
320,192,191501,1,0,0:0:0:0:
64,192,191667,1,0,0:0:0:0:
448,0,191834,128,0,192334:1:0:0:0:
320,0,192167,128,0,192667:1:0:0:0:
192,0,192501,128,0,193001:1:0:0:0:
64,0,192834,128,0,193334:1:0:0:0:
192,192,193167,1,0,0:0:0:0:
320,192,193167,1,0,0:0:0:0:
448,192,193251,1,0,0:0:0:0:
320,192,193334,1,0,0:0:0:0:
64,192,193417,1,0,0:0:0:0:
192,192,193501,1,0,0:0:0:0:
320,192,193501,1,0,0:0:0:0:
64,192,193584,1,0,0:0:0:0:
320,192,193667,1,0,0:0:0:0:
192,192,193751,1,0,0:0:0:0:
64,192,193834,1,0,0:0:0:0:
448,192,193834,1,0,0:0:0:0:
192,192,193917,1,0,0:0:0:0:
320,192,194001,1,0,0:0:0:0:
64,192,194084,1,0,0:0:0:0:
192,192,194167,1,0,0:0:0:0:
320,192,194167,1,0,0:0:0:0:
64,192,194251,1,0,0:0:0:0:
320,192,194334,1,0,0:0:0:0:
192,192,194417,1,0,0:0:0:0:
64,192,194501,1,0,0:0:0:0:
448,192,194501,1,0,0:0:0:0:
192,192,194584,1,0,0:0:0:0:
448,192,194667,1,0,0:0:0:0:
64,192,194751,1,0,0:0:0:0:
192,192,194834,1,0,0:0:0:0:
320,192,194834,1,0,0:0:0:0:
64,192,194917,1,0,0:0:0:0:
320,192,195001,1,0,0:0:0:0:
192,192,195084,1,0,0:0:0:0:
64,192,195167,1,0,0:0:0:0:
448,192,195167,1,0,0:0:0:0:
192,192,195251,1,0,0:0:0:0:
320,192,195334,1,0,0:0:0:0:
64,192,195417,1,0,0:0:0:0:
192,192,195501,1,0,0:0:0:0:
320,192,195501,1,0,0:0:0:0:
64,192,195584,1,0,0:0:0:0:
448,192,195667,1,0,0:0:0:0:
192,192,195751,1,0,0:0:0:0:
64,192,195834,1,0,0:0:0:0:
448,192,195834,1,0,0:0:0:0:
192,192,195917,1,0,0:0:0:0:
448,192,196001,1,0,0:0:0:0:
64,192,196084,1,0,0:0:0:0:
192,192,196167,1,0,0:0:0:0:
320,192,196167,1,0,0:0:0:0:
448,192,196251,1,0,0:0:0:0:
64,192,196334,1,0,0:0:0:0:
448,192,196417,1,0,0:0:0:0:
192,192,196501,1,0,0:0:0:0:
320,192,196501,1,0,0:0:0:0:
64,192,196584,1,0,0:0:0:0:
320,192,196667,1,0,0:0:0:0:
448,192,196751,1,0,0:0:0:0:
192,192,196834,1,0,0:0:0:0:
320,192,196834,1,0,0:0:0:0:
448,192,196917,1,0,0:0:0:0:
192,192,197001,1,0,0:0:0:0:
64,192,197084,1,0,0:0:0:0:
192,192,197167,1,0,0:0:0:0:
320,192,197167,1,0,0:0:0:0:
448,192,197251,1,0,0:0:0:0:
64,192,197334,1,0,0:0:0:0:
320,192,197417,1,0,0:0:0:0:
64,192,197501,1,0,0:0:0:0:
192,192,197501,1,0,0:0:0:0:
448,192,197584,1,0,0:0:0:0:
192,192,197667,1,0,0:0:0:0:
448,192,197751,1,0,0:0:0:0:
64,192,197834,1,0,0:0:0:0:
192,192,197834,1,0,0:0:0:0:
320,192,197917,1,0,0:0:0:0:
64,192,198001,1,0,0:0:0:0:
448,192,198084,1,0,0:0:0:0:
64,192,198167,1,0,0:0:0:0:
192,192,198167,1,0,0:0:0:0:
320,192,198251,1,0,0:0:0:0:
64,192,198334,1,0,0:0:0:0:
448,192,198417,1,0,0:0:0:0:
64,192,198501,1,0,0:0:0:0:
192,192,198501,1,0,0:0:0:0:
320,192,198584,1,0,0:0:0:0:
64,192,198667,1,0,0:0:0:0:
448,192,198751,1,0,0:0:0:0:
64,192,198834,1,0,0:0:0:0:
192,192,198834,1,0,0:0:0:0:
448,192,198917,1,0,0:0:0:0:
192,192,199001,1,0,0:0:0:0:
448,192,199084,1,0,0:0:0:0:
64,192,199167,1,0,0:0:0:0:
192,192,199167,1,0,0:0:0:0:
320,192,199251,1,0,0:0:0:0:
64,192,199334,1,0,0:0:0:0:
448,192,199417,1,0,0:0:0:0:
64,192,199501,1,0,0:0:0:0:
192,192,199501,1,0,0:0:0:0:
320,192,199584,1,0,0:0:0:0:
448,192,199667,1,0,0:0:0:0:
192,192,199751,1,0,0:0:0:0:
320,192,199834,1,0,0:0:0:0:
448,192,199834,1,0,0:0:0:0:
64,192,199917,1,0,0:0:0:0:
448,192,200001,1,0,0:0:0:0:
192,192,200084,1,0,0:0:0:0:
320,192,200167,1,0,0:0:0:0:
448,192,200167,1,0,0:0:0:0:
64,192,200251,1,0,0:0:0:0:
448,192,200334,1,0,0:0:0:0:
192,192,200417,1,0,0:0:0:0:
320,192,200501,1,0,0:0:0:0:
448,192,200501,1,0,0:0:0:0:
64,192,200584,1,0,0:0:0:0:
320,192,200667,1,0,0:0:0:0:
192,192,200751,1,0,0:0:0:0:
320,192,200834,1,0,0:0:0:0:
448,192,200834,1,0,0:0:0:0:
64,192,200917,1,0,0:0:0:0:
448,192,201001,1,0,0:0:0:0:
192,192,201084,1,0,0:0:0:0:
320,192,201167,1,0,0:0:0:0:
448,192,201167,1,0,0:0:0:0:
192,192,201251,1,0,0:0:0:0:
448,192,201334,1,0,0:0:0:0:
64,192,201417,1,0,0:0:0:0:
320,192,201501,1,0,0:0:0:0:
448,192,201501,1,0,0:0:0:0:
64,192,201584,1,0,0:0:0:0:
320,192,201667,1,0,0:0:0:0:
192,192,201751,1,0,0:0:0:0:
320,192,201834,1,0,0:0:0:0:
448,192,201834,1,0,0:0:0:0:
192,192,201917,1,0,0:0:0:0:
320,192,202001,1,0,0:0:0:0:
64,192,202084,1,0,0:0:0:0:
320,192,202167,1,0,0:0:0:0:
448,192,202167,1,0,0:0:0:0:
192,192,202251,1,0,0:0:0:0:
448,192,202334,1,0,0:0:0:0:
192,192,202417,1,0,0:0:0:0:
64,192,202501,1,0,0:0:0:0:
448,192,202501,1,0,0:0:0:0:
320,192,202584,1,0,0:0:0:0:
64,192,202667,1,0,0:0:0:0:
320,192,202751,1,0,0:0:0:0:
64,192,202834,1,0,0:0:0:0:
448,192,202834,1,0,0:0:0:0:
192,192,202917,1,0,0:0:0:0:
64,192,203001,1,0,0:0:0:0:
320,192,203084,1,0,0:0:0:0:
448,192,203167,1,0,0:0:0:0:
64,192,203167,1,0,0:0:0:0:
192,192,203251,1,0,0:0:0:0:
320,192,203251,1,0,0:0:0:0:
448,192,203334,1,0,0:0:0:0:
64,192,203334,1,0,0:0:0:0:
192,192,203417,1,0,0:0:0:0:
320,192,203417,1,0,0:0:0:0:
448,192,203501,1,0,0:0:0:0:
64,192,203501,1,0,0:0:0:0:
192,192,203584,1,0,0:0:0:0:
448,192,203667,1,0,0:0:0:0:
64,192,203751,1,0,0:0:0:0:
192,192,203751,1,0,0:0:0:0:
320,192,203834,1,0,0:0:0:0:
448,192,203834,1,0,0:0:0:0:
192,192,204001,1,0,0:0:0:0:
448,192,204001,1,0,0:0:0:0:
320,192,204167,1,0,0:0:0:0:
192,192,204334,1,0,0:0:0:0:
320,192,204501,1,0,0:0:0:0:
192,192,204667,1,0,0:0:0:0:
320,192,204834,1,0,0:0:0:0:
192,192,205001,1,0,0:0:0:0:
320,192,205084,1,0,0:0:0:0:
448,192,205167,1,0,0:0:0:0:
64,192,205167,1,0,0:0:0:0:
448,192,205334,1,0,0:0:0:0:
192,192,205334,1,0,0:0:0:0:
320,192,205501,1,0,0:0:0:0:
320,192,205667,1,0,0:0:0:0:
448,192,205834,1,0,0:0:0:0:
448,192,206001,1,0,0:0:0:0:
320,192,206167,1,0,0:0:0:0:
320,192,206334,1,0,0:0:0:0:
64,192,206417,1,0,0:0:0:0:
192,192,206501,1,0,0:0:0:0:
448,192,206501,1,0,0:0:0:0:
192,192,206667,1,0,0:0:0:0:
320,192,206667,1,0,0:0:0:0:
64,192,206834,1,0,0:0:0:0:
64,192,207001,1,0,0:0:0:0:
192,192,207167,1,0,0:0:0:0:
192,192,207334,1,0,0:0:0:0:
64,192,207501,1,0,0:0:0:0:
64,192,207667,1,0,0:0:0:0:
320,192,207751,1,0,0:0:0:0:
192,192,207834,1,0,0:0:0:0:
448,192,208001,1,0,0:0:0:0:
192,192,208167,1,0,0:0:0:0:
448,192,208334,1,0,0:0:0:0:
192,192,208501,1,0,0:0:0:0:
448,192,208667,1,0,0:0:0:0:
192,192,208834,1,0,0:0:0:0:
448,192,209001,1,0,0:0:0:0:
192,192,209084,1,0,0:0:0:0:
320,192,209167,1,0,0:0:0:0:
64,192,209334,1,0,0:0:0:0:
320,192,209501,1,0,0:0:0:0:
64,192,209667,1,0,0:0:0:0:
320,192,209834,1,0,0:0:0:0:
64,192,210001,1,0,0:0:0:0:
320,192,210167,1,0,0:0:0:0:
64,192,210334,1,0,0:0:0:0:
320,192,210417,1,0,0:0:0:0:
448,192,210501,1,0,0:0:0:0:
320,192,210667,1,0,0:0:0:0:
192,192,210834,1,0,0:0:0:0:
64,192,211001,1,0,0:0:0:0:
192,192,211167,1,0,0:0:0:0:
320,192,211334,1,0,0:0:0:0:
448,192,211501,1,0,0:0:0:0:
320,192,211667,1,0,0:0:0:0:
192,192,211751,1,0,0:0:0:0:
448,192,211834,1,0,0:0:0:0:
320,192,212001,1,0,0:0:0:0:
448,192,212001,1,0,0:0:0:0:
192,192,212167,1,0,0:0:0:0:
320,192,212167,1,0,0:0:0:0:
448,192,212167,1,0,0:0:0:0:
64,192,212334,1,0,0:0:0:0:
192,192,212334,1,0,0:0:0:0:
320,192,212334,1,0,0:0:0:0:
448,192,212334,1,0,0:0:0:0:
64,192,212501,1,0,0:0:0:0:
192,192,212501,1,0,0:0:0:0:
448,192,212501,1,0,0:0:0:0:
64,192,212667,1,0,0:0:0:0:
320,192,212667,1,0,0:0:0:0:
448,192,212667,1,0,0:0:0:0:
192,192,212834,1,0,0:0:0:0:
320,192,212834,1,0,0:0:0:0:
448,192,212834,1,0,0:0:0:0:
64,192,213001,1,0,0:0:0:0:
192,192,213001,1,0,0:0:0:0:
320,192,213001,1,0,0:0:0:0:
448,192,213001,1,0,0:0:0:0:
64,192,213167,1,0,0:0:0:0:
192,192,213167,1,0,0:0:0:0:
320,192,213167,1,0,0:0:0:0:
448,192,213167,1,0,0:0:0:0:
192,192,213417,1,0,0:0:0:0:
320,192,213501,1,0,0:0:0:0:
192,192,213667,1,0,0:0:0:0:
320,192,213834,1,0,0:0:0:0:
448,192,213855,1,0,0:0:0:0:
192,192,214001,1,0,0:0:0:0:
64,192,214022,1,0,0:0:0:0:
320,192,214167,1,0,0:0:0:0:
448,192,214167,1,0,0:0:0:0:
192,192,214251,1,0,0:0:0:0:
64,192,214251,1,0,0:0:0:0:
448,192,214334,1,0,0:0:0:0:
320,192,214334,1,0,0:0:0:0:
64,192,214417,1,0,0:0:0:0:
192,192,214417,1,0,0:0:0:0:
64,192,214501,1,0,0:0:0:0:
192,192,214501,1,0,0:0:0:0:
448,192,214501,1,0,0:0:0:0:
320,192,214584,1,0,0:0:0:0:
64,192,214667,1,0,0:0:0:0:
192,192,214667,1,0,0:0:0:0:
320,192,214751,1,0,0:0:0:0:
448,192,214834,1,0,0:0:0:0:
320,192,214917,1,0,0:0:0:0:
64,192,215001,1,0,0:0:0:0:
192,192,215001,1,0,0:0:0:0:
448,192,215084,1,0,0:0:0:0:
320,192,215167,1,0,0:0:0:0:
448,192,215251,1,0,0:0:0:0:
64,192,215334,1,0,0:0:0:0:
192,192,215334,1,0,0:0:0:0:
320,192,215417,1,0,0:0:0:0:
448,192,215501,1,0,0:0:0:0:
320,192,215584,1,0,0:0:0:0:
64,192,215667,1,0,0:0:0:0:
192,192,215667,1,0,0:0:0:0:
448,192,215751,1,0,0:0:0:0:
320,192,215834,1,0,0:0:0:0:
448,192,215917,1,0,0:0:0:0:
64,192,216001,1,0,0:0:0:0:
192,192,216001,1,0,0:0:0:0:
320,192,216084,1,0,0:0:0:0:
448,192,216167,1,0,0:0:0:0:
320,192,216251,1,0,0:0:0:0:
64,192,216334,1,0,0:0:0:0:
192,192,216334,1,0,0:0:0:0:
448,192,216417,1,0,0:0:0:0:
320,192,216501,1,0,0:0:0:0:
448,192,216584,1,0,0:0:0:0:
64,192,216667,1,0,0:0:0:0:
192,192,216667,1,0,0:0:0:0:
320,192,216751,1,0,0:0:0:0:
448,192,216834,1,0,0:0:0:0:
320,192,216917,1,0,0:0:0:0:
64,192,217001,1,0,0:0:0:0:
192,192,217001,1,0,0:0:0:0:
448,192,217084,1,0,0:0:0:0:
320,192,217167,1,0,0:0:0:0:
448,192,217251,1,0,0:0:0:0:
64,192,217334,1,0,0:0:0:0:
192,192,217334,1,0,0:0:0:0:
320,192,217417,1,0,0:0:0:0:
448,192,217501,1,0,0:0:0:0:
320,192,217584,1,0,0:0:0:0:
64,192,217667,1,0,0:0:0:0:
192,192,217667,1,0,0:0:0:0:
448,192,217751,1,0,0:0:0:0:
320,192,217834,1,0,0:0:0:0:
448,192,217917,1,0,0:0:0:0:
64,192,218001,1,0,0:0:0:0:
192,192,218001,1,0,0:0:0:0:
320,192,218084,1,0,0:0:0:0:
448,192,218167,1,0,0:0:0:0:
320,192,218251,1,0,0:0:0:0:
64,192,218334,1,0,0:0:0:0:
192,192,218334,1,0,0:0:0:0:
448,192,218417,1,0,0:0:0:0:
320,192,218501,1,0,0:0:0:0:
448,192,218584,1,0,0:0:0:0:
64,192,218667,1,0,0:0:0:0:
192,192,218667,1,0,0:0:0:0:
320,192,218751,1,0,0:0:0:0:
448,192,218834,1,0,0:0:0:0:
320,192,218917,1,0,0:0:0:0:
64,192,219001,1,0,0:0:0:0:
192,192,219001,1,0,0:0:0:0:
448,192,219084,1,0,0:0:0:0:
320,192,219167,1,0,0:0:0:0:
448,192,219251,1,0,0:0:0:0:
64,192,219334,1,0,0:0:0:0:
192,192,219334,1,0,0:0:0:0:
320,192,219417,1,0,0:0:0:0:
448,192,219501,1,0,0:0:0:0:
320,192,219584,1,0,0:0:0:0:
64,192,219667,1,0,0:0:0:0:
192,192,219667,1,0,0:0:0:0:
448,192,219751,1,0,0:0:0:0:
192,192,219834,1,0,0:0:0:0:
320,192,219834,1,0,0:0:0:0:
64,192,219917,1,0,0:0:0:0:
320,192,220001,1,0,0:0:0:0:
448,192,220001,1,0,0:0:0:0:
192,192,220084,1,0,0:0:0:0:
64,192,220167,1,0,0:0:0:0:
192,192,220251,1,0,0:0:0:0:
320,192,220334,1,0,0:0:0:0:
448,192,220334,1,0,0:0:0:0:
64,192,220417,1,0,0:0:0:0:
192,192,220501,1,0,0:0:0:0:
64,192,220584,1,0,0:0:0:0:
320,192,220667,1,0,0:0:0:0:
448,192,220667,1,0,0:0:0:0:
192,192,220751,1,0,0:0:0:0:
64,192,220834,1,0,0:0:0:0:
192,192,220917,1,0,0:0:0:0:
320,192,221001,1,0,0:0:0:0:
448,192,221001,1,0,0:0:0:0:
64,192,221084,1,0,0:0:0:0:
192,192,221167,1,0,0:0:0:0:
64,192,221251,1,0,0:0:0:0:
320,192,221334,1,0,0:0:0:0:
448,192,221334,1,0,0:0:0:0:
192,192,221417,1,0,0:0:0:0:
64,192,221501,1,0,0:0:0:0:
192,192,221584,1,0,0:0:0:0:
320,192,221667,1,0,0:0:0:0:
448,192,221667,1,0,0:0:0:0:
64,192,221751,1,0,0:0:0:0:
192,192,221834,1,0,0:0:0:0:
64,192,221917,1,0,0:0:0:0:
320,192,222001,1,0,0:0:0:0:
448,192,222001,1,0,0:0:0:0:
192,192,222084,1,0,0:0:0:0:
64,192,222167,1,0,0:0:0:0:
192,192,222251,1,0,0:0:0:0:
320,192,222334,1,0,0:0:0:0:
448,192,222334,1,0,0:0:0:0:
64,192,222417,1,0,0:0:0:0:
192,192,222501,1,0,0:0:0:0:
64,192,222584,1,0,0:0:0:0:
320,192,222667,1,0,0:0:0:0:
448,192,222667,1,0,0:0:0:0:
192,192,222751,1,0,0:0:0:0:
64,192,222834,1,0,0:0:0:0:
192,192,222917,1,0,0:0:0:0:
320,192,223001,1,0,0:0:0:0:
448,192,223001,1,0,0:0:0:0:
64,192,223084,1,0,0:0:0:0:
192,192,223167,1,0,0:0:0:0:
64,192,223251,1,0,0:0:0:0:
320,192,223334,1,0,0:0:0:0:
448,192,223334,1,0,0:0:0:0:
192,192,223417,1,0,0:0:0:0:
64,192,223501,1,0,0:0:0:0:
192,192,223584,1,0,0:0:0:0:
320,192,223667,1,0,0:0:0:0:
448,192,223667,1,0,0:0:0:0:
64,192,223751,1,0,0:0:0:0:
192,192,223834,1,0,0:0:0:0:
64,192,223917,1,0,0:0:0:0:
320,192,224001,1,0,0:0:0:0:
448,192,224001,1,0,0:0:0:0:
192,192,224084,1,0,0:0:0:0:
64,192,224167,1,0,0:0:0:0:
192,192,224251,1,0,0:0:0:0:
320,192,224334,1,0,0:0:0:0:
448,192,224334,1,0,0:0:0:0:
64,192,224417,1,0,0:0:0:0:
192,192,224501,1,0,0:0:0:0:
64,192,224584,1,0,0:0:0:0:
320,192,224667,1,0,0:0:0:0:
448,192,224667,1,0,0:0:0:0:
64,192,224751,1,0,0:0:0:0:
192,192,224834,1,0,0:0:0:0:
320,192,224917,1,0,0:0:0:0:
448,192,225001,1,0,0:0:0:0:
64,192,225001,1,0,0:0:0:0:
320,192,225084,1,0,0:0:0:0:
192,192,225167,1,0,0:0:0:0:
448,192,225251,1,0,0:0:0:0:
64,192,225251,1,0,0:0:0:0:
192,192,225334,1,0,0:0:0:0:
320,192,225334,1,0,0:0:0:0:
64,192,225417,1,0,0:0:0:0:
320,192,225501,1,0,0:0:0:0:
448,192,225584,1,0,0:0:0:0:
64,192,225667,1,0,0:0:0:0:
192,192,225667,1,0,0:0:0:0:
448,192,225751,1,0,0:0:0:0:
320,192,225834,1,0,0:0:0:0:
192,192,225917,1,0,0:0:0:0:
320,192,226001,1,0,0:0:0:0:
448,192,226001,1,0,0:0:0:0:
64,192,226084,1,0,0:0:0:0:
192,192,226167,1,0,0:0:0:0:
320,192,226251,1,0,0:0:0:0:
64,192,226334,1,0,0:0:0:0:
192,192,226334,1,0,0:0:0:0:
448,192,226417,1,0,0:0:0:0:
320,192,226501,1,0,0:0:0:0:
192,192,226584,1,0,0:0:0:0:
320,192,226667,1,0,0:0:0:0:
448,192,226667,1,0,0:0:0:0:
64,192,226751,1,0,0:0:0:0:
192,192,226834,1,0,0:0:0:0:
320,192,226917,1,0,0:0:0:0:
64,192,227001,1,0,0:0:0:0:
192,192,227001,1,0,0:0:0:0:
448,192,227084,1,0,0:0:0:0:
320,192,227167,1,0,0:0:0:0:
192,192,227251,1,0,0:0:0:0:
320,192,227334,1,0,0:0:0:0:
448,192,227334,1,0,0:0:0:0:
64,192,227417,1,0,0:0:0:0:
192,192,227501,1,0,0:0:0:0:
320,192,227584,1,0,0:0:0:0:
64,192,227667,1,0,0:0:0:0:
192,192,227667,1,0,0:0:0:0:
448,192,227751,1,0,0:0:0:0:
320,192,227834,1,0,0:0:0:0:
192,192,227917,1,0,0:0:0:0:
320,192,228001,1,0,0:0:0:0:
448,192,228001,1,0,0:0:0:0:
64,192,228084,1,0,0:0:0:0:
192,192,228167,1,0,0:0:0:0:
320,192,228251,1,0,0:0:0:0:
64,192,228334,1,0,0:0:0:0:
192,192,228334,1,0,0:0:0:0:
448,192,228417,1,0,0:0:0:0:
320,192,228501,1,0,0:0:0:0:
192,192,228584,1,0,0:0:0:0:
320,192,228667,1,0,0:0:0:0:
448,192,228667,1,0,0:0:0:0:
64,192,228751,1,0,0:0:0:0:
192,192,228834,1,0,0:0:0:0:
320,192,228917,1,0,0:0:0:0:
64,192,229001,1,0,0:0:0:0:
192,192,229001,1,0,0:0:0:0:
448,192,229084,1,0,0:0:0:0:
320,192,229167,1,0,0:0:0:0:
192,192,229251,1,0,0:0:0:0:
320,192,229334,1,0,0:0:0:0:
448,192,229334,1,0,0:0:0:0:
64,192,229417,1,0,0:0:0:0:
192,192,229501,1,0,0:0:0:0:
320,192,229584,1,0,0:0:0:0:
64,192,229667,1,0,0:0:0:0:
192,192,229667,1,0,0:0:0:0:
448,192,229751,1,0,0:0:0:0:
320,192,229834,1,0,0:0:0:0:
192,192,229917,1,0,0:0:0:0:
320,192,230001,1,0,0:0:0:0:
448,192,230001,1,0,0:0:0:0:
64,192,230084,1,0,0:0:0:0:
192,192,230167,1,0,0:0:0:0:
320,192,230251,1,0,0:0:0:0:
64,192,230334,1,0,0:0:0:0:
192,192,230334,1,0,0:0:0:0:
448,192,230417,1,0,0:0:0:0:
64,192,230501,1,0,0:0:0:0:
320,192,230584,1,0,0:0:0:0:
192,192,230584,1,0,0:0:0:0:
64,192,230667,1,0,0:0:0:0:
448,192,230667,1,0,0:0:0:0:
192,192,230751,1,0,0:0:0:0:
448,192,230834,1,0,0:0:0:0:
64,192,230917,1,0,0:0:0:0:
192,192,231001,1,0,0:0:0:0:
320,192,231001,1,0,0:0:0:0:
448,192,231084,1,0,0:0:0:0:
64,192,231167,1,0,0:0:0:0:
320,192,231251,1,0,0:0:0:0:
64,192,231334,1,0,0:0:0:0:
448,192,231334,1,0,0:0:0:0:
192,192,231417,1,0,0:0:0:0:
448,192,231501,1,0,0:0:0:0:
64,192,231584,1,0,0:0:0:0:
192,192,231667,1,0,0:0:0:0:
320,192,231667,1,0,0:0:0:0:
448,192,231751,1,0,0:0:0:0:
192,192,231834,1,0,0:0:0:0:
320,192,231917,1,0,0:0:0:0:
64,192,232001,1,0,0:0:0:0:
448,192,232001,1,0,0:0:0:0:
320,192,232084,1,0,0:0:0:0:
192,192,232167,1,0,0:0:0:0:
448,192,232251,1,0,0:0:0:0:
192,192,232334,1,0,0:0:0:0:
320,192,232334,1,0,0:0:0:0:
64,192,232417,1,0,0:0:0:0:
192,192,232501,1,0,0:0:0:0:
320,192,232584,1,0,0:0:0:0:
64,192,232667,1,0,0:0:0:0:
448,192,232667,1,0,0:0:0:0:
192,192,232751,1,0,0:0:0:0:
448,192,232834,1,0,0:0:0:0:
64,192,232917,1,0,0:0:0:0:
192,192,233001,1,0,0:0:0:0:
320,192,233001,1,0,0:0:0:0:
448,192,233084,1,0,0:0:0:0:
320,192,233167,1,0,0:0:0:0:
192,192,233251,1,0,0:0:0:0:
64,192,233334,1,0,0:0:0:0:
448,192,233334,1,0,0:0:0:0:
320,192,233417,1,0,0:0:0:0:
64,192,233501,1,0,0:0:0:0:
448,192,233584,1,0,0:0:0:0:
192,192,233667,1,0,0:0:0:0:
320,192,233667,1,0,0:0:0:0:
64,192,233751,1,0,0:0:0:0:
448,192,233834,1,0,0:0:0:0:
192,192,233917,1,0,0:0:0:0:
64,192,234001,1,0,0:0:0:0:
448,192,234001,1,0,0:0:0:0:
192,192,234084,1,0,0:0:0:0:
320,192,234167,1,0,0:0:0:0:
448,192,234251,1,0,0:0:0:0:
192,192,234334,1,0,0:0:0:0:
320,192,234334,1,0,0:0:0:0:
448,192,234417,1,0,0:0:0:0:
64,192,234501,1,0,0:0:0:0:
320,192,234584,1,0,0:0:0:0:
64,192,234667,1,0,0:0:0:0:
448,192,234667,1,0,0:0:0:0:
320,192,234751,1,0,0:0:0:0:
192,192,234834,1,0,0:0:0:0:
64,192,234917,1,0,0:0:0:0:
192,192,235001,1,0,0:0:0:0:
320,192,235001,1,0,0:0:0:0:
448,192,235084,1,0,0:0:0:0:
64,192,235167,1,0,0:0:0:0:
320,192,235251,1,0,0:0:0:0:
64,192,235334,1,0,0:0:0:0:
448,192,235334,1,0,0:0:0:0:
192,192,235417,1,0,0:0:0:0:
320,192,235417,1,0,0:0:0:0:
64,192,235501,1,0,0:0:0:0:
448,192,235501,1,0,0:0:0:0:
192,192,235584,1,0,0:0:0:0:
320,192,235584,1,0,0:0:0:0:
64,192,235667,1,0,0:0:0:0:
448,192,235667,1,0,0:0:0:0:
192,192,235751,1,0,0:0:0:0:
320,192,235751,1,0,0:0:0:0:
64,192,235834,1,0,0:0:0:0:
448,192,235834,1,0,0:0:0:0:
192,192,235917,1,0,0:0:0:0:
64,192,236001,1,0,0:0:0:0:
320,192,236001,1,0,0:0:0:0:
448,192,236084,1,0,0:0:0:0:
64,192,236167,1,0,0:0:0:0:
320,192,236251,1,0,0:0:0:0:
192,192,236334,1,0,0:0:0:0:
448,192,236334,1,0,0:0:0:0:
64,192,236417,1,0,0:0:0:0:
448,192,236501,1,0,0:0:0:0:
192,192,236584,1,0,0:0:0:0:
64,192,236667,1,0,0:0:0:0:
320,192,236667,1,0,0:0:0:0:
448,192,236751,1,0,0:0:0:0:
64,192,236834,1,0,0:0:0:0:
320,192,236917,1,0,0:0:0:0:
192,192,237001,1,0,0:0:0:0:
448,192,237001,1,0,0:0:0:0:
64,192,237084,1,0,0:0:0:0:
448,192,237167,1,0,0:0:0:0:
192,192,237251,1,0,0:0:0:0:
64,192,237334,1,0,0:0:0:0:
320,192,237334,1,0,0:0:0:0:
448,192,237417,1,0,0:0:0:0:
64,192,237501,1,0,0:0:0:0:
320,192,237584,1,0,0:0:0:0:
192,192,237667,1,0,0:0:0:0:
448,192,237667,1,0,0:0:0:0:
64,192,237751,1,0,0:0:0:0:
448,192,237834,1,0,0:0:0:0:
192,192,237917,1,0,0:0:0:0:
64,192,238001,1,0,0:0:0:0:
320,192,238001,1,0,0:0:0:0:
448,192,238084,1,0,0:0:0:0:
64,192,238167,1,0,0:0:0:0:
320,192,238251,1,0,0:0:0:0:
192,192,238334,1,0,0:0:0:0:
448,192,238334,1,0,0:0:0:0:
64,192,238417,1,0,0:0:0:0:
448,192,238501,1,0,0:0:0:0:
192,192,238584,1,0,0:0:0:0:
64,192,238667,1,0,0:0:0:0:
320,192,238667,1,0,0:0:0:0:
448,192,238751,1,0,0:0:0:0:
64,192,238834,1,0,0:0:0:0:
320,192,238917,1,0,0:0:0:0:
192,192,239001,1,0,0:0:0:0:
448,192,239001,1,0,0:0:0:0:
64,192,239084,1,0,0:0:0:0:
448,192,239167,1,0,0:0:0:0:
192,192,239251,1,0,0:0:0:0:
64,192,239334,1,0,0:0:0:0:
320,192,239334,1,0,0:0:0:0:
448,192,239417,1,0,0:0:0:0:
64,192,239501,1,0,0:0:0:0:
320,192,239584,1,0,0:0:0:0:
192,192,239667,1,0,0:0:0:0:
448,192,239667,1,0,0:0:0:0:
64,192,239751,1,0,0:0:0:0:
448,192,239834,1,0,0:0:0:0:
192,192,239917,1,0,0:0:0:0:
64,192,240001,1,0,0:0:0:0:
320,192,240001,1,0,0:0:0:0:
448,192,240084,1,0,0:0:0:0:
64,192,240167,1,0,0:0:0:0:
320,192,240251,1,0,0:0:0:0:
192,192,240334,1,0,0:0:0:0:
448,192,240334,1,0,0:0:0:0:
64,192,240417,1,0,0:0:0:0:
448,192,240501,1,0,0:0:0:0:
192,192,240584,1,0,0:0:0:0:
64,192,240667,1,0,0:0:0:0:
320,192,240667,1,0,0:0:0:0:
448,192,240751,1,0,0:0:0:0:
64,192,240834,1,0,0:0:0:0:
320,192,240917,1,0,0:0:0:0:
192,192,241001,1,0,0:0:0:0:
448,192,241001,1,0,0:0:0:0:
320,192,241084,1,0,0:0:0:0:
448,192,241167,1,0,0:0:0:0:
192,192,241251,1,0,0:0:0:0:
320,192,241334,1,0,0:0:0:0:
64,192,241417,1,0,0:0:0:0:
192,192,241501,1,0,0:0:0:0:
448,192,241584,1,0,0:0:0:0:
64,192,241667,1,0,0:0:0:0:
320,192,241667,1,0,0:0:0:0:
192,192,241667,1,0,0:0:0:0:
448,192,241751,1,0,0:0:0:0:
192,192,241834,1,0,0:0:0:0:
448,192,241917,1,0,0:0:0:0:
320,192,242001,1,0,0:0:0:0:
448,192,242084,1,0,0:0:0:0:
192,192,242167,1,0,0:0:0:0:
320,192,242251,1,0,0:0:0:0:
64,192,242334,1,0,0:0:0:0:
192,192,242417,1,0,0:0:0:0:
448,192,242501,1,0,0:0:0:0:
64,192,242584,1,0,0:0:0:0:
448,192,242667,1,0,0:0:0:0:
192,192,242751,1,0,0:0:0:0:
448,192,242834,1,0,0:0:0:0:
320,192,242917,1,0,0:0:0:0:
64,192,243001,1,0,0:0:0:0:
192,192,243001,1,0,0:0:0:0:
448,192,243084,1,0,0:0:0:0:
192,192,243167,1,0,0:0:0:0:
448,192,243251,1,0,0:0:0:0:
320,192,243334,1,0,0:0:0:0:
448,192,243417,1,0,0:0:0:0:
192,192,243501,1,0,0:0:0:0:
320,192,243584,1,0,0:0:0:0:
64,192,243667,1,0,0:0:0:0:
192,192,243751,1,0,0:0:0:0:
448,192,243834,1,0,0:0:0:0:
64,192,243917,1,0,0:0:0:0:
448,192,244001,1,0,0:0:0:0:
192,192,244084,1,0,0:0:0:0:
448,192,244167,1,0,0:0:0:0:
320,192,244251,1,0,0:0:0:0:
448,192,244334,1,0,0:0:0:0:
192,192,244334,1,0,0:0:0:0:
64,192,244417,1,0,0:0:0:0:
448,192,244501,1,0,0:0:0:0:
192,192,244584,1,0,0:0:0:0:
448,192,244667,1,0,0:0:0:0:
320,192,244751,1,0,0:0:0:0:
448,192,244834,1,0,0:0:0:0:
192,192,244917,1,0,0:0:0:0:
320,192,245001,1,0,0:0:0:0:
64,192,245084,1,0,0:0:0:0:
192,192,245167,1,0,0:0:0:0:
448,192,245251,1,0,0:0:0:0:
64,192,245334,1,0,0:0:0:0:
448,192,245417,1,0,0:0:0:0:
192,192,245501,1,0,0:0:0:0:
448,192,245584,1,0,0:0:0:0:
320,192,245667,1,0,0:0:0:0:
448,192,245751,1,0,0:0:0:0:
192,192,245834,1,0,0:0:0:0:
448,192,245917,1,0,0:0:0:0:
192,192,246001,1,0,0:0:0:0:
64,192,246084,1,0,0:0:0:0:
320,192,246167,1,0,0:0:0:0:
192,192,246251,1,0,0:0:0:0:
448,192,246334,1,0,0:0:0:0:
320,192,246417,1,0,0:0:0:0:
448,192,246501,1,0,0:0:0:0:
64,192,246584,1,0,0:0:0:0:
448,192,246667,1,0,0:0:0:0:
192,192,246751,1,0,0:0:0:0:
320,192,246834,1,0,0:0:0:0:
64,192,246917,1,0,0:0:0:0:
448,192,247001,1,0,0:0:0:0:
320,192,247001,1,0,0:0:0:0:
192,192,247084,1,0,0:0:0:0:
64,192,247167,1,0,0:0:0:0:
448,192,247251,1,0,0:0:0:0:
64,192,247334,1,0,0:0:0:0:
192,192,247417,1,0,0:0:0:0:
64,192,247501,1,0,0:0:0:0:
320,192,247584,1,0,0:0:0:0:
192,192,247667,1,0,0:0:0:0:
448,192,247751,1,0,0:0:0:0:
320,192,247834,1,0,0:0:0:0:
64,192,247917,1,0,0:0:0:0:
448,192,248001,1,0,0:0:0:0:
192,192,248084,1,0,0:0:0:0:
448,192,248167,1,0,0:0:0:0:
64,192,248251,1,0,0:0:0:0:
192,192,248334,1,0,0:0:0:0:
320,192,248334,1,0,0:0:0:0:
64,192,248417,1,0,0:0:0:0:
448,192,248501,1,0,0:0:0:0:
192,192,248584,1,0,0:0:0:0:
320,192,248667,1,0,0:0:0:0:
192,192,248751,1,0,0:0:0:0:
448,192,248834,1,0,0:0:0:0:
64,192,248917,1,0,0:0:0:0:
448,192,249001,1,0,0:0:0:0:
320,192,249084,1,0,0:0:0:0:
448,192,249167,1,0,0:0:0:0:
192,192,249251,1,0,0:0:0:0:
64,192,249334,1,0,0:0:0:0:
192,192,249417,1,0,0:0:0:0:
448,192,249501,1,0,0:0:0:0:
64,192,249584,1,0,0:0:0:0:
448,192,249667,1,0,0:0:0:0:
320,192,249667,1,0,0:0:0:0:
192,192,249751,1,0,0:0:0:0:
448,192,249834,1,0,0:0:0:0:
192,192,249917,1,0,0:0:0:0:
320,192,250001,1,0,0:0:0:0:
448,192,250084,1,0,0:0:0:0:
64,192,250167,1,0,0:0:0:0:
192,192,250167,1,0,0:0:0:0:
320,192,250167,1,0,0:0:0:0:
448,192,250251,1,0,0:0:0:0:
64,192,250334,1,0,0:0:0:0:
192,192,250334,1,0,0:0:0:0:
320,192,250417,1,0,0:0:0:0:
64,192,250501,1,0,0:0:0:0:
192,192,250584,1,0,0:0:0:0:
448,192,250667,1,0,0:0:0:0:
192,192,250751,1,0,0:0:0:0:
320,192,250834,1,0,0:0:0:0:
448,192,250834,1,0,0:0:0:0:
64,192,250917,1,0,0:0:0:0:
192,192,251001,1,0,0:0:0:0:
320,192,251001,1,0,0:0:0:0:
448,192,251001,1,0,0:0:0:0:
64,192,251084,1,0,0:0:0:0:
192,192,251167,1,0,0:0:0:0:
320,192,251167,1,0,0:0:0:0:
448,192,251251,1,0,0:0:0:0:
64,192,251334,1,0,0:0:0:0:
192,192,251334,1,0,0:0:0:0:
320,192,251334,1,0,0:0:0:0:
448,192,251417,1,0,0:0:0:0:
192,192,251501,1,0,0:0:0:0:
64,192,251501,1,0,0:0:0:0:
320,192,251584,1,0,0:0:0:0:
64,192,251667,1,0,0:0:0:0:
448,192,251667,1,0,0:0:0:0:
192,192,251751,1,0,0:0:0:0:
320,192,251834,1,0,0:0:0:0:
448,192,251834,1,0,0:0:0:0:
