osu file format v14

[General]
AudioFilename: Bad Apple (REDALiCE Remix).mp3
AudioLeadIn: 0
PreviewTime: 66540
Countdown: 0
SampleSet: None
StackLeniency: 0.7
Mode: 3
LetterboxInBreaks: 0
SpecialStyle: 0
WidescreenStoryboard: 1

[Editor]
DistanceSpacing: 0.8
BeatDivisor: 4
GridSize: 8
TimelineZoom: 1

[Metadata]
Title:Touhou from the past
TitleUnicode:Touhou from the past
Artist:Various Artists
ArtistUnicode:Various Artists
Creator:LostCool
Version:Bad Apple (REDALiCE Remix)
Source:LCC
Tags:
BeatmapID:2093482
BeatmapSetID:1000237

[Difficulty]
HPDrainRate:7.5
CircleSize:4
OverallDifficulty:7.5
ApproachRate:10
SliderMultiplier:1.4
SliderTickRate:1

[Events]
//Background and Video events
0,0,"bg ja.png",0,0
//Break Periods
2,22887,40589
//Storyboard Layer 0 (Background)
//Storyboard Layer 1 (Fail)
//Storyboard Layer 2 (Pass)
//Storyboard Layer 3 (Foreground)
//Storyboard Sound Samples

[TimingPoints]
100,705.8823,4,1,0,30,1,0
11394,352.9412,4,1,0,30,1,0
21982,176.4706,4,1,0,30,1,0
22687,88.2352941176471,4,1,0,30,1,0
39628,-400,4,1,0,30,0,0
41039,-400,4,1,0,30,0,0
43863,-100,4,1,0,30,0,0
44216,-833.333333333333,4,1,0,30,0,0
44569,-200,4,1,0,30,0,0
44745,-1000,4,1,0,30,0,0
44834,-400,4,1,0,30,0,0
44922,-200,4,1,0,30,0,0
45010,-400,4,1,0,30,0,0
45276,352.941176470588,4,1,0,30,1,0
45276,-100,4,1,0,30,0,0
90454,705.882352941176,4,1,0,30,1,0
113042,352.941176470588,4,1,0,30,1,0
134218,176.4706,4,1,0,30,1,0
134923,88.2352941176471,4,1,0,30,1,0
135628,352.941176470588,4,1,0,30,1,0
157510,88.2352941176471,4,1,0,30,1,0
157862,176.470588235294,4,1,0,30,1,0
158216,352.9412,4,1,0,30,1,0
203392,705.8823,4,1,0,30,1,0
225980,352.9412,4,1,0,30,1,0
247862,176.470588235294,4,1,0,30,1,0
248214,88.2352941176471,4,1,0,30,1,0
248568,352.9412,4,1,0,30,1,0

[HitObjects]
192,192,11394,5,0,0:0:0:0:
64,192,11570,1,0,0:0:0:0:
192,192,11746,1,0,0:0:0:0:
64,192,11923,1,0,0:0:0:0:
192,192,12099,1,0,0:0:0:0:
64,192,12276,1,0,0:0:0:0:
192,192,12452,1,0,0:0:0:0:
64,192,12629,1,0,0:0:0:0:
192,192,12805,1,0,0:0:0:0:
64,192,12982,1,0,0:0:0:0:
320,192,13158,1,0,0:0:0:0:
192,192,13335,1,0,0:0:0:0:
320,192,13511,1,0,0:0:0:0:
192,192,13688,1,0,0:0:0:0:
320,192,13864,1,0,0:0:0:0:
192,192,14041,1,0,0:0:0:0:
320,192,14217,1,0,0:0:0:0:
192,192,14394,1,0,0:0:0:0:
448,192,14570,1,0,0:0:0:0:
320,192,14746,1,0,0:0:0:0:
448,192,14923,1,0,0:0:0:0:
320,192,15099,1,0,0:0:0:0:
448,192,15276,1,0,0:0:0:0:
320,192,15452,1,0,0:0:0:0:
448,192,15629,1,0,0:0:0:0:
320,192,15805,1,0,0:0:0:0:
192,192,15982,1,0,0:0:0:0:
320,192,16158,1,0,0:0:0:0:
192,192,16335,1,0,0:0:0:0:
320,192,16511,1,0,0:0:0:0:
192,192,16688,1,0,0:0:0:0:
320,192,16864,1,0,0:0:0:0:
192,192,17041,1,0,0:0:0:0:
320,192,17217,1,0,0:0:0:0:
64,192,17394,1,0,0:0:0:0:
192,192,17570,1,0,0:0:0:0:
64,192,17746,1,0,0:0:0:0:
192,192,17923,1,0,0:0:0:0:
64,192,18099,1,0,0:0:0:0:
192,192,18276,1,0,0:0:0:0:
64,192,18452,1,0,0:0:0:0:
192,192,18629,1,0,0:0:0:0:
320,192,18805,1,0,0:0:0:0:
192,192,18982,1,0,0:0:0:0:
320,192,19158,1,0,0:0:0:0:
192,192,19335,1,0,0:0:0:0:
320,192,19511,1,0,0:0:0:0:
192,192,19688,1,0,0:0:0:0:
320,192,19864,1,0,0:0:0:0:
192,192,20041,1,0,0:0:0:0:
448,192,20217,1,0,0:0:0:0:
320,192,20394,1,0,0:0:0:0:
448,192,20570,1,0,0:0:0:0:
320,192,20746,1,0,0:0:0:0:
448,192,20923,1,0,0:0:0:0:
320,192,21099,1,0,0:0:0:0:
448,192,21276,1,0,0:0:0:0:
64,192,21276,1,0,0:0:0:0:
192,192,21982,1,0,0:0:0:0:
320,192,21982,1,0,0:0:0:0:
192,0,22334,128,0,22687:1:0:0:0:
320,0,22334,128,0,22687:1:0:0:0:
448,192,41039,5,0,0:0:0:0:
64,192,41128,1,0,0:0:0:0:
448,192,41216,1,0,0:0:0:0:
64,192,41304,1,0,0:0:0:0:
448,192,41392,1,0,0:0:0:0:
192,192,41481,1,0,0:0:0:0:
448,192,41569,1,0,0:0:0:0:
64,192,41657,1,0,0:0:0:0:
448,192,41745,1,0,0:0:0:0:
64,192,41834,1,0,0:0:0:0:
448,192,41922,1,0,0:0:0:0:
64,192,42010,1,0,0:0:0:0:
320,192,42098,1,0,0:0:0:0:
64,192,42187,1,0,0:0:0:0:
448,192,42275,1,0,0:0:0:0:
64,192,42363,1,0,0:0:0:0:
448,192,42451,1,0,0:0:0:0:
320,192,42539,1,0,0:0:0:0:
448,192,42628,1,0,0:0:0:0:
320,192,42716,1,0,0:0:0:0:
64,192,42804,1,0,0:0:0:0:
192,192,42892,1,0,0:0:0:0:
64,192,42981,1,0,0:0:0:0:
192,192,43069,1,0,0:0:0:0:
448,192,43157,1,0,0:0:0:0:
320,192,43245,1,0,0:0:0:0:
448,192,43334,1,0,0:0:0:0:
320,192,43422,5,0,0:0:0:0:
192,192,43510,1,0,0:0:0:0:
64,192,43598,1,0,0:0:0:0:
192,192,43687,1,0,0:0:0:0:
64,192,43775,1,0,0:0:0:0:
64,192,43863,5,0,0:0:0:0:
448,192,43863,1,0,0:0:0:0:
64,192,44569,1,0,0:0:0:0:
448,192,44569,1,0,0:0:0:0:
64,192,44922,1,0,0:0:0:0:
448,192,44922,1,0,0:0:0:0:
64,0,45275,128,0,45628:1:0:0:0:
192,192,45452,1,0,0:0:0:0:
320,192,45628,1,0,0:0:0:0:
448,192,45805,1,0,0:0:0:0:
64,0,45981,128,0,46334:1:0:0:0:
192,192,46158,1,0,0:0:0:0:
320,192,46334,1,0,0:0:0:0:
448,192,46511,1,0,0:0:0:0:
64,0,46687,128,0,47040:1:0:0:0:
192,192,46864,1,0,0:0:0:0:
320,192,47040,1,0,0:0:0:0:
448,192,47217,1,0,0:0:0:0:
64,0,47393,128,0,47746:1:0:0:0:
192,192,47570,1,0,0:0:0:0:
320,192,47658,1,0,0:0:0:0:
320,192,47746,1,0,0:0:0:0:
448,192,47923,1,0,0:0:0:0:
320,192,48011,1,0,0:0:0:0:
64,0,48099,128,0,48452:1:0:0:0:
192,192,48276,1,0,0:0:0:0:
320,192,48452,1,0,0:0:0:0:
448,192,48628,1,0,0:0:0:0:
64,0,48805,128,0,49158:1:0:0:0:
192,192,48981,1,0,0:0:0:0:
320,192,49158,1,0,0:0:0:0:
448,192,49334,1,0,0:0:0:0:
64,0,49511,128,0,49864:1:0:0:0:
192,192,49687,1,0,0:0:0:0:
320,192,49864,1,0,0:0:0:0:
448,192,50040,1,0,0:0:0:0:
64,0,50217,128,0,50570:1:0:0:0:
192,192,50393,1,0,0:0:0:0:
320,192,50481,1,0,0:0:0:0:
320,192,50570,1,0,0:0:0:0:
448,192,50746,1,0,0:0:0:0:
320,192,50834,1,0,0:0:0:0:
448,0,50923,128,0,51276:1:0:0:0:
320,192,51099,1,0,0:0:0:0:
192,192,51276,1,0,0:0:0:0:
64,192,51452,1,0,0:0:0:0:
448,0,51628,128,0,51981:1:0:0:0:
320,192,51805,1,0,0:0:0:0:
192,192,51981,1,0,0:0:0:0:
64,192,52158,1,0,0:0:0:0:
448,0,52334,128,0,52687:1:0:0:0:
320,192,52511,1,0,0:0:0:0:
192,192,52687,1,0,0:0:0:0:
64,192,52864,1,0,0:0:0:0:
448,0,53040,128,0,53393:1:0:0:0:
320,192,53217,1,0,0:0:0:0:
192,192,53305,1,0,0:0:0:0:
192,192,53393,1,0,0:0:0:0:
64,192,53570,1,0,0:0:0:0:
192,192,53658,1,0,0:0:0:0:
448,0,53746,128,0,54099:1:0:0:0:
320,192,53923,1,0,0:0:0:0:
192,192,54099,1,0,0:0:0:0:
64,192,54275,1,0,0:0:0:0:
448,0,54452,128,0,54805:1:0:0:0:
320,192,54628,1,0,0:0:0:0:
192,192,54805,1,0,0:0:0:0:
64,192,54981,1,0,0:0:0:0:
448,0,55158,128,0,55511:1:0:0:0:
320,192,55334,1,0,0:0:0:0:
192,192,55511,1,0,0:0:0:0:
64,192,55687,1,0,0:0:0:0:
448,0,55864,128,0,56217:1:0:0:0:
320,192,56040,1,0,0:0:0:0:
192,192,56128,1,0,0:0:0:0:
192,192,56217,1,0,0:0:0:0:
64,192,56393,1,0,0:0:0:0:
192,192,56481,1,0,0:0:0:0:
64,0,56570,128,0,56923:1:0:0:0:
448,192,56746,1,0,0:0:0:0:
192,192,56923,1,0,0:0:0:0:
320,192,57099,1,0,0:0:0:0:
64,0,57275,128,0,57628:1:0:0:0:
448,192,57452,1,0,0:0:0:0:
192,192,57628,1,0,0:0:0:0:
320,192,57805,1,0,0:0:0:0:
64,0,57981,128,0,58334:1:0:0:0:
448,192,58158,1,0,0:0:0:0:
192,192,58334,1,0,0:0:0:0:
320,192,58511,1,0,0:0:0:0:
64,0,58687,128,0,59040:1:0:0:0:
448,192,58864,1,0,0:0:0:0:
320,192,58952,1,0,0:0:0:0:
192,192,59040,1,0,0:0:0:0:
320,192,59217,1,0,0:0:0:0:
320,192,59305,1,0,0:0:0:0:
64,0,59393,128,0,59746:1:0:0:0:
448,192,59570,1,0,0:0:0:0:
192,192,59746,1,0,0:0:0:0:
320,192,59923,1,0,0:0:0:0:
64,0,60099,128,0,60452:1:0:0:0:
448,192,60275,1,0,0:0:0:0:
192,192,60452,1,0,0:0:0:0:
320,192,60628,1,0,0:0:0:0:
64,0,60805,128,0,61158:1:0:0:0:
448,192,60981,1,0,0:0:0:0:
192,192,61158,1,0,0:0:0:0:
320,192,61334,1,0,0:0:0:0:
64,0,61511,128,0,61864:1:0:0:0:
448,192,61687,1,0,0:0:0:0:
320,192,61775,1,0,0:0:0:0:
192,192,61864,1,0,0:0:0:0:
320,192,62040,1,0,0:0:0:0:
320,192,62128,1,0,0:0:0:0:
448,0,62217,128,0,62570:1:0:0:0:
64,192,62393,1,0,0:0:0:0:
320,192,62570,1,0,0:0:0:0:
192,192,62746,1,0,0:0:0:0:
448,0,62923,128,0,63275:1:0:0:0:
64,192,63099,1,0,0:0:0:0:
320,192,63275,1,0,0:0:0:0:
192,192,63452,1,0,0:0:0:0:
448,0,63628,128,0,63981:1:0:0:0:
64,192,63805,1,0,0:0:0:0:
320,192,63981,1,0,0:0:0:0:
192,192,64158,1,0,0:0:0:0:
448,0,64334,128,0,64687:1:0:0:0:
64,192,64511,1,0,0:0:0:0:
192,192,64599,1,0,0:0:0:0:
320,192,64687,1,0,0:0:0:0:
192,192,64864,1,0,0:0:0:0:
192,192,64952,1,0,0:0:0:0:
448,0,65040,128,0,65393:1:0:0:0:
64,192,65217,1,0,0:0:0:0:
320,192,65393,1,0,0:0:0:0:
192,192,65570,1,0,0:0:0:0:
448,0,65746,128,0,66099:1:0:0:0:
64,192,65923,1,0,0:0:0:0:
320,192,66099,1,0,0:0:0:0:
192,192,66275,1,0,0:0:0:0:
64,0,66452,128,0,67158:1:0:0:0:
448,0,66452,128,0,67158:1:0:0:0:
192,0,67158,128,0,67511:1:0:0:0:
320,0,67511,128,0,67864:1:0:0:0:
64,192,67864,1,0,0:0:0:0:
448,192,67864,1,0,0:0:0:0:
320,192,68040,1,0,0:0:0:0:
192,192,68217,1,0,0:0:0:0:
448,192,68217,1,0,0:0:0:0:
320,192,68393,1,0,0:0:0:0:
64,192,68570,1,0,0:0:0:0:
192,192,68570,1,0,0:0:0:0:
64,192,68923,1,0,0:0:0:0:
448,192,68923,1,0,0:0:0:0:
320,192,69099,1,0,0:0:0:0:
64,192,69275,1,0,0:0:0:0:
192,192,69275,1,0,0:0:0:0:
320,192,69628,1,0,0:0:0:0:
448,192,69628,1,0,0:0:0:0:
192,192,69981,1,0,0:0:0:0:
448,192,69981,1,0,0:0:0:0:
320,192,70158,1,0,0:0:0:0:
448,192,70334,1,0,0:0:0:0:
192,192,70334,1,0,0:0:0:0:
320,192,70511,1,0,0:0:0:0:
64,192,70687,1,0,0:0:0:0:
192,192,70687,1,0,0:0:0:0:
320,192,70864,1,0,0:0:0:0:
192,192,71040,1,0,0:0:0:0:
64,192,71040,1,0,0:0:0:0:
320,192,71217,1,0,0:0:0:0:
448,192,71393,1,0,0:0:0:0:
192,192,71393,1,0,0:0:0:0:
448,192,71746,1,0,0:0:0:0:
320,192,71746,1,0,0:0:0:0:
320,192,71923,1,0,0:0:0:0:
192,192,72099,1,0,0:0:0:0:
448,192,72099,1,0,0:0:0:0:
320,192,72275,1,0,0:0:0:0:
192,192,72452,1,0,0:0:0:0:
448,192,72452,1,0,0:0:0:0:
64,192,72628,1,0,0:0:0:0:
192,192,72805,1,0,0:0:0:0:
320,192,72805,1,0,0:0:0:0:
192,192,72981,1,0,0:0:0:0:
64,192,73158,1,0,0:0:0:0:
320,192,73158,1,0,0:0:0:0:
448,192,73334,1,0,0:0:0:0:
192,192,73511,1,0,0:0:0:0:
320,192,73511,1,0,0:0:0:0:
192,192,73687,1,0,0:0:0:0:
320,192,73864,1,0,0:0:0:0:
448,192,73864,1,0,0:0:0:0:
448,192,74040,1,0,0:0:0:0:
192,192,74217,1,0,0:0:0:0:
320,192,74217,1,0,0:0:0:0:
64,192,74570,1,0,0:0:0:0:
448,192,74570,1,0,0:0:0:0:
192,192,74746,1,0,0:0:0:0:
64,192,74923,1,0,0:0:0:0:
320,192,74923,1,0,0:0:0:0:
192,192,75275,1,0,0:0:0:0:
448,192,75275,1,0,0:0:0:0:
64,192,75628,1,0,0:0:0:0:
320,192,75628,1,0,0:0:0:0:
192,192,75805,1,0,0:0:0:0:
64,192,75981,1,0,0:0:0:0:
320,192,75981,1,0,0:0:0:0:
448,192,76158,1,0,0:0:0:0:
64,192,76334,1,0,0:0:0:0:
192,192,76334,1,0,0:0:0:0:
192,192,76511,1,0,0:0:0:0:
320,192,76687,1,0,0:0:0:0:
448,192,76687,1,0,0:0:0:0:
64,192,76864,1,0,0:0:0:0:
192,192,77040,1,0,0:0:0:0:
448,192,77040,1,0,0:0:0:0:
64,192,77393,1,0,0:0:0:0:
320,192,77393,1,0,0:0:0:0:
192,192,77570,1,0,0:0:0:0:
64,192,77746,1,0,0:0:0:0:
320,192,77746,1,0,0:0:0:0:
64,192,78099,1,0,0:0:0:0:
192,192,78099,1,0,0:0:0:0:
192,192,78452,1,0,0:0:0:0:
320,192,78452,1,0,0:0:0:0:
320,192,78805,1,0,0:0:0:0:
448,192,78805,1,0,0:0:0:0:
448,192,79158,1,0,0:0:0:0:
320,192,79334,1,0,0:0:0:0:
448,192,79511,1,0,0:0:0:0:
192,192,79687,1,0,0:0:0:0:
448,192,79864,1,0,0:0:0:0:
320,192,80217,1,0,0:0:0:0:
192,192,80393,1,0,0:0:0:0:
320,192,80570,1,0,0:0:0:0:
64,192,80923,1,0,0:0:0:0:
192,192,81275,1,0,0:0:0:0:
448,192,81452,1,0,0:0:0:0:
192,192,81628,1,0,0:0:0:0:
320,192,81805,1,0,0:0:0:0:
192,192,81981,1,0,0:0:0:0:
64,192,82158,1,0,0:0:0:0:
192,192,82334,1,0,0:0:0:0:
320,192,82511,1,0,0:0:0:0:
192,192,82687,1,0,0:0:0:0:
320,192,83040,1,0,0:0:0:0:
64,192,83217,1,0,0:0:0:0:
320,192,83393,1,0,0:0:0:0:
192,192,83570,1,0,0:0:0:0:
320,192,83746,1,0,0:0:0:0:
64,192,83923,1,0,0:0:0:0:
320,192,84099,1,0,0:0:0:0:
192,192,84275,1,0,0:0:0:0:
320,192,84452,1,0,0:0:0:0:
64,192,84628,1,0,0:0:0:0:
320,192,84805,1,0,0:0:0:0:
192,192,84981,1,0,0:0:0:0:
320,192,85158,1,0,0:0:0:0:
448,192,85334,1,0,0:0:0:0:
320,192,85511,1,0,0:0:0:0:
192,192,85864,1,0,0:0:0:0:
320,192,86040,1,0,0:0:0:0:
64,192,86217,1,0,0:0:0:0:
192,192,86570,1,0,0:0:0:0:
320,192,86923,1,0,0:0:0:0:
64,192,87099,1,0,0:0:0:0:
320,192,87275,1,0,0:0:0:0:
192,192,87452,1,0,0:0:0:0:
448,192,87628,1,0,0:0:0:0:
320,192,87805,1,0,0:0:0:0:
448,192,87981,1,0,0:0:0:0:
64,192,88158,1,0,0:0:0:0:
320,192,88334,1,0,0:0:0:0:
192,192,88687,1,0,0:0:0:0:
64,192,88864,1,0,0:0:0:0:
192,192,89040,1,0,0:0:0:0:
320,192,89393,1,0,0:0:0:0:
448,192,89746,1,0,0:0:0:0:
448,192,90099,1,0,0:0:0:0:
320,192,90454,1,0,0:0:0:0:
448,192,90630,1,0,0:0:0:0:
320,192,90806,1,0,0:0:0:0:
192,192,90983,1,0,0:0:0:0:
64,192,91159,1,0,0:0:0:0:
320,192,91512,1,0,0:0:0:0:
448,192,91689,1,0,0:0:0:0:
320,192,91865,1,0,0:0:0:0:
448,192,92042,1,0,0:0:0:0:
320,192,92218,1,0,0:0:0:0:
192,192,92395,1,0,0:0:0:0:
64,192,92571,1,0,0:0:0:0:
448,192,92924,1,0,0:0:0:0:
320,192,93101,1,0,0:0:0:0:
448,192,93277,1,0,0:0:0:0:
320,192,93454,1,0,0:0:0:0:
64,192,93630,1,0,0:0:0:0:
192,192,93806,1,0,0:0:0:0:
64,192,93983,1,0,0:0:0:0:
320,192,94336,1,0,0:0:0:0:
192,192,94512,1,0,0:0:0:0:
64,192,94689,1,0,0:0:0:0:
192,192,94865,1,0,0:0:0:0:
320,192,95042,1,0,0:0:0:0:
192,192,95218,1,0,0:0:0:0:
64,192,95395,1,0,0:0:0:0:
192,192,95748,1,0,0:0:0:0:
320,192,95924,1,0,0:0:0:0:
320,192,96101,1,0,0:0:0:0:
320,192,96277,1,0,0:0:0:0:
192,192,96454,1,0,0:0:0:0:
320,192,96630,1,0,0:0:0:0:
448,192,96806,1,0,0:0:0:0:
64,192,97159,1,0,0:0:0:0:
192,192,97336,1,0,0:0:0:0:
320,192,97512,1,0,0:0:0:0:
192,192,97689,1,0,0:0:0:0:
320,192,97865,1,0,0:0:0:0:
448,192,98042,1,0,0:0:0:0:
320,192,98218,1,0,0:0:0:0:
192,192,98571,1,0,0:0:0:0:
320,192,98748,1,0,0:0:0:0:
64,192,98924,1,0,0:0:0:0:
192,192,99101,1,0,0:0:0:0:
320,192,99277,1,0,0:0:0:0:
448,192,99454,1,0,0:0:0:0:
320,192,99630,1,0,0:0:0:0:
192,192,99983,1,0,0:0:0:0:
64,192,100159,1,0,0:0:0:0:
320,192,100336,1,0,0:0:0:0:
192,192,100512,1,0,0:0:0:0:
448,192,100689,1,0,0:0:0:0:
320,192,100865,1,0,0:0:0:0:
192,192,101042,1,0,0:0:0:0:
320,192,101395,5,0,0:0:0:0:
448,192,101571,1,0,0:0:0:0:
64,192,101748,5,0,0:0:0:0:
192,192,101748,1,0,0:0:0:0:
320,192,101748,1,0,0:0:0:0:
192,192,102454,1,0,0:0:0:0:
320,192,102454,1,0,0:0:0:0:
192,192,102630,1,0,0:0:0:0:
320,192,102630,1,0,0:0:0:0:
320,192,103159,1,0,0:0:0:0:
448,192,103159,1,0,0:0:0:0:
192,192,103159,1,0,0:0:0:0:
192,192,103865,1,0,0:0:0:0:
320,192,103865,1,0,0:0:0:0:
192,192,104042,1,0,0:0:0:0:
320,192,104042,1,0,0:0:0:0:
64,192,104571,1,0,0:0:0:0:
192,192,104571,1,0,0:0:0:0:
448,192,104571,1,0,0:0:0:0:
192,192,105277,1,0,0:0:0:0:
320,192,105277,1,0,0:0:0:0:
192,192,105453,1,0,0:0:0:0:
320,192,105453,1,0,0:0:0:0:
320,192,105983,1,0,0:0:0:0:
448,192,105983,1,0,0:0:0:0:
64,192,105983,1,0,0:0:0:0:
192,192,106689,1,0,0:0:0:0:
320,192,106689,1,0,0:0:0:0:
192,192,106865,1,0,0:0:0:0:
320,192,106865,1,0,0:0:0:0:
64,192,107395,1,0,0:0:0:0:
448,192,107395,1,0,0:0:0:0:
192,192,108101,1,0,0:0:0:0:
320,192,108101,1,0,0:0:0:0:
192,192,108277,1,0,0:0:0:0:
320,192,108806,1,0,0:0:0:0:
64,192,108806,1,0,0:0:0:0:
448,192,109512,1,0,0:0:0:0:
192,192,109512,1,0,0:0:0:0:
448,192,109689,1,0,0:0:0:0:
64,192,110042,1,0,0:0:0:0:
320,192,110218,1,0,0:0:0:0:
448,192,110218,1,0,0:0:0:0:
64,192,110395,1,0,0:0:0:0:
320,192,110571,1,0,0:0:0:0:
448,192,110571,1,0,0:0:0:0:
64,192,110748,1,0,0:0:0:0:
320,192,110924,1,0,0:0:0:0:
448,192,110924,1,0,0:0:0:0:
64,192,111101,1,0,0:0:0:0:
320,192,111277,1,0,0:0:0:0:
448,192,111277,1,0,0:0:0:0:
64,192,111453,1,0,0:0:0:0:
320,0,111630,128,0,113042:1:0:0:0:
448,192,111630,1,0,0:0:0:0:
64,192,113042,1,0,0:0:0:0:
192,192,113042,1,0,0:0:0:0:
448,192,113218,1,0,0:0:0:0:
64,192,113394,1,0,0:0:0:0:
320,192,113394,1,0,0:0:0:0:
448,192,113571,1,0,0:0:0:0:
64,192,113659,1,0,0:0:0:0:
64,192,113747,1,0,0:0:0:0:
192,192,113747,1,0,0:0:0:0:
192,192,113924,1,0,0:0:0:0:
64,192,114100,1,0,0:0:0:0:
320,192,114100,1,0,0:0:0:0:
192,192,114277,1,0,0:0:0:0:
192,192,114453,1,0,0:0:0:0:
448,192,114453,1,0,0:0:0:0:
64,192,114630,1,0,0:0:0:0:
192,192,114806,1,0,0:0:0:0:
320,192,114806,1,0,0:0:0:0:
64,192,114983,1,0,0:0:0:0:
192,192,115071,1,0,0:0:0:0:
192,192,115159,1,0,0:0:0:0:
448,192,115159,1,0,0:0:0:0:
320,192,115336,1,0,0:0:0:0:
192,192,115512,1,0,0:0:0:0:
320,192,115512,1,0,0:0:0:0:
320,192,115689,1,0,0:0:0:0:
64,192,115865,1,0,0:0:0:0:
320,192,115865,1,0,0:0:0:0:
192,192,116042,1,0,0:0:0:0:
320,192,116218,1,0,0:0:0:0:
448,192,116218,1,0,0:0:0:0:
192,192,116394,1,0,0:0:0:0:
320,192,116483,1,0,0:0:0:0:
64,192,116571,1,0,0:0:0:0:
320,192,116571,1,0,0:0:0:0:
448,192,116747,1,0,0:0:0:0:
320,192,116924,1,0,0:0:0:0:
448,192,116924,1,0,0:0:0:0:
448,192,117100,1,0,0:0:0:0:
64,192,117277,1,0,0:0:0:0:
192,192,117277,1,0,0:0:0:0:
320,192,117453,1,0,0:0:0:0:
192,192,117630,1,0,0:0:0:0:
448,192,117630,1,0,0:0:0:0:
320,192,117806,1,0,0:0:0:0:
192,192,117894,1,0,0:0:0:0:
64,192,117983,1,0,0:0:0:0:
192,192,117983,1,0,0:0:0:0:
320,192,118159,1,0,0:0:0:0:
192,192,118336,1,0,0:0:0:0:
448,192,118336,1,0,0:0:0:0:
448,192,118424,1,0,0:0:0:0:
320,192,118512,1,0,0:0:0:0:
448,192,118600,1,0,0:0:0:0:
64,192,118689,1,0,0:0:0:0:
192,192,118689,1,0,0:0:0:0:
448,192,118865,1,0,0:0:0:0:
64,192,119042,1,0,0:0:0:0:
320,192,119042,1,0,0:0:0:0:
448,192,119218,1,0,0:0:0:0:
64,192,119306,1,0,0:0:0:0:
64,192,119394,1,0,0:0:0:0:
192,192,119394,1,0,0:0:0:0:
192,192,119571,1,0,0:0:0:0:
64,192,119747,1,0,0:0:0:0:
320,192,119747,1,0,0:0:0:0:
192,192,119924,1,0,0:0:0:0:
192,192,120100,1,0,0:0:0:0:
448,192,120100,1,0,0:0:0:0:
64,192,120277,1,0,0:0:0:0:
192,192,120453,1,0,0:0:0:0:
320,192,120453,1,0,0:0:0:0:
64,192,120630,1,0,0:0:0:0:
192,192,120718,1,0,0:0:0:0:
192,192,120806,1,0,0:0:0:0:
448,192,120806,1,0,0:0:0:0:
320,192,120983,1,0,0:0:0:0:
192,192,121159,1,0,0:0:0:0:
320,192,121159,1,0,0:0:0:0:
320,192,121336,1,0,0:0:0:0:
64,192,121512,1,0,0:0:0:0:
320,192,121512,1,0,0:0:0:0:
192,192,121689,1,0,0:0:0:0:
192,192,121865,1,0,0:0:0:0:
320,192,121865,1,0,0:0:0:0:
192,192,122042,1,0,0:0:0:0:
320,192,122130,1,0,0:0:0:0:
64,192,122218,1,0,0:0:0:0:
320,192,122218,1,0,0:0:0:0:
448,192,122394,1,0,0:0:0:0:
192,192,122571,1,0,0:0:0:0:
320,192,122571,1,0,0:0:0:0:
448,192,122747,1,0,0:0:0:0:
64,192,122924,1,0,0:0:0:0:
192,192,122924,1,0,0:0:0:0:
320,192,123100,1,0,0:0:0:0:
192,192,123277,1,0,0:0:0:0:
448,192,123277,1,0,0:0:0:0:
320,192,123453,1,0,0:0:0:0:
192,192,123542,1,0,0:0:0:0:
64,192,123630,1,0,0:0:0:0:
192,192,123630,1,0,0:0:0:0:
320,192,123806,1,0,0:0:0:0:
192,192,123983,1,0,0:0:0:0:
448,192,123983,1,0,0:0:0:0:
448,192,124071,1,0,0:0:0:0:
320,192,124159,1,0,0:0:0:0:
448,192,124247,1,0,0:0:0:0:
64,192,124336,1,0,0:0:0:0:
192,192,124336,1,0,0:0:0:0:
448,192,124512,1,0,0:0:0:0:
64,192,124689,1,0,0:0:0:0:
320,192,124689,1,0,0:0:0:0:
448,192,124865,1,0,0:0:0:0:
64,192,124953,1,0,0:0:0:0:
64,192,125042,1,0,0:0:0:0:
192,192,125042,1,0,0:0:0:0:
192,192,125218,1,0,0:0:0:0:
64,192,125394,1,0,0:0:0:0:
320,192,125394,1,0,0:0:0:0:
192,192,125571,1,0,0:0:0:0:
320,192,125747,1,0,0:0:0:0:
448,192,125747,1,0,0:0:0:0:
64,192,125924,1,0,0:0:0:0:
192,192,126100,1,0,0:0:0:0:
448,192,126100,1,0,0:0:0:0:
64,192,126277,1,0,0:0:0:0:
448,192,126365,1,0,0:0:0:0:
320,192,126453,1,0,0:0:0:0:
448,192,126453,1,0,0:0:0:0:
320,192,126630,1,0,0:0:0:0:
192,192,126806,1,0,0:0:0:0:
448,192,126806,1,0,0:0:0:0:
320,192,126983,1,0,0:0:0:0:
192,192,127159,1,0,0:0:0:0:
448,192,127159,1,0,0:0:0:0:
320,192,127336,1,0,0:0:0:0:
64,192,127512,1,0,0:0:0:0:
192,192,127512,1,0,0:0:0:0:
320,192,127689,1,0,0:0:0:0:
192,192,127777,1,0,0:0:0:0:
192,192,127865,1,0,0:0:0:0:
448,192,127865,1,0,0:0:0:0:
448,192,128041,1,0,0:0:0:0:
64,192,128218,1,0,0:0:0:0:
192,192,128218,1,0,0:0:0:0:
448,192,128394,1,0,0:0:0:0:
320,192,128571,1,0,0:0:0:0:
448,192,128571,1,0,0:0:0:0:
192,192,128747,1,0,0:0:0:0:
64,192,128924,1,0,0:0:0:0:
320,192,128924,1,0,0:0:0:0:
192,192,129100,1,0,0:0:0:0:
320,192,129189,1,0,0:0:0:0:
320,192,129277,1,0,0:0:0:0:
448,192,129277,1,0,0:0:0:0:
64,192,129453,1,0,0:0:0:0:
64,192,129630,1,0,0:0:0:0:
320,192,129630,1,0,0:0:0:0:
192,192,129718,1,0,0:0:0:0:
64,192,129806,1,0,0:0:0:0:
192,192,129894,1,0,0:0:0:0:
448,192,129983,1,0,0:0:0:0:
192,192,130159,1,0,0:0:0:0:
448,192,130336,1,0,0:0:0:0:
192,192,130512,1,0,0:0:0:0:
320,192,130600,1,0,0:0:0:0:
448,192,130689,1,0,0:0:0:0:
64,192,130865,1,0,0:0:0:0:
448,192,131041,1,0,0:0:0:0:
64,192,131218,1,0,0:0:0:0:
64,192,131394,1,0,0:0:0:0:
320,192,131571,1,0,0:0:0:0:
64,192,131747,1,0,0:0:0:0:
320,192,131924,1,0,0:0:0:0:
192,192,132012,1,0,0:0:0:0:
64,192,132100,1,0,0:0:0:0:
448,192,132277,1,0,0:0:0:0:
64,192,132453,1,0,0:0:0:0:
448,192,132630,1,0,0:0:0:0:
192,192,132806,1,0,0:0:0:0:
320,192,132806,1,0,0:0:0:0:
64,192,132983,1,0,0:0:0:0:
64,192,133159,1,0,0:0:0:0:
448,192,133159,1,0,0:0:0:0:
448,192,133336,1,0,0:0:0:0:
64,192,133424,1,0,0:0:0:0:
192,192,133512,1,0,0:0:0:0:
320,192,133512,1,0,0:0:0:0:
64,192,133689,1,0,0:0:0:0:
64,192,133865,1,0,0:0:0:0:
448,192,133865,1,0,0:0:0:0:
448,192,134042,1,0,0:0:0:0:
192,192,134218,1,0,0:0:0:0:
320,192,134218,1,0,0:0:0:0:
192,192,134923,1,0,0:0:0:0:
320,192,134923,1,0,0:0:0:0:
192,192,135275,1,0,0:0:0:0:
320,192,135275,1,0,0:0:0:0:
192,192,135628,1,0,0:0:0:0:
320,192,135628,1,0,0:0:0:0:
64,192,135804,1,0,0:0:0:0:
192,192,135980,1,0,0:0:0:0:
320,192,135980,1,0,0:0:0:0:
448,192,136157,1,0,0:0:0:0:
192,192,136333,1,0,0:0:0:0:
320,192,136333,1,0,0:0:0:0:
64,192,136510,1,0,0:0:0:0:
192,192,136686,1,0,0:0:0:0:
320,192,136686,1,0,0:0:0:0:
448,192,136863,1,0,0:0:0:0:
192,192,137039,1,0,0:0:0:0:
320,192,137039,1,0,0:0:0:0:
64,192,137216,1,0,0:0:0:0:
192,192,137392,1,0,0:0:0:0:
320,192,137392,1,0,0:0:0:0:
448,192,137569,1,0,0:0:0:0:
192,192,137745,1,0,0:0:0:0:
320,192,137745,1,0,0:0:0:0:
64,192,137922,1,0,0:0:0:0:
448,192,138010,1,0,0:0:0:0:
192,192,138098,1,0,0:0:0:0:
320,192,138098,1,0,0:0:0:0:
448,192,138275,1,0,0:0:0:0:
64,192,138363,1,0,0:0:0:0:
448,192,138451,1,0,0:0:0:0:
320,192,138451,1,0,0:0:0:0:
192,192,138628,1,0,0:0:0:0:
64,192,138804,1,0,0:0:0:0:
192,192,138980,1,0,0:0:0:0:
320,192,139157,1,0,0:0:0:0:
448,192,139157,1,0,0:0:0:0:
192,192,139333,1,0,0:0:0:0:
64,192,139510,1,0,0:0:0:0:
192,192,139686,1,0,0:0:0:0:
320,192,139863,1,0,0:0:0:0:
448,192,139863,1,0,0:0:0:0:
192,192,140039,1,0,0:0:0:0:
64,192,140216,1,0,0:0:0:0:
192,192,140392,1,0,0:0:0:0:
320,192,140569,1,0,0:0:0:0:
448,192,140569,1,0,0:0:0:0:
192,192,140745,1,0,0:0:0:0:
320,192,140833,1,0,0:0:0:0:
64,192,140922,1,0,0:0:0:0:
192,192,141098,1,0,0:0:0:0:
64,192,141186,1,0,0:0:0:0:
320,192,141275,1,0,0:0:0:0:
448,192,141275,1,0,0:0:0:0:
192,192,141451,1,0,0:0:0:0:
64,192,141628,1,0,0:0:0:0:
192,192,141628,1,0,0:0:0:0:
320,192,141804,1,0,0:0:0:0:
320,192,141980,1,0,0:0:0:0:
448,192,141980,1,0,0:0:0:0:
64,192,142157,1,0,0:0:0:0:
64,192,142333,1,0,0:0:0:0:
192,192,142333,1,0,0:0:0:0:
448,192,142510,1,0,0:0:0:0:
320,192,142686,1,0,0:0:0:0:
448,192,142686,1,0,0:0:0:0:
192,192,142863,1,0,0:0:0:0:
64,192,143039,1,0,0:0:0:0:
192,192,143039,1,0,0:0:0:0:
320,192,143216,1,0,0:0:0:0:
320,192,143392,1,0,0:0:0:0:
448,192,143392,1,0,0:0:0:0:
64,192,143569,1,0,0:0:0:0:
320,192,143657,1,0,0:0:0:0:
64,192,143745,1,0,0:0:0:0:
192,192,143745,1,0,0:0:0:0:
448,192,143922,1,0,0:0:0:0:
192,192,144010,1,0,0:0:0:0:
448,192,144098,1,0,0:0:0:0:
320,192,144098,1,0,0:0:0:0:
320,192,144275,1,0,0:0:0:0:
192,192,144451,1,0,0:0:0:0:
320,192,144451,1,0,0:0:0:0:
192,192,144628,1,0,0:0:0:0:
64,192,144804,1,0,0:0:0:0:
192,192,144804,1,0,0:0:0:0:
64,192,144980,1,0,0:0:0:0:
64,192,145157,1,0,0:0:0:0:
192,192,145157,1,0,0:0:0:0:
192,192,145333,1,0,0:0:0:0:
192,192,145510,1,0,0:0:0:0:
320,192,145510,1,0,0:0:0:0:
320,192,145686,1,0,0:0:0:0:
320,192,145863,1,0,0:0:0:0:
448,192,145863,1,0,0:0:0:0:
448,192,146039,1,0,0:0:0:0:
320,192,146216,1,0,0:0:0:0:
448,192,146216,1,0,0:0:0:0:
320,192,146392,1,0,0:0:0:0:
448,192,146480,1,0,0:0:0:0:
192,192,146569,1,0,0:0:0:0:
320,192,146569,1,0,0:0:0:0:
192,192,146745,1,0,0:0:0:0:
320,192,146833,1,0,0:0:0:0:
64,192,146922,1,0,0:0:0:0:
192,192,146922,1,0,0:0:0:0:
320,192,147098,1,0,0:0:0:0:
448,192,147275,1,0,0:0:0:0:
320,192,147451,1,0,0:0:0:0:
64,192,147628,1,0,0:0:0:0:
192,192,147628,1,0,0:0:0:0:
320,192,147804,1,0,0:0:0:0:
448,192,147980,1,0,0:0:0:0:
320,192,148157,1,0,0:0:0:0:
64,192,148333,1,0,0:0:0:0:
192,192,148333,1,0,0:0:0:0:
320,192,148510,1,0,0:0:0:0:
448,192,148686,1,0,0:0:0:0:
320,192,148863,1,0,0:0:0:0:
64,192,149039,1,0,0:0:0:0:
192,192,149039,1,0,0:0:0:0:
320,192,149216,1,0,0:0:0:0:
192,192,149304,1,0,0:0:0:0:
448,192,149392,1,0,0:0:0:0:
320,192,149569,1,0,0:0:0:0:
448,192,149657,1,0,0:0:0:0:
64,192,149745,1,0,0:0:0:0:
192,192,149745,1,0,0:0:0:0:
448,192,149922,1,0,0:0:0:0:
192,192,150098,1,0,0:0:0:0:
320,192,150098,1,0,0:0:0:0:
64,192,150275,1,0,0:0:0:0:
320,192,150451,1,0,0:0:0:0:
448,192,150451,1,0,0:0:0:0:
448,192,150628,1,0,0:0:0:0:
192,192,150804,1,0,0:0:0:0:
320,192,150804,1,0,0:0:0:0:
64,192,150980,1,0,0:0:0:0:
64,192,151157,1,0,0:0:0:0:
192,192,151157,1,0,0:0:0:0:
448,192,151333,1,0,0:0:0:0:
192,192,151510,1,0,0:0:0:0:
320,192,151510,1,0,0:0:0:0:
64,192,151686,1,0,0:0:0:0:
320,192,151863,1,0,0:0:0:0:
448,192,151863,1,0,0:0:0:0:
448,192,152039,1,0,0:0:0:0:
64,192,152128,1,0,0:0:0:0:
192,192,152216,1,0,0:0:0:0:
320,192,152216,1,0,0:0:0:0:
64,192,152392,1,0,0:0:0:0:
448,192,152480,1,0,0:0:0:0:
64,192,152569,1,0,0:0:0:0:
192,192,152569,1,0,0:0:0:0:
64,192,152745,1,0,0:0:0:0:
64,192,152922,1,0,0:0:0:0:
192,192,152922,1,0,0:0:0:0:
64,192,153098,1,0,0:0:0:0:
64,192,153275,1,0,0:0:0:0:
192,192,153275,1,0,0:0:0:0:
64,192,153451,1,0,0:0:0:0:
64,192,153628,1,0,0:0:0:0:
192,192,153628,1,0,0:0:0:0:
64,192,153804,1,0,0:0:0:0:
320,192,153980,1,0,0:0:0:0:
448,192,153980,1,0,0:0:0:0:
448,192,154157,1,0,0:0:0:0:
320,192,154333,1,0,0:0:0:0:
448,192,154333,1,0,0:0:0:0:
448,192,154510,1,0,0:0:0:0:
320,192,154686,1,0,0:0:0:0:
448,192,154686,1,0,0:0:0:0:
448,192,154863,1,0,0:0:0:0:
64,192,154951,1,0,0:0:0:0:
320,192,155039,1,0,0:0:0:0:
448,192,155039,1,0,0:0:0:0:
448,192,155216,1,0,0:0:0:0:
64,192,155304,1,0,0:0:0:0:
192,192,155392,1,0,0:0:0:0:
320,192,155392,1,0,0:0:0:0:
192,192,155569,1,0,0:0:0:0:
320,192,155569,1,0,0:0:0:0:
192,192,155745,1,0,0:0:0:0:
320,192,155745,1,0,0:0:0:0:
192,192,155922,1,0,0:0:0:0:
320,192,155922,1,0,0:0:0:0:
320,192,156098,1,0,0:0:0:0:
192,192,156098,1,0,0:0:0:0:
192,192,156275,1,0,0:0:0:0:
320,192,156275,1,0,0:0:0:0:
192,192,156451,1,0,0:0:0:0:
320,192,156451,1,0,0:0:0:0:
192,192,156628,1,0,0:0:0:0:
320,192,156628,1,0,0:0:0:0:
64,192,156804,1,0,0:0:0:0:
192,192,156804,1,0,0:0:0:0:
320,192,156804,1,0,0:0:0:0:
448,192,156804,1,0,0:0:0:0:
64,192,157510,1,0,0:0:0:0:
192,192,157510,1,0,0:0:0:0:
320,192,157510,1,0,0:0:0:0:
448,192,157510,1,0,0:0:0:0:
64,192,157862,1,0,0:0:0:0:
192,192,157862,1,0,0:0:0:0:
320,192,157862,1,0,0:0:0:0:
448,192,157862,1,0,0:0:0:0:
192,192,158214,1,0,0:0:0:0:
448,192,158214,1,0,0:0:0:0:
320,192,158214,1,0,0:0:0:0:
64,192,158216,1,0,0:0:0:0:
320,192,158392,1,0,0:0:0:0:
192,192,158568,1,0,0:0:0:0:
448,192,158568,1,0,0:0:0:0:
64,192,158745,1,0,0:0:0:0:
64,192,158921,1,0,0:0:0:0:
192,192,158921,1,0,0:0:0:0:
192,192,159274,1,0,0:0:0:0:
320,192,159274,1,0,0:0:0:0:
320,192,159451,1,0,0:0:0:0:
192,192,159627,1,0,0:0:0:0:
320,192,159627,1,0,0:0:0:0:
320,192,159980,1,0,0:0:0:0:
448,192,159980,1,0,0:0:0:0:
64,192,160333,1,0,0:0:0:0:
192,192,160333,1,0,0:0:0:0:
192,192,160510,1,0,0:0:0:0:
64,192,160686,1,0,0:0:0:0:
320,192,160686,1,0,0:0:0:0:
192,192,160863,1,0,0:0:0:0:
448,192,161039,1,0,0:0:0:0:
320,192,161039,1,0,0:0:0:0:
320,192,161216,1,0,0:0:0:0:
192,192,161392,1,0,0:0:0:0:
320,192,161392,1,0,0:0:0:0:
448,192,161568,1,0,0:0:0:0:
64,192,161745,1,0,0:0:0:0:
448,192,161745,1,0,0:0:0:0:
192,192,162098,1,0,0:0:0:0:
320,192,162098,1,0,0:0:0:0:
192,192,162274,1,0,0:0:0:0:
64,192,162451,1,0,0:0:0:0:
448,192,162451,1,0,0:0:0:0:
320,192,162627,1,0,0:0:0:0:
192,192,162804,1,0,0:0:0:0:
320,192,162804,1,0,0:0:0:0:
64,192,162980,1,0,0:0:0:0:
64,192,163157,1,0,0:0:0:0:
320,192,163157,1,0,0:0:0:0:
192,192,163333,1,0,0:0:0:0:
192,192,163510,1,0,0:0:0:0:
320,192,163510,1,0,0:0:0:0:
448,192,163686,1,0,0:0:0:0:
64,192,163863,1,0,0:0:0:0:
448,192,163863,1,0,0:0:0:0:
64,192,164039,1,0,0:0:0:0:
64,192,164216,1,0,0:0:0:0:
192,192,164216,1,0,0:0:0:0:
320,192,164392,1,0,0:0:0:0:
192,192,164568,1,0,0:0:0:0:
448,192,164568,1,0,0:0:0:0:
192,192,164921,1,0,0:0:0:0:
320,192,164921,1,0,0:0:0:0:
64,192,165098,1,0,0:0:0:0:
64,192,165274,1,0,0:0:0:0:
192,192,165274,1,0,0:0:0:0:
192,192,165627,1,0,0:0:0:0:
448,192,165627,1,0,0:0:0:0:
320,192,165980,1,0,0:0:0:0:
448,192,165980,1,0,0:0:0:0:
320,192,166157,1,0,0:0:0:0:
320,192,166333,1,0,0:0:0:0:
192,192,166333,1,0,0:0:0:0:
64,192,166510,1,0,0:0:0:0:
448,192,166686,1,0,0:0:0:0:
64,192,166686,1,0,0:0:0:0:
192,192,166863,1,0,0:0:0:0:
448,192,167039,1,0,0:0:0:0:
320,192,167039,1,0,0:0:0:0:
192,192,167216,1,0,0:0:0:0:
64,192,167392,1,0,0:0:0:0:
320,192,167392,1,0,0:0:0:0:
320,192,167745,1,0,0:0:0:0:
448,192,167745,1,0,0:0:0:0:
64,192,167921,1,0,0:0:0:0:
64,192,168098,1,0,0:0:0:0:
192,192,168098,1,0,0:0:0:0:
192,192,168451,1,0,0:0:0:0:
320,192,168451,1,0,0:0:0:0:
320,192,168804,1,0,0:0:0:0:
448,192,168804,1,0,0:0:0:0:
64,192,169157,1,0,0:0:0:0:
192,192,169157,1,0,0:0:0:0:
320,192,169157,1,0,0:0:0:0:
448,192,169157,1,0,0:0:0:0:
192,192,169245,1,0,0:0:0:0:
320,192,169245,1,0,0:0:0:0:
320,192,169333,1,0,0:0:0:0:
192,192,169333,1,0,0:0:0:0:
192,192,169421,1,0,0:0:0:0:
320,192,169421,1,0,0:0:0:0:
192,192,169510,1,0,0:0:0:0:
320,192,169510,1,0,0:0:0:0:
64,192,169686,1,0,0:0:0:0:
192,192,169686,1,0,0:0:0:0:
192,192,169863,1,0,0:0:0:0:
320,192,169863,1,0,0:0:0:0:
64,192,170039,1,0,0:0:0:0:
192,192,170039,1,0,0:0:0:0:
320,192,170216,1,0,0:0:0:0:
448,192,170216,1,0,0:0:0:0:
64,192,170568,1,0,0:0:0:0:
192,192,170568,1,0,0:0:0:0:
320,192,170745,1,0,0:0:0:0:
448,192,170745,1,0,0:0:0:0:
320,192,170921,1,0,0:0:0:0:
448,192,170921,1,0,0:0:0:0:
192,192,171274,1,0,0:0:0:0:
320,192,171274,1,0,0:0:0:0:
192,192,171627,1,0,0:0:0:0:
320,192,171627,1,0,0:0:0:0:
64,192,171804,1,0,0:0:0:0:
192,192,171804,1,0,0:0:0:0:
448,192,171980,1,0,0:0:0:0:
320,192,171980,1,0,0:0:0:0:
64,192,172157,1,0,0:0:0:0:
192,192,172157,1,0,0:0:0:0:
320,192,172333,1,0,0:0:0:0:
448,192,172333,1,0,0:0:0:0:
192,192,172510,1,0,0:0:0:0:
320,192,172510,1,0,0:0:0:0:
64,192,172686,1,0,0:0:0:0:
192,192,172686,1,0,0:0:0:0:
320,192,172863,1,0,0:0:0:0:
448,192,172863,1,0,0:0:0:0:
320,192,173039,1,0,0:0:0:0:
192,192,173039,1,0,0:0:0:0:
64,192,173392,1,0,0:0:0:0:
192,192,173392,1,0,0:0:0:0:
320,192,173568,1,0,0:0:0:0:
448,192,173568,1,0,0:0:0:0:
192,192,173745,1,0,0:0:0:0:
320,192,173745,1,0,0:0:0:0:
320,192,173921,1,0,0:0:0:0:
448,192,173921,1,0,0:0:0:0:
64,192,174098,1,0,0:0:0:0:
192,192,174098,1,0,0:0:0:0:
192,192,174274,1,0,0:0:0:0:
320,192,174274,1,0,0:0:0:0:
320,192,174451,1,0,0:0:0:0:
448,192,174451,1,0,0:0:0:0:
192,192,174627,1,0,0:0:0:0:
320,192,174627,1,0,0:0:0:0:
320,192,174804,1,0,0:0:0:0:
448,192,174804,1,0,0:0:0:0:
192,192,174980,1,0,0:0:0:0:
320,192,174980,1,0,0:0:0:0:
64,192,175157,1,0,0:0:0:0:
192,192,175157,1,0,0:0:0:0:
192,192,175333,1,0,0:0:0:0:
320,192,175333,1,0,0:0:0:0:
320,192,175510,1,0,0:0:0:0:
448,192,175510,1,0,0:0:0:0:
320,192,175686,1,0,0:0:0:0:
192,192,175686,1,0,0:0:0:0:
64,192,175863,1,0,0:0:0:0:
192,192,175863,1,0,0:0:0:0:
320,192,176216,1,0,0:0:0:0:
448,192,176216,1,0,0:0:0:0:
192,192,176392,1,0,0:0:0:0:
320,192,176392,1,0,0:0:0:0:
64,192,176568,1,0,0:0:0:0:
192,192,176568,1,0,0:0:0:0:
64,192,176921,1,0,0:0:0:0:
192,192,176921,1,0,0:0:0:0:
192,192,177274,1,0,0:0:0:0:
320,192,177274,1,0,0:0:0:0:
64,192,177451,1,0,0:0:0:0:
192,192,177451,1,0,0:0:0:0:
320,192,177627,1,0,0:0:0:0:
192,192,177627,1,0,0:0:0:0:
64,192,177804,1,0,0:0:0:0:
192,192,177804,1,0,0:0:0:0:
448,192,177980,1,0,0:0:0:0:
320,192,177980,1,0,0:0:0:0:
192,192,178157,1,0,0:0:0:0:
320,192,178157,1,0,0:0:0:0:
64,192,178333,1,0,0:0:0:0:
192,192,178333,1,0,0:0:0:0:
192,192,178510,1,0,0:0:0:0:
320,192,178510,1,0,0:0:0:0:
192,192,178686,1,0,0:0:0:0:
320,192,178686,1,0,0:0:0:0:
320,192,179039,1,0,0:0:0:0:
448,192,179039,1,0,0:0:0:0:
192,192,179216,1,0,0:0:0:0:
320,192,179216,1,0,0:0:0:0:
64,192,179392,1,0,0:0:0:0:
192,192,179392,1,0,0:0:0:0:
320,192,179745,1,0,0:0:0:0:
320,192,180098,1,0,0:0:0:0:
192,192,180451,1,0,0:0:0:0:
448,192,180804,1,0,0:0:0:0:
448,192,181157,1,0,0:0:0:0:
448,192,181421,1,0,0:0:0:0:
448,192,181510,1,0,0:0:0:0:
448,192,181686,1,0,0:0:0:0:
448,192,181863,1,0,0:0:0:0:
448,192,182039,1,0,0:0:0:0:
320,192,182216,1,0,0:0:0:0:
320,192,182568,1,0,0:0:0:0:
320,192,182833,1,0,0:0:0:0:
320,192,182921,1,0,0:0:0:0:
320,192,183098,1,0,0:0:0:0:
320,192,183274,1,0,0:0:0:0:
320,192,183451,1,0,0:0:0:0:
192,192,183627,1,0,0:0:0:0:
192,192,183980,1,0,0:0:0:0:
192,192,184245,1,0,0:0:0:0:
192,192,184333,1,0,0:0:0:0:
192,192,184510,1,0,0:0:0:0:
192,192,184686,1,0,0:0:0:0:
192,192,184863,1,0,0:0:0:0:
64,192,185039,1,0,0:0:0:0:
64,192,185392,1,0,0:0:0:0:
64,192,185657,1,0,0:0:0:0:
64,192,185745,1,0,0:0:0:0:
64,192,185921,1,0,0:0:0:0:
64,192,186098,1,0,0:0:0:0:
448,192,186186,1,0,0:0:0:0:
64,192,186274,1,0,0:0:0:0:
320,192,186363,1,0,0:0:0:0:
64,192,186451,1,0,0:0:0:0:
192,192,186451,1,0,0:0:0:0:
64,192,186804,1,0,0:0:0:0:
192,192,186804,1,0,0:0:0:0:
64,192,187068,1,0,0:0:0:0:
192,192,187068,1,0,0:0:0:0:
64,192,187157,1,0,0:0:0:0:
192,192,187157,1,0,0:0:0:0:
64,192,187333,1,0,0:0:0:0:
192,192,187333,1,0,0:0:0:0:
64,192,187510,1,0,0:0:0:0:
192,192,187510,1,0,0:0:0:0:
64,192,187686,1,0,0:0:0:0:
192,192,187686,1,0,0:0:0:0:
192,192,187863,1,0,0:0:0:0:
320,192,187863,1,0,0:0:0:0:
192,192,188216,1,0,0:0:0:0:
320,192,188216,1,0,0:0:0:0:
192,192,188480,1,0,0:0:0:0:
320,192,188480,1,0,0:0:0:0:
192,192,188568,1,0,0:0:0:0:
320,192,188568,1,0,0:0:0:0:
192,192,188745,1,0,0:0:0:0:
320,192,188745,1,0,0:0:0:0:
192,192,188921,1,0,0:0:0:0:
320,192,188921,1,0,0:0:0:0:
192,192,189098,1,0,0:0:0:0:
320,192,189098,1,0,0:0:0:0:
320,192,189274,1,0,0:0:0:0:
448,192,189274,1,0,0:0:0:0:
320,192,189627,1,0,0:0:0:0:
448,192,189627,1,0,0:0:0:0:
320,192,189892,1,0,0:0:0:0:
448,192,189892,1,0,0:0:0:0:
448,192,189980,1,0,0:0:0:0:
320,192,189980,1,0,0:0:0:0:
320,192,190157,1,0,0:0:0:0:
448,192,190157,1,0,0:0:0:0:
448,192,190333,1,0,0:0:0:0:
320,192,190333,1,0,0:0:0:0:
320,192,190510,1,0,0:0:0:0:
448,192,190510,1,0,0:0:0:0:
64,192,190686,1,0,0:0:0:0:
448,192,190686,1,0,0:0:0:0:
64,192,191039,1,0,0:0:0:0:
448,192,191039,1,0,0:0:0:0:
64,192,191304,1,0,0:0:0:0:
448,192,191304,1,0,0:0:0:0:
64,192,191392,1,0,0:0:0:0:
448,192,191392,1,0,0:0:0:0:
64,192,191568,1,0,0:0:0:0:
448,192,191568,1,0,0:0:0:0:
64,192,191745,1,0,0:0:0:0:
448,192,191745,1,0,0:0:0:0:
320,192,191833,1,0,0:0:0:0:
448,192,191921,1,0,0:0:0:0:
64,192,191921,1,0,0:0:0:0:
192,192,192010,1,0,0:0:0:0:
64,192,192098,1,0,0:0:0:0:
320,192,192098,1,0,0:0:0:0:
64,192,192451,1,0,0:0:0:0:
320,192,192451,1,0,0:0:0:0:
64,192,192716,1,0,0:0:0:0:
320,192,192716,1,0,0:0:0:0:
64,192,192804,1,0,0:0:0:0:
320,192,192804,1,0,0:0:0:0:
64,192,192980,1,0,0:0:0:0:
320,192,192980,1,0,0:0:0:0:
64,192,193157,1,0,0:0:0:0:
320,192,193157,1,0,0:0:0:0:
320,192,193333,1,0,0:0:0:0:
64,192,193333,1,0,0:0:0:0:
192,192,193510,1,0,0:0:0:0:
448,192,193510,1,0,0:0:0:0:
192,192,193863,1,0,0:0:0:0:
448,192,193863,1,0,0:0:0:0:
448,192,194127,1,0,0:0:0:0:
192,192,194127,1,0,0:0:0:0:
192,192,194216,1,0,0:0:0:0:
448,192,194216,1,0,0:0:0:0:
192,192,194392,1,0,0:0:0:0:
448,192,194392,1,0,0:0:0:0:
448,192,194568,1,0,0:0:0:0:
192,192,194568,1,0,0:0:0:0:
192,192,194745,1,0,0:0:0:0:
448,192,194745,1,0,0:0:0:0:
448,192,194921,1,0,0:0:0:0:
64,192,194921,1,0,0:0:0:0:
192,192,194921,1,0,0:0:0:0:
64,192,195274,1,0,0:0:0:0:
192,192,195274,1,0,0:0:0:0:
448,192,195274,1,0,0:0:0:0:
64,192,195539,1,0,0:0:0:0:
192,192,195539,1,0,0:0:0:0:
448,192,195539,1,0,0:0:0:0:
64,192,195627,1,0,0:0:0:0:
192,192,195627,1,0,0:0:0:0:
448,192,195627,1,0,0:0:0:0:
64,192,195804,1,0,0:0:0:0:
192,192,195804,1,0,0:0:0:0:
448,192,195804,1,0,0:0:0:0:
64,192,195980,1,0,0:0:0:0:
192,192,195980,1,0,0:0:0:0:
448,192,195980,1,0,0:0:0:0:
64,192,196157,1,0,0:0:0:0:
192,192,196157,1,0,0:0:0:0:
448,192,196157,1,0,0:0:0:0:
64,192,196333,1,0,0:0:0:0:
320,192,196333,1,0,0:0:0:0:
448,192,196333,1,0,0:0:0:0:
64,192,196686,1,0,0:0:0:0:
320,192,196686,1,0,0:0:0:0:
448,192,196686,1,0,0:0:0:0:
320,192,196951,1,0,0:0:0:0:
448,192,196951,1,0,0:0:0:0:
64,192,196951,1,0,0:0:0:0:
64,192,197039,1,0,0:0:0:0:
320,192,197039,1,0,0:0:0:0:
448,192,197039,1,0,0:0:0:0:
64,192,197216,1,0,0:0:0:0:
320,192,197216,1,0,0:0:0:0:
448,192,197216,1,0,0:0:0:0:
64,192,197392,1,0,0:0:0:0:
320,192,197392,1,0,0:0:0:0:
448,192,197392,1,0,0:0:0:0:
192,192,197480,1,0,0:0:0:0:
64,192,197568,1,0,0:0:0:0:
320,192,197568,1,0,0:0:0:0:
448,192,197568,1,0,0:0:0:0:
192,192,197657,1,0,0:0:0:0:
64,192,197745,1,0,0:0:0:0:
64,192,198098,1,0,0:0:0:0:
64,192,198363,1,0,0:0:0:0:
64,192,198451,1,0,0:0:0:0:
64,192,198627,1,0,0:0:0:0:
64,192,198804,1,0,0:0:0:0:
64,192,198980,1,0,0:0:0:0:
192,192,199157,1,0,0:0:0:0:
192,192,199510,1,0,0:0:0:0:
192,192,199774,1,0,0:0:0:0:
192,192,199863,1,0,0:0:0:0:
192,192,200039,1,0,0:0:0:0:
192,192,200216,1,0,0:0:0:0:
192,192,200392,1,0,0:0:0:0:
320,192,200568,1,0,0:0:0:0:
320,192,200921,1,0,0:0:0:0:
320,192,201186,1,0,0:0:0:0:
320,192,201274,1,0,0:0:0:0:
320,192,201451,1,0,0:0:0:0:
320,192,201627,1,0,0:0:0:0:
320,192,201804,1,0,0:0:0:0:
192,192,201980,1,0,0:0:0:0:
448,192,201980,1,0,0:0:0:0:
320,192,202686,1,0,0:0:0:0:
192,192,203039,1,0,0:0:0:0:
64,192,203392,1,0,0:0:0:0:
192,192,203392,1,0,0:0:0:0:
64,192,204097,128,0,204803:0:0:0:0:
448,192,205509,128,0,206215:0:0:0:0:
320,192,206921,128,0,207627:0:0:0:0:
192,192,208333,128,0,209039:0:0:0:0:
64,192,209744,128,0,210450:0:0:0:0:
320,192,211156,128,0,211862:0:0:0:0:
192,192,212568,128,0,213274:0:0:0:0:
448,192,213980,128,0,214686:0:0:0:0:
64,192,214686,5,0,0:0:0:0:
192,192,214686,1,0,0:0:0:0:
320,192,214686,1,0,0:0:0:0:
192,192,215391,1,0,0:0:0:0:
320,192,215391,1,0,0:0:0:0:
448,192,215391,1,0,0:0:0:0:
192,192,215568,1,0,0:0:0:0:
320,192,215568,1,0,0:0:0:0:
448,192,215568,1,0,0:0:0:0:
64,192,216097,1,0,0:0:0:0:
192,192,216097,1,0,0:0:0:0:
448,192,216097,1,0,0:0:0:0:
192,192,216803,1,0,0:0:0:0:
320,192,216803,1,0,0:0:0:0:
448,192,216803,1,0,0:0:0:0:
64,192,216980,1,0,0:0:0:0:
192,192,216980,1,0,0:0:0:0:
320,192,216980,1,0,0:0:0:0:
64,192,217509,1,0,0:0:0:0:
192,192,217509,1,0,0:0:0:0:
448,192,217509,1,0,0:0:0:0:
192,192,218215,1,0,0:0:0:0:
320,192,218215,1,0,0:0:0:0:
448,192,218215,1,0,0:0:0:0:
64,192,218391,1,0,0:0:0:0:
192,192,218391,1,0,0:0:0:0:
320,192,218391,1,0,0:0:0:0:
64,192,218921,1,0,0:0:0:0:
192,192,218921,1,0,0:0:0:0:
448,192,218921,1,0,0:0:0:0:
64,192,219627,1,0,0:0:0:0:
192,192,219627,1,0,0:0:0:0:
448,192,219627,1,0,0:0:0:0:
192,192,219803,1,0,0:0:0:0:
320,192,219803,1,0,0:0:0:0:
448,192,219803,1,0,0:0:0:0:
64,192,220333,1,0,0:0:0:0:
192,192,220333,1,0,0:0:0:0:
448,192,220333,1,0,0:0:0:0:
64,192,221039,1,0,0:0:0:0:
192,192,221039,1,0,0:0:0:0:
320,192,221039,1,0,0:0:0:0:
192,192,221215,1,0,0:0:0:0:
320,192,221215,1,0,0:0:0:0:
448,192,221215,1,0,0:0:0:0:
64,192,221744,1,0,0:0:0:0:
320,192,221744,1,0,0:0:0:0:
448,192,221744,1,0,0:0:0:0:
64,192,222450,1,0,0:0:0:0:
192,192,222450,1,0,0:0:0:0:
320,192,222450,1,0,0:0:0:0:
64,192,222627,1,0,0:0:0:0:
320,192,222627,1,0,0:0:0:0:
448,192,222627,1,0,0:0:0:0:
64,192,223156,1,0,0:0:0:0:
64,192,223333,1,0,0:0:0:0:
320,192,223333,1,0,0:0:0:0:
64,192,223509,1,0,0:0:0:0:
448,192,223509,1,0,0:0:0:0:
192,192,223686,1,0,0:0:0:0:
320,192,223686,1,0,0:0:0:0:
64,192,223862,1,0,0:0:0:0:
192,192,223862,1,0,0:0:0:0:
320,192,223862,1,0,0:0:0:0:
64,192,224039,1,0,0:0:0:0:
192,192,224039,1,0,0:0:0:0:
320,192,224039,1,0,0:0:0:0:
64,192,224215,1,0,0:0:0:0:
192,192,224215,1,0,0:0:0:0:
320,192,224215,1,0,0:0:0:0:
448,192,224215,1,0,0:0:0:0:
64,192,224391,1,0,0:0:0:0:
192,192,224391,1,0,0:0:0:0:
320,192,224391,1,0,0:0:0:0:
448,192,224391,1,0,0:0:0:0:
64,192,224568,1,0,0:0:0:0:
192,192,224568,1,0,0:0:0:0:
320,192,224568,1,0,0:0:0:0:
448,192,224568,1,0,0:0:0:0:
192,0,225274,128,0,225627:1:0:0:0:
320,0,225627,128,0,225980:1:0:0:0:
64,192,225980,1,0,0:0:0:0:
448,192,225980,1,0,0:0:0:0:
64,192,226156,1,0,0:0:0:0:
448,192,226156,1,0,0:0:0:0:
64,192,226244,1,0,0:0:0:0:
448,192,226244,1,0,0:0:0:0:
64,192,226421,1,0,0:0:0:0:
448,192,226421,1,0,0:0:0:0:
64,192,226509,1,0,0:0:0:0:
448,192,226509,1,0,0:0:0:0:
64,192,226685,1,0,0:0:0:0:
448,192,226685,1,0,0:0:0:0:
64,192,226862,1,0,0:0:0:0:
448,192,226862,1,0,0:0:0:0:
64,192,226950,1,0,0:0:0:0:
448,192,226950,1,0,0:0:0:0:
64,192,227127,1,0,0:0:0:0:
448,192,227127,1,0,0:0:0:0:
64,192,227215,1,0,0:0:0:0:
448,192,227215,1,0,0:0:0:0:
64,192,227391,1,0,0:0:0:0:
448,192,227391,1,0,0:0:0:0:
64,192,227568,1,0,0:0:0:0:
448,192,227568,1,0,0:0:0:0:
64,192,227656,1,0,0:0:0:0:
448,192,227656,1,0,0:0:0:0:
64,192,227832,1,0,0:0:0:0:
448,192,227832,1,0,0:0:0:0:
64,192,227921,1,0,0:0:0:0:
448,192,227921,1,0,0:0:0:0:
64,192,228097,1,0,0:0:0:0:
448,192,228097,1,0,0:0:0:0:
64,192,228274,1,0,0:0:0:0:
448,192,228274,1,0,0:0:0:0:
192,192,228362,1,0,0:0:0:0:
320,192,228362,1,0,0:0:0:0:
64,192,228450,1,0,0:0:0:0:
448,192,228450,1,0,0:0:0:0:
64,192,228627,1,0,0:0:0:0:
448,192,228627,1,0,0:0:0:0:
192,192,228715,1,0,0:0:0:0:
320,192,228715,1,0,0:0:0:0:
320,192,228803,1,0,0:0:0:0:
192,192,228803,1,0,0:0:0:0:
192,192,228980,1,0,0:0:0:0:
320,192,228980,1,0,0:0:0:0:
192,192,229068,1,0,0:0:0:0:
320,192,229068,1,0,0:0:0:0:
192,192,229244,1,0,0:0:0:0:
320,192,229244,1,0,0:0:0:0:
192,192,229332,1,0,0:0:0:0:
320,192,229332,1,0,0:0:0:0:
192,192,229509,1,0,0:0:0:0:
320,192,229509,1,0,0:0:0:0:
192,192,229685,1,0,0:0:0:0:
320,192,229685,1,0,0:0:0:0:
192,192,229774,1,0,0:0:0:0:
320,192,229774,1,0,0:0:0:0:
320,192,229950,1,0,0:0:0:0:
192,192,229950,1,0,0:0:0:0:
192,192,230038,1,0,0:0:0:0:
320,192,230038,1,0,0:0:0:0:
192,192,230215,1,0,0:0:0:0:
320,192,230215,1,0,0:0:0:0:
192,192,230391,1,0,0:0:0:0:
320,192,230391,1,0,0:0:0:0:
192,192,230480,1,0,0:0:0:0:
320,192,230480,1,0,0:0:0:0:
192,192,230656,1,0,0:0:0:0:
320,192,230656,1,0,0:0:0:0:
192,192,230744,1,0,0:0:0:0:
320,192,230744,1,0,0:0:0:0:
192,192,230921,1,0,0:0:0:0:
320,192,230921,1,0,0:0:0:0:
192,192,231097,1,0,0:0:0:0:
320,192,231097,1,0,0:0:0:0:
192,192,231185,1,0,0:0:0:0:
320,192,231185,1,0,0:0:0:0:
192,192,231274,1,0,0:0:0:0:
320,192,231274,1,0,0:0:0:0:
192,192,231450,1,0,0:0:0:0:
320,192,231450,1,0,0:0:0:0:
192,192,231538,1,0,0:0:0:0:
320,192,231538,1,0,0:0:0:0:
64,192,231627,1,0,0:0:0:0:
448,192,231627,1,0,0:0:0:0:
448,192,231803,1,0,0:0:0:0:
64,192,231803,1,0,0:0:0:0:
64,192,231891,1,0,0:0:0:0:
448,192,231891,1,0,0:0:0:0:
64,192,232068,1,0,0:0:0:0:
448,192,232068,1,0,0:0:0:0:
64,192,232156,1,0,0:0:0:0:
448,192,232156,1,0,0:0:0:0:
64,192,232332,1,0,0:0:0:0:
448,192,232332,1,0,0:0:0:0:
64,192,232509,1,0,0:0:0:0:
448,192,232509,1,0,0:0:0:0:
64,192,232597,1,0,0:0:0:0:
448,192,232597,1,0,0:0:0:0:
64,192,232774,1,0,0:0:0:0:
448,192,232774,1,0,0:0:0:0:
64,192,232862,1,0,0:0:0:0:
448,192,232862,1,0,0:0:0:0:
64,192,233038,1,0,0:0:0:0:
448,192,233038,1,0,0:0:0:0:
64,192,233215,1,0,0:0:0:0:
448,192,233215,1,0,0:0:0:0:
64,192,233303,1,0,0:0:0:0:
448,192,233303,1,0,0:0:0:0:
64,192,233480,1,0,0:0:0:0:
448,192,233480,1,0,0:0:0:0:
64,192,233568,1,0,0:0:0:0:
448,192,233568,1,0,0:0:0:0:
64,192,233744,1,0,0:0:0:0:
448,192,233744,1,0,0:0:0:0:
64,192,233921,1,0,0:0:0:0:
448,192,233921,1,0,0:0:0:0:
192,192,234009,1,0,0:0:0:0:
320,192,234009,1,0,0:0:0:0:
448,192,234097,1,0,0:0:0:0:
64,192,234097,1,0,0:0:0:0:
64,192,234274,1,0,0:0:0:0:
448,192,234274,1,0,0:0:0:0:
192,192,234362,1,0,0:0:0:0:
320,192,234362,1,0,0:0:0:0:
192,192,234450,1,0,0:0:0:0:
320,192,234450,1,0,0:0:0:0:
192,192,234627,1,0,0:0:0:0:
320,192,234627,1,0,0:0:0:0:
192,192,234715,1,0,0:0:0:0:
320,192,234715,1,0,0:0:0:0:
192,192,234891,1,0,0:0:0:0:
320,192,234891,1,0,0:0:0:0:
192,192,234980,1,0,0:0:0:0:
320,192,234980,1,0,0:0:0:0:
192,192,235156,1,0,0:0:0:0:
320,192,235156,1,0,0:0:0:0:
192,192,235332,1,0,0:0:0:0:
320,192,235332,1,0,0:0:0:0:
192,192,235421,1,0,0:0:0:0:
320,192,235421,1,0,0:0:0:0:
320,192,235597,1,0,0:0:0:0:
192,192,235597,1,0,0:0:0:0:
192,192,235685,1,0,0:0:0:0:
320,192,235685,1,0,0:0:0:0:
192,192,235862,1,0,0:0:0:0:
320,192,235862,1,0,0:0:0:0:
192,192,236038,1,0,0:0:0:0:
320,192,236038,1,0,0:0:0:0:
192,192,236127,1,0,0:0:0:0:
320,192,236127,1,0,0:0:0:0:
320,192,236303,1,0,0:0:0:0:
192,192,236303,1,0,0:0:0:0:
192,192,236391,1,0,0:0:0:0:
320,192,236391,1,0,0:0:0:0:
192,192,236568,1,0,0:0:0:0:
320,192,236568,1,0,0:0:0:0:
192,192,236744,1,0,0:0:0:0:
320,192,236744,1,0,0:0:0:0:
192,192,236832,1,0,0:0:0:0:
320,192,236832,1,0,0:0:0:0:
192,192,236921,1,0,0:0:0:0:
320,192,236921,1,0,0:0:0:0:
320,192,237097,1,0,0:0:0:0:
192,192,237097,1,0,0:0:0:0:
64,192,237185,1,0,0:0:0:0:
64,192,237274,1,0,0:0:0:0:
192,192,237274,1,0,0:0:0:0:
64,192,237450,1,0,0:0:0:0:
64,192,237538,1,0,0:0:0:0:
64,192,237715,1,0,0:0:0:0:
64,192,237803,1,0,0:0:0:0:
192,192,237980,1,0,0:0:0:0:
320,192,237980,1,0,0:0:0:0:
192,192,238156,1,0,0:0:0:0:
192,192,238244,1,0,0:0:0:0:
192,192,238421,1,0,0:0:0:0:
192,192,238509,1,0,0:0:0:0:
192,192,238685,1,0,0:0:0:0:
320,192,238685,1,0,0:0:0:0:
320,192,238862,1,0,0:0:0:0:
320,192,238950,1,0,0:0:0:0:
320,192,239127,1,0,0:0:0:0:
320,192,239215,1,0,0:0:0:0:
320,192,239391,1,0,0:0:0:0:
448,192,239391,1,0,0:0:0:0:
64,192,239568,1,0,0:0:0:0:
192,192,239656,1,0,0:0:0:0:
192,192,239744,1,0,0:0:0:0:
320,192,239921,1,0,0:0:0:0:
448,192,240009,1,0,0:0:0:0:
448,192,240097,1,0,0:0:0:0:
320,192,240097,1,0,0:0:0:0:
448,192,240274,1,0,0:0:0:0:
448,192,240362,1,0,0:0:0:0:
448,192,240538,1,0,0:0:0:0:
448,192,240627,1,0,0:0:0:0:
320,192,240803,1,0,0:0:0:0:
192,192,240803,1,0,0:0:0:0:
320,192,240980,1,0,0:0:0:0:
320,192,241068,1,0,0:0:0:0:
320,192,241244,1,0,0:0:0:0:
320,192,241332,1,0,0:0:0:0:
64,192,241509,1,0,0:0:0:0:
192,192,241509,1,0,0:0:0:0:
192,192,241685,1,0,0:0:0:0:
192,192,241774,1,0,0:0:0:0:
192,192,241950,1,0,0:0:0:0:
192,192,242038,1,0,0:0:0:0:
64,192,242215,1,0,0:0:0:0:
192,192,242215,1,0,0:0:0:0:
320,192,242303,1,0,0:0:0:0:
448,192,242391,1,0,0:0:0:0:
320,192,242480,1,0,0:0:0:0:
320,192,242568,1,0,0:0:0:0:
192,192,242744,1,0,0:0:0:0:
64,192,242832,1,0,0:0:0:0:
64,192,242921,1,0,0:0:0:0:
192,192,242921,1,0,0:0:0:0:
192,192,243097,1,0,0:0:0:0:
64,192,243097,1,0,0:0:0:0:
64,192,243185,1,0,0:0:0:0:
192,192,243185,1,0,0:0:0:0:
64,192,243362,1,0,0:0:0:0:
192,192,243362,1,0,0:0:0:0:
64,192,243450,1,0,0:0:0:0:
192,192,243450,1,0,0:0:0:0:
64,192,243627,1,0,0:0:0:0:
192,192,243627,1,0,0:0:0:0:
320,192,243803,1,0,0:0:0:0:
192,192,243803,1,0,0:0:0:0:
192,192,243891,1,0,0:0:0:0:
320,192,243891,1,0,0:0:0:0:
192,192,244068,1,0,0:0:0:0:
320,192,244068,1,0,0:0:0:0:
192,192,244156,1,0,0:0:0:0:
320,192,244156,1,0,0:0:0:0:
320,192,244332,1,0,0:0:0:0:
448,192,244332,1,0,0:0:0:0:
320,192,244509,1,0,0:0:0:0:
448,192,244509,1,0,0:0:0:0:
448,192,244597,1,0,0:0:0:0:
320,192,244597,1,0,0:0:0:0:
320,192,244774,1,0,0:0:0:0:
448,192,244774,1,0,0:0:0:0:
320,192,244862,1,0,0:0:0:0:
448,192,244862,1,0,0:0:0:0:
320,192,245038,1,0,0:0:0:0:
448,192,245038,1,0,0:0:0:0:
320,192,245215,1,0,0:0:0:0:
448,192,245215,1,0,0:0:0:0:
192,192,245303,1,0,0:0:0:0:
320,192,245303,1,0,0:0:0:0:
64,192,245391,1,0,0:0:0:0:
192,192,245391,1,0,0:0:0:0:
64,192,245568,1,0,0:0:0:0:
192,192,245568,1,0,0:0:0:0:
192,192,245656,1,0,0:0:0:0:
320,192,245656,1,0,0:0:0:0:
320,192,245744,1,0,0:0:0:0:
448,192,245744,1,0,0:0:0:0:
448,192,245921,1,0,0:0:0:0:
320,192,246009,1,0,0:0:0:0:
320,192,246185,1,0,0:0:0:0:
448,192,246274,1,0,0:0:0:0:
192,192,246450,1,0,0:0:0:0:
320,192,246450,1,0,0:0:0:0:
64,192,246627,1,0,0:0:0:0:
192,192,246715,1,0,0:0:0:0:
192,192,246891,1,0,0:0:0:0:
64,192,246980,1,0,0:0:0:0:
192,192,247156,1,0,0:0:0:0:
320,192,247156,1,0,0:0:0:0:
192,192,247862,1,0,0:0:0:0:
320,192,247862,1,0,0:0:0:0:
320,192,248214,1,0,0:0:0:0:
192,192,248214,1,0,0:0:0:0:
192,0,248566,128,0,254214:1:0:0:0:
320,0,248566,128,0,254214:1:0:0:0:
