osu file format v14

[General]
AudioFilename: No title.mp3
AudioLeadIn: 0
PreviewTime: 50397
Countdown: 0
SampleSet: Normal
StackLeniency: 0.7
Mode: 2
LetterboxInBreaks: 0
WidescreenStoryboard: 1

[Editor]
Bookmarks: 29157
DistanceSpacing: 1.3
BeatDivisor: 4
GridSize: 16
TimelineZoom: 1

[Metadata]
Title:Time Of Death.
TitleUnicode:Time Of Death.
Artist:Various Artists
ArtistUnicode:Various Artists
Creator:fireyun06
Version:- NO TITLE - {Out of lvl name sry}
Source:
Tags:
BeatmapID:1926110
BeatmapSetID:869878

[Difficulty]
HPDrainRate:5
CircleSize:3.7
OverallDifficulty:6
ApproachRate:9.4
SliderMultiplier:2.6
SliderTickRate:3

[Events]
//Background and Video events
0,0,"LIGHT Insanae.jpg",0,0
//Break Periods
//Storyboard Layer 0 (Background)
//Storyboard Layer 1 (Fail)
//Storyboard Layer 2 (Pass)
//Storyboard Layer 3 (Foreground)
//Storyboard Sound Samples

[TimingPoints]
2397,300,4,1,0,10,1,0
7197,-111.111111111111,4,1,0,35,0,0

[HitObjects]
344,333,2397,6,0,P|402:303|416:54,1,325
147,260,2847,2,0,P|85:234|198:66,1,325
313,61,3297,2,0,L|474:63,1,130
197,115,3597,2,0,P|76:173|186:343,1,390
396,328,4347,2,0,L|396:51,1,260
204,75,4797,6,0,P|68:156|233:235,1,390
344,254,5547,6,0,L|475:22,1,260
28,85,5997,1,0,0:0:0:0:
293,83,6147,2,0,L|294:373,1,260
451,97,6747,1,0,0:0:0:0:
185,103,6897,2,0,P|95:152|197:236,1,260
431,146,7347,6,0,L|292:147,1,116.999996429443
220,141,7647,6,0,P|110:222|217:369,1,350.99998928833
450,164,8247,1,0,0:0:0:0:
150,217,8397,6,0,P|224:172|129:80,1,233.999992858887
2,73,8847,2,0,P|57:48|241:84,1,233.999992858887
419,89,9297,6,0,P|485:140|431:266,1,233.999992858887
258,261,9897,5,0,0:0:0:0:
76,272,10047,2,0,P|78:197|221:82,1,233.999992858887
456,92,10497,1,0,0:0:0:0:
74,97,10647,1,0,0:0:0:0:
335,162,10797,5,0,0:0:0:0:
380,123,10872,1,0,0:0:0:0:
384,56,10947,1,0,0:0:0:0:
150,100,11097,2,0,L|2:101,1,116.999996429443
369,102,11397,2,0,L|498:101,1,116.999996429443
111,183,11697,5,0,0:0:0:0:
400,187,11847,1,0,0:0:0:0:
123,243,11997,6,0,L|123:93,1,116.999996429443
26,129,12297,1,0,0:0:0:0:
391,137,12447,2,0,L|545:136,1,116.999996429443
219,151,12822,5,0,0:0:0:0:
95,151,12897,2,0,L|94:22,1,116.999996429443
452,98,13197,6,0,L|291:96,2,116.999996429443
134,224,13647,6,0,P|102:136|241:84,1,233.999992858887
455,73,14097,2,0,L|288:72,1,116.999996429443
89,153,14397,6,0,L|229:156,1,116.999996429443
441,154,14697,1,0,0:0:0:0:
152,171,14847,1,0,0:0:0:0:
397,214,14997,2,0,L|400:72,1,116.999996429443
107,111,15297,1,0,0:0:0:0:
441,135,15447,1,0,0:0:0:0:
102,178,15597,1,0,0:0:0:0:
449,197,15747,6,0,L|332:193,1,116.999996429443
42,193,16047,1,0,0:0:0:0:
369,228,16197,6,0,P|448:170|341:19,1,292.499991073609
92,46,16647,5,0,0:0:0:0:
182,47,16797,2,0,L|181:202,1,116.999996429443
462,185,17097,5,0,0:0:0:0:
311,187,17247,1,0,0:0:0:0:
462,240,17397,1,0,0:0:0:0:
76,189,17547,6,0,L|206:189,1,116.999996429443
442,193,17847,1,0,0:0:0:0:
192,249,17997,1,0,0:0:0:0:
442,310,18147,2,0,L|442:177,1,116.999996429443
0,191,18447,5,0,0:0:0:0:
255,188,18597,1,0,0:0:0:0:
6,192,18747,2,0,L|146:193,1,116.999996429443
255,188,19047,2,0,L|256:27,1,116.999996429443
28,59,19347,2,0,L|31:209,1,116.999996429443
399,175,19647,1,0,0:0:0:0:
90,173,19797,1,0,0:0:0:0:
355,179,19947,6,0,L|512:182,2,116.999996429443
88,182,20397,1,0,0:0:0:0:
369,190,20547,5,0,0:0:0:0:
369,190,20622,1,0,0:0:0:0:
369,190,20697,1,0,0:0:0:0:
68,184,20847,6,0,L|-30:184,1,58.4999982147217
287,187,20997,2,0,L|420:188,1,116.999996429443
120,244,21297,6,0,P|33:206|117:136,1,233.999992858887
416,148,21747,5,0,0:0:0:0:
78,22,21897,2,0,P|-47:148|121:371,1,467.999985717774
442,201,22647,1,0,0:0:0:0:
181,190,22797,6,0,L|45:190,2,116.999996429443
461,197,23247,1,0,0:0:0:0:
131,177,23397,2,0,P|69:226|148:309,1,175.499994644165
418,199,23697,6,0,L|182:197,1,233.999992858887
96,148,24147,5,0,0:0:0:0:
434,22,24297,2,0,P|559:148|391:371,1,467.999985717774
70,201,25047,1,0,0:0:0:0:
331,190,25197,6,0,L|467:190,2,116.999996429443
51,197,25647,1,0,0:0:0:0:
381,177,25797,2,0,P|443:226|364:309,1,175.499994644165
94,199,26097,6,0,L|330:197,1,233.999992858887
15,132,26547,6,0,L|175:131,2,116.999996429443
492,119,26997,1,0,0:0:0:0:
376,121,27147,1,0,0:0:0:0:
251,117,27297,1,0,0:0:0:0:
378,62,27447,1,0,0:0:0:0:
13,133,27597,6,0,L|169:134,1,116.999996429443
420,139,27897,1,0,0:0:0:0:
125,206,28047,1,0,0:0:0:0:
420,187,28197,2,0,L|422:333,1,116.999996429443
119,292,28497,6,0,P|35:200|162:62,1,292.499991073609
283,71,28947,2,0,L|435:72,2,116.999996429443
11,73,29397,1,0,0:0:0:0:
338,77,29547,2,0,L|335:216,1,116.999996429443
45,184,29847,1,0,0:0:0:0:
356,138,29997,5,0,0:0:0:0:
369,168,30072,1,0,0:0:0:0:
381,192,30147,1,0,0:0:0:0:
131,183,30297,6,0,L|35:178,1,58.4999982147217
266,191,30447,2,0,L|436:191,1,116.999996429443
76,244,30747,1,0,0:0:0:0:
363,250,30897,1,0,0:0:0:0:
129,204,31047,6,0,L|136:72,1,116.999996429443
366,86,31347,5,0,0:0:0:0:
115,95,31497,1,0,0:0:0:0:
396,130,31647,2,0,L|341:253,2,116.999996429443
88,172,32097,1,0,0:0:0:0:
383,204,32247,6,0,L|376:72,1,116.999996429443
146,86,32547,5,0,0:0:0:0:
397,95,32697,1,0,0:0:0:0:
116,130,32847,2,0,L|171:253,2,116.999996429443
424,172,33297,1,0,0:0:0:0:
149,263,33447,6,0,P|86:188|165:158,1,175.499994644165
322,151,33747,2,0,L|446:151,1,116.999996429443
81,146,34047,1,0,0:0:0:0:
367,148,34197,1,0,0:0:0:0:
142,152,34347,2,0,L|-1:152,1,116.999996429443
363,263,34647,6,0,P|426:188|347:158,1,175.499994644165
190,151,34947,2,0,L|66:151,1,116.999996429443
431,146,35247,1,0,0:0:0:0:
127,45,35397,6,0,P|76:114|146:169,1,175.499994644165
380,229,35697,6,0,P|431:298|361:353,1,175.499994644165
18,220,35997,6,0,L|283:222,1,233.999992858887
379,221,36447,1,0,0:0:0:0:
116,222,36597,2,0,L|-9:223,2,116.999996429443
226,224,37047,6,0,P|249:154|153:59,1,175.499994644165
451,61,37347,2,0,L|319:61,1,116.999996429443
