osu file format v14

[General]
AudioFilename: skrillex.mp3
AudioLeadIn: 0
PreviewTime: 71771
Countdown: 1
SampleSet: None
StackLeniency: 0.7
Mode: 2
LetterboxInBreaks: 0
WidescreenStoryboard: 1

[Editor]
Bookmarks: 29157
DistanceSpacing: 1.3
BeatDivisor: 8
GridSize: 16
TimelineZoom: 1.2

[Metadata]
Title:Time Of Death.
TitleUnicode:Time Of Death.
Artist:Various Artists
ArtistUnicode:Various Artists
Creator:fireyun06
Version:[Skrillex] - Rock N Roll - {QuickMouve}
Source:
Tags:
BeatmapID:1926112
BeatmapSetID:869878

[Difficulty]
HPDrainRate:4
CircleSize:3.5
OverallDifficulty:6
ApproachRate:9.7
SliderMultiplier:3.1
SliderTickRate:1

[Events]
//Background and Video events
0,0,"Skrillex-Wallpapers-022.jpg",0,0
//Break Periods
//Storyboard Layer 0 (Background)
//Storyboard Layer 1 (Fail)
//Storyboard Layer 2 (Pass)
//Storyboard Layer 3 (Foreground)
//Storyboard Sound Samples

[TimingPoints]
3883,469.515267175575,4,1,0,100,1,0
4000,469.515267175575,4,1,0,100,1,0
41978,-76.9230769230769,4,1,0,100,0,1
44261,-50,4,1,0,100,0,1
44330,-50,4,1,0,100,0,1
44730,-25,4,1,0,100,0,1
44800,-25,4,1,0,100,0,1
45270,-71.4285714285714,4,1,0,100,0,1
55060,-35.7142857142857,4,1,0,100,0,1
55529,-55.5555555555556,4,1,0,100,0,1
71493,-55.5555555555556,4,1,0,100,0,0
71962,-58.8235294117647,4,1,0,100,0,1
102015,-71.4285714285714,4,1,0,100,0,0

[HitObjects]
380,218,4000,1,0,0:0:0:0:
376,154,4117,1,0,0:0:0:0:
310,127,4235,1,0,0:0:0:0:
57,129,4352,5,0,0:0:0:0:
160,134,4469,2,0,L|348:127,1,155
86,153,4822,1,0,0:0:0:0:
337,152,5174,5,0,0:0:0:0:
242,147,5291,2,0,P|260:248|352:302,1,155
393,280,5643,1,0,0:0:0:0:
107,216,6230,6,0,L|50:110,1,77.5
430,140,6465,1,0,0:0:0:0:
315,139,6582,1,0,0:0:0:0:
203,135,6700,6,0,P|173:219|192:253,1,103.333333333333
322,244,6934,6,0,P|330:152|273:109,1,155
114,113,7404,5,0,0:0:0:0:
285,110,7580,1,0,0:0:0:0:
446,95,8108,6,0,L|456:212,1,77.5
333,152,8519,2,0,L|311:300,1,77.5
175,152,8930,5,0,0:0:0:0:
270,147,9047,2,0,P|252:248|160:302,1,155
119,280,9399,1,0,0:0:0:0:
457,175,9869,5,0,0:0:0:0:
166,176,9986,2,0,L|48:180,1,77.5
389,179,10221,2,0,L|270:182,1,77.5
64,173,10456,2,0,L|243:175,2,155
460,173,11160,1,0,0:0:0:0:
394,178,11277,1,0,0:0:0:0:
94,239,11864,6,0,P|41:183|170:116,1,232.5
311,103,12334,1,0,0:0:0:0:
175,152,12686,5,0,0:0:0:0:
270,147,12803,2,0,P|252:248|160:302,1,155
119,280,13155,1,0,0:0:0:0:
405,216,13742,6,0,L|462:110,1,77.5
82,140,13977,1,0,0:0:0:0:
197,139,14094,1,0,0:0:0:0:
309,135,14212,6,0,P|339:219|320:253,1,103.333333333333
190,244,14447,6,0,P|182:152|239:109,1,155
398,113,14916,5,0,0:0:0:0:
227,110,15092,1,0,0:0:0:0:
66,95,15620,6,0,L|56:212,1,77.5
179,152,16031,2,0,L|201:300,1,77.5
337,152,16442,5,0,0:0:0:0:
242,147,16559,2,0,P|260:248|352:302,1,155
393,280,16912,1,0,0:0:0:0:
55,175,17381,5,0,0:0:0:0:
346,176,17498,2,0,L|464:180,1,77.5
123,179,17733,2,0,L|242:182,1,77.5
448,173,17968,2,0,L|269:175,2,155
52,173,18672,1,0,0:0:0:0:
118,178,18790,1,0,0:0:0:0:
391,258,19377,6,0,P|428:127|296:90,1,232.5
252,81,19846,1,0,0:0:0:0:
84,76,20081,1,0,0:0:0:0:
151,79,20198,1,0,0:0:0:0:
224,85,20316,2,0,L|221:279,1,155
388,253,20668,6,0,P|437:174|253:90,1,310
30,88,21255,5,0,0:0:0:0:
98,88,21372,1,0,0:0:0:0:
171,87,21489,1,0,0:0:0:0:
98,88,21607,1,0,0:0:0:0:
310,240,21724,6,0,P|421:198|420:168,1,155
136,210,22018,6,0,P|96:150|156:114,1,155
265,111,22428,1,0,0:0:0:0:
381,105,22604,1,0,0:0:0:0:
271,214,22898,1,0,0:0:0:0:
121,258,23133,6,0,P|84:127|216:90,1,232.5
260,81,23602,1,0,0:0:0:0:
428,76,23837,1,0,0:0:0:0:
361,79,23954,1,0,0:0:0:0:
288,85,24072,2,0,L|291:279,1,155
124,253,24424,6,0,P|75:174|259:90,1,310
482,88,25011,5,0,0:0:0:0:
414,88,25128,1,0,0:0:0:0:
341,87,25245,1,0,0:0:0:0:
414,88,25363,1,0,0:0:0:0:
202,240,25480,6,0,P|91:198|92:168,1,155
376,210,25774,6,0,P|416:150|356:114,1,155
247,111,26243,1,0,0:0:0:0:
131,105,26361,1,0,0:0:0:0:
342,279,26654,5,0,0:0:0:0:
371,249,26713,1,0,0:0:0:0:
373,207,26771,1,0,0:0:0:0:
360,171,26830,1,0,0:0:0:0:
119,162,26947,1,0,0:0:0:0:
41,109,27182,1,0,0:0:0:0:
43,40,27300,1,0,0:0:0:0:
444,154,27886,5,0,0:0:0:0:
315,90,28121,1,0,0:0:0:0:
451,83,28239,1,0,0:0:0:0:
100,149,28825,5,0,0:0:0:0:
228,92,29060,1,0,0:0:0:0:
97,83,29178,1,0,0:0:0:0:
419,180,29765,5,0,0:0:0:0:
319,120,29999,1,0,0:0:0:0:
308,35,30117,1,0,0:0:0:0:
131,195,30704,5,0,0:0:0:0:
201,162,30938,1,0,0:0:0:0:
202,84,31056,1,0,0:0:0:0:
407,175,31643,5,0,0:0:0:0:
331,121,31877,1,0,0:0:0:0:
409,76,31995,1,0,0:0:0:0:
90,183,32582,5,0,0:0:0:0:
182,177,32816,1,0,0:0:0:0:
281,166,32934,1,0,0:0:0:0:
6,182,33521,1,0,0:0:0:0:
146,178,33755,1,0,0:0:0:0:
288,168,33873,1,0,0:0:0:0:
256,192,34401,12,0,40045,0:0:0:0:
302,232,41913,5,0,0:0:0:0:
335,207,41972,1,0,0:0:0:0:
355,172,42031,1,0,0:0:0:0:
357,128,42089,1,0,0:0:0:0:
185,120,42148,6,0,L|52:122,2,100.749995388031
185,120,42383,2,0,P|368:87|436:78,1,201.499990776062
399,87,42618,2,0,P|435:145|396:243,1,151.124993082047
74,223,42852,6,0,P|26:105|222:34,1,352.624983858109
413,80,43322,6,0,B|256:152|256:152|458:197,1,352.624983858109
34,157,43791,2,0,L|242:153,1,201.499990776062
45,190,44143,1,0,0:0:0:0:
481,244,44261,2,0,L|35:224,1,310
171,230,44496,2,0,L|304:8,1,155
250,97,44613,2,0,L|-5:97,1,155
95,97,44730,2,0,L|292:403,1,310
35,225,44965,5,0,0:0:0:0:
415,278,45200,5,0,0:0:0:0:
443,234,45259,1,0,0:0:0:0:
453,170,45317,1,0,0:0:0:0:
441,113,45376,1,0,0:0:0:0:
413,66,45435,1,0,0:0:0:0:
366,35,45493,1,0,0:0:0:0:
313,11,45552,1,0,0:0:0:0:
250,20,45611,1,0,0:0:0:0:
42,101,45669,6,0,B|18:162|18:162|220:162,1,216.999993377686
512,149,46021,1,0,0:0:0:0:
126,111,46139,1,0,0:0:0:0:
442,67,46315,6,0,P|482:126|396:269,1,216.999993377686
138,253,46608,5,0,0:0:0:0:
107,212,46667,1,0,0:0:0:0:
99,158,46726,1,0,0:0:0:0:
142,115,46784,1,0,0:0:0:0:
318,100,46843,2,0,L|400:97,1,54.2499983444214
127,89,46961,2,0,L|33:93,1,54.2499983444214
432,117,47078,5,0,0:0:0:0:
457,173,47137,1,0,0:0:0:0:
419,217,47195,1,0,0:0:0:0:
337,259,47254,1,0,0:0:0:0:
182,255,47313,1,0,0:0:0:0:
0,251,47371,1,0,0:0:0:0:
182,255,47430,1,0,0:0:0:0:
337,259,47489,1,0,0:0:0:0:
468,274,47547,6,0,P|479:165|417:125,1,162.749995033264
233,112,47782,6,0,L|49:115,1,162.749995033264
463,113,48017,1,0,0:0:0:0:
370,123,48134,6,0,L|280:127,1,54.2499983444214
464,169,48252,6,0,P|466:227|321:255,1,216.999993377686
115,174,48721,6,0,L|281:177,1,162.749995033264
451,177,48956,6,0,P|434:60|323:8,1,216.999993377686
174,116,49425,2,0,L|136:45,1,54.2499983444214
399,104,49543,2,0,L|465:79,1,54.2499983444214
278,86,49660,2,0,L|195:87,1,54.2499983444214
52,103,49778,2,0,L|5:29,1,54.2499983444214
390,62,49895,6,0,P|459:117|383:201,1,216.999993377686
393,201,50130,2,0,L|187:201,1,162.749995033264
428,302,50365,6,0,P|455:201|226:140,1,379.74998841095
480,277,50834,6,0,P|507:176|278:115,1,379.74998841095
107,85,51304,6,0,P|53:138|138:183,1,189.874994205475
291,197,51538,2,0,L|465:186,1,108.499996688843
455,188,51714,1,0,0:0:0:0:
123,232,51773,6,0,P|84:165|205:129,1,216.999993377686
183,111,52008,2,0,P|286:129|222:235,1,216.999993377686
214,222,52301,1,0,0:0:0:0:
469,179,52360,6,0,L|371:182,1,54.2499983444214
108,198,52477,6,0,P|61:142|151:102,1,162.749995033264
298,56,52712,5,0,0:0:0:0:
361,76,52771,1,0,0:0:0:0:
398,119,52829,1,0,0:0:0:0:
414,174,52888,1,0,0:0:0:0:
400,232,52947,1,0,0:0:0:0:
352,277,53006,1,0,0:0:0:0:
294,299,53064,1,0,0:0:0:0:
225,297,53123,1,0,0:0:0:0:
9,188,53182,6,0,P|38:102|161:129,1,216.999993377686
147,110,53416,2,0,L|291:114,1,108.499996688843
44,94,53651,5,0,0:0:0:0:
19,117,53680,1,0,0:0:0:0:
6,153,53710,1,0,0:0:0:0:
8,195,53739,1,0,0:0:0:0:
18,223,53768,1,0,0:0:0:0:
33,255,53798,1,0,0:0:0:0:
51,273,53827,1,0,0:0:0:0:
88,287,53857,1,0,0:0:0:0:
349,258,53886,6,0,P|415:209|347:131,1,189.874994205475
107,57,54121,5,0,0:0:0:0:
70,73,54179,1,0,0:0:0:0:
50,108,54238,1,0,0:0:0:0:
59,156,54297,1,0,0:0:0:0:
82,190,54355,1,0,0:0:0:0:
121,214,54414,1,0,0:0:0:0:
162,225,54473,1,0,0:0:0:0:
207,231,54531,1,0,0:0:0:0:
451,168,54590,5,0,0:0:0:0:
491,126,54649,1,0,0:0:0:0:
503,61,54708,1,0,0:0:0:0:
465,14,54766,1,0,0:0:0:0:
408,1,54825,1,0,0:0:0:0:
349,16,54884,1,0,0:0:0:0:
294,38,54942,1,0,0:0:0:0:
257,81,55001,1,0,0:0:0:0:
69,168,55060,6,0,L|595:169,2,433.999986755371
0,167,55568,6,2,P|35:94|146:90,1,139.499995742798
153,81,55764,1,0,0:0:0:0:
238,81,55881,1,0,0:0:0:0:
323,85,55999,6,0,L|350:374,1,278.999991485596
236,354,56468,2,0,L|290:61,1,278.999991485596
352,108,56938,1,0,0:0:0:0:
245,115,57172,6,0,L|108:114,1,69.749997871399
389,117,57290,2,0,L|515:114,1,69.749997871399
116,131,57407,2,0,P|45:206|172:260,1,278.999991485596
172,260,57642,2,0,P|66:279|154:323,1,244.124992549896
361,336,57877,6,0,P|442:278|241:91,1,488.249985099793
409,332,58346,6,0,P|490:274|289:87,1,488.249985099793
80,126,58816,5,0,0:0:0:0:
380,149,59051,6,0,L|445:83,1,69.749997871399
172,157,59168,2,0,L|142:55,1,69.749997871399
375,110,59285,6,0,P|447:177|304:232,1,278.999991485596
332,257,59520,2,0,L|52:234,1,278.999991485596
348,189,59872,5,0,0:0:0:0:
100,122,59990,2,0,P|34:149|129:209,1,209.249993614197
266,216,60224,2,0,B|489:217|489:217|491:100,1,278.999991485596
413,154,60576,2,0,L|413:59,1,69.749997871399
142,118,60694,6,0,B|35:122|35:122|161:130,1,209.249993614197
442,142,60929,1,0,0:0:0:0:
208,152,61046,1,0,0:0:0:0:
424,186,61163,6,0,P|507:232|384:290,1,278.999991485596
70,288,61515,1,0,0:0:0:0:
282,297,61633,6,0,P|377:261|347:107,1,278.999991485596
102,246,62102,6,0,P|52:149|194:72,1,278.999991485596
341,57,62572,6,0,L|515:55,2,139.499995742798
81,99,62924,1,0,0:0:0:0:
320,154,63041,1,0,0:0:0:0:
105,160,63159,1,0,0:0:0:0:
372,30,63276,6,0,L|496:31,1,69.749997871399
114,46,63394,2,0,L|37:44,1,69.749997871399
316,53,63511,5,0,0:0:0:0:
369,86,63570,1,0,0:0:0:0:
363,143,63628,1,0,0:0:0:0:
313,175,63687,1,0,0:0:0:0:
0,187,63746,5,0,0:0:0:0:
133,189,63863,1,0,0:0:0:0:
322,288,63980,6,0,L|371:-2,1,278.999991485596
295,11,64333,1,0,0:0:0:0:
295,11,64391,1,0,0:0:0:0:
114,70,64450,5,0,0:0:0:0:
75,89,64509,1,0,0:0:0:0:
43,117,64567,1,0,0:0:0:0:
38,148,64626,1,0,0:0:0:0:
291,172,64685,2,0,L|405:173,1,69.749997871399
116,184,64802,2,0,L|38:184,1,69.749997871399
318,249,64919,2,0,P|416:202|320:139,1,209.249993614197
174,150,65154,2,0,L|-43:149,1,209.249993614197
493,174,65389,6,0,L|-27:168,1,488.249985099793
512,225,65859,2,0,L|-47:222,1,557.999982971192
9,222,66328,2,0,L|141:106,2,139.499995742798
459,176,66680,1,0,0:0:0:0:
362,180,66798,6,0,P|311:112|446:71,1,278.999991485596
100,175,67267,5,0,0:0:0:0:
359,174,67384,1,0,0:0:0:0:
96,219,67502,2,0,L|366:222,1,209.249993614197
1,266,67737,2,0,P|162:173|-26:78,1,488.249985099793
448,152,68206,5,0,0:0:0:0:
319,152,68363,1,0,0:0:0:0:
448,152,68519,1,0,0:0:0:0:
81,189,68676,5,0,0:0:0:0:
176,134,68832,1,0,0:0:0:0:
180,50,68989,1,0,0:0:0:0:
419,250,69145,6,0,P|502:164|300:42,1,418.499987228394
56,196,69615,2,0,L|55:122,1,69.749997871399
204,195,69732,2,0,L|203:106,1,69.749997871399
329,201,69849,2,0,L|327:116,1,69.749997871399
465,205,69967,2,0,L|466:110,1,69.749997871399
135,252,70084,6,0,P|43:179|259:109,1,488.249985099793
463,127,70554,2,0,L|284:127,1,139.499995742798
323,127,70671,2,0,L|262:194,8,69.749997871399
426,203,71258,6,0,L|211:204,1,209.249993614197
6,197,71493,1,0,0:0:0:0:
345,254,71610,6,0,P|440:202|307:57,1,348.749989356995
131,107,71962,6,0,L|-18:296,1,197.625003769398
436,273,72197,2,0,L|341:74,1,197.625003769398
41,99,72432,6,0,L|251:95,1,197.625003769398
456,104,72666,2,0,B|559:190|431:263,1,197.625003769398
185,256,72901,5,0,0:0:0:0:
145,245,72960,1,0,0:0:0:0:
109,223,73019,1,0,0:0:0:0:
85,194,73077,1,0,0:0:0:0:
62,155,73136,1,0,0:0:0:0:
56,117,73195,1,0,0:0:0:0:
78,71,73253,1,0,0:0:0:0:
116,38,73312,1,0,0:0:0:0:
256,51,73371,5,0,0:0:0:0:
421,53,73429,5,0,0:0:0:0:
458,78,73488,1,0,0:0:0:0:
473,119,73547,1,0,0:0:0:0:
474,170,73606,1,0,0:0:0:0:
462,211,73664,1,0,0:0:0:0:
444,242,73723,1,0,0:0:0:0:
411,261,73782,1,0,0:0:0:0:
206,243,73840,6,0,L|6:246,1,197.625003769398
330,178,74075,2,0,L|111:180,1,197.625003769398
424,115,74310,2,0,L|222:115,1,197.625003769398
480,71,74545,5,0,0:0:0:0:
361,70,74662,1,0,0:0:0:0:
256,64,74779,1,0,0:0:0:0:
219,94,74838,1,0,0:0:0:0:
189,135,74897,1,0,0:0:0:0:
228,174,74955,1,0,0:0:0:0:
267,205,75014,1,0,0:0:0:0:
310,234,75073,1,0,0:0:0:0:
261,273,75131,1,0,0:0:0:0:
222,303,75190,1,0,0:0:0:0:
89,274,75249,6,0,P|55:191|141:116,1,197.625003769398
370,132,75484,2,0,P|454:150|487:288,1,197.625003769398
84,194,75718,2,0,L|305:195,1,197.625003769398
475,187,75953,1,0,0:0:0:0:
188,193,76188,6,0,L|25:192,1,131.750002512932
184,118,76423,2,0,L|186:-24,1,131.750002512932
464,105,76657,6,0,L|233:103,1,197.625003769398
65,108,76892,1,0,0:0:0:0:
324,193,77127,6,0,L|487:192,1,131.750002512932
328,118,77362,2,0,L|326:-24,1,131.750002512932
125,57,77596,5,0,0:0:0:0:
249,81,77714,1,0,0:0:0:0:
151,128,77831,1,0,0:0:0:0:
224,137,77949,1,0,0:0:0:0:
184,180,78066,2,0,B|181:341|181:341|211:301|211:301|168:296|189:291|189:291|200:258|200:258|235:271|235:271|191:201|191:201|240:285|201:103|136:177|140:122|216:242|216:242|172:273|172:273|159:192|191:164|201:162|222:161|206:66,1,856.375016334057
298,60,78888,6,0,L|457:58,1,131.750002512932
148,82,79122,1,0,0:0:0:0:
17,110,79240,1,0,0:0:0:0:
142,141,79357,1,0,0:0:0:0:
428,272,79474,6,0,L|428:62,1,197.625003769398
231,271,79709,2,0,P|214:187|265:68,1,197.625003769398
99,253,79944,2,0,P|47:187|136:113,1,197.625003769398
339,222,80179,6,0,P|400:183|314:132,1,197.625003769398
157,73,80413,5,0,0:0:0:0:
115,95,80472,1,0,0:0:0:0:
88,131,80531,1,0,0:0:0:0:
87,174,80590,1,0,0:0:0:0:
249,198,80648,1,0,0:0:0:0:
406,204,80707,1,0,0:0:0:0:
452,170,80766,1,0,0:0:0:0:
467,105,80824,1,0,0:0:0:0:
249,86,80883,6,0,L|36:87,1,197.625003769398
270,87,81118,2,0,L|469:86,1,197.625003769398
