osu file format v14

[General]
AudioFilename: f f f f f.mp3
AudioLeadIn: 0
PreviewTime: 35110
Countdown: 0
SampleSet: None
StackLeniency: 0.7
Mode: 2
LetterboxInBreaks: 0
WidescreenStoryboard: 1

[Editor]
Bookmarks: 29157
DistanceSpacing: 1.3
BeatDivisor: 4
GridSize: 16
TimelineZoom: 1

[Metadata]
Title:Time Of Death.
TitleUnicode:Time Of Death.
Artist:Various Artists
ArtistUnicode:Various Artists
Creator:fireyun06
Version:[Five Hammer] - f f f f f - {HaRdCorE}
Source:
Tags:
BeatmapID:1926111
BeatmapSetID:869878

[Difficulty]
HPDrainRate:6
CircleSize:4.2
OverallDifficulty:6
ApproachRate:9.6
SliderMultiplier:3.1
SliderTickRate:1

[Events]
//Background and Video events
0,0,"BackGround (2).jpg",0,0
//Break Periods
//Storyboard Layer 0 (Background)
//Storyboard Layer 1 (Fail)
//Storyboard Layer 2 (Pass)
//Storyboard Layer 3 (Foreground)
//Storyboard Sound Samples

[TimingPoints]
1155,434.880419580423,4,1,0,100,1,0
1155,-100,4,1,0,20,0,0
4634,-100,4,1,0,100,0,0
4742,-100,4,1,0,20,0,0
5068,-100,4,1,0,100,0,0
5177,-100,4,1,0,20,0,0
5503,-100,4,1,0,100,0,0
5612,-100,4,1,0,20,0,0
5938,-100,4,1,0,100,0,0
6047,-100,4,1,0,20,0,0
6373,-100,4,1,0,100,0,0
6482,-100,4,1,0,20,0,0
6808,-100,4,1,0,100,0,0
6917,-100,4,1,0,20,0,0
7243,-100,4,1,0,100,0,0
7352,-100,4,1,0,20,0,0
7678,-100,4,1,0,100,0,0
7786,-100,4,1,0,50,0,0
8113,-100,4,1,0,100,0,0
8221,-100,4,1,0,50,0,0

[HitObjects]
387,192,1155,6,0,L|281:191,2,77.5
457,190,1481,1,0,0:0:0:0:
181,186,1589,6,0,L|77:185,1,77.5
14,184,1807,1,0,0:0:0:0:
103,185,1916,1,0,0:0:0:0:
349,184,2024,6,0,L|434:184,1,77.5
230,183,2242,2,0,L|142:182,1,77.5
470,184,2459,5,0,0:0:0:0:
397,183,2568,1,0,0:0:0:0:
321,183,2677,1,0,0:0:0:0:
238,182,2785,1,0,0:0:0:0:
411,237,2894,5,0,0:0:0:0:
490,194,3003,1,0,0:0:0:0:
494,103,3111,1,0,0:0:0:0:
417,54,3220,1,0,0:0:0:0:
178,83,3329,6,0,L|79:83,3,77.5
343,88,3764,2,0,L|433:89,1,77.5
186,139,3981,2,0,L|96:139,1,77.5
339,193,4199,5,0,0:0:0:0:
409,193,4307,1,0,0:0:0:0:
341,261,4416,1,0,0:0:0:0:
276,263,4525,1,0,0:0:0:0:
64,232,4634,6,0,L|147:233,2,77.5,8|0|0,0:0|0:0|0:0,0:0:0:0:
339,233,4960,1,0,0:0:0:0:
146,182,5068,6,0,L|27:181,1,77.5
345,154,5286,1,0,0:0:0:0:
170,153,5395,1,0,0:0:0:0:
448,232,5503,6,0,L|365:233,2,77.5,8|0|0,0:0|0:0|0:0,0:0:0:0:
164,227,5829,1,0,0:0:0:0:
366,182,5938,6,0,L|485:181,1,77.5
153,146,6156,1,0,0:0:0:0:
326,143,6264,1,0,0:0:0:0:
120,202,6373,6,0,L|26:202,1,77.5,8|0,0:0|0:0,0:0:0:0:
390,205,6591,1,0,0:0:0:0:
187,205,6699,1,0,0:0:0:0:
393,258,6808,2,0,L|514:260,1,77.5,8|0,0:0|0:0,0:0:0:0:
91,254,7025,1,0,0:0:0:0:
367,265,7134,1,0,0:0:0:0:
68,213,7243,6,0,L|-25:211,1,77.5,8|0,0:0|0:0,0:0:0:0:
385,151,7460,1,0,0:0:0:0:
116,143,7569,1,0,0:0:0:0:
391,220,7678,1,8,0:0:0:0:
60,206,7786,1,8,0:0:0:0:
314,202,7895,1,8,0:0:0:0:
134,208,8004,1,8,0:0:0:0:
412,248,8113,6,0,L|411:152,1,77.5,10|0,0:0|0:0,0:0:0:0:
491,169,8330,1,8,0:0:0:0:
411,170,8439,1,0,0:0:0:0:
176,169,8547,5,8,0:0:0:0:
99,168,8656,1,0,0:0:0:0:
15,166,8765,1,8,0:0:0:0:
91,167,8874,1,0,0:0:0:0:
349,118,8982,5,8,0:0:0:0:
422,117,9091,1,0,0:0:0:0:
351,186,9200,1,8,0:0:0:0:
276,186,9309,1,0,0:0:0:0:
103,236,9417,6,0,L|6:236,3,77.5,8|0|8|0,0:0|0:0|0:0|0:0,0:0:0:0:
443,226,9852,6,8,L|459:137,1,77.5,8|0,0:0|0:0,0:0:0:0:
271,213,10070,2,0,L|270:122,1,77.5,8|0,0:0|0:0,0:0:0:0:
94,191,10287,2,0,L|2:190,2,77.5,8|0|8,0:0|0:0|0:0,0:0:0:0:
176,192,10613,1,0,0:0:0:0:
495,187,10722,6,0,L|385:189,1,77.5,8|0,0:0|0:0,0:0:0:0:
86,195,10939,2,0,L|177:196,1,77.5,8|0,0:0|0:0,0:0:0:0:
380,213,11157,5,8,0:0:0:0:
461,168,11265,1,0,0:0:0:0:
462,83,11374,1,8,0:0:0:0:
384,43,11483,1,0,0:0:0:0:
191,263,11592,6,0,L|194:182,1,77.5,8|0,0:0|0:0,0:0:0:0:
281,187,11809,2,0,L|285:103,1,77.5,8|0,0:0|0:0,0:0:0:0:
85,268,12027,2,0,L|88:164,1,77.5,8|0,0:0|0:0,0:0:0:0:
170,177,12244,2,0,L|177:97,1,77.5,8|0,0:0|0:0,0:0:0:0:
0,97,12461,2,0,L|87:98,1,77.5,8|0,0:0|0:0,0:0:0:0:
258,98,12679,2,0,L|362:97,1,77.5,8|0,0:0|0:0,0:0:0:0:
136,161,12896,5,8,0:0:0:0:
70,212,13005,1,0,0:0:0:0:
70,290,13114,1,8,0:0:0:0:
134,344,13222,1,0,0:0:0:0:
302,229,13331,6,0,L|403:230,3,77.5,8|0|8|0,0:0|0:0|0:0|0:0,0:0:0:0:
146,212,13766,2,0,L|68:212,1,77.5,8|0,0:0|0:0,0:0:0:0:
391,198,13983,2,0,L|492:198,1,77.5,8|0,0:0|0:0,0:0:0:0:
111,191,14201,6,0,L|109:108,1,77.5,8|0,0:0|0:0,0:0:0:0:
472,156,14418,2,0,L|379:153,1,77.5,8|0,0:0|0:0,0:0:0:0:
153,161,14636,5,12,0:0:0:0:
336,162,14745,1,8,0:0:0:0:
152,201,14853,1,12,0:0:0:0:
336,204,14962,1,8,0:0:0:0:
151,248,15071,6,0,L|52:248,1,77.5,14|0,0:0|0:0,0:0:0:0:
150,308,15288,6,0,L|244:307,1,77.5,8|0,0:0|0:0,0:0:0:0:
450,210,15506,6,0,L|472:122,1,77.5,8|0,0:0|0:0,0:0:0:0:
254,195,15723,2,0,L|253:105,1,77.5,8|0,0:0|0:0,0:0:0:0:
497,102,15940,6,0,L|410:98,1,77.5,8|0,0:0|0:0,0:0:0:0:
177,93,16158,2,0,L|82:92,1,77.5,8|0,0:0|0:0,0:0:0:0:
362,170,16375,2,0,L|475:170,1,77.5,8|0,0:0|0:0,0:0:0:0:
165,175,16593,2,0,L|59:174,1,77.5
364,231,16810,6,0,L|464:232,1,77.5
86,242,17028,1,0,0:0:0:0:
282,243,17136,1,0,0:0:0:0:
84,294,17245,2,0,L|-3:293,1,77.5
411,292,17463,2,0,L|267:291,1,77.5
111,212,17680,6,0,L|109:125,1,77.5
18,133,17897,2,0,L|131:134,1,77.5
327,156,18115,2,0,L|435:157,1,77.5
477,157,18332,2,0,L|475:66,1,77.5
87,93,18550,6,0,L|187:91,1,77.5
428,100,18767,1,0,0:0:0:0:
230,110,18876,1,0,0:0:0:0:
53,126,18985,6,0,L|57:250,1,77.5
349,133,19202,2,0,L|351:228,1,77.5
99,266,19419,2,0,L|-1:268,1,77.5
350,271,19637,2,0,L|435:270,1,77.5
101,327,19854,2,0,L|209:327,1,77.5
354,336,20072,2,0,L|253:335,1,77.5
106,227,20289,6,0,L|23:226,1,77.5
106,288,20507,2,0,L|192:289,1,77.5
439,271,20724,2,0,L|516:273,1,77.5
110,284,20942,2,0,L|14:280,1,77.5
438,301,21159,6,0,L|436:194,1,77.5
97,319,21376,2,0,L|101:229,1,77.5
488,191,21594,5,0,0:0:0:0:
256,195,21703,1,0,0:0:0:0:
7,192,21811,1,0,0:0:0:0:
512,194,21920,1,0,0:0:0:0:
333,195,22029,6,0,L|248:195,1,77.5
342,258,22246,2,0,L|431:257,1,77.5
202,256,22464,2,0,L|106:253,1,77.5
206,310,22681,2,0,L|302:314,1,77.5
71,296,22899,2,0,L|-18:293,1,77.5
58,342,23116,2,0,L|146:344,1,77.5
322,232,23333,6,0,L|400:232,1,77.5
175,234,23551,2,0,L|84:233,1,77.5
430,167,23768,2,0,L|516:171,1,77.5
426,239,23986,2,0,L|338:236,1,77.5
72,239,24203,6,0,L|71:144,1,77.5
311,231,24421,2,0,L|309:136,1,77.5
28,184,24638,5,0,0:0:0:0:
219,189,24747,1,0,0:0:0:0:
409,196,24855,2,0,L|416:106,1,77.5
211,94,25073,5,0,0:0:0:0:
34,95,25182,1,0,0:0:0:0:
213,147,25290,1,0,0:0:0:0:
29,156,25399,1,0,0:0:0:0:
429,192,25508,6,0,L|511:192,1,77.5
272,189,25725,2,0,L|190:188,1,77.5
426,266,25943,2,0,L|511:268,1,77.5
268,267,26160,2,0,L|180:265,1,77.5
426,296,26378,6,0,L|426:203,1,77.5
509,210,26595,1,0,0:0:0:0:
169,243,26704,2,0,L|51:241,2,77.5
388,252,27030,2,0,L|501:253,1,77.5
138,297,27247,6,0,L|137:192,1,77.5
43,212,27465,1,0,0:0:0:0:
463,221,27573,1,0,0:0:0:0:
393,222,27682,2,0,L|393:128,1,77.5
210,149,27900,5,0,0:0:0:0:
133,147,28008,1,0,0:0:0:0:
55,141,28117,1,0,0:0:0:0:
378,156,28226,2,0,L|472:154,1,77.5
144,208,28443,2,0,L|42:206,1,77.5
426,226,28661,2,0,L|328:224,2,77.5
170,262,28987,6,0,L|68:263,1,77.5
326,264,29204,2,0,L|434:262,1,77.5
107,181,29422,6,0,L|108:83,1,77.5
413,181,29639,2,0,L|412:75,1,77.5
136,129,29857,6,0,L|19:131,1,77.5
400,132,30074,2,0,L|302:131,1,77.5
122,205,30291,2,0,L|28:204,3,77.5
426,211,30726,5,0,0:0:0:0:
207,210,30835,1,0,0:0:0:0:
426,211,30944,2,0,L|520:211,1,77.5
146,215,31161,2,0,L|62:213,1,77.5
370,225,31379,2,0,L|462:225,1,77.5
81,169,31596,6,0,L|165:167,1,77.5
470,165,31814,2,0,L|326:163,1,77.5
0,166,32031,1,0,0:0:0:0:
169,133,32140,1,0,0:0:0:0:
343,168,32248,1,0,0:0:0:0:
508,174,32357,1,0,0:0:0:0:
184,76,32466,6,0,L|54:73,1,77.5
368,81,32683,2,0,L|464:79,1,77.5
126,161,32901,6,0,L|111:275,1,77.5
379,170,33118,2,0,L|383:276,1,77.5
125,181,33336,6,0,L|5:176,1,77.5
127,234,33553,2,0,L|214:238,1,77.5
397,203,33771,2,0,L|498:201,1,77.5
474,134,33988,2,0,L|393:135,1,77.5
168,159,34205,2,0,L|61:159,2,77.5
377,201,34532,2,0,L|461:200,2,77.5
158,221,34858,2,0,L|58:221,1,77.5
426,239,35075,6,0,L|435:213,1,19.375
263,191,35347,2,0,L|276:162,1,25.8333333333333
120,154,35673,2,0,L|136:122,1,25.8333333333333
369,192,35945,5,0,0:0:0:0:
402,179,35999,1,0,0:0:0:0:
426,148,36054,1,0,0:0:0:0:
441,101,36108,1,0,0:0:0:0:
434,54,36162,1,0,0:0:0:0:
401,25,36217,1,0,0:0:0:0:
351,12,36271,1,0,0:0:0:0:
306,13,36325,1,0,0:0:0:0:
121,52,36380,6,0,P|55:85|129:233,1,271.25
408,237,36815,2,0,L|206:238,1,155
55,240,37086,6,0,P|61:174|217:182,1,258.333333333333
399,223,37684,6,0,L|417:183,1,25.8333333333333
80,219,37902,2,0,L|57:197,1,25.8333333333333
326,164,38119,6,0,L|450:157,1,116.25
157,166,38337,2,0,L|13:164,1,116.25
347,106,38554,2,0,L|441:106,1,77.5
503,107,38772,1,0,0:0:0:0:
158,103,38880,6,0,B|68:135|68:135|165:138|165:138|241:139|241:139|132:187,1,387.5
24,194,39641,6,0,L|18:158,1,25.8333333333333
150,196,39859,1,0,0:0:0:0:
273,195,40076,1,0,0:0:0:0:
48,256,40294,5,0,0:0:0:0:
26,228,40330,2,0,P|23:177|172:98,1,232.5
321,105,40729,2,0,L|482:104,1,155
166,201,41163,6,0,L|109:202,1,38.75
347,201,41272,2,0,L|395:200,1,38.75
125,152,41381,2,0,L|63:151,1,38.75
309,149,41490,2,0,L|370:148,1,38.75
89,108,41598,6,0,L|29:106,1,38.75
275,93,41707,2,0,L|331:93,1,38.75
504,88,41816,2,0,L|451:87,1,38.75
194,94,41925,2,0,L|137:94,1,38.75
397,99,42033,6,0,P|459:125|427:228,1,180.833333333333
251,222,42323,2,0,L|-7:223,1,258.333333333333
490,225,42903,1,0,0:0:0:0:
