osu file format v14

[General]
AudioFilename: love.mp3
AudioLeadIn: 0
PreviewTime: -1
Countdown: 1
SampleSet: None
StackLeniency: 0.7
Mode: 1
LetterboxInBreaks: 0
WidescreenStoryboard: 1

[Editor]
DistanceSpacing: 0.8
BeatDivisor: 4
GridSize: 8
TimelineZoom: 1.3

[Metadata]
Title:Taiko no Tatsujin PACK 3
TitleUnicode:Taiko no Tatsujin PACK 3
Artist:Various Artists
ArtistUnicode:Various Artists
Creator:About
Version:[8] koi genso (Love destiny) (About) [Taiko Oni]
Source:
Tags:
BeatmapID:1753299
BeatmapSetID:837326

[Difficulty]
HPDrainRate:6
CircleSize:5
OverallDifficulty:6
ApproachRate:5
SliderMultiplier:1.4
SliderTickRate:1

[Events]
//Background and Video events
0,0,"asteroids.jpg",0,0
//Break Periods
//Storyboard Layer 0 (Background)
//Storyboard Layer 1 (Fail)
//Storyboard Layer 2 (Pass)
//Storyboard Layer 3 (Foreground)
//Storyboard Sound Samples

[TimingPoints]
50,327.868852,3,1,0,100,1,0
57099,327.868852,2,1,0,100,1,0
57754,327.868852,3,1,0,100,1,0
58737,327.868852,2,1,0,100,1,0
59392,327.868852,3,1,0,100,1,0
60375,327.868852,2,1,0,100,1,0
61030,327.868852,3,1,0,100,1,0
62997,-100,3,1,0,100,0,1
119053,-100,3,1,0,100,0,0

[HitObjects]
416,176,50,5,8,0:0:0:0:
416,176,159,1,0,0:0:0:0:
416,176,268,1,0,0:0:0:0:
416,176,377,1,8,0:0:0:0:
416,176,487,1,0,0:0:0:0:
416,176,596,1,0,0:0:0:0:
416,176,705,1,8,0:0:0:0:
416,176,815,1,0,0:0:0:0:
416,176,924,1,0,0:0:0:0:
416,176,1033,1,0,0:0:0:0:
416,176,1142,1,0,0:0:0:0:
416,176,1252,1,8,0:0:0:0:
416,176,1361,1,0,0:0:0:0:
416,176,1470,1,0,0:0:0:0:
416,176,1580,1,8,0:0:0:0:
416,176,1689,1,8,0:0:0:0:
416,176,1798,1,0,0:0:0:0:
416,176,1907,1,8,0:0:0:0:
416,176,2017,1,4,0:0:0:0:
256,192,2891,12,0,3164,0:0:0:0:
416,176,3820,5,8,0:0:0:0:
416,176,3902,1,8,0:0:0:0:
416,176,3984,1,8,0:0:0:0:
416,176,4148,1,0,0:0:0:0:
416,176,4476,1,0,0:0:0:0:
416,176,4640,1,0,0:0:0:0:
416,176,4968,1,0,0:0:0:0:
416,176,5131,1,0,0:0:0:0:
416,176,5295,1,0,0:0:0:0:
416,176,5459,1,0,0:0:0:0:
416,176,5787,1,0,0:0:0:0:
416,176,5869,1,0,0:0:0:0:
416,176,5951,1,8,0:0:0:0:
416,176,6279,1,0,0:0:0:0:
416,176,6443,1,8,0:0:0:0:
416,176,6525,1,8,0:0:0:0:
416,176,6607,1,8,0:0:0:0:
416,176,6771,1,0,0:0:0:0:
416,176,6935,1,0,0:0:0:0:
416,176,7263,1,0,0:0:0:0:
416,176,7427,1,8,0:0:0:0:
416,176,7509,1,8,0:0:0:0:
416,176,7590,1,0,0:0:0:0:
416,176,7918,1,8,0:0:0:0:
416,176,8246,1,0,0:0:0:0:
416,176,8410,1,8,0:0:0:0:
416,176,8492,1,8,0:0:0:0:
416,176,8574,1,0,0:0:0:0:
416,176,8738,1,8,0:0:0:0:
416,176,8902,1,0,0:0:0:0:
416,176,9066,1,0,0:0:0:0:
416,176,9230,1,0,0:0:0:0:
416,176,9394,1,0,0:0:0:0:
416,176,9722,1,0,0:0:0:0:
416,176,9804,1,0,0:0:0:0:
416,176,9886,1,8,0:0:0:0:
416,176,10213,1,0,0:0:0:0:
416,176,10377,1,8,0:0:0:0:
416,176,10459,1,8,0:0:0:0:
416,176,10541,1,8,0:0:0:0:
416,176,10705,1,0,0:0:0:0:
416,176,10869,1,0,0:0:0:0:
416,176,11197,1,0,0:0:0:0:
416,176,11361,1,8,0:0:0:0:
416,176,11443,1,8,0:0:0:0:
416,176,11525,1,0,0:0:0:0:
416,176,11853,1,8,0:0:0:0:
416,176,12181,1,0,0:0:0:0:
416,176,12345,1,8,0:0:0:0:
416,176,12427,1,8,0:0:0:0:
416,176,12509,1,0,0:0:0:0:
416,176,12672,1,8,0:0:0:0:
416,176,12836,1,0,0:0:0:0:
416,176,13000,1,0,0:0:0:0:
416,176,13164,1,0,0:0:0:0:
416,176,13492,1,0,0:0:0:0:
416,176,13656,1,8,0:0:0:0:
416,176,13738,1,8,0:0:0:0:
416,176,13820,1,8,0:0:0:0:
416,176,14148,1,4,0:0:0:0:
416,176,14476,1,8,0:0:0:0:
416,176,14640,1,8,0:0:0:0:
416,176,14722,1,8,0:0:0:0:
416,176,14804,1,0,0:0:0:0:
416,176,14886,1,0,0:0:0:0:
416,176,14968,1,0,0:0:0:0:
416,176,15050,1,0,0:0:0:0:
416,176,15131,1,0,0:0:0:0:
416,176,15295,1,8,0:0:0:0:
416,176,15459,1,0,0:0:0:0:
416,176,15787,1,8,0:0:0:0:
416,176,16115,1,0,0:0:0:0:
416,176,16279,1,8,0:0:0:0:
416,176,16443,1,0,0:0:0:0:
416,176,17099,1,8,0:0:0:0:
416,176,17263,1,8,0:0:0:0:
416,176,17590,1,8,0:0:0:0:
416,176,17672,1,8,0:0:0:0:
416,176,17754,1,0,0:0:0:0:
416,176,18082,1,0,0:0:0:0:
416,176,18246,1,8,0:0:0:0:
416,176,18328,1,8,0:0:0:0:
416,176,18410,1,0,0:0:0:0:
416,176,18738,1,0,0:0:0:0:
416,176,18820,1,0,0:0:0:0:
416,176,18902,1,0,0:0:0:0:
416,176,18984,1,0,0:0:0:0:
416,176,19066,1,0,0:0:0:0:
416,176,19230,1,0,0:0:0:0:
416,176,19394,1,8,0:0:0:0:
416,176,19722,1,8,0:0:0:0:
416,176,19804,1,8,0:0:0:0:
416,176,19886,1,8,0:0:0:0:
416,176,19968,1,8,0:0:0:0:
416,176,20050,1,8,0:0:0:0:
416,176,20213,1,8,0:0:0:0:
416,176,20377,1,0,0:0:0:0:
416,176,20705,1,0,0:0:0:0:
416,176,20787,1,0,0:0:0:0:
416,176,20869,1,0,0:0:0:0:
416,176,21197,1,8,0:0:0:0:
416,176,21361,1,0,0:0:0:0:
416,176,21525,1,8,0:0:0:0:
416,176,21689,1,0,0:0:0:0:
416,176,21771,1,0,0:0:0:0:
416,176,21853,1,0,0:0:0:0:
416,176,22181,1,8,0:0:0:0:
416,176,22345,1,0,0:0:0:0:
416,176,22672,1,0,0:0:0:0:
416,176,22836,1,0,0:0:0:0:
416,176,23000,1,0,0:0:0:0:
416,176,23164,1,0,0:0:0:0:
416,176,23328,1,0,0:0:0:0:
416,176,23492,1,0,0:0:0:0:
416,176,23656,1,8,0:0:0:0:
416,176,23820,1,8,0:0:0:0:
416,176,23984,1,8,0:0:0:0:
416,176,24148,1,8,0:0:0:0:
416,176,24230,1,8,0:0:0:0:
416,176,24312,1,0,0:0:0:0:
416,176,24476,1,0,0:0:0:0:
416,176,24640,1,8,0:0:0:0:
416,176,24804,1,8,0:0:0:0:
416,176,25131,1,8,0:0:0:0:
416,176,25213,1,8,0:0:0:0:
416,176,25295,1,8,0:0:0:0:
416,176,25459,1,8,0:0:0:0:
416,176,25787,1,8,0:0:0:0:
416,176,25869,1,8,0:0:0:0:
416,176,25951,1,8,0:0:0:0:
416,176,26115,1,8,0:0:0:0:
416,176,26279,1,8,0:0:0:0:
416,176,26361,1,8,0:0:0:0:
416,176,26443,1,8,0:0:0:0:
416,176,26525,1,8,0:0:0:0:
416,176,26607,1,0,0:0:0:0:
416,176,26935,1,0,0:0:0:0:
416,176,27099,1,8,0:0:0:0:
416,176,27427,1,0,0:0:0:0:
416,176,27509,1,0,0:0:0:0:
416,176,27590,1,8,0:0:0:0:
416,176,27754,1,0,0:0:0:0:
416,176,27918,1,0,0:0:0:0:
416,176,28082,1,8,0:0:0:0:
416,176,28246,1,0,0:0:0:0:
416,176,28410,1,8,0:0:0:0:
416,176,28574,1,0,0:0:0:0:
416,176,28902,1,0,0:0:0:0:
416,176,28984,1,0,0:0:0:0:
416,176,29066,1,0,0:0:0:0:
416,176,29148,1,0,0:0:0:0:
416,176,29230,1,8,0:0:0:0:
416,176,29558,1,8,0:0:0:0:
416,176,29886,1,8,0:0:0:0:
416,176,29968,1,8,0:0:0:0:
416,176,30050,1,8,0:0:0:0:
416,176,30131,1,8,0:0:0:0:
416,176,30213,1,0,0:0:0:0:
416,176,30541,1,0,0:0:0:0:
416,176,30869,1,0,0:0:0:0:
416,176,31033,1,8,0:0:0:0:
416,176,31361,1,0,0:0:0:0:
416,176,31443,1,0,0:0:0:0:
416,176,31525,1,8,0:0:0:0:
416,176,31689,1,0,0:0:0:0:
416,176,31853,1,0,0:0:0:0:
416,176,32017,1,8,0:0:0:0:
416,176,32181,1,0,0:0:0:0:
416,176,32345,1,8,0:0:0:0:
416,176,32509,1,0,0:0:0:0:
416,176,32836,1,0,0:0:0:0:
416,176,33000,1,8,0:0:0:0:
416,176,33082,1,8,0:0:0:0:
416,176,33164,1,0,0:0:0:0:
416,176,33492,1,8,0:0:0:0:
416,176,33820,1,0,0:0:0:0:
416,176,33984,1,8,0:0:0:0:
416,176,34066,1,8,0:0:0:0:
416,176,34148,1,0,0:0:0:0:
416,176,34312,1,8,0:0:0:0:
416,176,34476,1,0,0:0:0:0:
416,176,34640,1,8,0:0:0:0:
416,176,34804,1,0,0:0:0:0:
416,176,35131,1,0,0:0:0:0:
416,176,35295,1,8,0:0:0:0:
416,176,35377,1,8,0:0:0:0:
416,176,35459,1,8,0:0:0:0:
416,176,35787,1,4,0:0:0:0:
416,176,36115,1,8,0:0:0:0:
416,176,36224,1,8,0:0:0:0:
416,176,36334,1,8,0:0:0:0:
416,176,36443,1,0,0:0:0:0:
416,176,36525,1,0,0:0:0:0:
416,176,36607,1,0,0:0:0:0:
416,176,36689,1,0,0:0:0:0:
416,176,36771,1,0,0:0:0:0:
416,176,36935,1,8,0:0:0:0:
416,176,37099,1,0,0:0:0:0:
416,176,37427,1,8,0:0:0:0:
416,176,37754,1,0,0:0:0:0:
416,176,37918,1,8,0:0:0:0:
416,176,38082,1,0,0:0:0:0:
416,176,38738,1,8,0:0:0:0:
416,176,38902,1,8,0:0:0:0:
416,176,39230,1,8,0:0:0:0:
416,176,39312,1,8,0:0:0:0:
416,176,39394,1,0,0:0:0:0:
416,176,39722,1,0,0:0:0:0:
416,176,39886,1,8,0:0:0:0:
416,176,39968,1,8,0:0:0:0:
416,176,40050,1,0,0:0:0:0:
416,176,40377,1,0,0:0:0:0:
416,176,40459,1,0,0:0:0:0:
416,176,40541,1,0,0:0:0:0:
416,176,40623,1,0,0:0:0:0:
416,176,40705,1,0,0:0:0:0:
416,176,40869,1,0,0:0:0:0:
416,176,41033,1,8,0:0:0:0:
416,176,41361,1,8,0:0:0:0:
416,176,41443,1,8,0:0:0:0:
416,176,41525,1,8,0:0:0:0:
416,176,41607,1,8,0:0:0:0:
416,176,41689,1,8,0:0:0:0:
416,176,41853,1,8,0:0:0:0:
416,176,42017,1,0,0:0:0:0:
416,176,42345,1,0,0:0:0:0:
416,176,42427,1,0,0:0:0:0:
416,176,42509,1,0,0:0:0:0:
416,176,42836,1,8,0:0:0:0:
416,176,43000,1,0,0:0:0:0:
416,176,43164,1,8,0:0:0:0:
416,176,43328,1,0,0:0:0:0:
416,176,43410,1,0,0:0:0:0:
416,176,43492,1,0,0:0:0:0:
416,176,43820,1,8,0:0:0:0:
416,176,43984,1,0,0:0:0:0:
416,176,44312,1,0,0:0:0:0:
416,176,44476,1,0,0:0:0:0:
416,176,44640,1,0,0:0:0:0:
416,176,44804,1,8,0:0:0:0:
416,176,45131,1,8,0:0:0:0:
416,176,45213,1,8,0:0:0:0:
416,176,45295,1,8,0:0:0:0:
416,176,45623,1,0,0:0:0:0:
416,176,45951,1,8,0:0:0:0:
416,176,46115,1,8,0:0:0:0:
416,176,46279,1,0,0:0:0:0:
416,176,47099,1,8,0:0:0:0:
416,176,47181,1,8,0:0:0:0:
416,176,47263,1,8,0:0:0:0:
416,176,47590,1,0,0:0:0:0:
416,176,47754,1,0,0:0:0:0:
416,176,47918,1,0,0:0:0:0:
416,176,48082,1,8,0:0:0:0:
416,176,48246,1,0,0:0:0:0:
416,176,48574,1,0,0:0:0:0:
416,176,48902,1,0,0:0:0:0:
416,176,49230,1,8,0:0:0:0:
416,176,49722,1,8,0:0:0:0:
416,176,50050,1,8,0:0:0:0:
416,176,50213,1,0,0:0:0:0:
416,176,50541,1,0,0:0:0:0:
416,176,50705,1,0,0:0:0:0:
416,176,50869,1,0,0:0:0:0:
416,176,51033,1,8,0:0:0:0:
416,176,51197,1,8,0:0:0:0:
416,176,51525,1,8,0:0:0:0:
416,176,51689,1,8,0:0:0:0:
416,176,51853,1,0,0:0:0:0:
416,176,52181,1,0,0:0:0:0:
416,176,52509,1,0,0:0:0:0:
416,176,52672,1,0,0:0:0:0:
416,176,52836,1,0,0:0:0:0:
416,176,53000,1,8,0:0:0:0:
416,176,53164,1,8,0:0:0:0:
416,176,53492,1,8,0:0:0:0:
416,176,53656,1,8,0:0:0:0:
416,176,53820,1,8,0:0:0:0:
416,176,53984,1,0,0:0:0:0:
416,176,54148,1,0,0:0:0:0:
416,176,54476,1,0,0:0:0:0:
416,176,54640,1,0,0:0:0:0:
416,176,54804,1,0,0:0:0:0:
416,176,54968,1,0,0:0:0:0:
416,176,55131,1,8,0:0:0:0:
416,176,55459,1,8,0:0:0:0:
416,176,55623,1,8,0:0:0:0:
416,176,55787,1,8,0:0:0:0:
416,176,55951,1,8,0:0:0:0:
416,176,56115,1,8,0:0:0:0:
416,176,56279,1,0,0:0:0:0:
416,176,56443,1,8,0:0:0:0:
416,176,56607,1,8,0:0:0:0:
416,176,56771,1,0,0:0:0:0:
416,176,56935,1,8,0:0:0:0:
416,176,57017,1,8,0:0:0:0:
416,176,57099,1,8,0:0:0:0:
416,176,57262,1,0,0:0:0:0:
416,176,57426,1,8,0:0:0:0:
416,176,57536,1,8,0:0:0:0:
416,176,57645,1,8,0:0:0:0:
416,176,57754,1,8,0:0:0:0:
416,176,57917,1,0,0:0:0:0:
416,176,58081,1,8,0:0:0:0:
416,176,58245,1,8,0:0:0:0:
416,176,58409,1,0,0:0:0:0:
416,176,58573,1,8,0:0:0:0:
416,176,58655,1,8,0:0:0:0:
416,176,58737,1,8,0:0:0:0:
416,176,58900,1,0,0:0:0:0:
416,176,59064,1,8,0:0:0:0:
416,176,59174,1,8,0:0:0:0:
416,176,59283,1,8,0:0:0:0:
416,176,59392,1,8,0:0:0:0:
416,176,59555,1,0,0:0:0:0:
416,176,59719,1,8,0:0:0:0:
416,176,59801,1,8,0:0:0:0:
416,176,59883,1,8,0:0:0:0:
416,176,59965,1,8,0:0:0:0:
416,176,60047,1,8,0:0:0:0:
416,176,60211,1,0,0:0:0:0:
416,176,60375,1,8,0:0:0:0:
416,176,60456,1,8,0:0:0:0:
416,176,60538,1,8,0:0:0:0:
416,176,60620,1,8,0:0:0:0:
416,176,60702,1,0,0:0:0:0:
416,176,60784,1,0,0:0:0:0:
416,176,60866,1,0,0:0:0:0:
416,176,60948,1,0,0:0:0:0:
416,176,61030,1,8,0:0:0:0:
416,176,61139,1,0,0:0:0:0:
416,176,61248,1,8,0:0:0:0:
416,176,61357,1,8,0:0:0:0:
416,176,61467,1,8,0:0:0:0:
416,176,61576,1,8,0:0:0:0:
416,176,61685,1,8,0:0:0:0:
416,176,61795,1,0,0:0:0:0:
416,176,61904,1,8,0:0:0:0:
416,176,62013,1,8,0:0:0:0:
416,176,62122,1,8,0:0:0:0:
416,176,62232,1,8,0:0:0:0:
416,176,62341,1,0,0:0:0:0:
416,176,62450,1,0,0:0:0:0:
416,176,62560,1,0,0:0:0:0:
416,176,62669,1,8,0:0:0:0:
416,176,62778,1,8,0:0:0:0:
416,176,62887,1,8,0:0:0:0:
416,176,62997,1,0,0:0:0:0:
416,176,63161,1,0,0:0:0:0:
416,176,63243,1,0,0:0:0:0:
416,176,63325,1,8,0:0:0:0:
416,176,63489,1,0,0:0:0:0:
416,176,63652,1,0,0:0:0:0:
416,176,63816,1,8,0:0:0:0:
416,176,63980,1,0,0:0:0:0:
416,176,64144,1,8,0:0:0:0:
416,176,64308,1,0,0:0:0:0:
416,176,64472,1,8,0:0:0:0:
416,176,64554,1,8,0:0:0:0:
416,176,64636,1,0,0:0:0:0:
416,176,64964,1,0,0:0:0:0:
416,176,65128,1,0,0:0:0:0:
416,176,65210,1,0,0:0:0:0:
416,176,65292,1,8,0:0:0:0:
416,176,65456,1,8,0:0:0:0:
416,176,65620,1,0,0:0:0:0:
416,176,65784,1,8,0:0:0:0:
416,176,65948,1,8,0:0:0:0:
416,176,66111,1,8,0:0:0:0:
416,176,66275,1,0,0:0:0:0:
416,176,66439,1,8,0:0:0:0:
416,176,66521,1,8,0:0:0:0:
416,176,66603,1,0,0:0:0:0:
416,176,66767,1,8,0:0:0:0:
416,176,66931,1,0,0:0:0:0:
416,176,67095,1,0,0:0:0:0:
416,176,67177,1,0,0:0:0:0:
416,176,67259,1,8,0:0:0:0:
416,176,67423,1,8,0:0:0:0:
416,176,67587,1,0,0:0:0:0:
416,176,67751,1,8,0:0:0:0:
416,176,67915,1,0,0:0:0:0:
416,176,68079,1,0,0:0:0:0:
416,176,68161,1,0,0:0:0:0:
416,176,68243,1,8,0:0:0:0:
416,176,68407,1,0,0:0:0:0:
416,176,68489,1,0,0:0:0:0:
416,176,68570,1,8,0:0:0:0:
416,176,68734,1,8,0:0:0:0:
416,176,68898,1,0,0:0:0:0:
416,176,68980,1,0,0:0:0:0:
416,176,69062,1,0,0:0:0:0:
416,176,69144,1,0,0:0:0:0:
416,176,69226,1,8,0:0:0:0:
416,176,69390,1,8,0:0:0:0:
416,176,69554,1,0,0:0:0:0:
416,176,69718,1,8,0:0:0:0:
416,176,69882,1,0,0:0:0:0:
416,176,70046,1,0,0:0:0:0:
416,176,70210,1,8,0:0:0:0:
416,176,70374,1,0,0:0:0:0:
416,176,70456,1,0,0:0:0:0:
416,176,70538,1,0,0:0:0:0:
416,176,70702,1,8,0:0:0:0:
416,176,70866,1,0,0:0:0:0:
416,176,71030,1,0,0:0:0:0:
416,176,71111,1,0,0:0:0:0:
416,176,71193,1,8,0:0:0:0:
416,176,71357,1,0,0:0:0:0:
416,176,71521,1,8,0:0:0:0:
416,176,71685,1,8,0:0:0:0:
416,176,71849,1,0,0:0:0:0:
416,176,72013,1,8,0:0:0:0:
416,176,72177,1,0,0:0:0:0:
416,176,72341,1,8,0:0:0:0:
416,176,72423,1,8,0:0:0:0:
416,176,72505,1,0,0:0:0:0:
416,176,72833,1,0,0:0:0:0:
416,176,72997,1,0,0:0:0:0:
416,176,73079,1,0,0:0:0:0:
416,176,73161,1,8,0:0:0:0:
416,176,73325,1,8,0:0:0:0:
416,176,73489,1,0,0:0:0:0:
416,176,73652,1,8,0:0:0:0:
416,176,73816,1,8,0:0:0:0:
416,176,73980,1,0,0:0:0:0:
416,176,74062,1,8,0:0:0:0:
416,176,74144,1,8,0:0:0:0:
416,176,74308,1,0,0:0:0:0:
416,176,74472,1,8,0:0:0:0:
416,176,74636,1,0,0:0:0:0:
416,176,74800,1,0,0:0:0:0:
416,176,74964,1,0,0:0:0:0:
416,176,75046,1,0,0:0:0:0:
416,176,75128,1,8,0:0:0:0:
416,176,75292,1,0,0:0:0:0:
416,176,75456,1,8,0:0:0:0:
416,176,75620,1,8,0:0:0:0:
416,176,75784,1,0,0:0:0:0:
416,176,75948,1,0,0:0:0:0:
416,176,76111,1,0,0:0:0:0:
416,176,76275,1,8,0:0:0:0:
416,176,76357,1,8,0:0:0:0:
416,176,76439,1,0,0:0:0:0:
416,176,76603,1,8,0:0:0:0:
416,176,76767,1,0,0:0:0:0:
416,176,76931,1,0,0:0:0:0:
416,176,77013,1,0,0:0:0:0:
416,176,77095,1,8,0:0:0:0:
416,176,77259,1,0,0:0:0:0:
416,176,77423,1,8,0:0:0:0:
416,176,77587,1,8,0:0:0:0:
416,176,77751,1,0,0:0:0:0:
416,176,77915,1,8,0:0:0:0:
416,176,77997,1,8,0:0:0:0:
416,176,78079,1,8,0:0:0:0:
416,176,78243,1,8,0:0:0:0:
416,176,78407,1,0,0:0:0:0:
416,176,78570,1,8,0:0:0:0:
416,176,78652,1,8,0:0:0:0:
416,176,78734,1,0,0:0:0:0:
416,176,79062,1,0,0:0:0:0:
416,176,79390,1,0,0:0:0:0:
416,176,79554,1,0,0:0:0:0:
416,176,79636,1,0,0:0:0:0:
416,176,79718,1,8,0:0:0:0:
416,176,80046,1,8,0:0:0:0:
416,176,80374,1,8,0:0:0:0:
416,176,80538,1,8,0:0:0:0:
416,176,80620,1,8,0:0:0:0:
416,176,80702,1,0,0:0:0:0:
416,176,81030,1,0,0:0:0:0:
416,176,81357,1,0,0:0:0:0:
416,176,81521,1,0,0:0:0:0:
416,176,81685,1,8,0:0:0:0:
416,176,82013,1,8,0:0:0:0:
416,176,82177,1,0,0:0:0:0:
416,176,82341,1,0,0:0:0:0:
416,176,82669,1,0,0:0:0:0:
416,176,83161,1,8,0:0:0:0:
416,176,83325,1,0,0:0:0:0:
416,176,83489,1,8,0:0:0:0:
416,176,83652,1,8,0:0:0:0:
416,176,83980,1,8,0:0:0:0:
416,176,84144,1,0,0:0:0:0:
416,176,84308,1,0,0:0:0:0:
416,176,84472,1,8,0:0:0:0:
416,176,84554,1,8,0:0:0:0:
416,176,84636,1,0,0:0:0:0:
416,176,85128,1,8,0:0:0:0:
416,176,85292,1,0,0:0:0:0:
416,176,85456,1,8,0:0:0:0:
416,176,85538,1,8,0:0:0:0:
416,176,85620,1,0,0:0:0:0:
416,176,86111,1,8,0:0:0:0:
416,176,86193,1,8,0:0:0:0:
416,176,86275,1,0,0:0:0:0:
416,176,86439,1,8,0:0:0:0:
416,176,86521,1,8,0:0:0:0:
416,176,86603,1,0,0:0:0:0:
416,176,86767,1,0,0:0:0:0:
416,176,86931,1,0,0:0:0:0:
416,176,87095,1,8,0:0:0:0:
416,176,87259,1,0,0:0:0:0:
416,176,87587,1,0,0:0:0:0:
416,176,87751,1,8,0:0:0:0:
416,176,87833,1,8,0:0:0:0:
416,176,87915,1,0,0:0:0:0:
416,176,88079,1,8,0:0:0:0:
416,176,88161,1,8,0:0:0:0:
416,176,88243,1,0,0:0:0:0:
416,176,88407,1,8,0:0:0:0:
416,176,88570,1,0,0:0:0:0:
416,176,88734,1,8,0:0:0:0:
416,176,89062,1,8,0:0:0:0:
416,176,89390,1,8,0:0:0:0:
416,176,89718,1,8,0:0:0:0:
416,176,89882,1,8,0:0:0:0:
416,176,90210,1,8,0:0:0:0:
416,176,90292,1,8,0:0:0:0:
416,176,90374,1,8,0:0:0:0:
416,176,90538,1,0,0:0:0:0:
416,176,90866,1,8,0:0:0:0:
416,176,91030,1,8,0:0:0:0:
416,176,91357,1,8,0:0:0:0:
416,176,91439,1,8,0:0:0:0:
416,176,91521,1,8,0:0:0:0:
416,176,91685,1,0,0:0:0:0:
416,176,91849,1,0,0:0:0:0:
416,176,92177,1,0,0:0:0:0:
416,176,92341,1,8,0:0:0:0:
416,176,92505,1,0,0:0:0:0:
416,176,92833,1,0,0:0:0:0:
416,176,92997,1,8,0:0:0:0:
416,176,93325,1,8,0:0:0:0:
416,176,93407,1,8,0:0:0:0:
416,176,93489,1,0,0:0:0:0:
416,176,93652,1,8,0:0:0:0:
416,176,93816,1,0,0:0:0:0:
416,176,94308,1,8,0:0:0:0:
416,176,94472,1,0,0:0:0:0:
416,176,94964,1,8,0:0:0:0:
416,176,95292,1,8,0:0:0:0:
416,176,95374,1,8,0:0:0:0:
416,176,95620,1,8,0:0:0:0:
416,176,95784,1,0,0:0:0:0:
416,176,96275,1,8,0:0:0:0:
416,176,96439,1,0,0:0:0:0:
416,176,96767,1,0,0:0:0:0:
416,176,96931,1,8,0:0:0:0:
416,176,97013,1,8,0:0:0:0:
416,176,97095,1,8,0:0:0:0:
416,176,97259,1,8,0:0:0:0:
416,176,97587,1,8,0:0:0:0:
416,176,97751,1,0,0:0:0:0:
416,176,98079,1,8,0:0:0:0:
416,176,98161,1,8,0:0:0:0:
416,176,98243,1,8,0:0:0:0:
416,176,98407,1,0,0:0:0:0:
416,176,98734,1,0,0:0:0:0:
416,176,99062,1,0,0:0:0:0:
416,176,99390,1,8,0:0:0:0:
416,176,99718,1,0,0:0:0:0:
416,176,100046,1,0,0:0:0:0:
416,176,100210,1,8,0:0:0:0:
416,176,100702,1,0,0:0:0:0:
416,176,101357,1,0,0:0:0:0:
416,176,102013,1,0,0:0:0:0:
416,176,102177,1,8,0:0:0:0:
416,176,102259,1,8,0:0:0:0:
416,176,102341,1,0,0:0:0:0:
416,176,102669,1,0,0:0:0:0:
416,176,102833,1,8,0:0:0:0:
416,176,103161,1,0,0:0:0:0:
416,176,103325,1,8,0:0:0:0:
416,176,103489,1,8,0:0:0:0:
416,176,103652,1,0,0:0:0:0:
416,176,103980,1,0,0:0:0:0:
416,176,104144,1,0,0:0:0:0:
416,176,104308,1,0,0:0:0:0:
416,176,106275,1,8,0:0:0:0:
416,176,108243,1,0,0:0:0:0:
416,176,108407,1,0,0:0:0:0:
416,176,108571,1,0,0:0:0:0:
416,176,108735,1,0,0:0:0:0:
416,176,108817,1,8,0:0:0:0:
416,176,108899,1,0,0:0:0:0:
416,176,109063,1,0,0:0:0:0:
416,176,109227,1,8,0:0:0:0:
416,176,109555,1,8,0:0:0:0:
416,176,109719,1,8,0:0:0:0:
416,176,109801,1,8,0:0:0:0:
416,176,109883,1,0,0:0:0:0:
416,176,110211,1,0,0:0:0:0:
416,176,110375,1,8,0:0:0:0:
416,176,110457,1,8,0:0:0:0:
416,176,110538,1,0,0:0:0:0:
416,176,110702,1,8,0:0:0:0:
416,176,110866,1,0,0:0:0:0:
416,176,111194,1,8,0:0:0:0:
416,176,111522,1,8,0:0:0:0:
416,176,111686,1,8,0:0:0:0:
416,176,111768,1,8,0:0:0:0:
416,176,111850,1,0,0:0:0:0:
416,176,112178,1,0,0:0:0:0:
416,176,112342,1,0,0:0:0:0:
416,176,112670,1,8,0:0:0:0:
416,176,112752,1,8,0:0:0:0:
416,176,112834,1,0,0:0:0:0:
416,176,112998,1,0,0:0:0:0:
416,176,113325,1,8,0:0:0:0:
416,176,113407,1,8,0:0:0:0:
416,176,113489,1,0,0:0:0:0:
416,176,113653,1,0,0:0:0:0:
416,176,113817,1,8,0:0:0:0:
416,176,113926,1,8,0:0:0:0:
416,176,114036,1,8,0:0:0:0:
416,176,114145,1,0,0:0:0:0:
416,176,114309,1,0,0:0:0:0:
416,176,114473,1,8,0:0:0:0:
416,176,114555,1,8,0:0:0:0:
416,176,114637,1,8,0:0:0:0:
416,176,114719,1,8,0:0:0:0:
416,176,114801,1,0,0:0:0:0:
416,176,114965,1,0,0:0:0:0:
416,176,115129,1,8,0:0:0:0:
416,176,115238,1,8,0:0:0:0:
416,176,115347,1,8,0:0:0:0:
416,176,115457,1,0,0:0:0:0:
416,176,115620,1,0,0:0:0:0:
256,192,116440,12,0,118079,0:0:0:0:
