osu file format v14

[General]
AudioFilename: tyoujin.mp3
AudioLeadIn: 0
PreviewTime: -1
Countdown: 1
SampleSet: None
StackLeniency: 0.7
Mode: 1
LetterboxInBreaks: 0
WidescreenStoryboard: 1

[Editor]
DistanceSpacing: 1.3
BeatDivisor: 4
GridSize: 32
TimelineZoom: 1

[Metadata]
Title:Taiko no Tatsujin Blue ver. Dannidouzyou jindani
TitleUnicode:太鼓の達人ブルーver 段位道場 人段位
Artist:Various Artists
ArtistUnicode:Various Artists
Creator:About
Version:tyoujin
Source:
Tags:
BeatmapID:1965281
BeatmapSetID:860968

[Difficulty]
HPDrainRate:6
CircleSize:5
OverallDifficulty:6
ApproachRate:5
SliderMultiplier:1.4
SliderTickRate:1

[Events]
//Background and Video events
//Break Periods
2,87463,91396
2,128630,137790
2,258042,266719
//Storyboard Layer 0 (Background)
//Storyboard Layer 1 (Fail)
//Storyboard Layer 2 (Pass)
//Storyboard Layer 3 (Foreground)
//Storyboard Sound Samples

[TimingPoints]
9240,222.222222222222,4,1,0,100,1,0
9240,-100,4,1,0,100,0,0
66128,-100,4,1,0,100,0,1
94573,-100,4,1,0,100,0,0
108795,-100,4,1,0,100,0,1
123017,-100,4,1,0,100,0,0
142897,461.538461538462,8,1,0,100,1,0
142897,-200,8,1,0,100,0,0
142897,-100,4,1,0,100,0,0
144743,456.829602558246,8,1,0,100,1,0
146571,461.538461538462,8,1,0,100,1,0
146571,-200,8,1,0,100,0,0
190878,-100,8,1,0,100,0,1
220417,-100,8,1,0,100,0,0
227802,-200,8,1,0,100,0,1
242571,-200,8,1,0,100,0,0
246263,-100,8,1,0,100,0,1
275802,-100,8,1,0,100,0,0
293744,300,1,1,0,100,1,0
293744,-100,1,1,0,100,0,0
293744,-100,8,1,0,100,0,0
294044,-100,1,1,0,100,0,0
301244,-25,1,1,0,100,0,0
302444,-100,1,1,0,100,0,0
322844,-66.6666666666667,1,1,0,100,0,1
324044,-66.6666666666667,1,1,0,100,0,1
324944,-66.6666666666667,1,1,0,100,0,1
326144,-66.6666666666667,1,1,0,100,0,1
327044,-66.6666666666667,1,1,0,100,0,1
328244,-66.6666666666667,1,1,0,100,0,1
329144,-66.6666666666667,1,1,0,100,0,1
331544,-100,1,1,0,100,0,0
345944,-200,1,1,0,100,0,0
347744,-200,1,1,0,100,0,0
348944,-100,1,1,0,100,0,0
368144,-66.6666666666667,1,1,0,100,0,0
370544,-100,1,1,0,100,0,1
389744,-100,1,1,0,100,0,0

[HitObjects]
128,128,9240,1,0,0:0:0:0:
128,128,9351,1,0,0:0:0:0:
128,128,9462,1,0,0:0:0:0:
128,128,9573,1,0,0:0:0:0:
128,128,9795,1,0,0:0:0:0:
128,128,9906,1,0,0:0:0:0:
128,128,9980,1,0,0:0:0:0:
128,128,10054,1,0,0:0:0:0:
128,128,10128,5,2,0:0:0:0:
128,128,10240,1,2,0:0:0:0:
128,128,10351,5,0,0:0:0:0:
128,128,10462,1,0,0:0:0:0:
128,128,10573,5,2,0:0:0:0:
128,128,10684,1,2,0:0:0:0:
128,128,10795,5,0,0:0:0:0:
128,128,11017,1,0,0:0:0:0:
128,128,11128,1,0,0:0:0:0:
128,128,11240,1,0,0:0:0:0:
128,128,11351,1,0,0:0:0:0:
128,128,11573,1,0,0:0:0:0:
128,128,11684,1,0,0:0:0:0:
128,128,11906,5,2,0:0:0:0:
128,128,12017,1,2,0:0:0:0:
128,128,12128,5,0,0:0:0:0:
128,128,12240,1,0,0:0:0:0:
128,128,12351,5,2,0:0:0:0:
128,128,12462,1,2,0:0:0:0:
128,128,12573,5,0,0:0:0:0:
128,128,12795,1,0,0:0:0:0:
128,128,12906,1,0,0:0:0:0:
128,128,13017,1,0,0:0:0:0:
128,128,13128,1,0,0:0:0:0:
128,128,13351,1,0,0:0:0:0:
128,128,13462,1,0,0:0:0:0:
128,128,13684,5,2,0:0:0:0:
128,128,13795,1,2,0:0:0:0:
128,128,13906,5,0,0:0:0:0:
128,128,14017,1,0,0:0:0:0:
128,128,14128,5,2,0:0:0:0:
128,128,14240,1,2,0:0:0:0:
128,128,14351,5,0,0:0:0:0:
128,128,14425,1,0,0:0:0:0:
128,128,14499,1,0,0:0:0:0:
128,128,14573,1,0,0:0:0:0:
128,128,14684,1,0,0:0:0:0:
128,128,14795,1,0,0:0:0:0:
128,128,14906,1,0,0:0:0:0:
128,128,15128,1,0,0:0:0:0:
128,128,15240,1,0,0:0:0:0:
128,128,15462,5,2,0:0:0:0:
128,128,15573,1,2,0:0:0:0:
128,128,15684,5,0,0:0:0:0:
128,128,15795,1,0,0:0:0:0:
128,128,15906,5,2,0:0:0:0:
128,128,16017,1,2,0:0:0:0:
128,128,16128,5,0,0:0:0:0:
128,128,16240,1,0,0:0:0:0:
128,128,16351,5,2,0:0:0:0:
128,128,16462,5,0,0:0:0:0:
128,128,16573,1,0,0:0:0:0:
128,128,16684,1,0,0:0:0:0:
128,128,16795,5,2,0:0:0:0:
128,128,16906,5,0,0:0:0:0:
128,128,17128,1,0,0:0:0:0:
128,128,17240,5,2,0:0:0:0:
128,128,17351,5,0,0:0:0:0:
128,128,17462,1,0,0:0:0:0:
128,128,17573,1,0,0:0:0:0:
128,128,17684,5,2,0:0:0:0:
128,128,17906,5,0,0:0:0:0:
128,128,17980,1,0,0:0:0:0:
128,128,18054,1,0,0:0:0:0:
128,128,18128,5,2,0:0:0:0:
128,128,18240,5,0,0:0:0:0:
128,128,18351,1,0,0:0:0:0:
128,128,18462,1,0,0:0:0:0:
128,128,18573,5,2,0:0:0:0:
128,128,18684,5,0,0:0:0:0:
128,128,18906,1,0,0:0:0:0:
128,128,19017,5,2,0:0:0:0:
128,128,19128,5,0,0:0:0:0:
128,128,19240,1,0,0:0:0:0:
128,128,19351,1,0,0:0:0:0:
128,128,19462,5,2,0:0:0:0:
128,128,19573,1,2,0:0:0:0:
128,128,19684,5,0,0:0:0:0:
128,128,19906,5,2,0:0:0:0:
128,128,20017,5,0,0:0:0:0:
128,128,20128,1,0,0:0:0:0:
128,128,20240,1,0,0:0:0:0:
128,128,20351,5,2,0:0:0:0:
128,128,20462,5,0,0:0:0:0:
128,128,20684,1,0,0:0:0:0:
128,128,20795,5,2,0:0:0:0:
128,128,20906,5,0,0:0:0:0:
128,128,21017,1,0,0:0:0:0:
128,128,21128,1,0,0:0:0:0:
128,128,21240,5,2,0:0:0:0:
128,128,21351,5,0,0:0:0:0:
128,128,21462,1,0,0:0:0:0:
128,128,21536,1,0,0:0:0:0:
128,128,21610,1,0,0:0:0:0:
128,128,21684,5,2,0:0:0:0:
128,128,21795,1,2,0:0:0:0:
128,128,21906,5,0,0:0:0:0:
128,128,22017,5,2,0:0:0:0:
128,128,22128,5,0,0:0:0:0:
128,128,22240,5,2,0:0:0:0:
128,128,22351,5,0,0:0:0:0:
128,128,22462,1,0,0:0:0:0:
128,128,22573,5,2,0:0:0:0:
128,128,22684,1,2,0:0:0:0:
128,128,22795,5,0,0:0:0:0:
128,128,22906,5,2,0:0:0:0:
128,128,23017,5,0,0:0:0:0:
128,128,23240,1,0,0:0:0:0:
128,128,23351,5,2,0:0:0:0:
128,128,23573,1,2,0:0:0:0:
128,128,23684,5,0,0:0:0:0:
128,128,23795,1,0,0:0:0:0:
128,128,23906,5,2,0:0:0:0:
128,128,24017,1,2,0:0:0:0:
128,128,24128,5,0,0:0:0:0:
128,128,24240,1,0,0:0:0:0:
128,128,24351,5,2,0:0:0:0:
128,128,24462,5,0,0:0:0:0:
128,128,24573,1,0,0:0:0:0:
128,128,24684,5,2,0:0:0:0:
128,128,24906,1,2,0:0:0:0:
128,128,25128,1,2,0:0:0:0:
128,128,25351,5,0,0:0:0:0:
128,128,25462,1,0,0:0:0:0:
128,128,25573,1,0,0:0:0:0:
128,128,25628,1,0,0:0:0:0:
128,128,25684,1,0,0:0:0:0:
128,128,25795,5,2,0:0:0:0:
128,128,25906,5,0,0:0:0:0:
128,128,26017,1,0,0:0:0:0:
128,128,26128,1,0,0:0:0:0:
128,128,26240,1,0,0:0:0:0:
128,128,26295,1,0,0:0:0:0:
128,128,26351,5,2,0:0:0:0:
128,128,26462,1,2,0:0:0:0:
128,128,26573,5,0,0:0:0:0:
128,128,26684,5,2,0:0:0:0:
128,128,26795,5,0,0:0:0:0:
128,128,26906,5,6,0:0:0:0:
128,128,27240,1,6,0:0:0:0:
128,128,27462,5,0,0:0:0:0:
128,128,27517,1,0,0:0:0:0:
128,128,27573,1,0,0:0:0:0:
128,128,27628,1,0,0:0:0:0:
128,128,27684,5,2,0:0:0:0:
128,128,27906,1,2,0:0:0:0:
128,128,28017,5,0,0:0:0:0:
128,128,28128,5,2,0:0:0:0:
128,128,28240,5,0,0:0:0:0:
128,128,28351,5,2,0:0:0:0:
128,128,28462,5,0,0:0:0:0:
128,128,28573,1,0,0:0:0:0:
128,128,28684,5,2,0:0:0:0:
128,128,28906,1,2,0:0:0:0:
128,128,29017,5,0,0:0:0:0:
128,128,29128,5,2,0:0:0:0:
128,128,29240,5,0,0:0:0:0:
128,128,29351,5,2,0:0:0:0:
128,128,29462,5,0,0:0:0:0:
128,128,29573,5,2,0:0:0:0:
128,128,29684,5,0,0:0:0:0:
128,128,29795,1,0,0:0:0:0:
128,128,29906,5,2,0:0:0:0:
128,128,30017,1,2,0:0:0:0:
128,128,30128,5,0,0:0:0:0:
128,128,30184,1,0,0:0:0:0:
128,128,30240,1,0,0:0:0:0:
128,128,30295,1,0,0:0:0:0:
128,128,30351,5,2,0:0:0:0:
128,128,30462,1,2,0:0:0:0:
128,128,30573,5,0,0:0:0:0:
128,128,30795,5,2,0:0:0:0:
128,128,30906,5,0,0:0:0:0:
128,128,31017,1,0,0:0:0:0:
128,128,31128,1,0,0:0:0:0:
128,128,31184,1,0,0:0:0:0:
128,128,31240,5,2,0:0:0:0:
128,128,32351,5,0,0:0:0:0:
128,128,32573,5,2,0:0:0:0:
128,128,32795,5,0,0:0:0:0:
128,128,32906,1,0,0:0:0:0:
128,128,33017,5,2,0:0:0:0:
128,128,33240,5,0,0:0:0:0:
128,128,33462,5,2,0:0:0:0:
128,128,33684,5,0,0:0:0:0:
128,128,33795,1,0,0:0:0:0:
128,128,33906,5,2,0:0:0:0:
128,128,34017,5,0,0:0:0:0:
128,128,34351,5,2,0:0:0:0:
128,128,34573,5,0,0:0:0:0:
128,128,34684,1,0,0:0:0:0:
128,128,34795,5,2,0:0:0:0:
128,128,35017,5,0,0:0:0:0:
128,128,35073,1,0,0:0:0:0:
128,128,35128,1,0,0:0:0:0:
128,128,35240,5,2,0:0:0:0:
128,128,35351,5,0,0:0:0:0:
128,128,35462,1,0,0:0:0:0:
128,128,35517,1,0,0:0:0:0:
128,128,35573,1,0,0:0:0:0:
128,128,35684,5,2,0:0:0:0:
128,128,35906,5,0,0:0:0:0:
128,128,36128,5,2,0:0:0:0:
128,128,36351,5,0,0:0:0:0:
128,128,36462,1,0,0:0:0:0:
128,128,36573,5,2,0:0:0:0:
128,128,36795,5,0,0:0:0:0:
128,128,37017,5,2,0:0:0:0:
128,128,37240,5,0,0:0:0:0:
128,128,37351,1,0,0:0:0:0:
128,128,37462,5,2,0:0:0:0:
128,128,37573,5,0,0:0:0:0:
128,128,37906,5,2,0:0:0:0:
128,128,38128,1,2,0:0:0:0:
128,128,38351,1,2,0:0:0:0:
128,128,38573,5,0,0:0:0:0:
128,128,38684,1,0,0:0:0:0:
128,128,38795,1,0,0:0:0:0:
128,128,38906,1,0,0:0:0:0:
128,128,39017,1,0,0:0:0:0:
128,128,39128,1,0,0:0:0:0:
128,128,39240,1,0,0:0:0:0:
128,128,39295,1,0,0:0:0:0:
128,128,39351,1,0,0:0:0:0:
128,128,39406,1,0,0:0:0:0:
128,128,39462,5,2,0:0:0:0:
128,128,39684,1,2,0:0:0:0:
128,128,39906,5,0,0:0:0:0:
128,128,40017,1,0,0:0:0:0:
128,128,40128,5,2,0:0:0:0:
128,128,40351,5,0,0:0:0:0:
128,128,40573,5,2,0:0:0:0:
128,128,40795,5,0,0:0:0:0:
128,128,40906,1,0,0:0:0:0:
128,128,41017,5,2,0:0:0:0:
128,128,41128,5,0,0:0:0:0:
128,128,41462,5,2,0:0:0:0:
128,128,41684,5,0,0:0:0:0:
128,128,41795,1,0,0:0:0:0:
128,128,41906,5,2,0:0:0:0:
128,128,42128,5,0,0:0:0:0:
128,128,42184,1,0,0:0:0:0:
128,128,42240,1,0,0:0:0:0:
128,128,42351,5,2,0:0:0:0:
128,128,42462,5,0,0:0:0:0:
128,128,42573,1,0,0:0:0:0:
128,128,42628,1,0,0:0:0:0:
128,128,42684,1,0,0:0:0:0:
128,128,42795,5,2,0:0:0:0:
128,128,43017,1,6,0:0:0:0:
128,128,43240,5,0,0:0:0:0:
128,128,43351,1,0,0:0:0:0:
128,128,43462,1,0,0:0:0:0:
128,128,43573,1,0,0:0:0:0:
128,128,43684,1,0,0:0:0:0:
128,128,43795,1,0,0:0:0:0:
128,128,43906,5,2,0:0:0:0:
128,128,44128,5,0,0:0:0:0:
128,128,44240,5,2,0:0:0:0:
128,128,44351,1,2,0:0:0:0:
128,128,44406,1,2,0:0:0:0:
128,128,44462,5,0,0:0:0:0:
128,128,44684,5,6,0:0:0:0:
128,128,45017,1,6,0:0:0:0:
128,128,45351,1,6,0:0:0:0:
128,128,45684,1,6,0:0:0:0:
128,128,46017,1,6,0:0:0:0:
128,128,46351,1,6,0:0:0:0:
128,128,46573,5,0,0:0:0:0:
128,128,46795,5,2,0:0:0:0:
128,128,46906,5,0,0:0:0:0:
128,128,47128,5,2,0:0:0:0:
128,128,47240,5,0,0:0:0:0:
128,128,47351,5,2,0:0:0:0:
128,128,47462,5,0,0:0:0:0:
128,128,47684,5,2,0:0:0:0:
128,128,47795,5,0,0:0:0:0:
128,128,47851,1,0,0:0:0:0:
128,128,47906,1,0,0:0:0:0:
128,128,48017,5,2,0:0:0:0:
128,128,48128,5,0,0:0:0:0:
128,128,48184,1,0,0:0:0:0:
128,128,48240,1,0,0:0:0:0:
128,128,48351,5,2,0:0:0:0:
128,128,48573,5,0,0:0:0:0:
128,128,48628,1,0,0:0:0:0:
128,128,48684,5,2,0:0:0:0:
128,128,48795,5,0,0:0:0:0:
128,128,48906,1,0,0:0:0:0:
128,128,49017,5,2,0:0:0:0:
128,128,49128,1,2,0:0:0:0:
128,128,49240,5,0,0:0:0:0:
128,128,49462,5,2,0:0:0:0:
128,128,49573,5,0,0:0:0:0:
128,128,49795,5,2,0:0:0:0:
128,128,49906,5,0,0:0:0:0:
128,128,50017,5,2,0:0:0:0:
128,128,50128,5,0,0:0:0:0:
128,128,50351,5,2,0:0:0:0:
128,128,50462,5,0,0:0:0:0:
128,128,50517,1,0,0:0:0:0:
128,128,50573,1,0,0:0:0:0:
128,128,50684,5,2,0:0:0:0:
128,128,50795,5,0,0:0:0:0:
128,128,50851,1,0,0:0:0:0:
128,128,50906,1,0,0:0:0:0:
128,128,51017,5,2,0:0:0:0:
128,128,51240,5,0,0:0:0:0:
128,128,51351,5,2,0:0:0:0:
128,128,51462,5,0,0:0:0:0:
128,128,51517,1,0,0:0:0:0:
128,128,51573,1,0,0:0:0:0:
128,128,51628,1,0,0:0:0:0:
128,128,51684,5,2,0:0:0:0:
128,128,51795,1,2,0:0:0:0:
128,128,51906,5,0,0:0:0:0:
128,128,52128,5,2,0:0:0:0:
128,128,52240,5,0,0:0:0:0:
128,128,52462,5,2,0:0:0:0:
128,128,52573,5,0,0:0:0:0:
128,128,52684,5,2,0:0:0:0:
128,128,52795,5,0,0:0:0:0:
128,128,53017,5,2,0:0:0:0:
128,128,53128,5,0,0:0:0:0:
128,128,53184,1,0,0:0:0:0:
128,128,53240,1,0,0:0:0:0:
128,128,53351,5,2,0:0:0:0:
128,128,53462,5,0,0:0:0:0:
128,128,53517,1,0,0:0:0:0:
128,128,53573,1,0,0:0:0:0:
128,128,53684,5,2,0:0:0:0:
128,128,53906,5,0,0:0:0:0:
128,128,53962,1,0,0:0:0:0:
128,128,54017,5,2,0:0:0:0:
128,128,54128,5,0,0:0:0:0:
128,128,54240,1,0,0:0:0:0:
128,128,54351,5,2,0:0:0:0:
128,128,54462,1,2,0:0:0:0:
128,128,54573,5,0,0:0:0:0:
128,128,54795,5,2,0:0:0:0:
128,128,54906,5,0,0:0:0:0:
128,128,55128,5,2,0:0:0:0:
128,128,55240,5,0,0:0:0:0:
128,128,55351,5,2,0:0:0:0:
128,128,55462,5,0,0:0:0:0:
128,128,55684,5,2,0:0:0:0:
128,128,55795,5,0,0:0:0:0:
128,128,55851,1,0,0:0:0:0:
128,128,55906,1,0,0:0:0:0:
128,128,56017,5,2,0:0:0:0:
128,128,56128,5,0,0:0:0:0:
128,128,56184,1,0,0:0:0:0:
128,128,56240,1,0,0:0:0:0:
128,128,56351,5,2,0:0:0:0:
128,128,56573,5,0,0:0:0:0:
128,128,56684,5,2,0:0:0:0:
128,128,56795,5,0,0:0:0:0:
128,128,56851,1,0,0:0:0:0:
128,128,56906,1,0,0:0:0:0:
128,128,56962,1,0,0:0:0:0:
128,128,57017,5,2,0:0:0:0:
128,128,57128,5,0,0:0:0:0:
128,128,57240,5,2,0:0:0:0:
128,128,57462,5,0,0:0:0:0:
128,128,57684,5,2,0:0:0:0:
128,128,57758,1,2,0:0:0:0:
128,128,57906,5,0,0:0:0:0:
128,128,58128,5,2,0:0:0:0:
128,128,58351,5,0,0:0:0:0:
128,128,58573,5,2,0:0:0:0:
128,128,58647,1,2,0:0:0:0:
128,128,58795,5,0,0:0:0:0:
128,128,59017,5,2,0:0:0:0:
128,128,59240,5,0,0:0:0:0:
128,128,59462,5,2,0:0:0:0:
128,128,59536,1,2,0:0:0:0:
128,128,59684,5,0,0:0:0:0:
128,128,59906,5,6,0:0:0:0:
128,128,60128,5,0,0:0:0:0:
128,128,60351,5,2,0:0:0:0:
128,128,60425,1,2,0:0:0:0:
128,128,60573,5,0,0:0:0:0:
128,128,60795,5,6,0:0:0:0:
128,128,61017,5,0,0:0:0:0:
128,128,61128,1,0,0:0:0:0:
128,128,61240,1,0,0:0:0:0:
128,128,61351,1,0,0:0:0:0:
128,128,61462,1,0,0:0:0:0:
128,128,61573,1,0,0:0:0:0:
128,128,61684,5,2,0:0:0:0:
128,128,61740,1,2,0:0:0:0:
128,128,61795,1,2,0:0:0:0:
128,128,61906,5,0,0:0:0:0:
128,128,62017,5,2,0:0:0:0:
128,128,62128,5,0,0:0:0:0:
128,128,62184,1,0,0:0:0:0:
128,128,62240,1,0,0:0:0:0:
128,128,62351,5,2,0:0:0:0:
128,128,62462,5,0,0:0:0:0:
128,128,62573,5,6,0:0:0:0:
128,128,62795,5,0,0:0:0:0:
128,128,62906,1,0,0:0:0:0:
128,128,63017,5,2,0:0:0:0:
128,128,63128,1,2,0:0:0:0:
128,128,63184,1,2,0:0:0:0:
128,128,63240,5,0,0:0:0:0:
128,128,63351,5,2,0:0:0:0:
128,128,63573,1,2,0:0:0:0:
128,128,63684,5,0,0:0:0:0:
128,128,63795,1,0,0:0:0:0:
128,128,63906,5,2,0:0:0:0:
128,128,64017,1,2,0:0:0:0:
128,128,64073,1,2,0:0:0:0:
128,128,64128,5,0,0:0:0:0:
128,128,64240,5,2,0:0:0:0:
128,128,64462,1,2,0:0:0:0:
128,128,64573,5,0,0:0:0:0:
128,128,64684,1,0,0:0:0:0:
128,128,64795,1,0,0:0:0:0:
128,128,64851,1,0,0:0:0:0:
128,128,64906,1,0,0:0:0:0:
128,128,65017,1,0,0:0:0:0:
256,192,65128,12,0,65906,0:0:0:0:
128,128,66017,5,6,0:0:0:0:
128,128,66240,5,0,0:0:0:0:
128,128,66351,5,2,0:0:0:0:
128,128,66462,5,2,0:0:0:0:
128,128,66573,5,0,0:0:0:0:
128,128,66684,5,2,0:0:0:0:
128,128,66795,5,0,0:0:0:0:
128,128,66906,5,2,0:0:0:0:
128,128,67017,5,0,0:0:0:0:
128,128,67128,1,0,0:0:0:0:
128,128,67240,5,2,0:0:0:0:
128,128,67351,1,2,0:0:0:0:
128,128,67462,5,0,0:0:0:0:
128,128,67573,5,2,0:0:0:0:
128,128,67684,5,0,0:0:0:0:
128,128,67740,1,0,0:0:0:0:
128,128,67795,5,2,0:0:0:0:
128,128,68017,5,0,0:0:0:0:
128,128,68128,5,2,0:0:0:0:
128,128,68240,1,2,0:0:0:0:
128,128,68351,5,0,0:0:0:0:
128,128,68462,5,2,0:0:0:0:
128,128,68573,5,0,0:0:0:0:
128,128,68684,5,2,0:0:0:0:
128,128,68740,1,2,0:0:0:0:
128,128,68795,5,0,0:0:0:0:
128,128,68906,5,2,0:0:0:0:
128,128,69017,5,0,0:0:0:0:
128,128,69128,5,2,0:0:0:0:
128,128,69240,5,0,0:0:0:0:
128,128,69351,5,2,0:0:0:0:
128,128,69406,1,2,0:0:0:0:
128,128,69462,5,0,0:0:0:0:
128,128,69573,5,2,0:0:0:0:
128,128,69795,5,0,0:0:0:0:
128,128,69906,5,2,0:0:0:0:
128,128,70128,5,0,0:0:0:0:
128,128,70351,1,0,0:0:0:0:
128,128,70406,1,0,0:0:0:0:
128,128,70462,1,0,0:0:0:0:
128,128,70517,1,0,0:0:0:0:
128,128,70573,1,0,0:0:0:0:
128,128,70684,1,0,0:0:0:0:
128,128,70795,5,2,0:0:0:0:
128,128,70906,1,2,0:0:0:0:
128,128,71017,5,0,0:0:0:0:
128,128,71128,1,0,0:0:0:0:
128,128,71240,5,2,0:0:0:0:
128,128,71295,1,2,0:0:0:0:
128,128,71351,1,2,0:0:0:0:
128,128,71406,1,2,0:0:0:0:
128,128,71462,5,0,0:0:0:0:
128,128,71573,1,0,0:0:0:0:
128,128,71684,5,2,0:0:0:0:
128,128,71795,1,2,0:0:0:0:
128,128,71906,5,0,0:0:0:0:
128,128,72017,5,2,0:0:0:0:
128,128,72128,1,2,0:0:0:0:
128,128,72184,1,2,0:0:0:0:
128,128,72240,1,2,0:0:0:0:
128,128,72295,1,2,0:0:0:0:
128,128,72351,5,0,0:0:0:0:
128,128,72462,1,0,0:0:0:0:
128,128,72573,5,2,0:0:0:0:
128,128,72684,1,2,0:0:0:0:
128,128,72795,5,0,0:0:0:0:
128,128,72906,5,2,0:0:0:0:
128,128,72962,1,2,0:0:0:0:
128,128,73017,5,0,0:0:0:0:
128,128,73128,5,2,0:0:0:0:
128,128,73351,5,0,0:0:0:0:
128,128,73462,5,2,0:0:0:0:
128,128,73684,5,0,0:0:0:0:
128,128,73906,1,0,0:0:0:0:
128,128,73962,1,0,0:0:0:0:
128,128,74017,1,0,0:0:0:0:
128,128,74073,1,0,0:0:0:0:
128,128,74128,1,0,0:0:0:0:
128,128,74240,1,0,0:0:0:0:
128,128,74351,5,2,0:0:0:0:
128,128,74462,1,2,0:0:0:0:
128,128,74573,5,0,0:0:0:0:
128,128,74684,5,2,0:0:0:0:
128,128,74795,5,0,0:0:0:0:
128,128,74851,1,0,0:0:0:0:
128,128,74906,5,2,0:0:0:0:
128,128,75128,5,0,0:0:0:0:
128,128,75240,5,2,0:0:0:0:
128,128,75462,5,0,0:0:0:0:
128,128,75573,5,2,0:0:0:0:
128,128,75684,5,0,0:0:0:0:
128,128,75795,5,2,0:0:0:0:
128,128,75851,1,2,0:0:0:0:
128,128,75906,5,0,0:0:0:0:
128,128,76017,5,2,0:0:0:0:
128,128,76128,5,0,0:0:0:0:
128,128,76240,5,2,0:0:0:0:
128,128,76351,5,0,0:0:0:0:
128,128,76462,5,2,0:0:0:0:
128,128,76573,5,0,0:0:0:0:
128,128,76628,1,0,0:0:0:0:
128,128,76684,5,2,0:0:0:0:
128,128,76906,5,0,0:0:0:0:
128,128,77017,5,2,0:0:0:0:
128,128,77240,5,0,0:0:0:0:
128,128,77462,1,0,0:0:0:0:
128,128,77517,1,0,0:0:0:0:
128,128,77573,1,0,0:0:0:0:
128,128,77628,1,0,0:0:0:0:
128,128,77684,1,0,0:0:0:0:
128,128,77795,1,0,0:0:0:0:
128,128,77906,5,2,0:0:0:0:
128,128,78017,1,2,0:0:0:0:
128,128,78128,5,0,0:0:0:0:
128,128,78240,1,0,0:0:0:0:
128,128,78351,1,0,0:0:0:0:
128,128,78406,1,0,0:0:0:0:
128,128,78462,5,2,0:0:0:0:
128,128,78684,1,2,0:0:0:0:
128,128,78795,5,0,0:0:0:0:
128,128,78906,5,2,0:0:0:0:
128,128,79017,5,0,0:0:0:0:
128,128,79128,5,2,0:0:0:0:
128,128,79240,5,0,0:0:0:0:
128,128,79295,1,0,0:0:0:0:
128,128,79351,1,0,0:0:0:0:
128,128,79406,1,0,0:0:0:0:
128,128,79462,1,0,0:0:0:0:
128,128,79573,5,2,0:0:0:0:
128,128,79684,5,0,0:0:0:0:
128,128,79795,5,2,0:0:0:0:
128,128,79906,5,0,0:0:0:0:
128,128,79962,1,0,0:0:0:0:
128,128,80017,5,2,0:0:0:0:
128,128,80073,1,2,0:0:0:0:
128,128,80128,5,0,0:0:0:0:
128,128,80240,5,2,0:0:0:0:
128,128,80462,1,2,0:0:0:0:
128,128,80573,5,0,0:0:0:0:
128,128,80684,5,2,0:0:0:0:
128,128,80740,1,2,0:0:0:0:
128,128,80795,5,0,0:0:0:0:
128,128,80906,5,2,0:0:0:0:
128,128,80962,1,2,0:0:0:0:
128,128,81017,5,0,0:0:0:0:
128,128,81073,1,0,0:0:0:0:
128,128,81128,5,2,0:0:0:0:
128,128,81240,5,0,0:0:0:0:
128,128,81351,5,2,0:0:0:0:
128,128,81406,1,2,0:0:0:0:
128,128,81462,5,0,0:0:0:0:
128,128,81573,5,6,0:0:0:0:
128,128,81795,1,6,0:0:0:0:
128,128,82017,1,6,0:0:0:0:
128,128,82240,1,2,0:0:0:0:
128,128,82351,5,0,0:0:0:0:
128,128,82462,1,0,0:0:0:0:
128,128,82573,1,0,0:0:0:0:
128,128,82684,5,2,0:0:0:0:
128,128,82795,1,2,0:0:0:0:
128,128,82906,1,2,0:0:0:0:
128,128,83017,5,0,0:0:0:0:
128,128,83128,1,0,0:0:0:0:
128,128,83240,5,2,0:0:0:0:
128,128,83351,1,2,0:0:0:0:
128,128,83462,5,0,0:0:0:0:
128,128,83573,5,2,0:0:0:0:
128,128,83684,5,0,0:0:0:0:
128,128,83795,5,2,0:0:0:0:
128,128,84017,5,0,0:0:0:0:
128,128,84128,5,2,0:0:0:0:
128,128,84351,5,0,0:0:0:0:
128,128,84406,1,0,0:0:0:0:
128,128,84462,1,0,0:0:0:0:
128,128,84517,1,0,0:0:0:0:
128,128,84573,5,2,0:0:0:0:
128,128,84795,5,0,0:0:0:0:
128,128,84906,1,0,0:0:0:0:
128,128,85017,5,2,0:0:0:0:
128,128,85240,5,0,0:0:0:0:
128,128,85351,5,2,0:0:0:0:
128,128,85462,5,0,0:0:0:0:
128,128,85517,1,0,0:0:0:0:
128,128,85573,5,2,0:0:0:0:
128,128,85795,5,0,0:0:0:0:
128,128,85906,5,2,0:0:0:0:
128,128,86017,1,2,0:0:0:0:
128,128,86128,5,0,0:0:0:0:
128,128,86240,5,2,0:0:0:0:
128,128,86351,5,0,0:0:0:0:
128,128,86406,1,0,0:0:0:0:
128,128,86462,5,2,0:0:0:0:
128,128,86573,5,0,0:0:0:0:
128,128,86628,1,0,0:0:0:0:
128,128,86684,1,0,0:0:0:0:
128,128,86740,1,0,0:0:0:0:
128,128,86795,5,2,0:0:0:0:
128,128,86851,1,2,0:0:0:0:
128,128,86906,1,2,0:0:0:0:
128,128,86962,1,2,0:0:0:0:
128,128,87017,5,0,0:0:0:0:
128,128,87128,1,0,0:0:0:0:
128,128,87240,1,0,0:0:0:0:
128,128,87351,5,2,0:0:0:0:
128,128,87573,1,2,0:0:0:0:
128,128,87684,5,0,0:0:0:0:
128,128,87795,1,0,0:0:0:0:
128,128,87851,1,0,0:0:0:0:
128,128,87906,5,2,0:0:0:0:
128,128,88017,1,2,0:0:0:0:
128,128,88073,1,2,0:0:0:0:
128,128,88128,5,0,0:0:0:0:
128,128,88240,5,2,0:0:0:0:
128,128,88351,5,0,0:0:0:0:
128,128,88462,5,2,0:0:0:0:
128,128,88517,1,2,0:0:0:0:
128,128,88573,5,0,0:0:0:0:
128,128,88684,5,2,0:0:0:0:
128,128,88795,5,0,0:0:0:0:
128,128,88906,5,2,0:0:0:0:
128,128,88962,1,2,0:0:0:0:
128,128,89017,5,0,0:0:0:0:
128,128,89128,5,2,0:0:0:0:
128,128,89240,5,0,0:0:0:0:
128,128,89351,1,0,0:0:0:0:
128,128,89462,1,0,0:0:0:0:
128,128,89573,5,2,0:0:0:0:
128,128,89684,5,0,0:0:0:0:
128,128,89795,5,2,0:0:0:0:
128,128,89906,5,0,0:0:0:0:
128,128,90017,5,2,0:0:0:0:
128,128,90073,1,2,0:0:0:0:
128,128,90128,5,0,0:0:0:0:
128,128,90240,5,2,0:0:0:0:
128,128,90351,5,0,0:0:0:0:
128,128,90462,5,2,0:0:0:0:
128,128,90517,1,2,0:0:0:0:
128,128,90573,5,0,0:0:0:0:
128,128,90684,1,0,0:0:0:0:
128,128,90795,1,0,0:0:0:0:
256,192,90906,12,0,91573,0:0:0:0:
128,128,91684,5,0,0:0:0:0:
128,128,91740,1,0,0:0:0:0:
128,128,91795,1,0,0:0:0:0:
128,128,91851,1,0,0:0:0:0:
128,128,91906,1,0,0:0:0:0:
128,128,92128,5,2,0:0:0:0:
128,128,92240,1,2,0:0:0:0:
128,128,92351,5,0,0:0:0:0:
128,128,92462,1,0,0:0:0:0:
128,128,92573,1,0,0:0:0:0:
128,128,92684,5,6,0:0:0:0:
128,128,93240,1,6,0:0:0:0:
128,128,93684,1,6,0:0:0:0:
128,128,93906,5,4,0:0:0:0:
128,128,94128,5,6,0:0:0:0:
128,128,94351,5,4,0:0:0:0:
128,128,94573,5,6,0:0:0:0:
128,128,95462,1,2,0:0:0:0:
128,128,95906,1,2,0:0:0:0:
128,128,96128,1,2,0:0:0:0:
128,128,96351,1,6,0:0:0:0:
128,128,96795,1,2,0:0:0:0:
128,128,97240,1,2,0:0:0:0:
128,128,97684,1,2,0:0:0:0:
128,128,97906,1,2,0:0:0:0:
128,128,98128,1,6,0:0:0:0:
128,128,98573,1,2,0:0:0:0:
128,128,99017,1,2,0:0:0:0:
128,128,99462,1,2,0:0:0:0:
128,128,99906,5,0,0:0:0:0:
128,128,100128,1,0,0:0:0:0:
128,128,100240,1,0,0:0:0:0:
128,128,100295,1,0,0:0:0:0:
128,128,100351,1,0,0:0:0:0:
128,128,100462,1,0,0:0:0:0:
128,128,100517,1,0,0:0:0:0:
128,128,100573,1,0,0:0:0:0:
128,128,100684,1,0,0:0:0:0:
128,128,100795,5,2,0:0:0:0:
128,128,100906,5,0,0:0:0:0:
128,128,101017,5,2,0:0:0:0:
128,128,101128,5,0,0:0:0:0:
128,128,101240,5,2,0:0:0:0:
128,128,101295,1,2,0:0:0:0:
128,128,101351,5,0,0:0:0:0:
128,128,101406,1,0,0:0:0:0:
128,128,101462,1,0,0:0:0:0:
128,128,101573,5,2,0:0:0:0:
128,128,101795,1,2,0:0:0:0:
128,128,101906,5,0,0:0:0:0:
128,128,101962,1,0,0:0:0:0:
128,128,102017,1,0,0:0:0:0:
128,128,102128,5,2,0:0:0:0:
128,128,102240,1,2,0:0:0:0:
128,128,102351,5,0,0:0:0:0:
128,128,102462,1,0,0:0:0:0:
128,128,102573,5,2,0:0:0:0:
128,128,102684,1,2,0:0:0:0:
128,128,102795,5,0,0:0:0:0:
128,128,102851,1,0,0:0:0:0:
128,128,102906,1,0,0:0:0:0:
128,128,103017,5,2,0:0:0:0:
128,128,103128,1,2,0:0:0:0:
128,128,103240,5,0,0:0:0:0:
128,128,103351,5,2,0:0:0:0:
128,128,103573,1,2,0:0:0:0:
128,128,103684,5,0,0:0:0:0:
128,128,103740,1,0,0:0:0:0:
128,128,103795,1,0,0:0:0:0:
128,128,103906,5,2,0:0:0:0:
128,128,104017,1,2,0:0:0:0:
128,128,104128,5,0,0:0:0:0:
128,128,104184,1,0,0:0:0:0:
128,128,104240,1,0,0:0:0:0:
128,128,104351,5,2,0:0:0:0:
128,128,104462,1,2,0:0:0:0:
128,128,104573,5,0,0:0:0:0:
128,128,104628,1,0,0:0:0:0:
128,128,104684,1,0,0:0:0:0:
128,128,104795,5,2,0:0:0:0:
128,128,104906,1,2,0:0:0:0:
128,128,104962,1,2,0:0:0:0:
128,128,105017,5,0,0:0:0:0:
128,128,105128,5,2,0:0:0:0:
128,128,105351,1,2,0:0:0:0:
128,128,105462,5,0,0:0:0:0:
128,128,105517,1,0,0:0:0:0:
128,128,105573,1,0,0:0:0:0:
128,128,105684,5,2,0:0:0:0:
128,128,105795,1,2,0:0:0:0:
128,128,105906,5,0,0:0:0:0:
128,128,105962,1,0,0:0:0:0:
128,128,106017,1,0,0:0:0:0:
128,128,106128,5,2,0:0:0:0:
128,128,106240,1,2,0:0:0:0:
128,128,106351,5,0,0:0:0:0:
128,128,106406,1,0,0:0:0:0:
128,128,106462,1,0,0:0:0:0:
128,128,106573,5,2,0:0:0:0:
128,128,106684,1,2,0:0:0:0:
128,128,106740,1,2,0:0:0:0:
128,128,106795,5,0,0:0:0:0:
128,128,106906,5,2,0:0:0:0:
128,128,107128,1,2,0:0:0:0:
128,128,107240,5,0,0:0:0:0:
128,128,107351,5,2,0:0:0:0:
128,128,107462,5,0,0:0:0:0:
128,128,107573,5,2,0:0:0:0:
128,128,107684,5,0,0:0:0:0:
128,128,107795,5,2,0:0:0:0:
128,128,107906,5,4,0:0:0:0:
128,128,108128,1,4,0:0:0:0:
128,128,108351,2,4,L|256:256,1,209.79
128,128,108795,1,0,0:0:0:0:
128,128,108906,1,0,0:0:0:0:
128,128,109017,5,2,0:0:0:0:
128,128,109128,5,0,0:0:0:0:
128,128,109351,1,0,0:0:0:0:
128,128,109462,5,2,0:0:0:0:
128,128,109573,1,2,0:0:0:0:
128,128,109684,5,0,0:0:0:0:
128,128,109795,1,0,0:0:0:0:
128,128,109906,5,2,0:0:0:0:
128,128,110017,5,0,0:0:0:0:
128,128,110240,5,2,0:0:0:0:
128,128,110351,1,2,0:0:0:0:
128,128,110573,5,0,0:0:0:0:
128,128,110684,1,0,0:0:0:0:
128,128,110795,5,2,0:0:0:0:
128,128,110906,5,0,0:0:0:0:
128,128,111128,1,0,0:0:0:0:
128,128,111240,5,2,0:0:0:0:
128,128,111351,1,2,0:0:0:0:
128,128,111462,5,0,0:0:0:0:
128,128,111573,1,0,0:0:0:0:
128,128,111684,5,2,0:0:0:0:
128,128,111795,5,0,0:0:0:0:
128,128,112017,5,2,0:0:0:0:
128,128,112128,1,2,0:0:0:0:
128,128,112351,5,0,0:0:0:0:
128,128,112462,1,0,0:0:0:0:
128,128,112573,5,2,0:0:0:0:
128,128,112684,5,0,0:0:0:0:
128,128,112906,1,0,0:0:0:0:
128,128,113017,5,2,0:0:0:0:
128,128,113128,1,2,0:0:0:0:
128,128,113240,5,0,0:0:0:0:
128,128,113351,1,0,0:0:0:0:
128,128,113462,5,2,0:0:0:0:
128,128,113573,5,0,0:0:0:0:
128,128,113795,5,2,0:0:0:0:
128,128,113906,1,2,0:0:0:0:
128,128,114128,5,0,0:0:0:0:
128,128,114240,1,0,0:0:0:0:
128,128,114351,5,2,0:0:0:0:
128,128,114462,5,0,0:0:0:0:
128,128,114684,1,0,0:0:0:0:
128,128,114795,5,2,0:0:0:0:
128,128,114851,1,2,0:0:0:0:
128,128,114906,1,2,0:0:0:0:
128,128,115017,5,0,0:0:0:0:
128,128,115128,5,2,0:0:0:0:
128,128,115240,5,0,0:0:0:0:
128,128,115351,5,2,0:0:0:0:
128,128,115462,5,0,0:0:0:0:
128,128,115573,1,0,0:0:0:0:
128,128,115684,1,0,0:0:0:0:
128,128,115740,1,0,0:0:0:0:
128,128,115795,1,0,0:0:0:0:
128,128,115851,1,0,0:0:0:0:
128,128,115906,5,2,0:0:0:0:
128,128,116017,5,0,0:0:0:0:
128,128,116128,5,2,0:0:0:0:
128,128,116240,5,0,0:0:0:0:
128,128,116351,5,2,0:0:0:0:
128,128,116462,5,0,0:0:0:0:
128,128,116517,1,0,0:0:0:0:
128,128,116573,5,2,0:0:0:0:
128,128,116684,1,2,0:0:0:0:
128,128,116795,5,0,0:0:0:0:
128,128,116906,1,0,0:0:0:0:
128,128,117017,5,2,0:0:0:0:
128,128,117128,5,0,0:0:0:0:
128,128,117184,1,0,0:0:0:0:
128,128,117240,5,2,0:0:0:0:
128,128,117351,5,0,0:0:0:0:
128,128,117406,1,0,0:0:0:0:
128,128,117462,5,2,0:0:0:0:
128,128,117573,1,2,0:0:0:0:
128,128,117684,5,0,0:0:0:0:
128,128,117795,1,0,0:0:0:0:
128,128,117906,5,2,0:0:0:0:
128,128,118017,5,0,0:0:0:0:
128,128,118128,5,2,0:0:0:0:
128,128,118240,5,0,0:0:0:0:
128,128,118295,1,0,0:0:0:0:
128,128,118351,5,2,0:0:0:0:
128,128,118462,1,2,0:0:0:0:
128,128,118573,5,0,0:0:0:0:
128,128,118684,1,0,0:0:0:0:
128,128,118795,5,2,0:0:0:0:
128,128,118906,5,0,0:0:0:0:
128,128,118962,1,0,0:0:0:0:
128,128,119017,5,2,0:0:0:0:
128,128,119128,1,2,0:0:0:0:
128,128,119184,5,0,0:0:0:0:
128,128,119240,5,2,0:0:0:0:
128,128,119351,1,2,0:0:0:0:
128,128,119462,5,0,0:0:0:0:
128,128,119573,1,0,0:0:0:0:
128,128,119684,5,2,0:0:0:0:
128,128,119795,5,0,0:0:0:0:
128,128,119906,5,2,0:0:0:0:
128,128,120017,5,0,0:0:0:0:
128,128,120073,1,0,0:0:0:0:
128,128,120128,5,2,0:0:0:0:
128,128,120240,1,2,0:0:0:0:
128,128,120351,5,0,0:0:0:0:
128,128,120462,1,0,0:0:0:0:
128,128,120573,5,2,0:0:0:0:
128,128,120684,5,0,0:0:0:0:
128,128,120740,1,0,0:0:0:0:
128,128,120795,5,2,0:0:0:0:
128,128,120906,5,0,0:0:0:0:
128,128,120962,1,0,0:0:0:0:
128,128,121017,5,2,0:0:0:0:
128,128,121128,1,2,0:0:0:0:
128,128,121240,5,0,0:0:0:0:
128,128,121351,5,2,0:0:0:0:
128,128,121406,1,2,0:0:0:0:
128,128,121462,5,0,0:0:0:0:
128,128,121573,5,2,0:0:0:0:
128,128,121628,1,2,0:0:0:0:
128,128,121684,5,0,0:0:0:0:
128,128,121795,5,2,0:0:0:0:
128,128,121851,1,2,0:0:0:0:
128,128,121906,5,0,0:0:0:0:
128,128,121962,1,0,0:0:0:0:
128,128,122017,5,2,0:0:0:0:
128,128,122128,2,0,L|256:256,1,420.21
128,128,122906,5,4,0:0:0:0:
128,128,123128,5,2,0:0:0:0:
128,128,123240,5,0,0:0:0:0:
128,128,123351,1,0,0:0:0:0:
128,128,123462,5,2,0:0:0:0:
128,128,123573,1,2,0:0:0:0:
128,128,123684,5,0,0:0:0:0:
128,128,123795,1,0,0:0:0:0:
128,128,123906,5,2,0:0:0:0:
128,128,124017,5,0,0:0:0:0:
128,128,124128,1,0,0:0:0:0:
128,128,124240,5,2,0:0:0:0:
128,128,124462,1,2,0:0:0:0:
128,128,124684,1,2,0:0:0:0:
128,128,124906,5,0,0:0:0:0:
128,128,125017,1,0,0:0:0:0:
128,128,125128,1,0,0:0:0:0:
128,128,125184,1,0,0:0:0:0:
128,128,125240,1,0,0:0:0:0:
128,128,125351,5,2,0:0:0:0:
128,128,125462,5,0,0:0:0:0:
128,128,125573,1,0,0:0:0:0:
128,128,125684,1,0,0:0:0:0:
128,128,125795,1,0,0:0:0:0:
128,128,125851,1,0,0:0:0:0:
128,128,125906,5,2,0:0:0:0:
128,128,126017,1,2,0:0:0:0:
128,128,126128,5,0,0:0:0:0:
128,128,126240,5,2,0:0:0:0:
128,128,126351,5,0,0:0:0:0:
128,128,126462,5,6,0:0:0:0:
128,128,126795,1,6,0:0:0:0:
128,128,127017,5,0,0:0:0:0:
128,128,127073,1,0,0:0:0:0:
128,128,127128,1,0,0:0:0:0:
128,128,127184,1,0,0:0:0:0:
128,128,127240,5,2,0:0:0:0:
128,128,127462,1,2,0:0:0:0:
128,128,127573,5,0,0:0:0:0:
128,128,127628,1,0,0:0:0:0:
128,128,127684,5,2,0:0:0:0:
128,128,127795,5,0,0:0:0:0:
128,128,127851,1,0,0:0:0:0:
128,128,127906,5,2,0:0:0:0:
128,128,128017,5,0,0:0:0:0:
128,128,128073,1,0,0:0:0:0:
128,128,128128,1,0,0:0:0:0:
128,128,128184,1,0,0:0:0:0:
128,128,128240,5,2,0:0:0:0:
128,128,128462,1,2,0:0:0:0:
128,128,128517,1,2,0:0:0:0:
128,128,128573,5,0,0:0:0:0:
128,128,128684,5,2,0:0:0:0:
128,128,128740,1,2,0:0:0:0:
128,128,128795,5,0,0:0:0:0:
128,128,128906,5,2,0:0:0:0:
128,128,128962,1,2,0:0:0:0:
128,128,129017,5,0,0:0:0:0:
128,128,129128,5,2,0:0:0:0:
128,128,129240,5,0,0:0:0:0:
128,128,129295,1,0,0:0:0:0:
128,128,129351,1,0,0:0:0:0:
128,128,129406,1,0,0:0:0:0:
128,128,129462,5,2,0:0:0:0:
128,128,129517,1,2,0:0:0:0:
128,128,129573,5,0,0:0:0:0:
128,128,129684,5,2,0:0:0:0:
128,128,129795,1,2,0:0:0:0:
128,128,146571,5,0,0:0:0:0:
128,128,147263,1,0,0:0:0:0:
128,128,147494,5,2,0:0:0:0:
128,128,148186,5,0,0:0:0:0:
128,128,148417,1,0,0:0:0:0:
128,128,148532,1,0,0:0:0:0:
128,128,148878,1,0,0:0:0:0:
128,128,149340,5,2,0:0:0:0:
128,128,150263,5,0,0:0:0:0:
128,128,150955,1,0,0:0:0:0:
128,128,151186,5,2,0:0:0:0:
128,128,151878,5,0,0:0:0:0:
128,128,152109,1,0,0:0:0:0:
128,128,152225,1,0,0:0:0:0:
128,128,152571,1,0,0:0:0:0:
128,128,153032,5,2,0:0:0:0:
128,128,153955,5,0,0:0:0:0:
128,128,154186,5,2,0:0:0:0:
128,128,154302,1,2,0:0:0:0:
128,128,154417,1,2,0:0:0:0:
128,128,154532,1,2,0:0:0:0:
128,128,154648,1,2,0:0:0:0:
128,128,154763,1,2,0:0:0:0:
128,128,154878,5,0,0:0:0:0:
128,128,154994,5,2,0:0:0:0:
128,128,155225,1,2,0:0:0:0:
128,128,155340,5,0,0:0:0:0:
128,128,155455,1,0,0:0:0:0:
128,128,155571,5,2,0:0:0:0:
128,128,155686,5,0,0:0:0:0:
128,128,155802,1,0,0:0:0:0:
128,128,155878,5,2,0:0:0:0:
128,128,155955,1,2,0:0:0:0:
128,128,156032,1,2,0:0:0:0:
128,128,156109,1,2,0:0:0:0:
128,128,156186,1,2,0:0:0:0:
128,128,156263,5,0,0:0:0:0:
128,128,156494,1,0,0:0:0:0:
128,128,156725,1,0,0:0:0:0:
128,128,156840,1,0,0:0:0:0:
128,128,156955,5,2,0:0:0:0:
128,128,157071,5,0,0:0:0:0:
128,128,157186,1,0,0:0:0:0:
128,128,157302,5,2,0:0:0:0:
128,128,157417,1,2,0:0:0:0:
128,128,157532,1,2,0:0:0:0:
128,128,157648,5,0,0:0:0:0:
128,128,157955,5,2,0:0:0:0:
128,128,158109,1,2,0:0:0:0:
128,128,158263,1,2,0:0:0:0:
128,128,158417,1,2,0:0:0:0:
128,128,158571,5,0,0:0:0:0:
128,128,158725,1,0,0:0:0:0:
128,128,158878,1,0,0:0:0:0:
128,128,159032,1,0,0:0:0:0:
128,128,159109,1,0,0:0:0:0:
128,128,159186,1,0,0:0:0:0:
128,128,159263,5,2,0:0:0:0:
128,128,159340,1,2,0:0:0:0:
128,128,159417,1,2,0:0:0:0:
128,128,159494,5,0,0:0:0:0:
128,128,159609,1,0,0:0:0:0:
128,128,159725,5,2,0:0:0:0:
128,128,159840,1,2,0:0:0:0:
128,128,159955,5,0,0:0:0:0:
128,128,160109,1,0,0:0:0:0:
128,128,160263,1,0,0:0:0:0:
128,128,160417,5,2,0:0:0:0:
128,128,160494,1,2,0:0:0:0:
128,128,160571,5,0,0:0:0:0:
128,128,160648,1,0,0:0:0:0:
128,128,160763,5,2,0:0:0:0:
128,128,160878,5,0,0:0:0:0:
128,128,160955,1,0,0:0:0:0:
128,128,161032,5,2,0:0:0:0:
128,128,161109,1,2,0:0:0:0:
128,128,161340,5,0,0:0:0:0:
128,128,161571,5,2,0:0:0:0:
128,128,161725,1,2,0:0:0:0:
128,128,161878,1,2,0:0:0:0:
128,128,162032,5,0,0:0:0:0:
128,128,162148,1,0,0:0:0:0:
128,128,162263,5,2,0:0:0:0:
128,128,162340,5,0,0:0:0:0:
128,128,162417,1,0,0:0:0:0:
128,128,162571,5,2,0:0:0:0:
128,128,162648,5,0,0:0:0:0:
128,128,162763,5,2,0:0:0:0:
128,128,162917,1,2,0:0:0:0:
128,128,163071,1,2,0:0:0:0:
128,128,163186,5,0,0:0:0:0:
128,128,163648,1,0,0:0:0:0:
128,128,163763,5,2,0:0:0:0:
128,128,163878,1,2,0:0:0:0:
128,128,163994,1,2,0:0:0:0:
128,128,164109,5,0,0:0:0:0:
128,128,164225,5,2,0:0:0:0:
128,128,164340,1,2,0:0:0:0:
128,128,164571,5,0,0:0:0:0:
128,128,164648,5,2,0:0:0:0:
128,128,164725,1,2,0:0:0:0:
128,128,164802,1,2,0:0:0:0:
128,128,164917,1,2,0:0:0:0:
128,128,165032,5,0,0:0:0:0:
128,128,165494,1,0,0:0:0:0:
128,128,165609,1,0,0:0:0:0:
128,128,165725,5,2,0:0:0:0:
128,128,165840,1,2,0:0:0:0:
128,128,165955,5,0,0:0:0:0:
128,128,166071,5,2,0:0:0:0:
128,128,166186,1,2,0:0:0:0:
128,128,166417,5,0,0:0:0:0:
128,128,166532,1,0,0:0:0:0:
128,128,166648,5,2,0:0:0:0:
128,128,166763,5,0,0:0:0:0:
128,128,166878,1,0,0:0:0:0:
128,128,166955,5,2,0:0:0:0:
128,128,167032,1,2,0:0:0:0:
128,128,167109,1,2,0:0:0:0:
128,128,167186,1,2,0:0:0:0:
128,128,167263,1,2,0:0:0:0:
128,128,167340,5,0,0:0:0:0:
128,128,167455,5,2,0:0:0:0:
128,128,167571,1,2,0:0:0:0:
128,128,167686,1,2,0:0:0:0:
128,128,167802,5,0,0:0:0:0:
128,128,168032,1,0,0:0:0:0:
128,128,168148,5,2,0:0:0:0:
128,128,168263,5,0,0:0:0:0:
128,128,168417,5,2,0:0:0:0:
128,128,168571,1,2,0:0:0:0:
128,128,168725,5,0,0:0:0:0:
128,128,168955,1,0,0:0:0:0:
128,128,169417,1,0,0:0:0:0:
128,128,169648,5,2,0:0:0:0:
128,128,170109,5,0,0:0:0:0:
128,128,170571,1,0,0:0:0:0:
128,128,170648,1,0,0:0:0:0:
128,128,170725,5,2,0:0:0:0:
128,128,170802,1,2,0:0:0:0:
128,128,171032,5,0,0:0:0:0:
128,128,171109,5,2,0:0:0:0:
128,128,171186,1,2,0:0:0:0:
128,128,171263,1,2,0:0:0:0:
128,128,171340,1,2,0:0:0:0:
128,128,171417,1,2,0:0:0:0:
128,128,171494,5,0,0:0:0:0:
128,128,171725,5,2,0:0:0:0:
128,128,171802,1,2,0:0:0:0:
128,128,171878,5,0,0:0:0:0:
128,128,171955,1,0,0:0:0:0:
128,128,172109,5,2,0:0:0:0:
128,128,172263,1,2,0:0:0:0:
128,128,172417,5,0,0:0:0:0:
128,128,172648,1,0,0:0:0:0:
128,128,173109,1,0,0:0:0:0:
128,128,173340,5,2,0:0:0:0:
128,128,173802,5,0,0:0:0:0:
128,128,174263,1,0,0:0:0:0:
128,128,174340,1,0,0:0:0:0:
128,128,174417,1,0,0:0:0:0:
128,128,174494,5,2,0:0:0:0:
128,128,174571,1,2,0:0:0:0:
128,128,174648,1,2,0:0:0:0:
128,128,174725,1,2,0:0:0:0:
128,128,174878,5,0,0:0:0:0:
128,128,175032,1,0,0:0:0:0:
128,128,175186,5,2,0:0:0:0:
128,128,175302,5,0,0:0:0:0:
128,128,175417,1,0,0:0:0:0:
128,128,175532,5,2,0:0:0:0:
128,128,175648,5,0,0:0:0:0:
128,128,175802,1,0,0:0:0:0:
128,128,175955,5,2,0:0:0:0:
128,128,176109,5,0,0:0:0:0:
128,128,176225,1,0,0:0:0:0:
128,128,176340,5,2,0:0:0:0:
128,128,176455,5,0,0:0:0:0:
128,128,176686,5,2,0:0:0:0:
128,128,176917,5,0,0:0:0:0:
128,128,177032,5,2,0:0:0:0:
128,128,177148,1,2,0:0:0:0:
128,128,177263,1,2,0:0:0:0:
128,128,177378,5,0,0:0:0:0:
128,128,177494,5,2,0:0:0:0:
128,128,177571,1,2,0:0:0:0:
128,128,177648,1,2,0:0:0:0:
128,128,177725,1,2,0:0:0:0:
128,128,177802,1,2,0:0:0:0:
128,128,177878,1,2,0:0:0:0:
128,128,177955,5,0,0:0:0:0:
128,128,178186,5,2,0:0:0:0:
128,128,178417,5,0,0:0:0:0:
128,128,178494,1,0,0:0:0:0:
128,128,178571,1,0,0:0:0:0:
128,128,178648,5,2,0:0:0:0:
128,128,178725,1,2,0:0:0:0:
128,128,178802,1,2,0:0:0:0:
128,128,178878,5,0,0:0:0:0:
128,128,178994,5,2,0:0:0:0:
128,128,179109,1,2,0:0:0:0:
128,128,179340,5,0,0:0:0:0:
128,128,179455,1,0,0:0:0:0:
128,128,179571,1,0,0:0:0:0:
128,128,179686,5,2,0:0:0:0:
128,128,179802,5,0,0:0:0:0:
128,128,180263,1,0,0:0:0:0:
128,128,180725,5,2,0:0:0:0:
128,128,181186,1,2,0:0:0:0:
128,128,181263,1,2,0:0:0:0:
128,128,181340,1,2,0:0:0:0:
128,128,181417,1,2,0:0:0:0:
128,128,181532,1,2,0:0:0:0:
128,128,181648,5,0,0:0:0:0:
128,128,181725,1,0,0:0:0:0:
128,128,181802,1,0,0:0:0:0:
128,128,181878,5,2,0:0:0:0:
128,128,182109,5,0,0:0:0:0:
128,128,182340,5,2,0:0:0:0:
128,128,182455,1,2,0:0:0:0:
128,128,182571,5,0,0:0:0:0:
128,128,182686,1,0,0:0:0:0:
128,128,182802,5,2,0:0:0:0:
128,128,182917,1,2,0:0:0:0:
128,128,183032,5,0,0:0:0:0:
128,128,183148,5,2,0:0:0:0:
128,128,183263,1,2,0:0:0:0:
128,128,183378,1,2,0:0:0:0:
128,128,183494,5,0,0:0:0:0:
128,128,187186,1,0,0:0:0:0:
128,128,187648,1,0,0:0:0:0:
128,128,188109,1,0,0:0:0:0:
128,128,188571,1,0,0:0:0:0:
128,128,189032,1,0,0:0:0:0:
128,128,189263,1,0,0:0:0:0:
128,128,189494,1,0,0:0:0:0:
128,128,189725,1,0,0:0:0:0:
128,128,189955,1,0,0:0:0:0:
128,128,190032,1,0,0:0:0:0:
128,128,190109,1,0,0:0:0:0:
128,128,190186,1,0,0:0:0:0:
128,128,190263,1,0,0:0:0:0:
128,128,190340,1,0,0:0:0:0:
128,128,190417,5,2,0:0:0:0:
128,128,190878,5,0,0:0:0:0:
128,128,191263,5,2,0:0:0:0:
128,128,191340,5,0,0:0:0:0:
128,128,191802,1,0,0:0:0:0:
128,128,192186,5,2,0:0:0:0:
128,128,192263,5,0,0:0:0:0:
128,128,192725,1,0,0:0:0:0:
128,128,193109,5,2,0:0:0:0:
128,128,193186,5,0,0:0:0:0:
128,128,193648,1,0,0:0:0:0:
128,128,194032,5,2,0:0:0:0:
128,128,194109,5,0,0:0:0:0:
128,128,194340,1,0,0:0:0:0:
128,128,194494,5,2,0:0:0:0:
128,128,194571,5,0,0:0:0:0:
128,128,194955,5,2,0:0:0:0:
128,128,195032,5,0,0:0:0:0:
128,128,195494,1,0,0:0:0:0:
128,128,195878,5,2,0:0:0:0:
128,128,195955,5,0,0:0:0:0:
128,128,196417,1,0,0:0:0:0:
128,128,196802,5,2,0:0:0:0:
128,128,196878,5,0,0:0:0:0:
128,128,197340,1,0,0:0:0:0:
128,128,197417,5,2,0:0:0:0:
128,128,197494,1,2,0:0:0:0:
128,128,197571,1,2,0:0:0:0:
128,128,197725,1,2,0:0:0:0:
128,128,197802,5,0,0:0:0:0:
128,128,198032,1,0,0:0:0:0:
128,128,198186,5,2,0:0:0:0:
128,128,198263,5,0,0:0:0:0:
128,128,198648,5,2,0:0:0:0:
128,128,198725,5,0,0:0:0:0:
128,128,199186,1,0,0:0:0:0:
128,128,199263,1,0,0:0:0:0:
128,128,199340,1,0,0:0:0:0:
128,128,199417,5,2,0:0:0:0:
128,128,199571,1,2,0:0:0:0:
128,128,199648,5,0,0:0:0:0:
128,128,199878,1,0,0:0:0:0:
128,128,200032,5,2,0:0:0:0:
128,128,200109,5,0,0:0:0:0:
128,128,200340,5,2,0:0:0:0:
128,128,200494,1,2,0:0:0:0:
128,128,200571,5,0,0:0:0:0:
128,128,200802,1,0,0:0:0:0:
128,128,200878,1,0,0:0:0:0:
128,128,200955,1,0,0:0:0:0:
128,128,201032,1,0,0:0:0:0:
128,128,201263,5,2,0:0:0:0:
128,128,201378,1,2,0:0:0:0:
128,128,201494,5,0,0:0:0:0:
128,128,201725,1,0,0:0:0:0:
128,128,201878,5,2,0:0:0:0:
128,128,201955,5,0,0:0:0:0:
128,128,202109,5,2,0:0:0:0:
128,128,202340,1,2,0:0:0:0:
128,128,202571,1,2,0:0:0:0:
128,128,202648,5,0,0:0:0:0:
128,128,202802,5,2,0:0:0:0:
128,128,202878,5,0,0:0:0:0:
128,128,203109,5,2,0:0:0:0:
128,128,203263,1,2,0:0:0:0:
128,128,203340,5,0,0:0:0:0:
128,128,203571,5,2,0:0:0:0:
128,128,203725,1,2,0:0:0:0:
128,128,203802,5,0,0:0:0:0:
128,128,203878,1,0,0:0:0:0:
128,128,203955,1,0,0:0:0:0:
128,128,204032,1,0,0:0:0:0:
128,128,204148,5,2,0:0:0:0:
128,128,204263,5,0,0:0:0:0:
128,128,204378,1,0,0:0:0:0:
128,128,204494,5,2,0:0:0:0:
128,128,204609,1,2,0:0:0:0:
128,128,204725,5,0,0:0:0:0:
128,128,204802,1,0,0:0:0:0:
128,128,204878,5,2,0:0:0:0:
128,128,204955,1,2,0:0:0:0:
128,128,205071,1,2,0:0:0:0:
128,128,205186,5,0,0:0:0:0:
128,128,205263,1,0,0:0:0:0:
128,128,205340,1,0,0:0:0:0:
128,128,205417,5,2,0:0:0:0:
128,128,205494,1,2,0:0:0:0:
128,128,205571,1,2,0:0:0:0:
128,128,205648,5,0,0:0:0:0:
128,128,205878,1,0,0:0:0:0:
128,128,206032,5,2,0:0:0:0:
128,128,206109,5,0,0:0:0:0:
128,128,206340,1,0,0:0:0:0:
128,128,206455,5,2,0:0:0:0:
128,128,206571,5,0,0:0:0:0:
128,128,206648,1,0,0:0:0:0:
128,128,206725,5,2,0:0:0:0:
128,128,206802,1,2,0:0:0:0:
128,128,207032,5,0,0:0:0:0:
128,128,207109,1,0,0:0:0:0:
128,128,207186,1,0,0:0:0:0:
128,128,207263,5,2,0:0:0:0:
128,128,207340,1,2,0:0:0:0:
128,128,207417,1,2,0:0:0:0:
128,128,207494,5,0,0:0:0:0:
128,128,207725,1,0,0:0:0:0:
128,128,207878,5,2,0:0:0:0:
128,128,207955,5,0,0:0:0:0:
128,128,208186,1,0,0:0:0:0:
128,128,208302,5,2,0:0:0:0:
128,128,208417,5,0,0:0:0:0:
128,128,208494,1,0,0:0:0:0:
128,128,208571,1,0,0:0:0:0:
128,128,208648,5,2,0:0:0:0:
128,128,208725,1,2,0:0:0:0:
128,128,208802,1,2,0:0:0:0:
128,128,208878,5,0,0:0:0:0:
128,128,209109,1,0,0:0:0:0:
128,128,209263,5,2,0:0:0:0:
128,128,209340,5,0,0:0:0:0:
128,128,209417,1,0,0:0:0:0:
128,128,209494,1,0,0:0:0:0:
128,128,209571,1,0,0:0:0:0:
128,128,209648,1,0,0:0:0:0:
128,128,209725,1,0,0:0:0:0:
128,128,209802,5,2,0:0:0:0:
128,128,209878,1,2,0:0:0:0:
128,128,209955,1,2,0:0:0:0:
128,128,210032,1,2,0:0:0:0:
128,128,210109,1,2,0:0:0:0:
128,128,210186,1,2,0:0:0:0:
128,128,210263,5,0,0:0:0:0:
128,128,210417,1,0,0:0:0:0:
128,128,210571,1,0,0:0:0:0:
128,128,210725,5,2,0:0:0:0:
128,128,210878,1,2,0:0:0:0:
128,128,211032,1,2,0:0:0:0:
128,128,211186,5,0,0:0:0:0:
128,128,211263,1,0,0:0:0:0:
128,128,211340,5,2,0:0:0:0:
128,128,211417,1,2,0:0:0:0:
128,128,211571,1,2,0:0:0:0:
128,128,211648,5,0,0:0:0:0:
128,128,211802,5,2,0:0:0:0:
128,128,211955,1,2,0:0:0:0:
128,128,212109,5,0,0:0:0:0:
128,128,212225,5,2,0:0:0:0:
128,128,212340,5,0,0:0:0:0:
128,128,212455,5,2,0:0:0:0:
128,128,212571,5,0,0:0:0:0:
128,128,212686,1,0,0:0:0:0:
128,128,212802,5,2,0:0:0:0:
128,128,212878,1,2,0:0:0:0:
128,128,212955,1,2,0:0:0:0:
128,128,213032,5,0,0:0:0:0:
128,128,213263,1,0,0:0:0:0:
128,128,213417,5,2,0:0:0:0:
128,128,213494,5,0,0:0:0:0:
128,128,213571,5,2,0:0:0:0:
128,128,213648,1,2,0:0:0:0:
128,128,213725,5,0,0:0:0:0:
128,128,213802,5,2,0:0:0:0:
128,128,213878,1,2,0:0:0:0:
128,128,213955,5,0,0:0:0:0:
128,128,214109,5,2,0:0:0:0:
128,128,214263,1,2,0:0:0:0:
128,128,214417,5,0,0:0:0:0:
128,128,214532,5,2,0:0:0:0:
128,128,214648,1,2,0:0:0:0:
128,128,214763,1,2,0:0:0:0:
128,128,214878,5,0,0:0:0:0:
128,128,215109,1,0,0:0:0:0:
128,128,215263,5,2,0:0:0:0:
128,128,215340,5,0,0:0:0:0:
128,128,215455,1,0,0:0:0:0:
128,128,215571,5,2,0:0:0:0:
128,128,215686,1,2,0:0:0:0:
128,128,215802,5,0,0:0:0:0:
128,128,215878,1,0,0:0:0:0:
128,128,215955,5,2,0:0:0:0:
128,128,216032,1,2,0:0:0:0:
128,128,216263,5,0,0:0:0:0:
128,128,216378,5,2,0:0:0:0:
128,128,216494,5,0,0:0:0:0:
128,128,216725,1,0,0:0:0:0:
128,128,216802,1,0,0:0:0:0:
128,128,216878,1,0,0:0:0:0:
128,128,216955,1,0,0:0:0:0:
128,128,217032,1,0,0:0:0:0:
128,128,217109,1,0,0:0:0:0:
128,128,217186,5,2,0:0:0:0:
128,128,217263,1,2,0:0:0:0:
128,128,217340,1,2,0:0:0:0:
128,128,217417,1,2,0:0:0:0:
128,128,217494,1,2,0:0:0:0:
128,128,217571,1,2,0:0:0:0:
128,128,217648,5,0,0:0:0:0:
128,128,217763,1,0,0:0:0:0:
128,128,217878,5,2,0:0:0:0:
128,128,217994,1,2,0:0:0:0:
128,128,218109,5,0,0:0:0:0:
128,128,218186,1,0,0:0:0:0:
128,128,218263,5,2,0:0:0:0:
128,128,218340,5,0,0:0:0:0:
128,128,218417,5,2,0:0:0:0:
128,128,218494,5,0,0:0:0:0:
128,128,218571,1,0,0:0:0:0:
128,128,218802,1,0,0:0:0:0:
128,128,218955,5,2,0:0:0:0:
128,128,219032,5,0,0:0:0:0:
128,128,219109,1,0,0:0:0:0:
128,128,219186,1,0,0:0:0:0:
128,128,219263,5,2,0:0:0:0:
128,128,219340,5,0,0:0:0:0:
128,128,219417,1,0,0:0:0:0:
128,128,219494,1,0,0:0:0:0:
128,128,219609,1,0,0:0:0:0:
128,128,219725,1,0,0:0:0:0:
128,128,219840,1,0,0:0:0:0:
128,128,219955,1,0,0:0:0:0:
128,128,220109,5,2,0:0:0:0:
128,128,220263,1,2,0:0:0:0:
128,128,220417,5,0,0:0:0:0:
128,128,220571,5,2,0:0:0:0:
128,128,220725,1,2,0:0:0:0:
128,128,220878,1,2,0:0:0:0:
128,128,221032,1,2,0:0:0:0:
128,128,221186,1,2,0:0:0:0:
128,128,221340,5,0,0:0:0:0:
128,128,221494,5,2,0:0:0:0:
128,128,221648,1,2,0:0:0:0:
128,128,221802,1,2,0:0:0:0:
128,128,221955,1,2,0:0:0:0:
128,128,222109,1,2,0:0:0:0:
128,128,222263,5,0,0:0:0:0:
128,128,222417,5,2,0:0:0:0:
128,128,222571,1,2,0:0:0:0:
128,128,222725,1,2,0:0:0:0:
128,128,222878,1,2,0:0:0:0:
128,128,223032,1,2,0:0:0:0:
128,128,223186,5,0,0:0:0:0:
128,128,223340,5,2,0:0:0:0:
128,128,223494,1,2,0:0:0:0:
128,128,223648,1,2,0:0:0:0:
128,128,223802,1,2,0:0:0:0:
128,128,223955,1,2,0:0:0:0:
128,128,224109,5,0,0:0:0:0:
128,128,224263,5,2,0:0:0:0:
128,128,224417,1,2,0:0:0:0:
128,128,224571,5,0,0:0:0:0:
128,128,224725,5,2,0:0:0:0:
128,128,224878,1,2,0:0:0:0:
128,128,225032,5,0,0:0:0:0:
128,128,225186,5,2,0:0:0:0:
128,128,225340,1,2,0:0:0:0:
128,128,225494,5,0,0:0:0:0:
128,128,225648,5,2,0:0:0:0:
128,128,225802,1,2,0:0:0:0:
128,128,225955,5,0,0:0:0:0:
128,128,226263,1,0,0:0:0:0:
128,128,226417,1,0,0:0:0:0:
128,128,226571,1,0,0:0:0:0:
128,128,226725,1,0,0:0:0:0:
128,128,226878,5,2,0:0:0:0:
128,128,227340,1,2,0:0:0:0:
128,128,227802,5,0,0:0:0:0:
128,128,228263,1,0,0:0:0:0:
128,128,228571,1,0,0:0:0:0:
128,128,228725,5,2,0:0:0:0:
128,128,229032,1,2,0:0:0:0:
128,128,229186,5,0,0:0:0:0:
128,128,229340,5,2,0:0:0:0:
128,128,229494,1,2,0:0:0:0:
128,128,229648,5,0,0:0:0:0:
128,128,230109,1,0,0:0:0:0:
128,128,230417,1,0,0:0:0:0:
128,128,230571,5,2,0:0:0:0:
128,128,230878,1,2,0:0:0:0:
128,128,231032,5,0,0:0:0:0:
128,128,231340,5,2,0:0:0:0:
128,128,231494,5,0,0:0:0:0:
128,128,231648,5,2,0:0:0:0:
128,128,231802,1,2,0:0:0:0:
128,128,231955,5,0,0:0:0:0:
128,128,232263,5,2,0:0:0:0:
128,128,232417,5,0,0:0:0:0:
128,128,232725,1,0,0:0:0:0:
128,128,233032,1,0,0:0:0:0:
128,128,233186,5,2,0:0:0:0:
128,128,233340,5,0,0:0:0:0:
128,128,233648,5,2,0:0:0:0:
128,128,233802,5,0,0:0:0:0:
128,128,233955,5,2,0:0:0:0:
128,128,234109,5,0,0:0:0:0:
128,128,234263,5,2,0:0:0:0:
128,128,234725,1,2,0:0:0:0:
128,128,235186,5,0,0:0:0:0:
128,128,235340,1,0,0:0:0:0:
128,128,235494,5,2,0:0:0:0:
128,128,235648,5,0,0:0:0:0:
128,128,235955,5,2,0:0:0:0:
128,128,236109,5,0,0:0:0:0:
128,128,236263,1,0,0:0:0:0:
128,128,236417,1,0,0:0:0:0:
128,128,236571,5,2,0:0:0:0:
128,128,236725,5,0,0:0:0:0:
128,128,236878,1,0,0:0:0:0:
128,128,237032,1,0,0:0:0:0:
128,128,237109,1,0,0:0:0:0:
128,128,237186,1,0,0:0:0:0:
128,128,237263,5,2,0:0:0:0:
128,128,237340,1,2,0:0:0:0:
128,128,237648,1,2,0:0:0:0:
128,128,237955,5,0,0:0:0:0:
128,128,238263,5,2,0:0:0:0:
128,128,238571,1,2,0:0:0:0:
128,128,238648,1,2,0:0:0:0:
128,128,238725,5,0,0:0:0:0:
128,128,238802,1,0,0:0:0:0:
128,128,238878,1,0,0:0:0:0:
128,128,239032,1,0,0:0:0:0:
128,128,239186,1,0,0:0:0:0:
128,128,239340,5,2,0:0:0:0:
128,128,239648,1,2,0:0:0:0:
128,128,239802,5,0,0:0:0:0:
128,128,240109,1,0,0:0:0:0:
128,128,240263,1,0,0:0:0:0:
128,128,240417,5,2,0:0:0:0:
128,128,240571,1,2,0:0:0:0:
128,128,240725,5,0,0:0:0:0:
128,128,240878,1,0,0:0:0:0:
128,128,241032,1,0,0:0:0:0:
128,128,241186,1,0,0:0:0:0:
128,128,241340,1,0,0:0:0:0:
128,128,241494,1,0,0:0:0:0:
128,128,241648,5,2,0:0:0:0:
128,128,242109,1,2,0:0:0:0:
128,128,242571,1,2,0:0:0:0:
128,128,242802,1,2,0:0:0:0:
128,128,243032,1,2,0:0:0:0:
128,128,243263,1,2,0:0:0:0:
128,128,243494,1,2,0:0:0:0:
128,128,243609,1,2,0:0:0:0:
128,128,243725,1,2,0:0:0:0:
128,128,243840,1,2,0:0:0:0:
128,128,243955,1,2,0:0:0:0:
128,128,244071,1,2,0:0:0:0:
128,128,244186,1,2,0:0:0:0:
128,128,244302,1,2,0:0:0:0:
128,128,244417,1,2,0:0:0:0:
128,128,244494,1,2,0:0:0:0:
128,128,244571,1,2,0:0:0:0:
128,128,244648,1,2,0:0:0:0:
128,128,244725,1,2,0:0:0:0:
128,128,244802,1,2,0:0:0:0:
128,128,244878,1,2,0:0:0:0:
128,128,244955,1,2,0:0:0:0:
128,128,245032,1,2,0:0:0:0:
128,128,245109,1,2,0:0:0:0:
128,128,245186,1,2,0:0:0:0:
128,128,245263,1,2,0:0:0:0:
128,128,245340,1,2,0:0:0:0:
128,128,245417,1,2,0:0:0:0:
128,128,245494,1,2,0:0:0:0:
128,128,245571,1,2,0:0:0:0:
128,128,245648,1,2,0:0:0:0:
128,128,245725,1,2,0:0:0:0:
128,128,245802,5,0,0:0:0:0:
128,128,246263,1,0,0:0:0:0:
128,128,246494,1,0,0:0:0:0:
128,128,246648,5,2,0:0:0:0:
128,128,246725,5,0,0:0:0:0:
128,128,246955,5,2,0:0:0:0:
128,128,247071,1,2,0:0:0:0:
128,128,247186,5,0,0:0:0:0:
128,128,247340,1,0,0:0:0:0:
128,128,247494,1,0,0:0:0:0:
128,128,247648,5,2,0:0:0:0:
128,128,247725,1,2,0:0:0:0:
128,128,247802,1,2,0:0:0:0:
128,128,247878,1,2,0:0:0:0:
128,128,247994,1,2,0:0:0:0:
128,128,248109,1,2,0:0:0:0:
128,128,248340,1,2,0:0:0:0:
128,128,248494,1,2,0:0:0:0:
128,128,248571,5,0,0:0:0:0:
128,128,248686,5,2,0:0:0:0:
128,128,248802,1,2,0:0:0:0:
128,128,248917,1,2,0:0:0:0:
128,128,249032,5,0,0:0:0:0:
128,128,249109,5,2,0:0:0:0:
128,128,249186,1,2,0:0:0:0:
128,128,249263,5,0,0:0:0:0:
128,128,249340,5,2,0:0:0:0:
128,128,249417,1,2,0:0:0:0:
128,128,249494,5,0,0:0:0:0:
128,128,249571,5,2,0:0:0:0:
128,128,249648,1,2,0:0:0:0:
128,128,249725,5,0,0:0:0:0:
128,128,249802,5,2,0:0:0:0:
128,128,249878,1,2,0:0:0:0:
128,128,249955,5,0,0:0:0:0:
128,128,250109,1,0,0:0:0:0:
128,128,250263,1,0,0:0:0:0:
128,128,250417,5,2,0:0:0:0:
128,128,250494,1,2,0:0:0:0:
128,128,250571,5,0,0:0:0:0:
128,128,250648,5,2,0:0:0:0:
128,128,250725,1,2,0:0:0:0:
128,128,250802,1,2,0:0:0:0:
128,128,250878,5,0,0:0:0:0:
128,128,251109,1,0,0:0:0:0:
128,128,251263,5,2,0:0:0:0:
128,128,251340,5,0,0:0:0:0:
128,128,251494,5,2,0:0:0:0:
128,128,251571,1,2,0:0:0:0:
128,128,251725,1,2,0:0:0:0:
128,128,251802,5,0,0:0:0:0:
128,128,252032,1,0,0:0:0:0:
128,128,252186,5,2,0:0:0:0:
128,128,252263,5,0,0:0:0:0:
128,128,252417,5,2,0:0:0:0:
128,128,252571,1,2,0:0:0:0:
128,128,252725,5,0,0:0:0:0:
128,128,252802,1,0,0:0:0:0:
128,128,252878,1,0,0:0:0:0:
128,128,252955,5,2,0:0:0:0:
128,128,253032,1,2,0:0:0:0:
128,128,253109,1,2,0:0:0:0:
128,128,253186,5,0,0:0:0:0:
128,128,253302,5,2,0:0:0:0:
128,128,253417,1,2,0:0:0:0:
128,128,253494,1,2,0:0:0:0:
128,128,253571,1,2,0:0:0:0:
128,128,253648,5,0,0:0:0:0:
128,128,253725,1,0,0:0:0:0:
128,128,253802,1,0,0:0:0:0:
128,128,253878,1,0,0:0:0:0:
128,128,253994,5,2,0:0:0:0:
128,128,254109,5,0,0:0:0:0:
128,128,254225,1,0,0:0:0:0:
128,128,254340,5,2,0:0:0:0:
128,128,254417,5,0,0:0:0:0:
128,128,254494,1,0,0:0:0:0:
128,128,254571,5,2,0:0:0:0:
128,128,254648,1,2,0:0:0:0:
128,128,254725,1,2,0:0:0:0:
128,128,254802,1,2,0:0:0:0:
128,128,254917,1,2,0:0:0:0:
128,128,255032,5,0,0:0:0:0:
128,128,255186,5,2,0:0:0:0:
128,128,255340,1,2,0:0:0:0:
128,128,255494,5,0,0:0:0:0:
128,128,255955,1,0,0:0:0:0:
128,128,256032,1,0,0:0:0:0:
128,128,256109,1,0,0:0:0:0:
128,128,256186,5,2,0:0:0:0:
128,128,256263,1,2,0:0:0:0:
128,128,256340,1,2,0:0:0:0:
128,128,256417,5,0,0:0:0:0:
128,128,256571,1,0,0:0:0:0:
128,128,256725,1,0,0:0:0:0:
128,128,256878,5,2,0:0:0:0:
128,128,256955,1,2,0:0:0:0:
128,128,257032,1,2,0:0:0:0:
128,128,257109,1,2,0:0:0:0:
128,128,257186,1,2,0:0:0:0:
128,128,257263,1,2,0:0:0:0:
128,128,257340,5,0,0:0:0:0:
128,128,257571,1,0,0:0:0:0:
128,128,257686,5,2,0:0:0:0:
128,128,257802,5,0,0:0:0:0:
128,128,257917,5,2,0:0:0:0:
128,128,258032,5,0,0:0:0:0:
128,128,258148,5,2,0:0:0:0:
128,128,258263,5,0,0:0:0:0:
128,128,258417,5,2,0:0:0:0:
128,128,258571,1,2,0:0:0:0:
128,128,258725,5,0,0:0:0:0:
128,128,258955,5,2,0:0:0:0:
128,128,259032,1,2,0:0:0:0:
128,128,259109,1,2,0:0:0:0:
128,128,259186,5,0,0:0:0:0:
128,128,259263,1,0,0:0:0:0:
128,128,259340,1,0,0:0:0:0:
128,128,259417,5,2,0:0:0:0:
128,128,259532,1,2,0:0:0:0:
128,128,259648,5,0,0:0:0:0:
128,128,259763,5,2,0:0:0:0:
128,128,259878,5,0,0:0:0:0:
128,128,259955,1,0,0:0:0:0:
128,128,260032,1,0,0:0:0:0:
128,128,260109,5,2,0:0:0:0:
128,128,260340,1,2,0:0:0:0:
128,128,260571,1,2,0:0:0:0:
128,128,260648,1,2,0:0:0:0:
128,128,260725,1,2,0:0:0:0:
128,128,260802,1,2,0:0:0:0:
128,128,260878,1,2,0:0:0:0:
128,128,260955,1,2,0:0:0:0:
128,128,261032,5,0,0:0:0:0:
128,128,261263,5,2,0:0:0:0:
128,128,261340,1,2,0:0:0:0:
128,128,261417,1,2,0:0:0:0:
128,128,261494,5,0,0:0:0:0:
128,128,261725,5,2,0:0:0:0:
128,128,261955,5,0,0:0:0:0:
128,128,262032,1,0,0:0:0:0:
128,128,262109,1,0,0:0:0:0:
128,128,262186,1,0,0:0:0:0:
128,128,262302,1,0,0:0:0:0:
128,128,262417,1,0,0:0:0:0:
128,128,262571,1,0,0:0:0:0:
128,128,262725,1,0,0:0:0:0:
128,128,262802,1,0,0:0:0:0:
128,128,262878,5,2,0:0:0:0:
128,128,263109,5,0,0:0:0:0:
128,128,263263,5,2,0:0:0:0:
128,128,263340,5,0,0:0:0:0:
128,128,263417,1,0,0:0:0:0:
128,128,263494,1,0,0:0:0:0:
128,128,263571,5,2,0:0:0:0:
128,128,263648,1,2,0:0:0:0:
128,128,263725,1,2,0:0:0:0:
128,128,263802,5,0,0:0:0:0:
128,128,263955,1,0,0:0:0:0:
128,128,264109,5,2,0:0:0:0:
128,128,264186,1,2,0:0:0:0:
128,128,264263,5,0,0:0:0:0:
128,128,264417,1,0,0:0:0:0:
128,128,264571,5,2,0:0:0:0:
128,128,264725,5,0,0:0:0:0:
128,128,264802,1,0,0:0:0:0:
128,128,264878,1,0,0:0:0:0:
128,128,264955,1,0,0:0:0:0:
128,128,265032,1,0,0:0:0:0:
128,128,265109,1,0,0:0:0:0:
128,128,265186,1,0,0:0:0:0:
128,128,265263,1,0,0:0:0:0:
128,128,265340,1,0,0:0:0:0:
128,128,265417,5,2,0:0:0:0:
128,128,265494,1,2,0:0:0:0:
128,128,265571,1,2,0:0:0:0:
128,128,265648,5,0,0:0:0:0:
128,128,265725,1,0,0:0:0:0:
128,128,265802,5,2,0:0:0:0:
128,128,265878,1,2,0:0:0:0:
128,128,265955,1,2,0:0:0:0:
128,128,266032,1,2,0:0:0:0:
128,128,266109,5,0,0:0:0:0:
128,128,266186,1,0,0:0:0:0:
128,128,266263,5,2,0:0:0:0:
128,128,266340,1,2,0:0:0:0:
128,128,266417,5,0,0:0:0:0:
128,128,266494,1,0,0:0:0:0:
128,128,266571,1,0,0:0:0:0:
128,128,266648,1,0,0:0:0:0:
128,128,266725,5,0,0:0:0:0:
128,128,266802,5,2,0:0:0:0:
128,128,266878,1,2,0:0:0:0:
128,128,266955,1,2,0:0:0:0:
128,128,267032,5,0,0:0:0:0:
128,128,267186,1,0,0:0:0:0:
128,128,267417,5,2,0:0:0:0:
128,128,267494,5,0,0:0:0:0:
128,128,267648,5,2,0:0:0:0:
128,128,267802,1,2,0:0:0:0:
128,128,267955,5,0,0:0:0:0:
128,128,268032,5,2,0:0:0:0:
128,128,268109,1,2,0:0:0:0:
128,128,268186,1,2,0:0:0:0:
128,128,268302,1,2,0:0:0:0:
128,128,268417,5,0,0:0:0:0:
128,128,268532,5,2,0:0:0:0:
128,128,268648,5,0,0:0:0:0:
128,128,268763,5,2,0:0:0:0:
128,128,268878,5,0,0:0:0:0:
128,128,268955,1,0,0:0:0:0:
128,128,269032,5,2,0:0:0:0:
128,128,269109,5,0,0:0:0:0:
128,128,269186,1,0,0:0:0:0:
128,128,269263,5,2,0:0:0:0:
128,128,269340,1,2,0:0:0:0:
128,128,269455,5,0,0:0:0:0:
128,128,269571,1,0,0:0:0:0:
128,128,269802,1,0,0:0:0:0:
128,128,270032,5,2,0:0:0:0:
128,128,270109,1,2,0:0:0:0:
128,128,270186,1,2,0:0:0:0:
128,128,270263,5,0,0:0:0:0:
128,128,270340,1,0,0:0:0:0:
128,128,270417,1,0,0:0:0:0:
128,128,270494,1,0,0:0:0:0:
128,128,270609,5,2,0:0:0:0:
128,128,270725,5,0,0:0:0:0:
128,128,270802,1,0,0:0:0:0:
128,128,270878,1,0,0:0:0:0:
128,128,270955,5,2,0:0:0:0:
128,128,271032,1,2,0:0:0:0:
128,128,271109,1,2,0:0:0:0:
128,128,271186,5,0,0:0:0:0:
128,128,271302,5,2,0:0:0:0:
128,128,271417,5,0,0:0:0:0:
128,128,271494,1,0,0:0:0:0:
128,128,271571,1,0,0:0:0:0:
128,128,271648,5,2,0:0:0:0:
128,128,271725,5,0,0:0:0:0:
128,128,271802,1,0,0:0:0:0:
128,128,271878,5,2,0:0:0:0:
128,128,271955,5,0,0:0:0:0:
128,128,272032,1,0,0:0:0:0:
128,128,272109,5,2,0:0:0:0:
128,128,272263,1,2,0:0:0:0:
128,128,272417,5,0,0:0:0:0:
128,128,272571,1,0,0:0:0:0:
128,128,272648,5,2,0:0:0:0:
128,128,272725,1,2,0:0:0:0:
128,128,272802,1,2,0:0:0:0:
128,128,272917,1,2,0:0:0:0:
128,128,273032,5,0,0:0:0:0:
128,128,273148,5,2,0:0:0:0:
128,128,273263,5,0,0:0:0:0:
128,128,273378,1,0,0:0:0:0:
128,128,273494,1,0,0:0:0:0:
128,128,273609,5,2,0:0:0:0:
128,128,273725,5,0,0:0:0:0:
128,128,273840,5,2,0:0:0:0:
128,128,273955,5,0,0:0:0:0:
128,128,274032,1,0,0:0:0:0:
128,128,274109,1,0,0:0:0:0:
128,128,274186,1,0,0:0:0:0:
128,128,274302,5,2,0:0:0:0:
128,128,274417,5,0,0:0:0:0:
128,128,274571,1,0,0:0:0:0:
128,128,274725,1,0,0:0:0:0:
128,128,274878,5,2,0:0:0:0:
128,128,275032,1,2,0:0:0:0:
128,128,275186,1,2,0:0:0:0:
128,128,275340,5,0,0:0:0:0:
128,128,275417,1,0,0:0:0:0:
128,128,275494,1,0,0:0:0:0:
128,128,275571,5,2,0:0:0:0:
128,128,275648,1,2,0:0:0:0:
128,128,275725,1,2,0:0:0:0:
128,128,275802,5,0,0:0:0:0:
128,128,293744,1,0,0:0:0:0:
128,128,293819,1,0,0:0:0:0:
128,128,293894,1,0,0:0:0:0:
128,128,293944,1,0,0:0:0:0:
128,128,293994,1,0,0:0:0:0:
128,128,294044,1,0,0:0:0:0:
128,128,294344,5,2,0:0:0:0:
128,128,294644,5,0,0:0:0:0:
128,128,294794,5,2,0:0:0:0:
128,128,295094,5,0,0:0:0:0:
128,128,295319,5,2,0:0:0:0:
128,128,295394,5,0,0:0:0:0:
128,128,295544,5,2,0:0:0:0:
128,128,295694,1,2,0:0:0:0:
128,128,295844,5,0,0:0:0:0:
128,128,295919,1,0,0:0:0:0:
128,128,295994,1,0,0:0:0:0:
128,128,296144,5,2,0:0:0:0:
128,128,296294,5,0,0:0:0:0:
128,128,296444,1,0,0:0:0:0:
128,128,296594,1,0,0:0:0:0:
128,128,296744,1,0,0:0:0:0:
128,128,296819,5,2,0:0:0:0:
128,128,296894,5,0,0:0:0:0:
128,128,297044,1,0,0:0:0:0:
128,128,297119,5,2,0:0:0:0:
128,128,297194,5,0,0:0:0:0:
128,128,297344,1,0,0:0:0:0:
128,128,297419,5,2,0:0:0:0:
128,128,297494,5,0,0:0:0:0:
128,128,297644,1,0,0:0:0:0:
128,128,297719,5,2,0:0:0:0:
128,128,297794,1,2,0:0:0:0:
128,128,297869,1,2,0:0:0:0:
128,128,297944,5,0,0:0:0:0:
128,128,298019,5,2,0:0:0:0:
128,128,298094,1,2,0:0:0:0:
128,128,298169,1,2,0:0:0:0:
128,128,298244,1,2,0:0:0:0:
128,128,298281,1,2,0:0:0:0:
128,128,298319,1,2,0:0:0:0:
128,128,298394,1,2,0:0:0:0:
128,128,298469,1,2,0:0:0:0:
128,128,298544,5,0,0:0:0:0:
128,128,298619,5,2,0:0:0:0:
128,128,298694,1,2,0:0:0:0:
128,128,298769,1,2,0:0:0:0:
128,128,298844,5,0,0:0:0:0:
128,128,299069,1,4,0:0:0:0:
128,128,299294,5,6,0:0:0:0:
128,128,299519,5,4,0:0:0:0:
128,128,299819,1,4,0:0:0:0:
128,128,299969,1,4,0:0:0:0:
128,128,300119,1,4,0:0:0:0:
128,128,300269,1,0,0:0:0:0:
128,128,300344,1,0,0:0:0:0:
128,128,300494,5,6,0:0:0:0:
128,128,300719,1,2,0:0:0:0:
128,128,300794,5,0,0:0:0:0:
128,128,300944,5,6,0:0:0:0:
128,128,301094,5,4,0:0:0:0:
256,192,301244,12,0,302294,0:0:0:0:
128,128,302444,5,0,0:0:0:0:
128,128,302519,1,0,0:0:0:0:
128,128,302594,1,0,0:0:0:0:
128,128,302631,1,0,0:0:0:0:
128,128,302669,1,0,0:0:0:0:
128,128,302744,1,0,0:0:0:0:
128,128,302819,1,0,0:0:0:0:
128,128,302894,1,0,0:0:0:0:
128,128,302931,1,0,0:0:0:0:
128,128,302969,1,0,0:0:0:0:
128,128,303044,1,0,0:0:0:0:
128,128,303119,1,0,0:0:0:0:
128,128,303269,1,0,0:0:0:0:
128,128,303419,1,0,0:0:0:0:
128,128,303569,1,0,0:0:0:0:
128,128,303644,1,0,0:0:0:0:
128,128,303944,5,2,0:0:0:0:
128,128,304169,1,2,0:0:0:0:
128,128,304244,5,0,0:0:0:0:
128,128,304394,1,0,0:0:0:0:
128,128,304544,5,2,0:0:0:0:
128,128,304694,5,0,0:0:0:0:
128,128,304769,5,2,0:0:0:0:
128,128,304844,5,0,0:0:0:0:
128,128,304994,1,0,0:0:0:0:
128,128,305144,5,2,0:0:0:0:
128,128,305294,5,0,0:0:0:0:
128,128,305444,1,0,0:0:0:0:
128,128,305519,1,0,0:0:0:0:
128,128,305594,1,0,0:0:0:0:
128,128,305744,5,2,0:0:0:0:
128,128,305894,5,0,0:0:0:0:
128,128,306044,1,0,0:0:0:0:
128,128,306194,1,0,0:0:0:0:
128,128,306269,1,0,0:0:0:0:
128,128,306344,5,2,0:0:0:0:
128,128,306494,5,0,0:0:0:0:
128,128,306569,5,2,0:0:0:0:
128,128,306644,5,0,0:0:0:0:
128,128,306719,1,0,0:0:0:0:
128,128,306794,5,2,0:0:0:0:
128,128,306944,1,2,0:0:0:0:
128,128,307094,1,2,0:0:0:0:
128,128,307169,1,2,0:0:0:0:
128,128,307244,5,0,0:0:0:0:
128,128,307394,1,0,0:0:0:0:
128,128,307544,5,2,0:0:0:0:
128,128,307694,5,0,0:0:0:0:
128,128,307769,5,2,0:0:0:0:
128,128,307844,5,0,0:0:0:0:
128,128,307919,5,2,0:0:0:0:
128,128,307994,5,0,0:0:0:0:
128,128,308069,1,0,0:0:0:0:
128,128,308144,5,2,0:0:0:0:
128,128,308294,1,2,0:0:0:0:
128,128,308444,5,4,0:0:0:0:
128,128,308744,5,2,0:0:0:0:
128,128,308969,1,2,0:0:0:0:
128,128,309044,5,0,0:0:0:0:
128,128,309194,1,0,0:0:0:0:
128,128,309344,5,2,0:0:0:0:
128,128,309494,5,0,0:0:0:0:
128,128,309569,5,2,0:0:0:0:
128,128,309644,5,0,0:0:0:0:
128,128,309794,1,0,0:0:0:0:
128,128,309944,5,2,0:0:0:0:
128,128,310094,5,0,0:0:0:0:
128,128,310244,1,0,0:0:0:0:
128,128,310319,1,0,0:0:0:0:
128,128,310394,1,0,0:0:0:0:
128,128,310544,5,2,0:0:0:0:
128,128,310694,5,0,0:0:0:0:
128,128,310844,1,0,0:0:0:0:
128,128,310994,1,0,0:0:0:0:
128,128,311069,1,0,0:0:0:0:
128,128,311144,5,2,0:0:0:0:
128,128,311294,5,0,0:0:0:0:
128,128,311369,5,2,0:0:0:0:
128,128,311444,5,0,0:0:0:0:
128,128,311519,1,0,0:0:0:0:
128,128,311594,5,2,0:0:0:0:
128,128,311744,1,2,0:0:0:0:
128,128,311894,5,0,0:0:0:0:
128,128,311969,1,0,0:0:0:0:
128,128,312044,5,2,0:0:0:0:
128,128,312194,5,0,0:0:0:0:
128,128,312269,5,2,0:0:0:0:
128,128,312344,5,0,0:0:0:0:
128,128,312494,1,0,0:0:0:0:
128,128,312569,5,2,0:0:0:0:
128,128,312644,5,0,0:0:0:0:
128,128,312694,1,0,0:0:0:0:
128,128,312744,1,0,0:0:0:0:
128,128,312794,5,2,0:0:0:0:
128,128,312869,5,0,0:0:0:0:
128,128,312944,5,2,0:0:0:0:
128,128,313094,1,2,0:0:0:0:
128,128,313244,5,4,0:0:0:0:
128,128,313394,1,0,0:0:0:0:
128,128,313544,5,2,0:0:0:0:
128,128,313694,5,0,0:0:0:0:
128,128,313769,5,2,0:0:0:0:
128,128,313844,5,0,0:0:0:0:
128,128,313994,1,0,0:0:0:0:
128,128,314144,5,2,0:0:0:0:
128,128,314294,5,0,0:0:0:0:
128,128,314369,5,2,0:0:0:0:
128,128,314444,5,0,0:0:0:0:
128,128,314594,1,0,0:0:0:0:
128,128,314744,5,2,0:0:0:0:
128,128,314894,5,0,0:0:0:0:
128,128,314969,5,2,0:0:0:0:
128,128,315044,5,0,0:0:0:0:
128,128,315119,1,0,0:0:0:0:
128,128,315194,1,0,0:0:0:0:
128,128,315344,5,2,0:0:0:0:
128,128,315494,5,0,0:0:0:0:
128,128,315644,1,0,0:0:0:0:
128,128,315794,1,0,0:0:0:0:
128,128,315869,1,0,0:0:0:0:
128,128,315944,5,2,0:0:0:0:
128,128,316094,5,0,0:0:0:0:
128,128,316169,5,2,0:0:0:0:
128,128,316244,5,0,0:0:0:0:
128,128,316319,1,0,0:0:0:0:
128,128,316394,5,2,0:0:0:0:
128,128,316544,1,2,0:0:0:0:
128,128,316694,1,2,0:0:0:0:
128,128,316769,1,2,0:0:0:0:
128,128,316844,5,0,0:0:0:0:
128,128,316994,1,0,0:0:0:0:
128,128,317144,5,2,0:0:0:0:
128,128,317294,5,0,0:0:0:0:
128,128,317369,5,2,0:0:0:0:
128,128,317444,5,0,0:0:0:0:
128,128,317519,5,2,0:0:0:0:
128,128,317594,5,0,0:0:0:0:
128,128,317669,1,0,0:0:0:0:
128,128,317744,5,2,0:0:0:0:
128,128,317894,1,2,0:0:0:0:
128,128,318044,5,4,0:0:0:0:
128,128,318194,1,0,0:0:0:0:
128,128,318344,5,2,0:0:0:0:
128,128,318494,5,0,0:0:0:0:
128,128,318569,5,2,0:0:0:0:
128,128,318644,5,0,0:0:0:0:
128,128,318794,1,0,0:0:0:0:
128,128,318944,5,2,0:0:0:0:
128,128,319094,5,0,0:0:0:0:
128,128,319169,5,2,0:0:0:0:
128,128,319244,5,0,0:0:0:0:
128,128,319394,1,0,0:0:0:0:
128,128,319544,5,2,0:0:0:0:
128,128,319694,5,0,0:0:0:0:
128,128,319769,5,2,0:0:0:0:
128,128,319844,5,0,0:0:0:0:
128,128,319919,1,0,0:0:0:0:
128,128,319994,1,0,0:0:0:0:
128,128,320144,5,2,0:0:0:0:
128,128,320294,5,0,0:0:0:0:
128,128,320444,1,0,0:0:0:0:
128,128,320594,1,0,0:0:0:0:
128,128,320669,1,0,0:0:0:0:
128,128,320744,5,2,0:0:0:0:
128,128,320894,5,0,0:0:0:0:
128,128,320969,5,2,0:0:0:0:
128,128,321044,5,0,0:0:0:0:
128,128,321119,1,0,0:0:0:0:
128,128,321194,5,2,0:0:0:0:
128,128,321344,1,2,0:0:0:0:
128,128,321494,5,0,0:0:0:0:
128,128,321569,1,0,0:0:0:0:
128,128,321644,5,2,0:0:0:0:
128,128,321794,5,0,0:0:0:0:
128,128,321869,5,2,0:0:0:0:
128,128,321944,5,0,0:0:0:0:
128,128,322094,1,0,0:0:0:0:
128,128,322169,5,2,0:0:0:0:
128,128,322244,5,0,0:0:0:0:
128,128,322294,1,0,0:0:0:0:
128,128,322344,1,0,0:0:0:0:
128,128,322394,5,2,0:0:0:0:
128,128,322469,5,0,0:0:0:0:
128,128,322544,1,0,0:0:0:0:
128,128,322594,1,0,0:0:0:0:
128,128,322694,5,2,0:0:0:0:
128,128,322744,1,2,0:0:0:0:
128,128,322844,5,0,0:0:0:0:
128,128,322994,1,0,0:0:0:0:
128,128,323144,1,0,0:0:0:0:
128,128,323294,1,0,0:0:0:0:
128,128,323369,1,0,0:0:0:0:
128,128,323444,5,2,0:0:0:0:
128,128,323594,5,0,0:0:0:0:
128,128,323744,1,0,0:0:0:0:
128,128,323819,1,0,0:0:0:0:
128,128,323894,5,2,0:0:0:0:
128,128,324044,5,4,0:0:0:0:
128,128,324194,5,2,0:0:0:0:
128,128,324344,5,4,0:0:0:0:
128,128,324494,5,2,0:0:0:0:
128,128,324644,5,0,0:0:0:0:
128,128,324719,1,0,0:0:0:0:
128,128,324794,5,2,0:0:0:0:
128,128,324869,5,0,0:0:0:0:
128,128,324944,1,0,0:0:0:0:
128,128,325094,1,0,0:0:0:0:
128,128,325244,1,0,0:0:0:0:
128,128,325394,1,0,0:0:0:0:
128,128,325469,1,0,0:0:0:0:
128,128,325544,5,2,0:0:0:0:
128,128,325694,5,0,0:0:0:0:
128,128,325844,1,0,0:0:0:0:
128,128,325919,1,0,0:0:0:0:
128,128,325994,5,2,0:0:0:0:
128,128,326144,5,0,0:0:0:0:
128,128,326294,5,6,0:0:0:0:
128,128,326444,5,0,0:0:0:0:
128,128,326594,5,6,0:0:0:0:
128,128,326744,5,0,0:0:0:0:
128,128,326781,1,0,0:0:0:0:
128,128,326819,1,0,0:0:0:0:
128,128,326894,5,2,0:0:0:0:
128,128,326969,5,0,0:0:0:0:
128,128,327044,1,0,0:0:0:0:
128,128,327194,1,0,0:0:0:0:
128,128,327344,1,0,0:0:0:0:
128,128,327494,1,0,0:0:0:0:
128,128,327569,1,0,0:0:0:0:
128,128,327644,5,2,0:0:0:0:
128,128,327794,5,0,0:0:0:0:
128,128,327944,1,0,0:0:0:0:
128,128,328019,1,0,0:0:0:0:
128,128,328094,5,2,0:0:0:0:
128,128,328244,5,4,0:0:0:0:
128,128,328394,5,2,0:0:0:0:
128,128,328544,5,4,0:0:0:0:
128,128,328694,5,2,0:0:0:0:
128,128,328844,5,0,0:0:0:0:
128,128,328919,1,0,0:0:0:0:
128,128,328994,5,2,0:0:0:0:
128,128,329069,5,0,0:0:0:0:
128,128,329144,5,2,0:0:0:0:
128,128,329194,5,0,0:0:0:0:
128,128,329244,1,0,0:0:0:0:
128,128,329294,5,2,0:0:0:0:
128,128,329369,5,0,0:0:0:0:
128,128,329444,5,2,0:0:0:0:
128,128,329494,5,0,0:0:0:0:
128,128,329544,1,0,0:0:0:0:
128,128,329594,5,2,0:0:0:0:
128,128,329669,5,0,0:0:0:0:
128,128,329744,1,0,0:0:0:0:
128,128,329894,1,4,0:0:0:0:
128,128,330044,1,4,0:0:0:0:
128,128,330194,1,4,0:0:0:0:
128,128,330344,5,2,0:0:0:0:
128,128,330381,1,2,0:0:0:0:
128,128,330419,1,2,0:0:0:0:
128,128,330494,5,0,0:0:0:0:
128,128,330569,1,0,0:0:0:0:
128,128,330644,5,2,0:0:0:0:
128,128,330681,1,2,0:0:0:0:
128,128,330719,1,2,0:0:0:0:
128,128,330794,5,0,0:0:0:0:
128,128,330869,1,0,0:0:0:0:
128,128,330944,5,2,0:0:0:0:
128,128,330994,5,0,0:0:0:0:
128,128,331044,1,0,0:0:0:0:
128,128,331094,5,2,0:0:0:0:
128,128,331144,5,0,0:0:0:0:
128,128,331194,1,0,0:0:0:0:
128,128,331244,1,0,0:0:0:0:
128,128,331319,1,0,0:0:0:0:
128,128,331394,1,0,0:0:0:0:
128,128,331469,1,0,0:0:0:0:
128,128,331544,5,2,0:0:0:0:
128,128,331581,1,2,0:0:0:0:
128,128,331619,1,2,0:0:0:0:
128,128,331994,1,2,0:0:0:0:
128,128,332144,1,2,0:0:0:0:
128,128,332294,1,2,0:0:0:0:
128,128,332444,1,2,0:0:0:0:
128,128,332744,1,2,0:0:0:0:
128,128,332894,1,2,0:0:0:0:
128,128,333194,1,2,0:0:0:0:
128,128,333344,1,2,0:0:0:0:
128,128,333644,1,2,0:0:0:0:
128,128,333794,1,2,0:0:0:0:
128,128,334094,1,2,0:0:0:0:
128,128,334244,1,2,0:0:0:0:
128,128,334844,1,2,0:0:0:0:
128,128,335144,1,2,0:0:0:0:
128,128,335594,1,2,0:0:0:0:
128,128,335894,1,2,0:0:0:0:
128,128,336044,1,2,0:0:0:0:
128,128,336344,1,2,0:0:0:0:
128,128,336644,1,2,0:0:0:0:
128,128,336944,1,2,0:0:0:0:
128,128,337244,1,2,0:0:0:0:
128,128,337394,1,2,0:0:0:0:
128,128,337694,1,2,0:0:0:0:
128,128,337844,1,2,0:0:0:0:
128,128,338294,1,2,0:0:0:0:
128,128,338369,1,2,0:0:0:0:
128,128,338444,1,2,0:0:0:0:
128,128,338594,1,2,0:0:0:0:
128,128,338744,1,2,0:0:0:0:
128,128,338781,1,2,0:0:0:0:
128,128,338819,1,2,0:0:0:0:
128,128,339194,5,0,0:0:0:0:
128,128,339344,5,2,0:0:0:0:
128,128,339494,1,2,0:0:0:0:
128,128,339644,1,2,0:0:0:0:
128,128,339794,5,0,0:0:0:0:
128,128,339944,1,0,0:0:0:0:
128,128,340094,5,2,0:0:0:0:
128,128,340394,5,0,0:0:0:0:
128,128,340544,5,2,0:0:0:0:
128,128,340694,5,0,0:0:0:0:
128,128,340844,5,2,0:0:0:0:
128,128,340994,1,2,0:0:0:0:
128,128,341294,5,0,0:0:0:0:
128,128,341444,5,2,0:0:0:0:
128,128,341594,5,0,0:0:0:0:
128,128,341744,1,0,0:0:0:0:
128,128,341894,5,2,0:0:0:0:
128,128,342044,1,2,0:0:0:0:
128,128,342344,1,2,0:0:0:0:
128,128,342494,1,2,0:0:0:0:
128,128,342644,5,0,0:0:0:0:
128,128,342794,5,2,0:0:0:0:
128,128,342944,5,0,0:0:0:0:
128,128,343094,1,0,0:0:0:0:
128,128,343244,5,2,0:0:0:0:
128,128,343394,5,0,0:0:0:0:
128,128,343544,5,2,0:0:0:0:
128,128,343694,5,0,0:0:0:0:
128,128,343844,5,2,0:0:0:0:
128,128,344144,1,2,0:0:0:0:
128,128,344294,5,0,0:0:0:0:
128,128,344444,5,2,0:0:0:0:
128,128,344594,1,2,0:0:0:0:
128,128,344744,5,0,0:0:0:0:
128,128,344894,5,2,0:0:0:0:
128,128,344969,1,2,0:0:0:0:
128,128,345044,1,2,0:0:0:0:
128,128,345194,5,0,0:0:0:0:
128,128,345344,1,0,0:0:0:0:
128,128,345494,5,2,0:0:0:0:
128,128,345644,5,0,0:0:0:0:
128,128,345944,1,0,0:0:0:0:
128,128,346019,1,0,0:0:0:0:
128,128,346094,1,0,0:0:0:0:
128,128,346169,1,0,0:0:0:0:
128,128,346244,1,0,0:0:0:0:
128,128,346394,1,0,0:0:0:0:
128,128,346469,1,0,0:0:0:0:
128,128,346544,1,0,0:0:0:0:
128,128,346594,1,0,0:0:0:0:
128,128,346644,1,0,0:0:0:0:
128,128,346694,1,0,0:0:0:0:
128,128,346744,1,0,0:0:0:0:
128,128,346794,1,0,0:0:0:0:
128,128,346844,1,0,0:0:0:0:
128,128,346919,1,0,0:0:0:0:
128,128,346994,1,0,0:0:0:0:
128,128,347069,1,0,0:0:0:0:
128,128,347144,1,0,0:0:0:0:
128,128,347294,1,0,0:0:0:0:
128,128,347369,1,0,0:0:0:0:
128,128,347444,1,0,0:0:0:0:
128,128,347494,1,0,0:0:0:0:
128,128,347544,1,0,0:0:0:0:
128,128,347594,1,0,0:0:0:0:
128,128,347644,1,0,0:0:0:0:
128,128,347694,1,0,0:0:0:0:
128,128,348944,1,4,0:0:0:0:
128,128,349244,5,2,0:0:0:0:
128,128,349469,1,2,0:0:0:0:
128,128,349544,5,0,0:0:0:0:
128,128,349694,1,0,0:0:0:0:
128,128,349844,5,2,0:0:0:0:
128,128,349994,5,0,0:0:0:0:
128,128,350069,5,2,0:0:0:0:
128,128,350219,1,2,0:0:0:0:
128,128,350294,5,0,0:0:0:0:
128,128,350444,5,2,0:0:0:0:
128,128,350594,5,0,0:0:0:0:
128,128,350669,5,2,0:0:0:0:
128,128,350744,5,0,0:0:0:0:
128,128,350894,1,0,0:0:0:0:
128,128,351044,5,2,0:0:0:0:
128,128,351194,1,2,0:0:0:0:
128,128,351269,1,2,0:0:0:0:
128,128,351344,5,0,0:0:0:0:
128,128,351644,5,2,0:0:0:0:
128,128,351869,1,2,0:0:0:0:
128,128,351944,5,0,0:0:0:0:
128,128,352094,1,0,0:0:0:0:
128,128,352244,5,2,0:0:0:0:
128,128,352394,5,0,0:0:0:0:
128,128,352469,5,2,0:0:0:0:
128,128,352619,1,2,0:0:0:0:
128,128,352694,5,0,0:0:0:0:
128,128,352769,1,0,0:0:0:0:
128,128,352844,5,2,0:0:0:0:
128,128,352994,5,0,0:0:0:0:
128,128,353069,5,2,0:0:0:0:
128,128,353144,5,0,0:0:0:0:
128,128,353219,5,2,0:0:0:0:
128,128,353294,1,2,0:0:0:0:
128,128,353369,5,0,0:0:0:0:
128,128,353444,5,2,0:0:0:0:
128,128,353519,1,2,0:0:0:0:
128,128,353594,1,2,0:0:0:0:
128,128,353669,1,2,0:0:0:0:
128,128,353744,5,0,0:0:0:0:
128,128,354044,5,2,0:0:0:0:
128,128,354269,1,2,0:0:0:0:
128,128,354344,5,0,0:0:0:0:
128,128,354494,1,0,0:0:0:0:
128,128,354644,5,2,0:0:0:0:
128,128,354794,5,0,0:0:0:0:
128,128,354869,5,2,0:0:0:0:
128,128,355019,1,2,0:0:0:0:
128,128,355094,5,0,0:0:0:0:
128,128,355244,5,2,0:0:0:0:
128,128,355394,5,0,0:0:0:0:
128,128,355469,5,2,0:0:0:0:
128,128,355544,5,0,0:0:0:0:
128,128,355694,1,0,0:0:0:0:
128,128,355844,5,2,0:0:0:0:
128,128,355994,1,2,0:0:0:0:
128,128,356069,1,2,0:0:0:0:
128,128,356144,5,0,0:0:0:0:
128,128,356444,5,2,0:0:0:0:
128,128,356669,1,2,0:0:0:0:
128,128,356744,5,0,0:0:0:0:
128,128,356894,1,0,0:0:0:0:
128,128,357044,5,2,0:0:0:0:
128,128,357194,5,0,0:0:0:0:
128,128,357269,5,2,0:0:0:0:
128,128,357419,1,2,0:0:0:0:
128,128,357494,5,0,0:0:0:0:
128,128,357569,1,0,0:0:0:0:
128,128,357644,5,2,0:0:0:0:
128,128,357794,5,0,0:0:0:0:
128,128,357869,5,2,0:0:0:0:
128,128,357944,5,0,0:0:0:0:
128,128,358019,5,2,0:0:0:0:
128,128,358094,5,0,0:0:0:0:
128,128,358169,1,0,0:0:0:0:
128,128,358244,5,2,0:0:0:0:
128,128,358294,1,2,0:0:0:0:
128,128,358344,1,2,0:0:0:0:
128,128,358394,1,2,0:0:0:0:
128,128,358469,1,2,0:0:0:0:
128,128,358544,5,0,0:0:0:0:
128,128,358844,5,2,0:0:0:0:
128,128,359069,1,2,0:0:0:0:
128,128,359144,5,0,0:0:0:0:
128,128,359219,5,2,0:0:0:0:
128,128,359294,5,0,0:0:0:0:
128,128,359444,5,2,0:0:0:0:
128,128,359594,5,0,0:0:0:0:
128,128,359669,5,2,0:0:0:0:
128,128,359819,1,2,0:0:0:0:
128,128,359894,5,0,0:0:0:0:
128,128,360044,5,2,0:0:0:0:
128,128,360194,5,0,0:0:0:0:
128,128,360269,5,2,0:0:0:0:
128,128,360344,5,0,0:0:0:0:
128,128,360419,5,2,0:0:0:0:
128,128,360494,5,0,0:0:0:0:
128,128,360644,5,2,0:0:0:0:
128,128,360794,1,2,0:0:0:0:
128,128,360869,1,2,0:0:0:0:
128,128,360944,5,0,0:0:0:0:
128,128,361094,1,0,0:0:0:0:
128,128,361244,5,2,0:0:0:0:
128,128,361469,1,2,0:0:0:0:
128,128,361544,5,0,0:0:0:0:
128,128,361619,5,2,0:0:0:0:
128,128,361694,5,0,0:0:0:0:
128,128,361769,1,0,0:0:0:0:
128,128,361844,5,2,0:0:0:0:
128,128,361994,5,0,0:0:0:0:
128,128,362069,5,2,0:0:0:0:
128,128,362219,1,2,0:0:0:0:
128,128,362294,5,0,0:0:0:0:
128,128,362369,1,0,0:0:0:0:
128,128,362444,5,2,0:0:0:0:
128,128,362594,5,0,0:0:0:0:
128,128,362669,5,2,0:0:0:0:
128,128,362744,5,0,0:0:0:0:
128,128,362819,5,2,0:0:0:0:
128,128,362894,1,2,0:0:0:0:
128,128,362969,5,0,0:0:0:0:
128,128,363044,5,2,0:0:0:0:
128,128,363119,1,2,0:0:0:0:
128,128,363194,1,2,0:0:0:0:
128,128,363269,1,2,0:0:0:0:
128,128,363344,5,0,0:0:0:0:
128,128,363644,5,2,0:0:0:0:
128,128,363869,1,2,0:0:0:0:
128,128,363944,5,0,0:0:0:0:
128,128,364019,5,2,0:0:0:0:
128,128,364094,5,0,0:0:0:0:
128,128,364244,5,2,0:0:0:0:
128,128,364394,5,0,0:0:0:0:
128,128,364469,5,2,0:0:0:0:
128,128,364619,1,2,0:0:0:0:
128,128,364694,5,0,0:0:0:0:
128,128,364844,5,2,0:0:0:0:
128,128,364994,5,0,0:0:0:0:
128,128,365069,5,2,0:0:0:0:
128,128,365144,5,0,0:0:0:0:
128,128,365219,5,2,0:0:0:0:
128,128,365294,5,0,0:0:0:0:
128,128,365444,5,2,0:0:0:0:
128,128,365594,1,2,0:0:0:0:
128,128,365669,1,2,0:0:0:0:
128,128,365744,5,0,0:0:0:0:
128,128,365894,1,0,0:0:0:0:
128,128,366044,5,2,0:0:0:0:
128,128,366269,1,2,0:0:0:0:
128,128,366344,5,0,0:0:0:0:
128,128,366419,5,2,0:0:0:0:
128,128,366494,5,0,0:0:0:0:
128,128,366569,1,0,0:0:0:0:
128,128,366644,5,2,0:0:0:0:
128,128,366794,5,0,0:0:0:0:
128,128,366869,5,2,0:0:0:0:
128,128,367019,1,2,0:0:0:0:
128,128,367094,5,0,0:0:0:0:
128,128,367169,1,0,0:0:0:0:
128,128,367244,5,2,0:0:0:0:
128,128,367394,5,0,0:0:0:0:
128,128,367469,5,2,0:0:0:0:
128,128,367544,5,0,0:0:0:0:
128,128,367619,5,2,0:0:0:0:
128,128,367694,5,0,0:0:0:0:
128,128,367769,1,0,0:0:0:0:
128,128,367844,5,2,0:0:0:0:
128,128,367894,1,2,0:0:0:0:
128,128,367944,1,2,0:0:0:0:
128,128,367994,1,2,0:0:0:0:
128,128,368144,5,4,0:0:0:0:
128,128,368444,5,6,0:0:0:0:
128,128,368744,5,4,0:0:0:0:
128,128,369044,1,4,0:0:0:0:
128,128,369194,1,4,0:0:0:0:
128,128,369344,1,0,0:0:0:0:
128,128,369494,1,0,0:0:0:0:
