osu file format v14

[General]
AudioFilename: tatsujin.mp3
AudioLeadIn: 0
PreviewTime: -1
Countdown: 1
SampleSet: Normal
StackLeniency: 0.7
Mode: 1
LetterboxInBreaks: 0
WidescreenStoryboard: 1

[Editor]
DistanceSpacing: 1.3
BeatDivisor: 4
GridSize: 32
TimelineZoom: 1

[Metadata]
Title:Taiko no Tatsujin Blue ver. Dannidouzyou jindani
TitleUnicode:太鼓の達人ブルーver 段位道場 人段位
Artist:Various Artists
ArtistUnicode:Various Artists
Creator:About
Version:tatsujin
Source:
Tags:
BeatmapID:1965280
BeatmapSetID:860968

[Difficulty]
HPDrainRate:6
CircleSize:5
OverallDifficulty:6
ApproachRate:5
SliderMultiplier:1.4
SliderTickRate:1

[Events]
//Background and Video events
//Break Periods
2,135795,141571
2,266073,274381
//Storyboard Layer 0 (Background)
//Storyboard Layer 1 (Fail)
//Storyboard Layer 2 (Pass)
//Storyboard Layer 3 (Foreground)
//Storyboard Sound Samples

[TimingPoints]
7580,375,4,1,0,100,1,0
8330,400,4,1,0,100,1,0
9129,413.793103448276,4,1,0,100,1,0
9129,-90.9090909090909,4,1,0,100,0,0
9543,468.75,4,1,0,100,1,0
9543,-80,4,1,0,100,0,0
10012,555.555555555556,4,1,0,100,1,0
10012,-133.333333333333,4,1,0,100,0,0
10568,722.89156626506,4,1,0,100,1,0
10568,-100,4,1,0,100,0,0
11290,1224.48979591837,4,1,0,100,1,0
11290,-100,4,1,0,100,0,0
12515,1200,3,1,0,100,1,0
14915,625,3,1,0,100,1,0
14915,-100,3,1,0,100,0,0
19915,-100,3,1,0,100,0,0
21790,-100,3,1,0,100,0,0
66790,250,4,1,0,100,1,0
66790,-100,4,1,0,100,0,1
67540,-100,4,1,0,100,0,1
83540,625,4,1,0,100,1,1
83540,-100,4,1,0,100,0,0
84165,-100,4,1,0,100,0,0
94165,193.548387096774,4,1,0,100,1,0
96488,468.75,4,1,0,100,1,0
105863,187.5,4,1,0,100,1,0
105863,-100,4,1,0,100,0,0
108113,-100,4,1,0,100,0,0
108863,714.285714285714,4,1,0,100,1,0
109577,612.244897959184,4,1,0,100,1,0
110189,526.315789473684,4,1,0,100,1,0
110715,495.867768595041,4,1,0,100,1,0
111211,408.163265306122,4,1,0,100,1,0
111619,361.44578313253,4,1,0,100,1,0
111981,315.789473684211,4,1,0,100,1,0
112297,277.777777777778,4,1,0,100,1,0
112574,244.897959183673,4,1,0,100,1,0
132166,214.285714285714,4,1,0,100,1,0
132166,-100,4,1,0,100,0,0
134738,-100,4,1,0,100,0,0
145819,-200,4,1,0,100,0,0
145819,-100,4,1,0,100,0,0
200676,-200,4,1,0,100,0,1
213533,-133.333333333333,4,1,0,100,0,1
214391,-200,4,1,0,100,0,0
222962,-100,4,1,0,100,0,0
224676,-100,4,1,0,100,0,1
250391,-36.6300366300366,4,1,0,100,0,0
251248,-200,4,1,0,100,0,0
252105,-200,4,1,0,100,0,1
258962,-100,4,1,0,100,0,1
265819,-100,4,1,0,100,0,0
275581,400,4,1,0,100,1,0
275581,-100,4,1,0,100,0,0
278381,-50,4,1,0,100,0,0
278781,200,4,1,0,100,1,0
278781,-100,4,1,0,100,0,0
291581,400,4,1,0,100,1,0
291581,-50,4,1,0,100,0,0
292381,200,2,1,0,100,1,0
292381,-100,2,1,0,100,0,0
311181,-100,2,1,0,100,0,1
311581,-100,2,1,0,100,0,0
317581,-100,2,1,0,100,0,1
317981,-100,2,1,0,100,0,0
323981,-100,2,1,0,100,0,1
324381,-100,2,1,0,100,0,0
337181,800,4,1,0,100,1,0
337181,-25,4,1,0,100,0,0
338781,200,2,1,0,100,1,0
338781,-100,2,1,0,100,0,1
367581,-100,2,1,0,100,0,0
373981,-100,2,1,0,100,0,1
386781,-100,2,1,0,100,0,0
399581,-100,2,1,0,100,0,1
409181,800,4,1,0,100,1,1
409181,-25,4,1,0,100,0,1
412381,-100,4,1,0,100,0,1

[HitObjects]
128,128,7580,5,4,0:0:0:0:
128,128,8330,1,4,0:0:0:0:
128,128,9129,1,0,0:0:0:0:
128,128,9233,1,0,0:0:0:0:
128,128,9336,1,0,0:0:0:0:
128,128,9405,1,0,0:0:0:0:
128,128,9474,1,0,0:0:0:0:
128,128,9543,1,0,0:0:0:0:
128,128,9660,1,0,0:0:0:0:
128,128,9778,5,2,0:0:0:0:
128,128,9895,5,0,0:0:0:0:
128,128,10012,5,2,0:0:0:0:
128,128,10105,1,2,0:0:0:0:
128,128,10197,5,0,0:0:0:0:
128,128,10290,1,0,0:0:0:0:
128,128,10382,1,0,0:0:0:0:
128,128,10429,1,0,0:0:0:0:
128,128,10475,1,0,0:0:0:0:
128,128,10568,1,0,0:0:0:0:
128,128,10688,1,0,0:0:0:0:
128,128,10809,1,0,0:0:0:0:
128,128,10929,1,0,0:0:0:0:
128,128,10989,1,0,0:0:0:0:
128,128,11050,1,0,0:0:0:0:
128,128,11110,1,0,0:0:0:0:
128,128,11170,1,0,0:0:0:0:
128,128,11230,1,0,0:0:0:0:
256,192,11290,12,0,13115,0:0:0:0:
128,128,14915,5,0,0:0:0:0:
128,128,15227,1,0,0:0:0:0:
128,128,15384,1,0,0:0:0:0:
128,128,15540,1,0,0:0:0:0:
128,128,15852,1,0,0:0:0:0:
128,128,16009,1,0,0:0:0:0:
128,128,16165,1,0,0:0:0:0:
128,128,16634,5,2,0:0:0:0:
128,128,16712,1,2,0:0:0:0:
128,128,16790,1,2,0:0:0:0:
128,128,17415,5,4,0:0:0:0:
128,128,18040,5,2,0:0:0:0:
128,128,18144,1,2,0:0:0:0:
128,128,18248,5,0,0:0:0:0:
128,128,18352,1,0,0:0:0:0:
128,128,18457,1,0,0:0:0:0:
128,128,18561,5,2,0:0:0:0:
128,128,18665,5,0,0:0:0:0:
128,128,18769,1,0,0:0:0:0:
128,128,18873,1,0,0:0:0:0:
128,128,18977,1,0,0:0:0:0:
128,128,19082,1,0,0:0:0:0:
128,128,19186,1,0,0:0:0:0:
128,128,19290,2,0,L|256:256,1,116.704
128,128,20227,1,0,0:0:0:0:
128,128,20540,1,0,0:0:0:0:
128,128,20957,1,0,0:0:0:0:
128,128,21165,5,2,0:0:0:0:
128,128,21269,1,2,0:0:0:0:
128,128,21373,5,0,0:0:0:0:
128,128,21477,1,0,0:0:0:0:
128,128,21634,5,2,0:0:0:0:
128,128,21790,5,0,0:0:0:0:
128,128,22102,5,2,0:0:0:0:
128,128,22259,5,0,0:0:0:0:
128,128,22415,1,0,0:0:0:0:
128,128,22571,5,2,0:0:0:0:
128,128,22727,1,2,0:0:0:0:
128,128,23040,5,0,0:0:0:0:
128,128,23352,5,2,0:0:0:0:
128,128,23509,5,0,0:0:0:0:
128,128,23665,1,0,0:0:0:0:
128,128,23821,5,2,0:0:0:0:
128,128,23977,1,2,0:0:0:0:
128,128,24290,5,0,0:0:0:0:
128,128,24602,5,2,0:0:0:0:
128,128,24759,5,0,0:0:0:0:
128,128,24915,1,0,0:0:0:0:
128,128,25071,5,2,0:0:0:0:
128,128,25384,1,2,0:0:0:0:
128,128,25540,5,0,0:0:0:0:
128,128,25852,1,0,0:0:0:0:
128,128,26009,1,0,0:0:0:0:
128,128,26165,1,0,0:0:0:0:
128,128,26321,1,0,0:0:0:0:
128,128,26477,1,0,0:0:0:0:
128,128,26790,1,0,0:0:0:0:
128,128,27102,5,2,0:0:0:0:
128,128,27259,5,0,0:0:0:0:
128,128,27415,1,0,0:0:0:0:
128,128,27727,5,2,0:0:0:0:
128,128,28040,5,0,0:0:0:0:
128,128,28352,5,2,0:0:0:0:
128,128,28509,5,0,0:0:0:0:
128,128,28665,1,0,0:0:0:0:
128,128,28821,1,0,0:0:0:0:
128,128,28977,5,2,0:0:0:0:
128,128,29290,1,2,0:0:0:0:
128,128,29446,1,2,0:0:0:0:
128,128,29602,5,0,0:0:0:0:
128,128,29915,5,2,0:0:0:0:
128,128,30227,5,0,0:0:0:0:
128,128,30384,1,0,0:0:0:0:
128,128,30540,1,0,0:0:0:0:
128,128,30852,5,2,0:0:0:0:
128,128,31165,1,2,0:0:0:0:
128,128,31321,5,0,0:0:0:0:
128,128,31477,1,0,0:0:0:0:
128,128,31790,1,0,0:0:0:0:
128,128,31946,1,0,0:0:0:0:
128,128,32102,1,0,0:0:0:0:
128,128,32259,1,0,0:0:0:0:
128,128,32415,5,2,0:0:0:0:
128,128,32727,1,2,0:0:0:0:
128,128,32884,5,0,0:0:0:0:
128,128,33040,1,0,0:0:0:0:
128,128,33352,1,0,0:0:0:0:
128,128,33665,5,2,0:0:0:0:
128,128,33821,5,0,0:0:0:0:
128,128,33977,1,0,0:0:0:0:
128,128,34290,5,2,0:0:0:0:
128,128,34602,5,0,0:0:0:0:
128,128,34915,5,2,0:0:0:0:
128,128,35071,5,0,0:0:0:0:
128,128,35227,1,0,0:0:0:0:
128,128,35384,5,2,0:0:0:0:
128,128,35540,1,2,0:0:0:0:
128,128,35852,5,0,0:0:0:0:
128,128,36165,5,2,0:0:0:0:
128,128,36790,5,0,0:0:0:0:
128,128,37102,1,0,0:0:0:0:
128,128,37259,1,0,0:0:0:0:
128,128,37415,1,0,0:0:0:0:
128,128,37727,5,2,0:0:0:0:
128,128,38040,5,0,0:0:0:0:
128,128,38352,5,2,0:0:0:0:
128,128,38665,1,2,0:0:0:0:
128,128,38821,5,0,0:0:0:0:
128,128,38977,1,0,0:0:0:0:
128,128,39290,1,0,0:0:0:0:
128,128,39602,1,0,0:0:0:0:
128,128,39759,1,0,0:0:0:0:
128,128,39915,1,0,0:0:0:0:
128,128,40227,5,2,0:0:0:0:
128,128,40540,5,0,0:0:0:0:
128,128,40852,5,2,0:0:0:0:
128,128,41009,5,0,0:0:0:0:
128,128,41165,1,0,0:0:0:0:
128,128,41477,5,2,0:0:0:0:
128,128,41790,1,2,0:0:0:0:
128,128,41946,1,2,0:0:0:0:
128,128,42102,5,0,0:0:0:0:
128,128,42415,5,2,0:0:0:0:
128,128,42727,5,0,0:0:0:0:
128,128,42884,1,0,0:0:0:0:
128,128,43040,5,2,0:0:0:0:
128,128,43352,5,0,0:0:0:0:
128,128,43509,1,0,0:0:0:0:
128,128,43665,1,0,0:0:0:0:
128,128,43977,5,2,0:0:0:0:
128,128,44290,1,2,0:0:0:0:
128,128,44602,5,0,0:0:0:0:
128,128,44811,5,2,0:0:0:0:
128,128,44915,5,0,0:0:0:0:
128,128,45227,1,0,0:0:0:0:
256,192,45540,12,0,46321,0:0:0:0:
128,128,46790,5,0,0:0:0:0:
128,128,47102,5,2,0:0:0:0:
128,128,47415,5,0,0:0:0:0:
128,128,47571,5,2,0:0:0:0:
128,128,47727,1,2,0:0:0:0:
128,128,47832,1,2,0:0:0:0:
128,128,47936,1,2,0:0:0:0:
128,128,48040,1,2,0:0:0:0:
128,128,48248,1,2,0:0:0:0:
128,128,48352,5,0,0:0:0:0:
128,128,48561,1,0,0:0:0:0:
128,128,48665,1,0,0:0:0:0:
128,128,48977,5,2,0:0:0:0:
128,128,49290,5,0,0:0:0:0:
128,128,49602,1,0,0:0:0:0:
128,128,49915,1,0,0:0:0:0:
128,128,50123,5,2,0:0:0:0:
128,128,50227,5,0,0:0:0:0:
128,128,50384,5,2,0:0:0:0:
128,128,50540,5,0,0:0:0:0:
128,128,50852,1,0,0:0:0:0:
128,128,51009,5,2,0:0:0:0:
128,128,51165,1,2,0:0:0:0:
128,128,51321,5,0,0:0:0:0:
128,128,51477,5,2,0:0:0:0:
128,128,51790,5,0,0:0:0:0:
128,128,52102,5,2,0:0:0:0:
128,128,52259,1,2,0:0:0:0:
128,128,52415,1,2,0:0:0:0:
128,128,52571,5,0,0:0:0:0:
128,128,52727,5,2,0:0:0:0:
128,128,52884,5,0,0:0:0:0:
128,128,53040,5,2,0:0:0:0:
128,128,53352,5,0,0:0:0:0:
128,128,53561,5,2,0:0:0:0:
128,128,53665,5,0,0:0:0:0:
128,128,53977,1,0,0:0:0:0:
128,128,54290,1,0,0:0:0:0:
128,128,54602,1,0,0:0:0:0:
128,128,54811,5,2,0:0:0:0:
128,128,54915,5,0,0:0:0:0:
128,128,55071,1,0,0:0:0:0:
128,128,55227,1,0,0:0:0:0:
128,128,55384,5,2,0:0:0:0:
128,128,55540,1,2,0:0:0:0:
128,128,55852,5,0,0:0:0:0:
128,128,56009,1,0,0:0:0:0:
128,128,56165,1,0,0:0:0:0:
128,128,56373,1,0,0:0:0:0:
128,128,56477,1,0,0:0:0:0:
128,128,56582,1,0,0:0:0:0:
128,128,56686,1,0,0:0:0:0:
128,128,56790,2,0,L|256:256,1,128.352
128,128,58040,5,2,0:0:0:0:
128,128,58196,1,2,0:0:0:0:
128,128,58352,1,2,0:0:0:0:
128,128,58405,1,2,0:0:0:0:
128,128,58457,1,2,0:0:0:0:
128,128,58509,1,2,0:0:0:0:
128,128,58561,1,2,0:0:0:0:
128,128,58665,1,2,0:0:0:0:
128,128,58821,1,2,0:0:0:0:
128,128,59134,1,2,0:0:0:0:
128,128,59290,2,0,L|256:256,1,128.352
128,128,60384,1,2,0:0:0:0:
128,128,60540,5,0,0:0:0:0:
128,128,60852,1,0,0:0:0:0:
128,128,61009,1,0,0:0:0:0:
128,128,61165,5,2,0:0:0:0:
128,128,61321,5,0,0:0:0:0:
128,128,61477,5,2,0:0:0:0:
128,128,61790,1,2,0:0:0:0:
128,128,61894,5,0,0:0:0:0:
128,128,61998,1,0,0:0:0:0:
128,128,62102,5,2,0:0:0:0:
128,128,62207,5,0,0:0:0:0:
128,128,62311,1,0,0:0:0:0:
128,128,62415,5,2,0:0:0:0:
128,128,62519,5,0,0:0:0:0:
128,128,62623,1,0,0:0:0:0:
128,128,62727,5,2,0:0:0:0:
128,128,62832,5,0,0:0:0:0:
128,128,62936,1,0,0:0:0:0:
128,128,63040,5,2,0:0:0:0:
128,128,63352,2,0,L|256:256,1,128.352
128,128,64290,5,0,0:0:0:0:
128,128,64446,5,2,0:0:0:0:
128,128,64602,5,0,0:0:0:0:
128,128,64759,5,2,0:0:0:0:
128,128,64915,5,0,0:0:0:0:
128,128,65071,5,2,0:0:0:0:
128,128,65227,5,0,0:0:0:0:
128,128,65384,5,2,0:0:0:0:
128,128,65540,5,0,0:0:0:0:
128,128,65696,5,2,0:0:0:0:
128,128,65852,1,2,0:0:0:0:
128,128,66009,5,0,0:0:0:0:
128,128,66165,1,0,0:0:0:0:
128,128,66790,2,0,L|256:256,1,268.24
128,128,67540,1,0,0:0:0:0:
128,128,67665,5,2,0:0:0:0:
128,128,67727,1,2,0:0:0:0:
128,128,67790,5,0,0:0:0:0:
128,128,67915,5,2,0:0:0:0:
128,128,67977,1,2,0:0:0:0:
128,128,68040,5,0,0:0:0:0:
128,128,68165,5,2,0:0:0:0:
128,128,68227,1,2,0:0:0:0:
128,128,68290,5,0,0:0:0:0:
128,128,68415,5,2,0:0:0:0:
128,128,68477,1,2,0:0:0:0:
128,128,68540,1,2,0:0:0:0:
128,128,68665,5,0,0:0:0:0:
128,128,68727,1,0,0:0:0:0:
128,128,68790,1,0,0:0:0:0:
128,128,68915,5,2,0:0:0:0:
256,192,69040,12,0,69290,0:0:0:0:
128,128,69540,5,0,0:0:0:0:
128,128,69602,5,0,0:0:0:0:
128,128,69665,5,2,0:0:0:0:
128,128,69727,5,0,0:0:0:0:
128,128,69790,1,0,0:0:0:0:
128,128,69852,1,0,0:0:0:0:
128,128,69915,5,2,0:0:0:0:
128,128,69977,5,0,0:0:0:0:
128,128,70040,1,0,0:0:0:0:
128,128,70102,1,0,0:0:0:0:
128,128,70165,5,2,0:0:0:0:
128,128,70227,5,0,0:0:0:0:
128,128,70290,1,0,0:0:0:0:
128,128,70352,1,0,0:0:0:0:
128,128,70415,5,2,0:0:0:0:
128,128,70477,5,0,0:0:0:0:
128,128,70540,5,2,0:0:0:0:
128,128,70665,5,0,0:0:0:0:
128,128,70727,1,0,0:0:0:0:
128,128,70790,1,0,0:0:0:0:
128,128,70915,5,2,0:0:0:0:
256,192,71040,12,0,71290,0:0:0:0:
128,128,71540,5,2,0:0:0:0:
128,128,71602,1,2,0:0:0:0:
128,128,71665,1,2,0:0:0:0:
128,128,71727,5,0,0:0:0:0:
128,128,71790,5,2,0:0:0:0:
128,128,71852,1,2,0:0:0:0:
128,128,71915,1,2,0:0:0:0:
128,128,71977,5,0,0:0:0:0:
128,128,72040,5,2,0:0:0:0:
128,128,72102,1,2,0:0:0:0:
128,128,72165,1,2,0:0:0:0:
128,128,72227,5,0,0:0:0:0:
128,128,72290,5,2,0:0:0:0:
128,128,72352,1,2,0:0:0:0:
128,128,72415,1,2,0:0:0:0:
128,128,72477,5,0,0:0:0:0:
128,128,72540,1,0,0:0:0:0:
128,128,72602,1,0,0:0:0:0:
128,128,72665,5,2,0:0:0:0:
128,128,72727,5,0,0:0:0:0:
128,128,72790,1,0,0:0:0:0:
128,128,72852,1,0,0:0:0:0:
128,128,72915,5,2,0:0:0:0:
128,128,72977,5,0,0:0:0:0:
128,128,73040,1,0,0:0:0:0:
128,128,73102,1,0,0:0:0:0:
128,128,73165,5,2,0:0:0:0:
128,128,73227,5,0,0:0:0:0:
128,128,73290,1,0,0:0:0:0:
128,128,73352,1,0,0:0:0:0:
128,128,73415,5,2,0:0:0:0:
128,128,73477,5,0,0:0:0:0:
128,128,73540,1,0,0:0:0:0:
128,128,73602,1,0,0:0:0:0:
128,128,73665,1,0,0:0:0:0:
128,128,73727,1,0,0:0:0:0:
128,128,73790,5,2,0:0:0:0:
128,128,73852,1,2,0:0:0:0:
128,128,73915,1,2,0:0:0:0:
128,128,73977,1,2,0:0:0:0:
128,128,74040,1,2,0:0:0:0:
128,128,74102,1,2,0:0:0:0:
128,128,74165,5,0,0:0:0:0:
128,128,74227,1,0,0:0:0:0:
128,128,74290,5,2,0:0:0:0:
128,128,74352,1,2,0:0:0:0:
128,128,74415,5,0,0:0:0:0:
128,128,74477,1,0,0:0:0:0:
128,128,74540,1,0,0:0:0:0:
128,128,74665,1,0,0:0:0:0:
128,128,74727,1,0,0:0:0:0:
128,128,74790,1,0,0:0:0:0:
128,128,74915,5,2,0:0:0:0:
256,192,75040,12,0,75290,0:0:0:0:
128,128,75540,5,0,0:0:0:0:
128,128,75602,5,0,0:0:0:0:
128,128,75665,1,0,0:0:0:0:
128,128,75727,5,2,0:0:0:0:
128,128,75790,1,2,0:0:0:0:
128,128,75852,1,2,0:0:0:0:
128,128,75915,1,2,0:0:0:0:
128,128,75977,5,0,0:0:0:0:
128,128,76040,1,0,0:0:0:0:
128,128,76102,1,0,0:0:0:0:
128,128,76165,1,0,0:0:0:0:
128,128,76227,5,2,0:0:0:0:
128,128,76290,1,2,0:0:0:0:
128,128,76352,1,2,0:0:0:0:
128,128,76415,1,2,0:0:0:0:
128,128,76477,5,0,0:0:0:0:
128,128,76540,1,0,0:0:0:0:
128,128,76602,1,0,0:0:0:0:
128,128,76665,1,0,0:0:0:0:
128,128,76727,1,0,0:0:0:0:
128,128,76790,5,2,0:0:0:0:
128,128,76852,1,2,0:0:0:0:
128,128,76915,1,2,0:0:0:0:
128,128,76977,1,2,0:0:0:0:
256,192,77040,12,0,77290,0:0:0:0:
128,128,77540,5,0,0:0:0:0:
128,128,77602,5,0,0:0:0:0:
128,128,77665,5,2,0:0:0:0:
128,128,77727,1,2,0:0:0:0:
128,128,77790,1,2,0:0:0:0:
128,128,77852,1,2,0:0:0:0:
128,128,77915,5,0,0:0:0:0:
128,128,77977,1,0,0:0:0:0:
128,128,78040,1,0,0:0:0:0:
128,128,78102,1,0,0:0:0:0:
128,128,78165,5,2,0:0:0:0:
128,128,78227,1,2,0:0:0:0:
128,128,78290,1,2,0:0:0:0:
128,128,78352,1,2,0:0:0:0:
128,128,78415,5,0,0:0:0:0:
128,128,78477,1,0,0:0:0:0:
128,128,78540,1,0,0:0:0:0:
128,128,78602,1,0,0:0:0:0:
128,128,78665,1,0,0:0:0:0:
128,128,78727,1,0,0:0:0:0:
128,128,78790,5,2,0:0:0:0:
128,128,78852,1,2,0:0:0:0:
128,128,78915,1,2,0:0:0:0:
128,128,78977,1,2,0:0:0:0:
256,192,79040,12,0,79290,0:0:0:0:
128,128,79540,5,2,0:0:0:0:
128,128,79602,1,2,0:0:0:0:
128,128,79665,5,0,0:0:0:0:
128,128,79727,5,2,0:0:0:0:
128,128,79790,1,2,0:0:0:0:
128,128,79852,1,2,0:0:0:0:
128,128,79915,5,0,0:0:0:0:
128,128,79977,5,2,0:0:0:0:
128,128,80040,1,2,0:0:0:0:
128,128,80102,1,2,0:0:0:0:
128,128,80165,5,0,0:0:0:0:
128,128,80227,5,2,0:0:0:0:
128,128,80290,1,2,0:0:0:0:
128,128,80352,1,2,0:0:0:0:
128,128,80415,5,0,0:0:0:0:
128,128,80477,5,2,0:0:0:0:
128,128,80540,5,0,0:0:0:0:
128,128,80602,1,0,0:0:0:0:
128,128,80665,1,0,0:0:0:0:
128,128,80727,5,2,0:0:0:0:
128,128,80790,5,0,0:0:0:0:
128,128,80852,1,0,0:0:0:0:
128,128,80915,1,0,0:0:0:0:
128,128,80977,5,2,0:0:0:0:
128,128,81040,5,0,0:0:0:0:
128,128,81102,1,0,0:0:0:0:
128,128,81165,1,0,0:0:0:0:
128,128,81227,5,2,0:0:0:0:
128,128,81290,5,0,0:0:0:0:
128,128,81352,1,0,0:0:0:0:
128,128,81415,1,0,0:0:0:0:
128,128,81477,5,2,0:0:0:0:
128,128,81540,5,0,0:0:0:0:
128,128,81602,1,0,0:0:0:0:
128,128,81665,1,0,0:0:0:0:
128,128,81727,1,0,0:0:0:0:
128,128,81790,5,2,0:0:0:0:
128,128,81852,1,2,0:0:0:0:
128,128,81915,1,2,0:0:0:0:
128,128,81977,1,2,0:0:0:0:
128,128,82040,1,2,0:0:0:0:
128,128,82102,1,2,0:0:0:0:
128,128,82165,5,0,0:0:0:0:
128,128,82227,1,0,0:0:0:0:
128,128,82290,5,2,0:0:0:0:
128,128,82352,1,2,0:0:0:0:
128,128,82415,5,0,0:0:0:0:
128,128,82477,1,0,0:0:0:0:
128,128,82540,1,0,0:0:0:0:
128,128,82665,1,0,0:0:0:0:
128,128,82727,1,0,0:0:0:0:
128,128,82790,1,0,0:0:0:0:
128,128,82915,5,2,0:0:0:0:
128,128,83040,5,4,0:0:0:0:
128,128,84165,1,0,0:0:0:0:
128,128,84582,1,0,0:0:0:0:
128,128,84790,5,2,0:0:0:0:
128,128,85207,5,0,0:0:0:0:
128,128,85415,1,0,0:0:0:0:
128,128,85832,5,2,0:0:0:0:
128,128,86040,1,2,0:0:0:0:
128,128,86457,5,0,0:0:0:0:
128,128,86665,1,0,0:0:0:0:
128,128,87082,1,0,0:0:0:0:
128,128,87290,5,2,0:0:0:0:
128,128,87707,1,2,0:0:0:0:
128,128,87915,1,2,0:0:0:0:
128,128,88332,5,0,0:0:0:0:
128,128,88540,1,0,0:0:0:0:
128,128,88852,5,2,0:0:0:0:
128,128,89165,1,2,0:0:0:0:
128,128,89582,5,0,0:0:0:0:
128,128,89790,5,2,0:0:0:0:
128,128,90207,5,0,0:0:0:0:
128,128,90311,5,2,0:0:0:0:
128,128,90415,5,0,0:0:0:0:
128,128,90727,1,0,0:0:0:0:
128,128,91040,5,2,0:0:0:0:
128,128,91352,1,2,0:0:0:0:
128,128,91665,5,0,0:0:0:0:
128,128,91873,5,2,0:0:0:0:
128,128,92082,1,2,0:0:0:0:
128,128,92290,5,0,0:0:0:0:
128,128,92707,1,0,0:0:0:0:
128,128,92915,1,4,0:0:0:0:
128,128,94165,1,0,0:0:0:0:
128,128,94359,5,2,0:0:0:0:
128,128,94455,5,0,0:0:0:0:
128,128,94504,1,0,0:0:0:0:
128,128,94552,1,0,0:0:0:0:
128,128,94649,1,0,0:0:0:0:
128,128,94746,5,2,0:0:0:0:
128,128,94842,5,0,0:0:0:0:
128,128,94939,1,0,0:0:0:0:
128,128,95133,5,2,0:0:0:0:
128,128,95229,5,0,0:0:0:0:
128,128,95278,1,0,0:0:0:0:
128,128,95326,1,0,0:0:0:0:
128,128,95423,1,0,0:0:0:0:
128,128,95520,5,2,0:0:0:0:
128,128,95617,5,0,0:0:0:0:
128,128,95713,5,2,0:0:0:0:
128,128,95810,5,0,0:0:0:0:
128,128,95907,5,2,0:0:0:0:
128,128,96004,5,0,0:0:0:0:
128,128,96100,5,2,0:0:0:0:
128,128,96197,5,0,0:0:0:0:
128,128,96294,1,0,0:0:0:0:
128,128,96391,5,6,0:0:0:0:
128,128,97738,1,2,0:0:0:0:
128,128,97894,1,2,0:0:0:0:
128,128,98363,5,0,0:0:0:0:
128,128,98675,1,0,0:0:0:0:
128,128,98831,5,2,0:0:0:0:
128,128,99144,5,0,0:0:0:0:
128,128,99300,1,0,0:0:0:0:
128,128,99613,5,2,0:0:0:0:
128,128,99769,1,2,0:0:0:0:
128,128,100081,5,0,0:0:0:0:
128,128,100238,1,0,0:0:0:0:
128,128,100550,1,0,0:0:0:0:
128,128,100706,5,2,0:0:0:0:
128,128,101019,1,2,0:0:0:0:
128,128,101175,1,2,0:0:0:0:
128,128,101488,5,0,0:0:0:0:
128,128,101644,1,0,0:0:0:0:
128,128,101878,5,2,0:0:0:0:
128,128,102113,1,2,0:0:0:0:
128,128,102425,5,0,0:0:0:0:
128,128,102581,5,2,0:0:0:0:
128,128,102894,5,0,0:0:0:0:
128,128,102972,5,2,0:0:0:0:
128,128,103050,5,0,0:0:0:0:
128,128,103284,1,0,0:0:0:0:
128,128,103519,5,2,0:0:0:0:
128,128,103753,1,2,0:0:0:0:
128,128,103988,5,0,0:0:0:0:
128,128,104144,5,2,0:0:0:0:
128,128,104300,1,2,0:0:0:0:
128,128,104456,5,0,0:0:0:0:
128,128,104769,1,0,0:0:0:0:
128,128,104925,1,4,0:0:0:0:
128,128,105863,1,0,0:0:0:0:
128,128,106050,5,2,0:0:0:0:
128,128,106144,5,0,0:0:0:0:
128,128,106191,1,0,0:0:0:0:
128,128,106238,1,0,0:0:0:0:
128,128,106331,1,0,0:0:0:0:
128,128,106425,5,2,0:0:0:0:
128,128,106519,5,0,0:0:0:0:
128,128,106613,1,0,0:0:0:0:
128,128,106800,5,2,0:0:0:0:
128,128,106894,5,0,0:0:0:0:
128,128,106941,1,0,0:0:0:0:
128,128,106988,1,0,0:0:0:0:
128,128,107081,1,0,0:0:0:0:
128,128,107175,5,2,0:0:0:0:
128,128,107269,5,0,0:0:0:0:
128,128,107363,1,0,0:0:0:0:
128,128,107409,1,0,0:0:0:0:
128,128,107456,1,0,0:0:0:0:
128,128,107550,1,0,0:0:0:0:
128,128,107597,1,0,0:0:0:0:
128,128,107644,1,0,0:0:0:0:
128,128,107738,1,0,0:0:0:0:
128,128,107784,1,0,0:0:0:0:
128,128,107831,1,0,0:0:0:0:
128,128,107925,1,0,0:0:0:0:
128,128,107972,1,0,0:0:0:0:
128,128,108019,1,0,0:0:0:0:
256,192,108113,12,0,108441,0:0:0:0:
128,128,108863,5,0,0:0:0:0:
128,128,109041,1,0,0:0:0:0:
128,128,109220,1,0,0:0:0:0:
128,128,109398,5,2,0:0:0:0:
128,128,109577,1,2,0:0:0:0:
128,128,109730,1,2,0:0:0:0:
128,128,109883,1,2,0:0:0:0:
128,128,110036,5,0,0:0:0:0:
128,128,110189,1,0,0:0:0:0:
128,128,110321,1,0,0:0:0:0:
128,128,110452,1,0,0:0:0:0:
128,128,110584,5,2,0:0:0:0:
128,128,110715,1,2,0:0:0:0:
128,128,110839,1,2,0:0:0:0:
128,128,110963,1,2,0:0:0:0:
128,128,111087,5,0,0:0:0:0:
128,128,111211,1,0,0:0:0:0:
128,128,111313,1,0,0:0:0:0:
128,128,111415,5,2,0:0:0:0:
128,128,111517,1,2,0:0:0:0:
128,128,111619,5,0,0:0:0:0:
128,128,111710,1,0,0:0:0:0:
128,128,111800,5,2,0:0:0:0:
128,128,111891,1,2,0:0:0:0:
256,192,111981,12,0,112366,0:0:0:0:
128,128,112574,5,0,0:0:0:0:
128,128,112636,5,0,0:0:0:0:
128,128,112697,5,2,0:0:0:0:
128,128,112758,1,2,0:0:0:0:
128,128,112819,1,2,0:0:0:0:
128,128,112881,1,2,0:0:0:0:
128,128,112942,5,0,0:0:0:0:
128,128,113003,1,0,0:0:0:0:
128,128,113064,1,0,0:0:0:0:
128,128,113125,1,0,0:0:0:0:
128,128,113187,5,2,0:0:0:0:
128,128,113248,1,2,0:0:0:0:
128,128,113309,1,2,0:0:0:0:
128,128,113370,1,2,0:0:0:0:
128,128,113432,5,0,0:0:0:0:
128,128,113493,1,0,0:0:0:0:
128,128,113554,1,0,0:0:0:0:
128,128,113615,1,0,0:0:0:0:
128,128,113676,1,0,0:0:0:0:
128,128,113738,1,0,0:0:0:0:
128,128,113799,5,2,0:0:0:0:
128,128,113860,1,2,0:0:0:0:
128,128,113921,1,2,0:0:0:0:
128,128,113983,1,2,0:0:0:0:
256,192,114044,12,0,114289,0:0:0:0:
128,128,114534,5,2,0:0:0:0:
128,128,114595,1,2,0:0:0:0:
128,128,114656,5,0,0:0:0:0:
128,128,114717,5,2,0:0:0:0:
128,128,114779,1,2,0:0:0:0:
128,128,114840,1,2,0:0:0:0:
128,128,114901,5,0,0:0:0:0:
128,128,114962,5,2,0:0:0:0:
128,128,115023,1,2,0:0:0:0:
128,128,115085,1,2,0:0:0:0:
128,128,115146,5,0,0:0:0:0:
128,128,115207,5,2,0:0:0:0:
128,128,115268,1,2,0:0:0:0:
128,128,115330,1,2,0:0:0:0:
128,128,115391,5,0,0:0:0:0:
128,128,115452,5,2,0:0:0:0:
128,128,115513,5,0,0:0:0:0:
128,128,115574,1,0,0:0:0:0:
128,128,115636,1,0,0:0:0:0:
128,128,115697,5,2,0:0:0:0:
128,128,115758,5,0,0:0:0:0:
128,128,115819,1,0,0:0:0:0:
128,128,115881,1,0,0:0:0:0:
128,128,115942,5,2,0:0:0:0:
128,128,116003,5,0,0:0:0:0:
128,128,116064,1,0,0:0:0:0:
128,128,116125,1,0,0:0:0:0:
128,128,116187,5,2,0:0:0:0:
128,128,116248,5,0,0:0:0:0:
128,128,116309,1,0,0:0:0:0:
128,128,116370,1,0,0:0:0:0:
128,128,116432,5,2,0:0:0:0:
128,128,116493,5,0,0:0:0:0:
128,128,116554,1,0,0:0:0:0:
128,128,116615,1,0,0:0:0:0:
128,128,116676,1,0,0:0:0:0:
128,128,116738,5,2,0:0:0:0:
128,128,116799,1,2,0:0:0:0:
128,128,116860,1,2,0:0:0:0:
128,128,116921,1,2,0:0:0:0:
128,128,116983,1,2,0:0:0:0:
128,128,117044,1,2,0:0:0:0:
128,128,117105,5,0,0:0:0:0:
128,128,117166,1,0,0:0:0:0:
128,128,117228,5,2,0:0:0:0:
128,128,117289,1,2,0:0:0:0:
128,128,117350,1,2,0:0:0:0:
128,128,117411,1,2,0:0:0:0:
128,128,117472,5,0,0:0:0:0:
128,128,117595,5,2,0:0:0:0:
128,128,117656,1,2,0:0:0:0:
128,128,117717,5,0,0:0:0:0:
128,128,117840,5,2,0:0:0:0:
128,128,117901,1,2,0:0:0:0:
128,128,117962,5,0,0:0:0:0:
128,128,118085,5,2,0:0:0:0:
128,128,118146,1,2,0:0:0:0:
128,128,118207,5,0,0:0:0:0:
128,128,118330,5,2,0:0:0:0:
128,128,118391,1,2,0:0:0:0:
128,128,118452,1,2,0:0:0:0:
128,128,118574,5,0,0:0:0:0:
128,128,118636,1,0,0:0:0:0:
128,128,118697,1,0,0:0:0:0:
128,128,118819,5,2,0:0:0:0:
256,192,118942,12,0,119187,0:0:0:0:
128,128,119432,5,0,0:0:0:0:
128,128,119493,5,0,0:0:0:0:
128,128,119554,5,2,0:0:0:0:
128,128,119615,5,0,0:0:0:0:
128,128,119676,1,0,0:0:0:0:
128,128,119738,1,0,0:0:0:0:
128,128,119799,5,2,0:0:0:0:
128,128,119860,5,0,0:0:0:0:
128,128,119921,1,0,0:0:0:0:
128,128,119983,1,0,0:0:0:0:
128,128,120044,5,2,0:0:0:0:
128,128,120105,5,0,0:0:0:0:
128,128,120166,1,0,0:0:0:0:
128,128,120228,1,0,0:0:0:0:
128,128,120289,5,2,0:0:0:0:
128,128,120350,5,0,0:0:0:0:
128,128,120411,5,2,0:0:0:0:
128,128,120534,5,0,0:0:0:0:
128,128,120595,1,0,0:0:0:0:
128,128,120656,1,0,0:0:0:0:
128,128,120779,5,2,0:0:0:0:
256,192,120901,12,0,121146,0:0:0:0:
128,128,121391,5,2,0:0:0:0:
128,128,121452,1,2,0:0:0:0:
128,128,121513,1,2,0:0:0:0:
128,128,121574,5,0,0:0:0:0:
128,128,121636,5,2,0:0:0:0:
128,128,121697,1,2,0:0:0:0:
128,128,121758,1,2,0:0:0:0:
128,128,121819,5,0,0:0:0:0:
128,128,121881,5,2,0:0:0:0:
128,128,121942,1,2,0:0:0:0:
128,128,122003,1,2,0:0:0:0:
128,128,122064,5,0,0:0:0:0:
128,128,122125,5,2,0:0:0:0:
128,128,122187,1,2,0:0:0:0:
128,128,122248,1,2,0:0:0:0:
128,128,122309,5,0,0:0:0:0:
128,128,122370,1,0,0:0:0:0:
128,128,122432,1,0,0:0:0:0:
128,128,122493,5,2,0:0:0:0:
128,128,122554,5,0,0:0:0:0:
128,128,122615,1,0,0:0:0:0:
128,128,122676,1,0,0:0:0:0:
128,128,122738,5,2,0:0:0:0:
128,128,122799,5,0,0:0:0:0:
128,128,122860,1,0,0:0:0:0:
128,128,122921,1,0,0:0:0:0:
128,128,122983,5,2,0:0:0:0:
128,128,123044,5,0,0:0:0:0:
128,128,123105,1,0,0:0:0:0:
128,128,123166,1,0,0:0:0:0:
128,128,123228,5,2,0:0:0:0:
128,128,123289,5,0,0:0:0:0:
128,128,123350,1,0,0:0:0:0:
128,128,123411,5,2,0:0:0:0:
128,128,123472,1,2,0:0:0:0:
128,128,123534,5,0,0:0:0:0:
128,128,123595,1,0,0:0:0:0:
128,128,123656,5,2,0:0:0:0:
128,128,123717,1,2,0:0:0:0:
128,128,123779,5,0,0:0:0:0:
128,128,123840,1,0,0:0:0:0:
128,128,123901,5,2,0:0:0:0:
128,128,123962,1,2,0:0:0:0:
128,128,124023,5,0,0:0:0:0:
128,128,124085,1,0,0:0:0:0:
128,128,124146,5,2,0:0:0:0:
128,128,124207,1,2,0:0:0:0:
128,128,124330,5,4,0:0:0:0:
128,128,124452,1,4,0:0:0:0:
128,128,124697,1,4,0:0:0:0:
128,128,124819,5,6,0:0:0:0:
128,128,125064,5,4,0:0:0:0:
128,128,125309,1,0,0:0:0:0:
128,128,125432,5,2,0:0:0:0:
128,128,125493,1,2,0:0:0:0:
128,128,125554,5,0,0:0:0:0:
128,128,125676,5,2,0:0:0:0:
128,128,125738,1,2,0:0:0:0:
128,128,125799,5,0,0:0:0:0:
128,128,125921,5,2,0:0:0:0:
128,128,125983,1,2,0:0:0:0:
128,128,126044,5,0,0:0:0:0:
128,128,126166,5,2,0:0:0:0:
128,128,126228,1,2,0:0:0:0:
128,128,126289,1,2,0:0:0:0:
128,128,126411,5,0,0:0:0:0:
128,128,126472,1,0,0:0:0:0:
128,128,126534,1,0,0:0:0:0:
128,128,126656,5,2,0:0:0:0:
256,192,126779,12,0,127023,0:0:0:0:
128,128,127268,5,0,0:0:0:0:
128,128,127330,5,0,0:0:0:0:
128,128,127391,5,2,0:0:0:0:
128,128,127452,5,0,0:0:0:0:
128,128,127513,1,0,0:0:0:0:
128,128,127574,1,0,0:0:0:0:
128,128,127636,5,2,0:0:0:0:
128,128,127697,5,0,0:0:0:0:
128,128,127758,1,0,0:0:0:0:
128,128,127819,1,0,0:0:0:0:
128,128,127881,5,2,0:0:0:0:
128,128,127942,5,0,0:0:0:0:
128,128,128003,1,0,0:0:0:0:
128,128,128064,1,0,0:0:0:0:
128,128,128125,5,2,0:0:0:0:
128,128,128187,5,0,0:0:0:0:
128,128,128248,5,2,0:0:0:0:
128,128,128370,5,0,0:0:0:0:
128,128,128432,1,0,0:0:0:0:
128,128,128493,1,0,0:0:0:0:
128,128,128615,5,2,0:0:0:0:
256,192,128738,12,0,128983,0:0:0:0:
128,128,129228,5,2,0:0:0:0:
128,128,129289,1,2,0:0:0:0:
128,128,129350,1,2,0:0:0:0:
128,128,129411,5,0,0:0:0:0:
128,128,129472,5,2,0:0:0:0:
128,128,129534,1,2,0:0:0:0:
128,128,129595,1,2,0:0:0:0:
128,128,129656,5,0,0:0:0:0:
128,128,129717,5,2,0:0:0:0:
128,128,129779,1,2,0:0:0:0:
128,128,129840,1,2,0:0:0:0:
128,128,129901,5,0,0:0:0:0:
128,128,129962,5,2,0:0:0:0:
128,128,130023,1,2,0:0:0:0:
128,128,130085,1,2,0:0:0:0:
128,128,130146,5,0,0:0:0:0:
128,128,130207,1,0,0:0:0:0:
128,128,130268,1,0,0:0:0:0:
128,128,130330,5,2,0:0:0:0:
128,128,130391,5,0,0:0:0:0:
128,128,130452,1,0,0:0:0:0:
128,128,130513,1,0,0:0:0:0:
128,128,130574,5,2,0:0:0:0:
128,128,130636,5,0,0:0:0:0:
128,128,130697,1,0,0:0:0:0:
128,128,130758,1,0,0:0:0:0:
128,128,130819,5,2,0:0:0:0:
128,128,130881,5,0,0:0:0:0:
128,128,130942,1,0,0:0:0:0:
128,128,131003,1,0,0:0:0:0:
128,128,131064,5,2,0:0:0:0:
128,128,131125,5,0,0:0:0:0:
128,128,131187,1,0,0:0:0:0:
128,128,131248,1,0,0:0:0:0:
128,128,131309,1,0,0:0:0:0:
128,128,131370,1,0,0:0:0:0:
128,128,131432,5,2,0:0:0:0:
128,128,131493,1,2,0:0:0:0:
128,128,131554,1,2,0:0:0:0:
128,128,131615,1,2,0:0:0:0:
128,128,131676,1,2,0:0:0:0:
128,128,131738,1,2,0:0:0:0:
128,128,131799,5,0,0:0:0:0:
128,128,131860,1,0,0:0:0:0:
128,128,131921,5,2,0:0:0:0:
128,128,131983,1,2,0:0:0:0:
128,128,132044,1,2,0:0:0:0:
128,128,132166,5,4,0:0:0:0:
128,128,132273,1,4,0:0:0:0:
128,128,132488,5,6,0:0:0:0:
128,128,132595,5,4,0:0:0:0:
128,128,133023,1,4,0:0:0:0:
128,128,133238,1,0,0:0:0:0:
128,128,133345,1,0,0:0:0:0:
128,128,133452,1,0,0:0:0:0:
128,128,133559,1,0,0:0:0:0:
128,128,133666,1,0,0:0:0:0:
128,128,133773,1,0,0:0:0:0:
128,128,133881,1,4,0:0:0:0:
128,128,134095,1,0,0:0:0:0:
128,128,134148,1,0,0:0:0:0:
128,128,134202,1,0,0:0:0:0:
128,128,134309,5,6,0:0:0:0:
128,128,134523,1,2,0:0:0:0:
128,128,134577,1,2,0:0:0:0:
128,128,134631,1,2,0:0:0:0:
128,128,134738,5,4,0:0:0:0:
128,128,135166,5,2,0:0:0:0:
128,128,135595,1,2,0:0:0:0:
128,128,145819,5,0,0:0:0:0:
128,128,145926,1,0,0:0:0:0:
128,128,146141,1,0,0:0:0:0:
128,128,146248,1,0,0:0:0:0:
128,128,146462,1,0,0:0:0:0:
128,128,146569,1,0,0:0:0:0:
128,128,146891,5,2,0:0:0:0:
128,128,146998,1,2,0:0:0:0:
128,128,147319,5,0,0:0:0:0:
128,128,147426,1,0,0:0:0:0:
128,128,147533,5,2,0:0:0:0:
128,128,147748,5,0,0:0:0:0:
128,128,147962,5,2,0:0:0:0:
128,128,148016,1,2,0:0:0:0:
128,128,148069,1,2,0:0:0:0:
128,128,148123,1,2,0:0:0:0:
128,128,148176,5,0,0:0:0:0:
128,128,148283,5,2,0:0:0:0:
128,128,148391,5,0,0:0:0:0:
128,128,148819,5,2,0:0:0:0:
128,128,148891,1,2,0:0:0:0:
128,128,148962,1,2,0:0:0:0:
128,128,149033,1,2,0:0:0:0:
128,128,149248,1,2,0:0:0:0:
128,128,149355,5,0,0:0:0:0:
128,128,149569,5,2,0:0:0:0:
128,128,149676,5,0,0:0:0:0:
128,128,149891,5,2,0:0:0:0:
128,128,149998,5,0,0:0:0:0:
128,128,150319,5,2,0:0:0:0:
128,128,150373,1,2,0:0:0:0:
128,128,150426,1,2,0:0:0:0:
128,128,150480,1,2,0:0:0:0:
128,128,150533,5,0,0:0:0:0:
128,128,150748,5,2,0:0:0:0:
128,128,150962,5,0,0:0:0:0:
128,128,151069,1,0,0:0:0:0:
128,128,151176,5,2,0:0:0:0:
128,128,151391,5,0,0:0:0:0:
128,128,151498,5,2,0:0:0:0:
128,128,151605,5,0,0:0:0:0:
128,128,151676,1,0,0:0:0:0:
128,128,151748,1,0,0:0:0:0:
128,128,151819,5,2,0:0:0:0:
128,128,152033,5,0,0:0:0:0:
128,128,152141,5,2,0:0:0:0:
128,128,152248,5,0,0:0:0:0:
128,128,152319,1,0,0:0:0:0:
128,128,152391,1,0,0:0:0:0:
128,128,152462,5,2,0:0:0:0:
128,128,152676,5,0,0:0:0:0:
128,128,152783,1,0,0:0:0:0:
128,128,152998,1,0,0:0:0:0:
128,128,153105,1,0,0:0:0:0:
128,128,153319,1,0,0:0:0:0:
128,128,153426,1,0,0:0:0:0:
128,128,153748,5,2,0:0:0:0:
128,128,153855,1,2,0:0:0:0:
128,128,154176,5,0,0:0:0:0:
128,128,154283,1,0,0:0:0:0:
128,128,154391,5,2,0:0:0:0:
128,128,154605,5,0,0:0:0:0:
128,128,154819,5,2,0:0:0:0:
128,128,154873,1,2,0:0:0:0:
128,128,154926,1,2,0:0:0:0:
128,128,154980,1,2,0:0:0:0:
128,128,155033,5,0,0:0:0:0:
128,128,155141,5,2,0:0:0:0:
128,128,155248,5,0,0:0:0:0:
128,128,155676,5,2,0:0:0:0:
128,128,155748,1,2,0:0:0:0:
128,128,155819,1,2,0:0:0:0:
128,128,155891,1,2,0:0:0:0:
128,128,156105,1,2,0:0:0:0:
128,128,156212,1,2,0:0:0:0:
128,128,156373,1,2,0:0:0:0:
128,128,156480,1,2,0:0:0:0:
128,128,156587,1,2,0:0:0:0:
128,128,156748,1,2,0:0:0:0:
128,128,156801,1,2,0:0:0:0:
128,128,156855,1,2,0:0:0:0:
128,128,156908,1,2,0:0:0:0:
128,128,157069,1,2,0:0:0:0:
128,128,157123,1,2,0:0:0:0:
128,128,157230,1,2,0:0:0:0:
128,128,157337,1,2,0:0:0:0:
128,128,157444,1,2,0:0:0:0:
128,128,157551,1,2,0:0:0:0:
128,128,157658,1,2,0:0:0:0:
128,128,157873,1,2,0:0:0:0:
128,128,157980,1,2,0:0:0:0:
128,128,158087,1,2,0:0:0:0:
128,128,158194,1,2,0:0:0:0:
128,128,158301,1,2,0:0:0:0:
128,128,158462,1,2,0:0:0:0:
128,128,158516,1,2,0:0:0:0:
128,128,158623,1,2,0:0:0:0:
128,128,158730,1,2,0:0:0:0:
128,128,158891,1,2,0:0:0:0:
128,128,158944,1,2,0:0:0:0:
128,128,158998,1,2,0:0:0:0:
128,128,159051,1,2,0:0:0:0:
128,128,159533,5,4,0:0:0:0:
128,128,159962,1,4,0:0:0:0:
128,128,160391,1,0,0:0:0:0:
128,128,160605,1,0,0:0:0:0:
128,128,160658,5,2,0:0:0:0:
128,128,160712,5,0,0:0:0:0:
128,128,160819,1,0,0:0:0:0:
128,128,161033,5,2,0:0:0:0:
128,128,161141,1,2,0:0:0:0:
128,128,161248,5,0,0:0:0:0:
128,128,161462,5,2,0:0:0:0:
128,128,161569,5,0,0:0:0:0:
128,128,161783,5,2,0:0:0:0:
128,128,161837,1,2,0:0:0:0:
128,128,161891,5,0,0:0:0:0:
128,128,161998,5,2,0:0:0:0:
128,128,162105,5,0,0:0:0:0:
128,128,162319,5,2,0:0:0:0:
128,128,162533,1,2,0:0:0:0:
128,128,162605,1,2,0:0:0:0:
128,128,162676,1,2,0:0:0:0:
128,128,162748,1,2,0:0:0:0:
128,128,162855,5,0,0:0:0:0:
128,128,162962,1,0,0:0:0:0:
128,128,163391,1,4,0:0:0:0:
128,128,163819,1,0,0:0:0:0:
128,128,163926,1,0,0:0:0:0:
128,128,164033,5,2,0:0:0:0:
128,128,164141,1,2,0:0:0:0:
128,128,164248,5,0,0:0:0:0:
128,128,164301,1,0,0:0:0:0:
128,128,164355,1,0,0:0:0:0:
128,128,164408,1,0,0:0:0:0:
128,128,164462,5,2,0:0:0:0:
128,128,164516,1,2,0:0:0:0:
128,128,164569,1,2,0:0:0:0:
128,128,164623,1,2,0:0:0:0:
128,128,164676,5,0,0:0:0:0:
128,128,164783,1,0,0:0:0:0:
128,128,164891,5,2,0:0:0:0:
128,128,165105,5,0,0:0:0:0:
128,128,165212,5,2,0:0:0:0:
128,128,165319,5,0,0:0:0:0:
128,128,165391,1,0,0:0:0:0:
128,128,165462,1,0,0:0:0:0:
128,128,165533,5,2,0:0:0:0:
128,128,165748,5,0,0:0:0:0:
128,128,165855,5,2,0:0:0:0:
128,128,165962,5,0,0:0:0:0:
128,128,166033,1,0,0:0:0:0:
128,128,166105,1,0,0:0:0:0:
128,128,166176,5,2,0:0:0:0:
128,128,166391,5,4,0:0:0:0:
128,128,166819,1,4,0:0:0:0:
128,128,167033,1,0,0:0:0:0:
128,128,167141,5,2,0:0:0:0:
128,128,167248,5,0,0:0:0:0:
128,128,167462,1,0,0:0:0:0:
128,128,167516,5,2,0:0:0:0:
128,128,167569,5,0,0:0:0:0:
128,128,167676,1,0,0:0:0:0:
128,128,167891,5,2,0:0:0:0:
128,128,167998,1,2,0:0:0:0:
128,128,168105,5,0,0:0:0:0:
128,128,168319,5,2,0:0:0:0:
128,128,168426,5,0,0:0:0:0:
128,128,168641,5,2,0:0:0:0:
128,128,168694,1,2,0:0:0:0:
128,128,168748,5,0,0:0:0:0:
128,128,168855,5,2,0:0:0:0:
128,128,168962,5,0,0:0:0:0:
128,128,169176,5,2,0:0:0:0:
128,128,169391,1,2,0:0:0:0:
128,128,169462,1,2,0:0:0:0:
128,128,169533,1,2,0:0:0:0:
128,128,169605,1,2,0:0:0:0:
128,128,169712,5,0,0:0:0:0:
128,128,169819,1,0,0:0:0:0:
128,128,170248,1,0,0:0:0:0:
128,128,170355,1,0,0:0:0:0:
128,128,170462,5,2,0:0:0:0:
128,128,170569,1,2,0:0:0:0:
128,128,170676,5,0,0:0:0:0:
128,128,170783,1,0,0:0:0:0:
128,128,170891,5,2,0:0:0:0:
128,128,170998,1,2,0:0:0:0:
128,128,171105,5,0,0:0:0:0:
128,128,171158,1,0,0:0:0:0:
128,128,171212,1,0,0:0:0:0:
128,128,171266,1,0,0:0:0:0:
128,128,171319,5,2,0:0:0:0:
128,128,171373,1,2,0:0:0:0:
128,128,171426,1,2,0:0:0:0:
128,128,171480,1,2,0:0:0:0:
128,128,171533,5,0,0:0:0:0:
128,128,171641,1,0,0:0:0:0:
128,128,171748,5,2,0:0:0:0:
128,128,171962,5,0,0:0:0:0:
128,128,172069,5,2,0:0:0:0:
128,128,172176,5,0,0:0:0:0:
128,128,172248,1,0,0:0:0:0:
128,128,172319,1,0,0:0:0:0:
128,128,172391,5,2,0:0:0:0:
128,128,172605,5,0,0:0:0:0:
128,128,172712,5,2,0:0:0:0:
128,128,172819,5,0,0:0:0:0:
128,128,172891,1,0,0:0:0:0:
128,128,172962,1,0,0:0:0:0:
128,128,173033,5,2,0:0:0:0:
128,128,173248,5,4,0:0:0:0:
128,128,173676,1,0,0:0:0:0:
128,128,173730,1,0,0:0:0:0:
128,128,173783,1,0,0:0:0:0:
128,128,173837,1,0,0:0:0:0:
128,128,173891,1,0,0:0:0:0:
128,128,173998,5,2,0:0:0:0:
128,128,174105,5,0,0:0:0:0:
128,128,174319,1,0,0:0:0:0:
128,128,174373,5,2,0:0:0:0:
128,128,174426,5,0,0:0:0:0:
128,128,174533,1,0,0:0:0:0:
128,128,174748,5,2,0:0:0:0:
128,128,174855,1,2,0:0:0:0:
128,128,174962,5,0,0:0:0:0:
128,128,175176,5,2,0:0:0:0:
128,128,175283,5,0,0:0:0:0:
128,128,175498,5,2,0:0:0:0:
128,128,175605,5,0,0:0:0:0:
128,128,175712,5,2,0:0:0:0:
128,128,175766,1,2,0:0:0:0:
128,128,175819,5,0,0:0:0:0:
128,128,176033,5,2,0:0:0:0:
128,128,176248,1,2,0:0:0:0:
128,128,176319,1,2,0:0:0:0:
128,128,176391,1,2,0:0:0:0:
128,128,176462,1,2,0:0:0:0:
128,128,176569,5,0,0:0:0:0:
128,128,176676,1,0,0:0:0:0:
128,128,177105,1,0,0:0:0:0:
128,128,177158,1,0,0:0:0:0:
128,128,177212,1,0,0:0:0:0:
128,128,177266,1,0,0:0:0:0:
128,128,177319,1,0,0:0:0:0:
128,128,177426,5,2,0:0:0:0:
128,128,177533,5,0,0:0:0:0:
128,128,177748,1,0,0:0:0:0:
128,128,177801,5,2,0:0:0:0:
128,128,177855,5,0,0:0:0:0:
128,128,177962,1,0,0:0:0:0:
128,128,178069,1,0,0:0:0:0:
128,128,178176,5,2,0:0:0:0:
128,128,178283,1,2,0:0:0:0:
128,128,178391,5,0,0:0:0:0:
128,128,178498,1,0,0:0:0:0:
128,128,178605,5,2,0:0:0:0:
128,128,178819,5,0,0:0:0:0:
128,128,178926,5,2,0:0:0:0:
128,128,179033,5,0,0:0:0:0:
128,128,179105,1,0,0:0:0:0:
128,128,179176,1,0,0:0:0:0:
128,128,179248,5,2,0:0:0:0:
128,128,179462,5,0,0:0:0:0:
128,128,179569,5,2,0:0:0:0:
128,128,179676,5,0,0:0:0:0:
128,128,179748,1,0,0:0:0:0:
128,128,179819,1,0,0:0:0:0:
128,128,179891,5,2,0:0:0:0:
128,128,180105,5,4,0:0:0:0:
128,128,180533,1,0,0:0:0:0:
128,128,180587,1,0,0:0:0:0:
128,128,180641,1,0,0:0:0:0:
128,128,180694,1,0,0:0:0:0:
128,128,180748,1,0,0:0:0:0:
128,128,180855,5,2,0:0:0:0:
128,128,180962,5,0,0:0:0:0:
128,128,181176,1,0,0:0:0:0:
128,128,181230,5,2,0:0:0:0:
128,128,181283,5,0,0:0:0:0:
128,128,181391,1,0,0:0:0:0:
128,128,181605,5,2,0:0:0:0:
128,128,181712,1,2,0:0:0:0:
128,128,181819,5,0,0:0:0:0:
128,128,182033,5,2,0:0:0:0:
128,128,182141,5,0,0:0:0:0:
128,128,182355,5,2,0:0:0:0:
128,128,182408,1,2,0:0:0:0:
128,128,182462,5,0,0:0:0:0:
128,128,182891,5,2,0:0:0:0:
128,128,183105,1,2,0:0:0:0:
128,128,183176,1,2,0:0:0:0:
128,128,183248,1,2,0:0:0:0:
128,128,183319,1,2,0:0:0:0:
128,128,183426,5,0,0:0:0:0:
128,128,183533,1,0,0:0:0:0:
128,128,183962,5,2,0:0:0:0:
128,128,184069,1,2,0:0:0:0:
128,128,184176,5,0,0:0:0:0:
128,128,184283,1,0,0:0:0:0:
128,128,184391,1,0,0:0:0:0:
128,128,184444,1,0,0:0:0:0:
128,128,184498,1,0,0:0:0:0:
128,128,184551,1,0,0:0:0:0:
128,128,184605,5,2,0:0:0:0:
128,128,184712,5,0,0:0:0:0:
128,128,184766,1,0,0:0:0:0:
128,128,184819,1,0,0:0:0:0:
128,128,184873,1,0,0:0:0:0:
128,128,184926,5,2,0:0:0:0:
128,128,185033,5,0,0:0:0:0:
128,128,185087,1,0,0:0:0:0:
128,128,185141,1,0,0:0:0:0:
128,128,185194,1,0,0:0:0:0:
128,128,185248,5,2,0:0:0:0:
128,128,185569,1,2,0:0:0:0:
128,128,185891,1,2,0:0:0:0:
128,128,186105,5,0,0:0:0:0:
128,128,186176,1,0,0:0:0:0:
128,128,186248,1,0,0:0:0:0:
128,128,186319,1,0,0:0:0:0:
128,128,186426,5,2,0:0:0:0:
128,128,186748,5,0,0:0:0:0:
128,128,186855,1,0,0:0:0:0:
128,128,186962,5,2,0:0:0:0:
128,128,187176,5,0,0:0:0:0:
128,128,187391,1,0,0:0:0:0:
128,128,187605,5,2,0:0:0:0:
128,128,187819,5,0,0:0:0:0:
128,128,188033,1,0,0:0:0:0:
128,128,188248,5,2,0:0:0:0:
128,128,188462,5,0,0:0:0:0:
128,128,188676,1,0,0:0:0:0:
128,128,188891,5,2,0:0:0:0:
128,128,189105,5,0,0:0:0:0:
128,128,189319,5,2,0:0:0:0:
128,128,189748,1,2,0:0:0:0:
128,128,189962,1,2,0:0:0:0:
128,128,190016,1,2,0:0:0:0:
128,128,190069,1,2,0:0:0:0:
128,128,190123,1,2,0:0:0:0:
128,128,190391,5,0,0:0:0:0:
128,128,191033,1,0,0:0:0:0:
128,128,191462,5,2,0:0:0:0:
128,128,191569,1,2,0:0:0:0:
128,128,191676,1,2,0:0:0:0:
128,128,191891,5,0,0:0:0:0:
128,128,192319,5,2,0:0:0:0:
128,128,192641,1,2,0:0:0:0:
128,128,192962,1,2,0:0:0:0:
128,128,193176,5,0,0:0:0:0:
128,128,193230,1,0,0:0:0:0:
128,128,193283,1,0,0:0:0:0:
128,128,193391,5,2,0:0:0:0:
128,128,193605,5,0,0:0:0:0:
128,128,193712,1,0,0:0:0:0:
128,128,193819,5,2,0:0:0:0:
128,128,194033,5,0,0:0:0:0:
128,128,194248,1,0,0:0:0:0:
128,128,194462,5,2,0:0:0:0:
128,128,194676,5,0,0:0:0:0:
128,128,194891,1,0,0:0:0:0:
128,128,195105,5,2,0:0:0:0:
128,128,195319,5,0,0:0:0:0:
128,128,195533,1,0,0:0:0:0:
128,128,195748,5,2,0:0:0:0:
128,128,195962,5,0,0:0:0:0:
128,128,196176,5,2,0:0:0:0:
128,128,196605,1,2,0:0:0:0:
128,128,196819,1,2,0:0:0:0:
128,128,196873,1,2,0:0:0:0:
128,128,196926,1,2,0:0:0:0:
128,128,196980,1,2,0:0:0:0:
128,128,197248,5,0,0:0:0:0:
128,128,197891,1,0,0:0:0:0:
128,128,198319,5,2,0:0:0:0:
128,128,198426,1,2,0:0:0:0:
128,128,198533,1,2,0:0:0:0:
128,128,198748,5,0,0:0:0:0:
128,128,198962,5,2,0:0:0:0:
128,128,199283,1,2,0:0:0:0:
128,128,199605,1,2,0:0:0:0:
128,128,199819,5,0,0:0:0:0:
128,128,199891,1,0,0:0:0:0:
128,128,199962,1,0,0:0:0:0:
128,128,200033,1,0,0:0:0:0:
128,128,200105,1,0,0:0:0:0:
128,128,200176,1,0,0:0:0:0:
128,128,200248,5,2,0:0:0:0:
128,128,200676,5,0,0:0:0:0:
128,128,200783,1,0,0:0:0:0:
128,128,200891,1,0,0:0:0:0:
128,128,200998,1,0,0:0:0:0:
128,128,201748,5,2,0:0:0:0:
128,128,201855,1,2,0:0:0:0:
128,128,201962,1,2,0:0:0:0:
128,128,202176,5,0,0:0:0:0:
128,128,202391,1,0,0:0:0:0:
128,128,202498,5,2,0:0:0:0:
128,128,202605,5,0,0:0:0:0:
128,128,202819,1,0,0:0:0:0:
128,128,202962,1,0,0:0:0:0:
128,128,203105,1,0,0:0:0:0:
128,128,203248,1,0,0:0:0:0:
128,128,203676,5,2,0:0:0:0:
128,128,204105,5,0,0:0:0:0:
128,128,204212,1,0,0:0:0:0:
128,128,204319,1,0,0:0:0:0:
128,128,204426,1,0,0:0:0:0:
128,128,204962,1,0,0:0:0:0:
128,128,205176,5,2,0:0:0:0:
128,128,205283,1,2,0:0:0:0:
128,128,205391,1,2,0:0:0:0:
128,128,205605,5,0,0:0:0:0:
128,128,205819,1,0,0:0:0:0:
128,128,205926,5,2,0:0:0:0:
128,128,206033,5,0,0:0:0:0:
128,128,206248,1,0,0:0:0:0:
128,128,206355,5,2,0:0:0:0:
128,128,206462,5,0,0:0:0:0:
128,128,206676,1,0,0:0:0:0:
128,128,206819,1,0,0:0:0:0:
128,128,206962,1,0,0:0:0:0:
128,128,207105,1,0,0:0:0:0:
128,128,207391,5,2,0:0:0:0:
128,128,207533,5,0,0:0:0:0:
128,128,207641,1,0,0:0:0:0:
128,128,207748,1,0,0:0:0:0:
128,128,207855,1,0,0:0:0:0:
128,128,207962,5,2,0:0:0:0:
128,128,208069,1,2,0:0:0:0:
128,128,208176,1,2,0:0:0:0:
128,128,208283,1,2,0:0:0:0:
128,128,208391,5,0,0:0:0:0:
128,128,208498,1,0,0:0:0:0:
128,128,208605,1,0,0:0:0:0:
128,128,208658,5,2,0:0:0:0:
128,128,208712,5,0,0:0:0:0:
128,128,208819,5,2,0:0:0:0:
128,128,208926,1,2,0:0:0:0:
128,128,209033,1,2,0:0:0:0:
128,128,209141,1,2,0:0:0:0:
128,128,209248,5,0,0:0:0:0:
128,128,209355,1,0,0:0:0:0:
128,128,209462,1,0,0:0:0:0:
128,128,209569,1,0,0:0:0:0:
128,128,209676,5,2,0:0:0:0:
128,128,209783,1,2,0:0:0:0:
128,128,209891,1,2,0:0:0:0:
128,128,209998,1,2,0:0:0:0:
128,128,210105,5,0,0:0:0:0:
128,128,210212,1,0,0:0:0:0:
128,128,210319,1,0,0:0:0:0:
128,128,210373,5,2,0:0:0:0:
128,128,210426,5,0,0:0:0:0:
128,128,210533,5,2,0:0:0:0:
128,128,210641,1,2,0:0:0:0:
128,128,210748,1,2,0:0:0:0:
128,128,210855,1,2,0:0:0:0:
128,128,210962,5,0,0:0:0:0:
128,128,211069,1,0,0:0:0:0:
128,128,211176,1,0,0:0:0:0:
128,128,211230,5,2,0:0:0:0:
128,128,211283,5,0,0:0:0:0:
128,128,211391,5,2,0:0:0:0:
128,128,211498,1,2,0:0:0:0:
128,128,211605,1,2,0:0:0:0:
128,128,211712,1,2,0:0:0:0:
128,128,211819,5,0,0:0:0:0:
128,128,211926,1,0,0:0:0:0:
128,128,212033,1,0,0:0:0:0:
128,128,212087,5,2,0:0:0:0:
128,128,212141,5,0,0:0:0:0:
128,128,212248,5,2,0:0:0:0:
128,128,212355,1,2,0:0:0:0:
128,128,212462,1,2,0:0:0:0:
128,128,212569,1,2,0:0:0:0:
128,128,212676,5,0,0:0:0:0:
128,128,212783,1,0,0:0:0:0:
128,128,212891,1,0,0:0:0:0:
128,128,212944,5,2,0:0:0:0:
128,128,212998,5,0,0:0:0:0:
128,128,213105,5,2,0:0:0:0:
128,128,213212,1,2,0:0:0:0:
128,128,213319,1,2,0:0:0:0:
128,128,213426,1,2,0:0:0:0:
128,128,213533,2,0,L|256:256,1,210.21
128,128,214391,1,2,0:0:0:0:
128,128,214498,1,2,0:0:0:0:
128,128,214658,1,2,0:0:0:0:
128,128,214766,1,2,0:0:0:0:
128,128,214873,1,2,0:0:0:0:
128,128,215033,1,2,0:0:0:0:
128,128,215087,1,2,0:0:0:0:
128,128,215141,1,2,0:0:0:0:
128,128,215194,1,2,0:0:0:0:
128,128,215355,1,2,0:0:0:0:
128,128,215408,1,2,0:0:0:0:
128,128,215516,1,2,0:0:0:0:
128,128,215623,1,2,0:0:0:0:
128,128,215730,1,2,0:0:0:0:
128,128,215837,1,2,0:0:0:0:
128,128,215944,1,2,0:0:0:0:
128,128,216158,1,2,0:0:0:0:
128,128,216266,1,2,0:0:0:0:
128,128,216373,1,2,0:0:0:0:
128,128,216480,1,2,0:0:0:0:
128,128,216587,1,2,0:0:0:0:
128,128,216748,1,2,0:0:0:0:
128,128,216801,1,2,0:0:0:0:
128,128,216908,1,2,0:0:0:0:
128,128,217016,1,2,0:0:0:0:
128,128,217176,1,2,0:0:0:0:
128,128,217230,1,2,0:0:0:0:
128,128,217283,1,2,0:0:0:0:
128,128,217337,1,2,0:0:0:0:
128,128,217819,1,2,0:0:0:0:
128,128,217980,1,2,0:0:0:0:
128,128,218033,1,2,0:0:0:0:
128,128,218087,1,2,0:0:0:0:
128,128,218141,1,2,0:0:0:0:
128,128,218248,1,2,0:0:0:0:
128,128,218301,1,2,0:0:0:0:
128,128,218408,1,2,0:0:0:0:
128,128,218516,1,2,0:0:0:0:
128,128,218623,1,2,0:0:0:0:
128,128,218730,1,2,0:0:0:0:
128,128,218891,1,2,0:0:0:0:
128,128,218944,1,2,0:0:0:0:
128,128,218998,1,2,0:0:0:0:
128,128,219158,1,2,0:0:0:0:
128,128,219266,1,2,0:0:0:0:
128,128,219373,1,2,0:0:0:0:
128,128,219480,1,2,0:0:0:0:
128,128,219533,1,2,0:0:0:0:
128,128,219587,1,2,0:0:0:0:
128,128,219641,1,2,0:0:0:0:
128,128,219855,1,2,0:0:0:0:
128,128,219908,1,2,0:0:0:0:
128,128,219962,1,2,0:0:0:0:
128,128,220069,1,2,0:0:0:0:
128,128,220123,1,2,0:0:0:0:
128,128,220283,1,2,0:0:0:0:
128,128,220337,1,2,0:0:0:0:
128,128,220444,1,2,0:0:0:0:
128,128,220605,1,2,0:0:0:0:
128,128,220658,1,2,0:0:0:0:
128,128,220819,1,2,0:0:0:0:
128,128,220926,1,2,0:0:0:0:
128,128,221087,1,2,0:0:0:0:
128,128,221141,1,2,0:0:0:0:
128,128,221462,1,2,0:0:0:0:
128,128,221516,1,2,0:0:0:0:
128,128,221623,1,2,0:0:0:0:
128,128,221783,1,2,0:0:0:0:
128,128,221837,1,2,0:0:0:0:
128,128,221998,1,2,0:0:0:0:
128,128,222105,1,2,0:0:0:0:
128,128,222212,1,2,0:0:0:0:
128,128,222266,1,2,0:0:0:0:
128,128,222373,1,2,0:0:0:0:
128,128,222480,1,2,0:0:0:0:
128,128,222533,1,2,0:0:0:0:
128,128,222587,1,2,0:0:0:0:
128,128,222694,1,2,0:0:0:0:
128,128,222962,5,0,0:0:0:0:
128,128,223105,1,0,0:0:0:0:
128,128,223248,1,0,0:0:0:0:
128,128,223391,5,2,0:0:0:0:
128,128,223533,1,2,0:0:0:0:
128,128,223676,1,2,0:0:0:0:
128,128,223819,5,0,0:0:0:0:
128,128,223962,1,0,0:0:0:0:
128,128,224105,1,0,0:0:0:0:
128,128,224248,1,0,0:0:0:0:
128,128,224301,1,0,0:0:0:0:
128,128,224355,1,0,0:0:0:0:
128,128,224408,1,0,0:0:0:0:
128,128,224462,1,0,0:0:0:0:
128,128,224516,1,0,0:0:0:0:
128,128,224569,1,0,0:0:0:0:
128,128,224623,1,0,0:0:0:0:
128,128,224676,1,0,0:0:0:0:
128,128,224891,1,0,0:0:0:0:
128,128,224998,5,2,0:0:0:0:
128,128,225105,5,0,0:0:0:0:
128,128,225266,5,2,0:0:0:0:
128,128,225319,5,0,0:0:0:0:
128,128,225426,1,0,0:0:0:0:
128,128,225533,1,0,0:0:0:0:
128,128,225641,5,2,0:0:0:0:
128,128,225748,5,0,0:0:0:0:
128,128,225855,5,2,0:0:0:0:
128,128,225908,1,2,0:0:0:0:
128,128,225962,5,0,0:0:0:0:
128,128,226069,1,0,0:0:0:0:
128,128,226176,1,0,0:0:0:0:
128,128,226283,1,0,0:0:0:0:
128,128,226337,5,2,0:0:0:0:
128,128,226391,5,0,0:0:0:0:
128,128,226551,5,2,0:0:0:0:
128,128,226658,1,2,0:0:0:0:
128,128,226712,5,0,0:0:0:0:
128,128,226819,1,0,0:0:0:0:
128,128,226926,5,2,0:0:0:0:
128,128,227033,5,0,0:0:0:0:
128,128,227141,1,0,0:0:0:0:
128,128,227248,1,0,0:0:0:0:
128,128,227355,5,2,0:0:0:0:
128,128,227408,1,2,0:0:0:0:
128,128,227462,5,0,0:0:0:0:
128,128,227569,5,2,0:0:0:0:
128,128,227676,5,0,0:0:0:0:
128,128,227783,1,0,0:0:0:0:
128,128,227837,5,2,0:0:0:0:
128,128,227891,5,0,0:0:0:0:
128,128,227998,1,0,0:0:0:0:
128,128,228105,1,0,0:0:0:0:
128,128,228212,5,2,0:0:0:0:
128,128,228319,5,0,0:0:0:0:
128,128,228426,5,2,0:0:0:0:
128,128,228533,5,0,0:0:0:0:
128,128,228694,5,2,0:0:0:0:
128,128,228748,5,0,0:0:0:0:
128,128,228855,1,0,0:0:0:0:
128,128,228962,1,0,0:0:0:0:
128,128,229069,5,2,0:0:0:0:
128,128,229176,5,0,0:0:0:0:
128,128,229283,5,2,0:0:0:0:
128,128,229337,1,2,0:0:0:0:
128,128,229391,5,0,0:0:0:0:
128,128,229498,1,0,0:0:0:0:
128,128,229605,1,0,0:0:0:0:
128,128,229712,1,0,0:0:0:0:
128,128,229766,5,2,0:0:0:0:
128,128,229819,5,0,0:0:0:0:
128,128,229980,5,2,0:0:0:0:
128,128,230087,1,2,0:0:0:0:
128,128,230141,5,0,0:0:0:0:
128,128,230248,1,0,0:0:0:0:
128,128,230355,5,2,0:0:0:0:
128,128,230462,5,0,0:0:0:0:
128,128,230569,1,0,0:0:0:0:
128,128,230676,1,0,0:0:0:0:
128,128,230730,5,2,0:0:0:0:
128,128,230837,1,2,0:0:0:0:
128,128,230891,5,0,0:0:0:0:
128,128,230998,5,2,0:0:0:0:
128,128,231105,5,0,0:0:0:0:
128,128,231158,1,0,0:0:0:0:
128,128,231212,1,0,0:0:0:0:
128,128,231266,1,0,0:0:0:0:
128,128,231319,5,2,0:0:0:0:
128,128,231373,5,0,0:0:0:0:
128,128,231426,1,0,0:0:0:0:
128,128,231480,1,0,0:0:0:0:
128,128,231533,1,0,0:0:0:0:
128,128,231748,1,0,0:0:0:0:
128,128,231855,5,2,0:0:0:0:
128,128,231962,5,0,0:0:0:0:
128,128,232123,5,2,0:0:0:0:
128,128,232176,5,0,0:0:0:0:
128,128,232283,1,0,0:0:0:0:
128,128,232391,1,0,0:0:0:0:
128,128,232498,5,2,0:0:0:0:
128,128,232605,5,0,0:0:0:0:
128,128,232712,5,2,0:0:0:0:
128,128,232766,1,2,0:0:0:0:
128,128,232819,5,0,0:0:0:0:
128,128,232926,1,0,0:0:0:0:
128,128,233033,1,0,0:0:0:0:
128,128,233141,1,0,0:0:0:0:
128,128,233194,5,2,0:0:0:0:
128,128,233248,5,0,0:0:0:0:
128,128,233408,5,2,0:0:0:0:
128,128,233516,1,2,0:0:0:0:
128,128,233569,5,0,0:0:0:0:
128,128,233676,1,0,0:0:0:0:
128,128,233783,5,2,0:0:0:0:
128,128,233891,5,0,0:0:0:0:
128,128,233998,1,0,0:0:0:0:
128,128,234105,1,0,0:0:0:0:
128,128,234212,5,2,0:0:0:0:
128,128,234266,1,2,0:0:0:0:
128,128,234319,5,0,0:0:0:0:
128,128,234426,5,2,0:0:0:0:
128,128,234533,5,0,0:0:0:0:
128,128,234641,1,0,0:0:0:0:
128,128,234694,5,2,0:0:0:0:
128,128,234748,5,0,0:0:0:0:
128,128,234855,1,0,0:0:0:0:
128,128,234962,1,0,0:0:0:0:
128,128,235069,5,2,0:0:0:0:
128,128,235176,5,0,0:0:0:0:
128,128,235283,5,2,0:0:0:0:
128,128,235391,5,0,0:0:0:0:
128,128,235551,5,2,0:0:0:0:
128,128,235605,5,0,0:0:0:0:
128,128,235712,1,0,0:0:0:0:
128,128,235819,1,0,0:0:0:0:
128,128,235926,5,2,0:0:0:0:
128,128,236033,5,0,0:0:0:0:
128,128,236141,5,2,0:0:0:0:
128,128,236194,1,2,0:0:0:0:
128,128,236248,5,0,0:0:0:0:
128,128,236355,1,0,0:0:0:0:
128,128,236462,1,0,0:0:0:0:
128,128,236569,1,0,0:0:0:0:
128,128,236623,5,2,0:0:0:0:
128,128,236676,5,0,0:0:0:0:
128,128,236837,5,2,0:0:0:0:
128,128,236944,1,2,0:0:0:0:
128,128,236998,5,0,0:0:0:0:
128,128,237105,1,0,0:0:0:0:
128,128,237212,5,2,0:0:0:0:
128,128,237319,5,0,0:0:0:0:
128,128,237426,1,0,0:0:0:0:
128,128,237533,1,0,0:0:0:0:
128,128,237587,5,2,0:0:0:0:
128,128,237694,1,2,0:0:0:0:
128,128,237748,5,0,0:0:0:0:
128,128,237855,5,2,0:0:0:0:
128,128,237908,1,2,0:0:0:0:
128,128,237962,5,0,0:0:0:0:
128,128,238016,1,0,0:0:0:0:
128,128,238069,1,0,0:0:0:0:
128,128,238123,1,0,0:0:0:0:
128,128,238176,5,2,0:0:0:0:
128,128,238230,5,0,0:0:0:0:
128,128,238283,1,0,0:0:0:0:
128,128,238337,1,0,0:0:0:0:
128,128,238391,1,0,0:0:0:0:
128,128,238498,5,2,0:0:0:0:
128,128,238605,5,0,0:0:0:0:
128,128,238712,5,2,0:0:0:0:
128,128,238819,5,0,0:0:0:0:
128,128,238873,5,2,0:0:0:0:
128,128,238980,1,2,0:0:0:0:
128,128,239033,5,0,0:0:0:0:
128,128,239141,1,0,0:0:0:0:
128,128,239248,1,0,0:0:0:0:
128,128,239355,5,2,0:0:0:0:
128,128,239462,5,0,0:0:0:0:
128,128,239569,5,2,0:0:0:0:
128,128,239623,1,2,0:0:0:0:
128,128,239676,5,0,0:0:0:0:
128,128,239783,1,0,0:0:0:0:
128,128,239891,1,0,0:0:0:0:
128,128,239998,1,0,0:0:0:0:
128,128,240051,5,2,0:0:0:0:
128,128,240105,5,0,0:0:0:0:
128,128,240266,5,2,0:0:0:0:
128,128,240373,1,2,0:0:0:0:
128,128,240426,5,0,0:0:0:0:
128,128,240533,1,0,0:0:0:0:
128,128,240641,5,2,0:0:0:0:
128,128,240694,1,2,0:0:0:0:
128,128,240748,5,0,0:0:0:0:
128,128,240855,1,0,0:0:0:0:
128,128,240962,1,0,0:0:0:0:
128,128,241069,5,2,0:0:0:0:
128,128,241123,1,2,0:0:0:0:
128,128,241176,5,0,0:0:0:0:
128,128,241283,5,2,0:0:0:0:
128,128,241391,5,0,0:0:0:0:
128,128,241444,5,2,0:0:0:0:
128,128,241498,5,0,0:0:0:0:
128,128,241551,5,2,0:0:0:0:
128,128,241605,5,0,0:0:0:0:
128,128,241658,5,2,0:0:0:0:
128,128,241712,1,2,0:0:0:0:
128,128,241766,1,2,0:0:0:0:
128,128,241819,5,0,0:0:0:0:
128,128,241926,5,2,0:0:0:0:
128,128,242033,5,0,0:0:0:0:
128,128,242141,5,2,0:0:0:0:
128,128,242248,5,0,0:0:0:0:
128,128,242301,5,2,0:0:0:0:
128,128,242408,1,2,0:0:0:0:
128,128,242462,5,0,0:0:0:0:
128,128,242569,1,0,0:0:0:0:
128,128,242676,1,0,0:0:0:0:
128,128,242783,5,2,0:0:0:0:
128,128,242891,5,0,0:0:0:0:
128,128,242998,5,2,0:0:0:0:
128,128,243051,1,2,0:0:0:0:
128,128,243105,5,0,0:0:0:0:
128,128,243212,1,0,0:0:0:0:
128,128,243319,1,0,0:0:0:0:
128,128,243426,1,0,0:0:0:0:
128,128,243480,5,2,0:0:0:0:
128,128,243533,5,0,0:0:0:0:
128,128,243694,5,2,0:0:0:0:
128,128,243801,1,2,0:0:0:0:
128,128,243855,5,0,0:0:0:0:
128,128,243962,1,0,0:0:0:0:
128,128,244069,5,2,0:0:0:0:
128,128,244123,1,2,0:0:0:0:
128,128,244176,5,0,0:0:0:0:
128,128,244283,1,0,0:0:0:0:
128,128,244391,1,0,0:0:0:0:
128,128,244498,5,2,0:0:0:0:
128,128,244551,1,2,0:0:0:0:
128,128,244605,5,0,0:0:0:0:
128,128,244658,5,2,0:0:0:0:
128,128,244712,1,2,0:0:0:0:
128,128,244766,1,2,0:0:0:0:
128,128,244819,5,0,0:0:0:0:
128,128,244873,1,0,0:0:0:0:
128,128,244926,1,0,0:0:0:0:
128,128,244980,1,0,0:0:0:0:
128,128,245033,5,2,0:0:0:0:
128,128,245087,5,0,0:0:0:0:
128,128,245141,1,0,0:0:0:0:
128,128,245194,1,0,0:0:0:0:
128,128,245248,1,0,0:0:0:0:
128,128,245355,5,2,0:0:0:0:
128,128,245462,5,0,0:0:0:0:
128,128,245569,5,2,0:0:0:0:
128,128,245676,5,0,0:0:0:0:
128,128,245730,5,2,0:0:0:0:
128,128,245837,1,2,0:0:0:0:
128,128,245891,5,0,0:0:0:0:
128,128,245998,1,0,0:0:0:0:
128,128,246105,1,0,0:0:0:0:
128,128,246212,5,2,0:0:0:0:
128,128,246319,5,0,0:0:0:0:
128,128,246426,5,2,0:0:0:0:
128,128,246480,1,2,0:0:0:0:
128,128,246533,5,0,0:0:0:0:
128,128,246641,1,0,0:0:0:0:
128,128,246748,1,0,0:0:0:0:
128,128,246855,1,0,0:0:0:0:
128,128,246908,5,2,0:0:0:0:
128,128,246962,5,0,0:0:0:0:
128,128,247123,5,2,0:0:0:0:
128,128,247230,1,2,0:0:0:0:
128,128,247283,5,0,0:0:0:0:
128,128,247391,1,0,0:0:0:0:
128,128,247498,5,2,0:0:0:0:
128,128,247551,1,2,0:0:0:0:
128,128,247605,5,0,0:0:0:0:
128,128,247712,1,0,0:0:0:0:
128,128,247819,1,0,0:0:0:0:
128,128,247926,5,2,0:0:0:0:
128,128,247980,1,2,0:0:0:0:
128,128,248033,5,0,0:0:0:0:
128,128,248141,5,2,0:0:0:0:
128,128,248248,5,0,0:0:0:0:
128,128,248301,5,2,0:0:0:0:
128,128,248355,5,0,0:0:0:0:
128,128,248408,5,2,0:0:0:0:
128,128,248462,5,0,0:0:0:0:
128,128,248516,5,2,0:0:0:0:
128,128,248569,1,2,0:0:0:0:
128,128,248623,5,0,0:0:0:0:
128,128,248783,1,0,0:0:0:0:
128,128,248998,1,0,0:0:0:0:
128,128,249212,1,0,0:0:0:0:
128,128,249426,1,0,0:0:0:0:
128,128,249641,1,0,0:0:0:0:
128,128,249855,1,0,0:0:0:0:
128,128,249962,5,2,0:0:0:0:
128,128,250069,1,2,0:0:0:0:
128,128,250123,1,2,0:0:0:0:
128,128,250230,1,2,0:0:0:0:
128,128,250283,1,2,0:0:0:0:
128,128,250337,1,2,0:0:0:0:
128,128,250391,2,0,L|256:256,1,763.3808
128,128,251248,5,0,0:0:0:0:
128,128,251319,1,0,0:0:0:0:
128,128,251391,1,0,0:0:0:0:
128,128,251462,1,0,0:0:0:0:
128,128,251533,1,0,0:0:0:0:
128,128,251605,1,0,0:0:0:0:
128,128,251676,5,2,0:0:0:0:
128,128,252105,5,0,0:0:0:0:
128,128,252319,1,0,0:0:0:0:
128,128,252426,1,0,0:0:0:0:
128,128,252533,1,0,0:0:0:0:
128,128,252855,5,2,0:0:0:0:
128,128,252962,1,2,0:0:0:0:
128,128,253069,1,2,0:0:0:0:
128,128,253176,1,2,0:0:0:0:
128,128,253391,1,2,0:0:0:0:
128,128,253533,5,0,0:0:0:0:
128,128,253676,1,0,0:0:0:0:
128,128,253819,1,0,0:0:0:0:
128,128,254248,1,0,0:0:0:0:
128,128,254391,1,0,0:0:0:0:
128,128,254533,1,0,0:0:0:0:
128,128,254676,5,2,0:0:0:0:
128,128,254819,1,2,0:0:0:0:
128,128,254962,1,2,0:0:0:0:
128,128,255105,5,0,0:0:0:0:
128,128,255248,1,0,0:0:0:0:
128,128,255391,1,0,0:0:0:0:
128,128,255533,1,0,0:0:0:0:
128,128,255748,1,0,0:0:0:0:
128,128,255855,1,0,0:0:0:0:
128,128,255962,1,0,0:0:0:0:
128,128,256283,5,2,0:0:0:0:
128,128,256391,1,2,0:0:0:0:
128,128,256498,1,2,0:0:0:0:
128,128,256605,1,2,0:0:0:0:
128,128,256819,1,2,0:0:0:0:
128,128,256962,5,0,0:0:0:0:
128,128,257105,1,0,0:0:0:0:
128,128,257248,1,0,0:0:0:0:
128,128,257676,1,0,0:0:0:0:
128,128,257819,1,0,0:0:0:0:
128,128,257962,1,0,0:0:0:0:
128,128,258105,5,2,0:0:0:0:
128,128,258248,1,2,0:0:0:0:
128,128,258391,1,2,0:0:0:0:
128,128,258533,5,0,0:0:0:0:
128,128,258676,1,0,0:0:0:0:
128,128,258819,1,0,0:0:0:0:
128,128,258962,1,0,0:0:0:0:
128,128,259069,5,2,0:0:0:0:
128,128,259176,5,0,0:0:0:0:
128,128,259283,5,2,0:0:0:0:
128,128,259391,5,0,0:0:0:0:
128,128,259444,5,2,0:0:0:0:
128,128,259551,1,2,0:0:0:0:
128,128,259605,5,0,0:0:0:0:
128,128,259712,1,0,0:0:0:0:
128,128,259819,1,0,0:0:0:0:
128,128,259926,5,2,0:0:0:0:
128,128,260033,5,0,0:0:0:0:
128,128,260141,5,2,0:0:0:0:
128,128,260194,1,2,0:0:0:0:
128,128,260248,5,0,0:0:0:0:
128,128,260355,1,0,0:0:0:0:
128,128,260462,1,0,0:0:0:0:
128,128,260569,1,0,0:0:0:0:
128,128,260623,5,2,0:0:0:0:
128,128,260676,5,0,0:0:0:0:
128,128,260783,1,0,0:0:0:0:
128,128,260837,5,2,0:0:0:0:
128,128,260891,1,2,0:0:0:0:
128,128,260944,1,2,0:0:0:0:
128,128,260998,5,0,0:0:0:0:
128,128,261105,1,0,0:0:0:0:
128,128,261212,5,2,0:0:0:0:
128,128,261266,1,2,0:0:0:0:
128,128,261319,5,0,0:0:0:0:
128,128,261426,1,0,0:0:0:0:
128,128,261533,1,0,0:0:0:0:
128,128,261641,5,2,0:0:0:0:
128,128,261694,1,2,0:0:0:0:
128,128,261748,5,0,0:0:0:0:
128,128,261855,5,2,0:0:0:0:
128,128,261962,5,0,0:0:0:0:
128,128,262016,5,2,0:0:0:0:
128,128,262069,5,0,0:0:0:0:
128,128,262123,5,2,0:0:0:0:
128,128,262176,5,0,0:0:0:0:
128,128,262230,5,2,0:0:0:0:
128,128,262283,1,2,0:0:0:0:
128,128,262337,1,2,0:0:0:0:
128,128,262391,5,0,0:0:0:0:
128,128,262498,5,2,0:0:0:0:
128,128,262605,5,0,0:0:0:0:
128,128,262712,5,2,0:0:0:0:
128,128,262819,5,0,0:0:0:0:
128,128,262873,5,2,0:0:0:0:
128,128,262980,1,2,0:0:0:0:
128,128,263033,5,0,0:0:0:0:
128,128,263141,1,0,0:0:0:0:
128,128,263194,5,2,0:0:0:0:
128,128,263248,5,0,0:0:0:0:
128,128,263301,5,2,0:0:0:0:
128,128,263355,1,2,0:0:0:0:
128,128,263408,1,2,0:0:0:0:
128,128,263462,5,0,0:0:0:0:
128,128,263516,5,2,0:0:0:0:
128,128,263569,1,2,0:0:0:0:
128,128,263623,1,2,0:0:0:0:
128,128,263676,5,0,0:0:0:0:
128,128,263730,5,2,0:0:0:0:
128,128,263783,5,0,0:0:0:0:
128,128,263837,5,2,0:0:0:0:
128,128,263891,5,0,0:0:0:0:
128,128,263944,5,2,0:0:0:0:
128,128,263998,5,0,0:0:0:0:
128,128,264105,1,4,0:0:0:0:
128,128,264426,1,4,0:0:0:0:
128,128,264748,1,4,0:0:0:0:
128,128,265069,1,0,0:0:0:0:
128,128,265176,5,2,0:0:0:0:
128,128,265391,5,0,0:0:0:0:
128,128,265444,1,0,0:0:0:0:
128,128,265498,5,2,0:0:0:0:
128,128,265551,5,0,0:0:0:0:
128,128,265605,1,0,0:0:0:0:
128,128,265658,5,2,0:0:0:0:
128,128,265712,5,0,0:0:0:0:
128,128,265766,1,0,0:0:0:0:
128,128,265819,5,2,0:0:0:0:
128,128,265873,1,2,0:0:0:0:
128,128,275581,5,4,0:0:0:0:
256,192,276381,12,0,278181,0:0:0:0:
128,128,278381,5,0,0:0:0:0:
128,128,278481,1,0,0:0:0:0:
128,128,278581,1,0,0:0:0:0:
128,128,278681,5,2,0:0:0:0:
128,128,278781,5,4,0:0:0:0:
128,128,279181,5,2,0:0:0:0:
128,128,279581,1,2,0:0:0:0:
128,128,279981,1,2,0:0:0:0:
128,128,280181,5,0,0:0:0:0:
128,128,280281,1,0,0:0:0:0:
128,128,280381,1,4,0:0:0:0:
128,128,280781,5,2,0:0:0:0:
128,128,281181,5,0,0:0:0:0:
128,128,281581,5,2,0:0:0:0:
128,128,281981,5,4,0:0:0:0:
128,128,282381,5,2,0:0:0:0:
128,128,282781,1,2,0:0:0:0:
128,128,283181,1,2,0:0:0:0:
128,128,283381,5,0,0:0:0:0:
128,128,283481,1,0,0:0:0:0:
128,128,283581,1,4,0:0:0:0:
128,128,283981,5,2,0:0:0:0:
128,128,284381,1,2,0:0:0:0:
128,128,284647,5,0,0:0:0:0:
128,128,284714,1,0,0:0:0:0:
128,128,284781,5,2,0:0:0:0:
128,128,284881,1,2,0:0:0:0:
128,128,284981,5,0,0:0:0:0:
128,128,285047,1,0,0:0:0:0:
128,128,285181,1,4,0:0:0:0:
128,128,285281,1,0,0:0:0:0:
128,128,285381,5,2,0:0:0:0:
128,128,285481,5,0,0:0:0:0:
128,128,285581,1,0,0:0:0:0:
128,128,285681,5,2,0:0:0:0:
128,128,285781,5,0,0:0:0:0:
128,128,285881,1,0,0:0:0:0:
128,128,285981,5,2,0:0:0:0:
128,128,286081,5,0,0:0:0:0:
128,128,286181,1,0,0:0:0:0:
128,128,286281,5,2,0:0:0:0:
128,128,286381,5,0,0:0:0:0:
128,128,286481,1,0,0:0:0:0:
128,128,286531,1,0,0:0:0:0:
128,128,286581,5,2,0:0:0:0:
128,128,286681,5,0,0:0:0:0:
128,128,286781,1,4,0:0:0:0:
128,128,286881,1,0,0:0:0:0:
128,128,286981,5,2,0:0:0:0:
128,128,287081,5,0,0:0:0:0:
128,128,287181,1,0,0:0:0:0:
128,128,287281,5,2,0:0:0:0:
128,128,287381,5,0,0:0:0:0:
128,128,287481,1,0,0:0:0:0:
128,128,287581,5,2,0:0:0:0:
128,128,287681,5,0,0:0:0:0:
128,128,287781,1,0,0:0:0:0:
128,128,287881,5,2,0:0:0:0:
128,128,287981,5,0,0:0:0:0:
128,128,288031,1,0,0:0:0:0:
128,128,288081,1,0,0:0:0:0:
128,128,288131,1,0,0:0:0:0:
128,128,288181,5,2,0:0:0:0:
128,128,288281,5,0,0:0:0:0:
128,128,288381,1,4,0:0:0:0:
128,128,288481,1,0,0:0:0:0:
128,128,288581,5,2,0:0:0:0:
128,128,288681,5,0,0:0:0:0:
128,128,288781,1,0,0:0:0:0:
128,128,288881,5,2,0:0:0:0:
128,128,288981,5,0,0:0:0:0:
128,128,289081,1,0,0:0:0:0:
128,128,289181,5,2,0:0:0:0:
128,128,289281,5,0,0:0:0:0:
128,128,289381,1,0,0:0:0:0:
128,128,289481,5,2,0:0:0:0:
128,128,289581,5,0,0:0:0:0:
128,128,289681,1,0,0:0:0:0:
128,128,289731,5,2,0:0:0:0:
128,128,289781,1,2,0:0:0:0:
128,128,289881,1,2,0:0:0:0:
128,128,289981,5,4,0:0:0:0:
128,128,290081,1,0,0:0:0:0:
128,128,290181,5,2,0:0:0:0:
128,128,290231,1,2,0:0:0:0:
128,128,290281,5,0,0:0:0:0:
128,128,290381,1,0,0:0:0:0:
128,128,290481,5,2,0:0:0:0:
128,128,290531,1,2,0:0:0:0:
128,128,290581,1,2,0:0:0:0:
128,128,290681,5,0,0:0:0:0:
128,128,290781,5,2,0:0:0:0:
128,128,290831,1,2,0:0:0:0:
128,128,290881,5,0,0:0:0:0:
128,128,290931,1,0,0:0:0:0:
128,128,290981,1,0,0:0:0:0:
128,128,291081,5,2,0:0:0:0:
128,128,291131,1,2,0:0:0:0:
128,128,291181,1,2,0:0:0:0:
128,128,291231,1,2,0:0:0:0:
128,128,291281,5,0,0:0:0:0:
128,128,291381,5,2,0:0:0:0:
128,128,291431,1,2,0:0:0:0:
128,128,291481,5,0,0:0:0:0:
128,128,291531,1,0,0:0:0:0:
128,128,291981,1,0,0:0:0:0:
128,128,292047,1,0,0:0:0:0:
128,128,292114,1,0,0:0:0:0:
128,128,292181,1,0,0:0:0:0:
128,128,292231,1,0,0:0:0:0:
128,128,292281,1,0,0:0:0:0:
128,128,292331,1,0,0:0:0:0:
128,128,292381,1,0,0:0:0:0:
128,128,292581,5,6,0:0:0:0:
128,128,292881,5,0,0:0:0:0:
128,128,292931,1,0,0:0:0:0:
128,128,292981,5,2,0:0:0:0:
128,128,293081,5,0,0:0:0:0:
128,128,293181,1,0,0:0:0:0:
128,128,293281,1,0,0:0:0:0:
128,128,293381,5,2,0:0:0:0:
128,128,293481,5,0,0:0:0:0:
128,128,293581,1,0,0:0:0:0:
128,128,293681,1,0,0:0:0:0:
128,128,293781,5,2,0:0:0:0:
128,128,293881,5,0,0:0:0:0:
128,128,293931,1,0,0:0:0:0:
128,128,293981,1,0,0:0:0:0:
128,128,294181,5,6,0:0:0:0:
128,128,294481,5,0,0:0:0:0:
128,128,294531,1,0,0:0:0:0:
128,128,294581,5,2,0:0:0:0:
128,128,294681,5,0,0:0:0:0:
128,128,294781,1,0,0:0:0:0:
128,128,294881,1,0,0:0:0:0:
128,128,294981,5,2,0:0:0:0:
128,128,295081,5,0,0:0:0:0:
128,128,295181,1,0,0:0:0:0:
128,128,295281,1,0,0:0:0:0:
128,128,295381,5,2,0:0:0:0:
128,128,295431,1,2,0:0:0:0:
128,128,295481,5,0,0:0:0:0:
128,128,295531,1,0,0:0:0:0:
128,128,295581,1,0,0:0:0:0:
128,128,295781,5,6,0:0:0:0:
128,128,296081,5,0,0:0:0:0:
128,128,296131,1,0,0:0:0:0:
128,128,296181,5,2,0:0:0:0:
128,128,296281,5,0,0:0:0:0:
128,128,296381,1,0,0:0:0:0:
128,128,296481,1,0,0:0:0:0:
128,128,296581,5,2,0:0:0:0:
128,128,296681,5,0,0:0:0:0:
128,128,296781,1,0,0:0:0:0:
128,128,296881,1,0,0:0:0:0:
128,128,296981,5,2,0:0:0:0:
128,128,297081,5,0,0:0:0:0:
128,128,297131,1,0,0:0:0:0:
128,128,297181,1,0,0:0:0:0:
128,128,297281,1,0,0:0:0:0:
128,128,297381,5,2,0:0:0:0:
128,128,297431,1,2,0:0:0:0:
128,128,297481,5,0,0:0:0:0:
128,128,297581,1,0,0:0:0:0:
128,128,297681,1,0,0:0:0:0:
128,128,297781,5,2,0:0:0:0:
128,128,297831,1,2,0:0:0:0:
128,128,297881,5,0,0:0:0:0:
128,128,297981,1,0,0:0:0:0:
128,128,298081,1,0,0:0:0:0:
128,128,298181,5,2,0:0:0:0:
128,128,298231,1,2,0:0:0:0:
128,128,298281,5,0,0:0:0:0:
128,128,298381,5,2,0:0:0:0:
128,128,298447,1,2,0:0:0:0:
128,128,298514,1,2,0:0:0:0:
128,128,298581,1,2,0:0:0:0:
128,128,298681,1,2,0:0:0:0:
128,128,298781,5,0,0:0:0:0:
128,128,298981,5,6,0:0:0:0:
128,128,299281,5,0,0:0:0:0:
128,128,299331,1,0,0:0:0:0:
128,128,299381,5,2,0:0:0:0:
128,128,299481,5,0,0:0:0:0:
128,128,299581,1,0,0:0:0:0:
128,128,299681,1,0,0:0:0:0:
128,128,299781,5,2,0:0:0:0:
128,128,299881,5,0,0:0:0:0:
128,128,299981,1,0,0:0:0:0:
128,128,300081,1,0,0:0:0:0:
128,128,300181,5,2,0:0:0:0:
128,128,300281,5,0,0:0:0:0:
128,128,300331,1,0,0:0:0:0:
128,128,300381,1,0,0:0:0:0:
128,128,300581,5,6,0:0:0:0:
128,128,300881,5,0,0:0:0:0:
128,128,300931,1,0,0:0:0:0:
128,128,300981,5,2,0:0:0:0:
128,128,301081,5,0,0:0:0:0:
128,128,301181,1,0,0:0:0:0:
128,128,301281,1,0,0:0:0:0:
128,128,301381,5,2,0:0:0:0:
128,128,301481,5,0,0:0:0:0:
128,128,301581,1,0,0:0:0:0:
128,128,301681,1,0,0:0:0:0:
128,128,301781,5,2,0:0:0:0:
128,128,301831,1,2,0:0:0:0:
128,128,301881,5,0,0:0:0:0:
128,128,301931,1,0,0:0:0:0:
128,128,301981,1,0,0:0:0:0:
128,128,302181,5,6,0:0:0:0:
128,128,302481,5,0,0:0:0:0:
128,128,302531,1,0,0:0:0:0:
128,128,302581,5,2,0:0:0:0:
128,128,302681,5,0,0:0:0:0:
128,128,302781,1,0,0:0:0:0:
128,128,302881,1,0,0:0:0:0:
128,128,302981,5,2,0:0:0:0:
128,128,303081,5,0,0:0:0:0:
128,128,303181,1,0,0:0:0:0:
128,128,303281,1,0,0:0:0:0:
128,128,303381,5,2,0:0:0:0:
128,128,303481,5,0,0:0:0:0:
128,128,303531,1,0,0:0:0:0:
128,128,303581,5,2,0:0:0:0:
128,128,303681,5,0,0:0:0:0:
128,128,303781,1,0,0:0:0:0:
128,128,303831,1,0,0:0:0:0:
128,128,303881,1,0,0:0:0:0:
128,128,303981,5,2,0:0:0:0:
128,128,304081,5,0,0:0:0:0:
128,128,304181,1,0,0:0:0:0:
128,128,304231,1,0,0:0:0:0:
128,128,304281,1,0,0:0:0:0:
128,128,304381,5,2,0:0:0:0:
128,128,304447,5,0,0:0:0:0:
128,128,304514,1,0,0:0:0:0:
128,128,304581,1,0,0:0:0:0:
128,128,304681,1,0,0:0:0:0:
128,128,304781,5,2,0:0:0:0:
128,128,304831,5,0,0:0:0:0:
128,128,304881,1,0,0:0:0:0:
128,128,304931,1,0,0:0:0:0:
128,128,304981,5,2,0:0:0:0:
128,128,305181,1,2,0:0:0:0:
128,128,305381,1,2,0:0:0:0:
128,128,305431,5,0,0:0:0:0:
128,128,305481,5,2,0:0:0:0:
128,128,305531,5,0,0:0:0:0:
128,128,305581,5,2,0:0:0:0:
128,128,305631,5,0,0:0:0:0:
128,128,305681,5,2,0:0:0:0:
128,128,305731,5,0,0:0:0:0:
128,128,305781,5,2,0:0:0:0:
128,128,305981,1,2,0:0:0:0:
128,128,306031,5,0,0:0:0:0:
128,128,306081,5,2,0:0:0:0:
128,128,306131,5,0,0:0:0:0:
128,128,306181,5,2,0:0:0:0:
128,128,306231,5,0,0:0:0:0:
128,128,306281,5,2,0:0:0:0:
128,128,306331,5,0,0:0:0:0:
128,128,306381,5,2,0:0:0:0:
128,128,306431,5,0,0:0:0:0:
128,128,306481,5,2,0:0:0:0:
128,128,306531,5,0,0:0:0:0:
128,128,306581,5,2,0:0:0:0:
128,128,306781,1,2,0:0:0:0:
128,128,306831,1,2,0:0:0:0:
128,128,306881,5,0,0:0:0:0:
128,128,306931,1,0,0:0:0:0:
128,128,306981,5,2,0:0:0:0:
128,128,307031,1,2,0:0:0:0:
128,128,307081,5,0,0:0:0:0:
128,128,307131,1,0,0:0:0:0:
128,128,307181,5,2,0:0:0:0:
128,128,307381,1,2,0:0:0:0:
128,128,307581,1,2,0:0:0:0:
128,128,307631,5,0,0:0:0:0:
128,128,307681,5,2,0:0:0:0:
128,128,307731,5,0,0:0:0:0:
128,128,307781,5,2,0:0:0:0:
128,128,307831,5,0,0:0:0:0:
128,128,307881,5,2,0:0:0:0:
128,128,307931,5,0,0:0:0:0:
128,128,307981,5,2,0:0:0:0:
128,128,308181,1,2,0:0:0:0:
128,128,308231,5,0,0:0:0:0:
128,128,308281,5,2,0:0:0:0:
128,128,308331,5,0,0:0:0:0:
128,128,308381,5,2,0:0:0:0:
128,128,308431,5,0,0:0:0:0:
128,128,308481,5,2,0:0:0:0:
128,128,308531,5,0,0:0:0:0:
128,128,308581,5,2,0:0:0:0:
128,128,308631,5,0,0:0:0:0:
128,128,308681,5,2,0:0:0:0:
128,128,308731,5,0,0:0:0:0:
128,128,308781,5,2,0:0:0:0:
128,128,308981,1,2,0:0:0:0:
128,128,309031,1,2,0:0:0:0:
128,128,309081,5,0,0:0:0:0:
128,128,309131,1,0,0:0:0:0:
128,128,309181,5,2,0:0:0:0:
128,128,309231,1,2,0:0:0:0:
128,128,309281,5,0,0:0:0:0:
128,128,309331,1,0,0:0:0:0:
128,128,309381,5,2,0:0:0:0:
128,128,309581,1,2,0:0:0:0:
128,128,309781,1,2,0:0:0:0:
128,128,309831,5,0,0:0:0:0:
128,128,309881,5,2,0:0:0:0:
128,128,309931,5,0,0:0:0:0:
128,128,309981,5,2,0:0:0:0:
128,128,310031,5,0,0:0:0:0:
128,128,310081,5,2,0:0:0:0:
128,128,310131,5,0,0:0:0:0:
128,128,310181,5,2,0:0:0:0:
128,128,310381,1,2,0:0:0:0:
128,128,310447,1,2,0:0:0:0:
128,128,310514,1,2,0:0:0:0:
128,128,310581,1,2,0:0:0:0:
128,128,310647,1,2,0:0:0:0:
128,128,310714,1,2,0:0:0:0:
128,128,310781,1,2,0:0:0:0:
128,128,310981,1,2,0:0:0:0:
128,128,311181,2,4,L|256:256,1,58.1
128,128,311381,1,2,0:0:0:0:
128,128,311581,5,0,0:0:0:0:
128,128,311781,1,0,0:0:0:0:
128,128,311831,5,2,0:0:0:0:
128,128,311881,5,0,0:0:0:0:
128,128,311931,5,2,0:0:0:0:
128,128,311981,5,0,0:0:0:0:
128,128,312031,5,2,0:0:0:0:
128,128,312081,5,0,0:0:0:0:
128,128,312131,5,2,0:0:0:0:
128,128,312181,5,0,0:0:0:0:
128,128,312381,1,0,0:0:0:0:
128,128,312431,5,2,0:0:0:0:
128,128,312481,5,0,0:0:0:0:
128,128,312531,5,2,0:0:0:0:
128,128,312581,5,0,0:0:0:0:
128,128,312631,5,2,0:0:0:0:
128,128,312681,5,0,0:0:0:0:
128,128,312731,5,2,0:0:0:0:
128,128,312781,5,0,0:0:0:0:
128,128,312831,5,2,0:0:0:0:
128,128,312881,5,0,0:0:0:0:
128,128,312931,5,2,0:0:0:0:
128,128,312981,5,0,0:0:0:0:
128,128,313181,1,0,0:0:0:0:
128,128,313231,1,0,0:0:0:0:
128,128,313281,5,2,0:0:0:0:
128,128,313331,1,2,0:0:0:0:
128,128,313381,5,0,0:0:0:0:
128,128,313431,1,0,0:0:0:0:
128,128,313481,5,2,0:0:0:0:
128,128,313531,1,2,0:0:0:0:
128,128,313581,5,0,0:0:0:0:
128,128,313781,1,0,0:0:0:0:
128,128,313981,1,0,0:0:0:0:
128,128,314031,5,2,0:0:0:0:
128,128,314081,5,0,0:0:0:0:
128,128,314131,5,2,0:0:0:0:
128,128,314181,5,0,0:0:0:0:
128,128,314231,5,2,0:0:0:0:
128,128,314281,5,0,0:0:0:0:
128,128,314331,5,2,0:0:0:0:
128,128,314381,5,0,0:0:0:0:
128,128,314581,1,0,0:0:0:0:
128,128,314631,5,2,0:0:0:0:
128,128,314681,5,0,0:0:0:0:
128,128,314731,5,2,0:0:0:0:
128,128,314781,5,0,0:0:0:0:
128,128,314831,5,2,0:0:0:0:
128,128,314881,5,0,0:0:0:0:
128,128,314931,5,2,0:0:0:0:
128,128,314981,5,0,0:0:0:0:
128,128,315031,5,2,0:0:0:0:
128,128,315081,5,0,0:0:0:0:
128,128,315131,5,2,0:0:0:0:
128,128,315181,5,0,0:0:0:0:
128,128,315381,1,0,0:0:0:0:
128,128,315431,1,0,0:0:0:0:
128,128,315481,5,2,0:0:0:0:
128,128,315531,1,2,0:0:0:0:
128,128,315581,5,0,0:0:0:0:
128,128,315631,1,0,0:0:0:0:
128,128,315681,5,2,0:0:0:0:
128,128,315731,1,2,0:0:0:0:
128,128,315781,5,0,0:0:0:0:
128,128,315981,1,0,0:0:0:0:
128,128,316181,1,0,0:0:0:0:
128,128,316231,5,2,0:0:0:0:
128,128,316281,5,0,0:0:0:0:
128,128,316331,5,2,0:0:0:0:
128,128,316381,5,0,0:0:0:0:
128,128,316431,5,2,0:0:0:0:
128,128,316481,5,0,0:0:0:0:
128,128,316531,5,2,0:0:0:0:
128,128,316581,5,0,0:0:0:0:
128,128,316781,1,0,0:0:0:0:
128,128,316847,1,0,0:0:0:0:
128,128,316914,1,0,0:0:0:0:
128,128,316981,1,0,0:0:0:0:
128,128,317047,1,0,0:0:0:0:
128,128,317114,1,0,0:0:0:0:
128,128,317181,1,0,0:0:0:0:
128,128,317381,1,0,0:0:0:0:
128,128,317581,2,4,L|256:256,1,58.1
128,128,317781,1,0,0:0:0:0:
128,128,317981,5,2,0:0:0:0:
128,128,318181,1,2,0:0:0:0:
128,128,318231,5,0,0:0:0:0:
128,128,318281,5,2,0:0:0:0:
128,128,318331,5,0,0:0:0:0:
128,128,318381,5,2,0:0:0:0:
128,128,318431,5,0,0:0:0:0:
128,128,318481,5,2,0:0:0:0:
128,128,318531,5,0,0:0:0:0:
128,128,318581,5,2,0:0:0:0:
128,128,318781,1,2,0:0:0:0:
128,128,318831,5,0,0:0:0:0:
128,128,318881,5,2,0:0:0:0:
128,128,318931,5,0,0:0:0:0:
128,128,318981,5,2,0:0:0:0:
128,128,319031,5,0,0:0:0:0:
128,128,319081,5,2,0:0:0:0:
128,128,319131,5,0,0:0:0:0:
128,128,319181,5,2,0:0:0:0:
128,128,319231,5,0,0:0:0:0:
128,128,319281,5,2,0:0:0:0:
128,128,319331,5,0,0:0:0:0:
128,128,319381,5,2,0:0:0:0:
128,128,319581,1,2,0:0:0:0:
128,128,319631,1,2,0:0:0:0:
128,128,319681,5,0,0:0:0:0:
128,128,319731,1,0,0:0:0:0:
128,128,319781,5,2,0:0:0:0:
128,128,319831,1,2,0:0:0:0:
128,128,319881,5,0,0:0:0:0:
128,128,319931,1,0,0:0:0:0:
128,128,319981,5,2,0:0:0:0:
128,128,320181,5,0,0:0:0:0:
128,128,320381,1,0,0:0:0:0:
128,128,320431,5,2,0:0:0:0:
128,128,320481,5,0,0:0:0:0:
128,128,320531,5,2,0:0:0:0:
128,128,320581,5,0,0:0:0:0:
128,128,320631,5,2,0:0:0:0:
128,128,320681,5,0,0:0:0:0:
128,128,320731,5,2,0:0:0:0:
128,128,320781,5,0,0:0:0:0:
128,128,320981,1,0,0:0:0:0:
128,128,321031,5,2,0:0:0:0:
128,128,321081,5,0,0:0:0:0:
128,128,321131,5,2,0:0:0:0:
128,128,321181,5,0,0:0:0:0:
128,128,321231,5,2,0:0:0:0:
128,128,321281,5,0,0:0:0:0:
128,128,321331,5,2,0:0:0:0:
128,128,321381,5,0,0:0:0:0:
128,128,321431,5,2,0:0:0:0:
128,128,321481,5,0,0:0:0:0:
128,128,321531,5,2,0:0:0:0:
128,128,321581,5,0,0:0:0:0:
128,128,321781,1,0,0:0:0:0:
128,128,321831,1,0,0:0:0:0:
128,128,321881,5,2,0:0:0:0:
128,128,321931,1,2,0:0:0:0:
128,128,321981,5,0,0:0:0:0:
128,128,322031,1,0,0:0:0:0:
128,128,322081,5,2,0:0:0:0:
128,128,322131,1,2,0:0:0:0:
128,128,322181,5,0,0:0:0:0:
128,128,322381,1,0,0:0:0:0:
128,128,322581,1,0,0:0:0:0:
128,128,322631,5,2,0:0:0:0:
128,128,322681,5,0,0:0:0:0:
128,128,322731,5,2,0:0:0:0:
128,128,322781,5,0,0:0:0:0:
128,128,322831,5,2,0:0:0:0:
128,128,322881,5,0,0:0:0:0:
128,128,322931,5,2,0:0:0:0:
128,128,322981,5,0,0:0:0:0:
128,128,323181,5,2,0:0:0:0:
128,128,323247,1,2,0:0:0:0:
128,128,323314,1,2,0:0:0:0:
128,128,323381,1,2,0:0:0:0:
128,128,323447,1,2,0:0:0:0:
128,128,323514,1,2,0:0:0:0:
128,128,323581,1,2,0:0:0:0:
128,128,323781,1,2,0:0:0:0:
128,128,323981,2,4,L|256:256,1,58.1
128,128,324181,1,2,0:0:0:0:
128,128,324381,5,4,0:0:0:0:
128,128,324781,5,2,0:0:0:0:
128,128,325181,1,2,0:0:0:0:
128,128,325581,1,2,0:0:0:0:
128,128,325781,5,0,0:0:0:0:
128,128,325881,1,0,0:0:0:0:
128,128,325981,1,4,0:0:0:0:
128,128,326381,5,2,0:0:0:0:
128,128,326781,1,2,0:0:0:0:
128,128,327181,1,2,0:0:0:0:
128,128,327381,5,0,0:0:0:0:
128,128,327481,1,0,0:0:0:0:
128,128,327581,1,4,0:0:0:0:
128,128,327981,5,2,0:0:0:0:
128,128,328381,1,2,0:0:0:0:
128,128,328781,1,2,0:0:0:0:
128,128,328981,5,0,0:0:0:0:
128,128,329081,1,0,0:0:0:0:
128,128,329181,1,4,0:0:0:0:
128,128,329581,5,2,0:0:0:0:
128,128,329981,1,6,0:0:0:0:
128,128,330247,5,0,0:0:0:0:
128,128,330314,1,0,0:0:0:0:
128,128,330381,5,2,0:0:0:0:
128,128,330481,1,2,0:0:0:0:
128,128,330581,5,0,0:0:0:0:
128,128,330647,1,0,0:0:0:0:
128,128,330781,1,4,0:0:0:0:
128,128,330881,1,0,0:0:0:0:
128,128,330981,5,2,0:0:0:0:
128,128,331081,5,0,0:0:0:0:
128,128,331181,1,0,0:0:0:0:
128,128,331281,5,2,0:0:0:0:
128,128,331381,5,0,0:0:0:0:
128,128,331481,1,0,0:0:0:0:
128,128,331581,5,2,0:0:0:0:
128,128,331681,5,0,0:0:0:0:
128,128,331781,1,0,0:0:0:0:
128,128,331881,5,2,0:0:0:0:
128,128,331981,5,0,0:0:0:0:
128,128,332081,1,0,0:0:0:0:
128,128,332131,1,0,0:0:0:0:
128,128,332181,5,2,0:0:0:0:
128,128,332281,5,0,0:0:0:0:
128,128,332381,1,4,0:0:0:0:
128,128,332481,1,0,0:0:0:0:
128,128,332581,5,2,0:0:0:0:
128,128,332681,5,0,0:0:0:0:
128,128,332781,1,0,0:0:0:0:
128,128,332881,5,2,0:0:0:0:
128,128,332981,5,0,0:0:0:0:
128,128,333081,1,0,0:0:0:0:
128,128,333181,5,2,0:0:0:0:
128,128,333281,5,0,0:0:0:0:
128,128,333381,1,0,0:0:0:0:
128,128,333481,5,2,0:0:0:0:
128,128,333581,5,0,0:0:0:0:
128,128,333631,1,0,0:0:0:0:
128,128,333681,1,0,0:0:0:0:
128,128,333731,1,0,0:0:0:0:
128,128,333781,5,2,0:0:0:0:
128,128,333881,5,0,0:0:0:0:
128,128,333981,1,4,0:0:0:0:
128,128,334081,1,0,0:0:0:0:
128,128,334181,5,2,0:0:0:0:
128,128,334281,5,0,0:0:0:0:
128,128,334381,1,0,0:0:0:0:
128,128,334481,5,2,0:0:0:0:
128,128,334581,5,0,0:0:0:0:
128,128,334681,1,0,0:0:0:0:
128,128,334781,5,2,0:0:0:0:
128,128,334881,5,0,0:0:0:0:
128,128,334981,1,0,0:0:0:0:
128,128,335081,5,2,0:0:0:0:
128,128,335181,5,0,0:0:0:0:
128,128,335281,1,0,0:0:0:0:
128,128,335331,5,2,0:0:0:0:
128,128,335381,1,2,0:0:0:0:
128,128,335481,1,2,0:0:0:0:
128,128,335581,5,4,0:0:0:0:
128,128,335681,1,0,0:0:0:0:
128,128,335781,5,2,0:0:0:0:
128,128,335847,5,0,0:0:0:0:
128,128,335914,1,0,0:0:0:0:
128,128,335981,1,0,0:0:0:0:
128,128,336081,1,0,0:0:0:0:
128,128,336181,5,2,0:0:0:0:
128,128,336247,1,2,0:0:0:0:
128,128,336314,1,2,0:0:0:0:
128,128,336381,5,0,0:0:0:0:
128,128,336431,1,0,0:0:0:0:
128,128,336481,1,0,0:0:0:0:
128,128,336581,1,0,0:0:0:0:
128,128,336631,1,0,0:0:0:0:
128,128,336681,5,2,0:0:0:0:
128,128,336781,5,0,0:0:0:0:
128,128,336831,1,0,0:0:0:0:
128,128,336881,5,2,0:0:0:0:
128,128,336931,1,2,0:0:0:0:
128,128,336981,5,0,0:0:0:0:
128,128,337031,5,2,0:0:0:0:
128,128,337081,1,2,0:0:0:0:
128,128,337131,1,2,0:0:0:0:
128,128,337981,5,4,0:0:0:0:
128,128,338381,5,6,0:0:0:0:
128,128,338781,5,4,0:0:0:0:
128,128,338981,5,2,0:0:0:0:
128,128,339181,5,0,0:0:0:0:
128,128,339281,1,0,0:0:0:0:
128,128,339381,5,2,0:0:0:0:
128,128,339481,5,0,0:0:0:0:
128,128,339531,1,0,0:0:0:0:
128,128,339581,1,0,0:0:0:0:
128,128,339681,1,0,0:0:0:0:
128,128,339781,5,2,0:0:0:0:
128,128,339881,5,0,0:0:0:0:
128,128,339981,1,0,0:0:0:0:
128,128,340081,1,0,0:0:0:0:
128,128,340131,1,0,0:0:0:0:
128,128,340181,5,2,0:0:0:0:
128,128,340281,5,0,0:0:0:0:
128,128,340381,1,0,0:0:0:0:
128,128,340581,5,2,0:0:0:0:
128,128,340781,5,0,0:0:0:0:
128,128,340881,1,0,0:0:0:0:
128,128,340981,5,2,0:0:0:0:
128,128,341081,5,0,0:0:0:0:
128,128,341131,1,0,0:0:0:0:
128,128,341181,1,0,0:0:0:0:
128,128,341281,1,0,0:0:0:0:
128,128,341381,5,2,0:0:0:0:
128,128,341481,5,0,0:0:0:0:
128,128,341581,1,0,0:0:0:0:
128,128,341681,5,2,0:0:0:0:
128,128,341731,5,0,0:0:0:0:
128,128,341781,5,2,0:0:0:0:
128,128,341881,1,2,0:0:0:0:
128,128,341981,5,0,0:0:0:0:
128,128,342181,5,2,0:0:0:0:
128,128,342381,5,0,0:0:0:0:
128,128,342481,1,0,0:0:0:0:
128,128,342581,5,2,0:0:0:0:
128,128,342681,5,0,0:0:0:0:
128,128,342731,1,0,0:0:0:0:
128,128,342781,1,0,0:0:0:0:
128,128,342881,1,0,0:0:0:0:
128,128,342981,5,2,0:0:0:0:
128,128,343081,1,2,0:0:0:0:
128,128,343181,5,0,0:0:0:0:
128,128,343231,1,0,0:0:0:0:
128,128,343281,1,0,0:0:0:0:
128,128,343381,5,2,0:0:0:0:
128,128,343481,5,0,0:0:0:0:
128,128,343581,5,6,0:0:0:0:
128,128,343781,5,0,0:0:0:0:
128,128,343881,5,6,0:0:0:0:
128,128,344081,5,0,0:0:0:0:
128,128,344131,1,0,0:0:0:0:
128,128,344181,5,2,0:0:0:0:
128,128,344381,1,2,0:0:0:0:
128,128,344481,5,0,0:0:0:0:
128,128,344581,5,2,0:0:0:0:
128,128,344647,1,2,0:0:0:0:
128,128,344714,5,0,0:0:0:0:
128,128,344781,5,2,0:0:0:0:
128,128,344881,1,2,0:0:0:0:
128,128,344981,1,2,0:0:0:0:
128,128,345081,1,2,0:0:0:0:
128,128,345181,5,0,0:0:0:0:
128,128,345381,5,2,0:0:0:0:
128,128,345581,5,0,0:0:0:0:
128,128,345681,1,0,0:0:0:0:
128,128,345781,5,2,0:0:0:0:
128,128,345881,5,0,0:0:0:0:
128,128,345931,1,0,0:0:0:0:
128,128,345981,1,0,0:0:0:0:
128,128,346081,1,0,0:0:0:0:
128,128,346181,5,2,0:0:0:0:
128,128,346281,5,0,0:0:0:0:
128,128,346381,5,2,0:0:0:0:
128,128,346431,5,0,0:0:0:0:
128,128,346481,1,0,0:0:0:0:
128,128,346581,5,2,0:0:0:0:
128,128,346681,1,2,0:0:0:0:
128,128,346781,5,0,0:0:0:0:
128,128,346831,1,0,0:0:0:0:
128,128,346881,1,0,0:0:0:0:
128,128,346981,5,2,0:0:0:0:
128,128,347081,5,0,0:0:0:0:
128,128,347131,1,0,0:0:0:0:
128,128,347181,1,0,0:0:0:0:
128,128,347281,5,2,0:0:0:0:
256,192,347381,12,0,347531,0:0:0:0:
128,128,347781,5,2,0:0:0:0:
128,128,347881,5,0,0:0:0:0:
128,128,347981,1,0,0:0:0:0:
128,128,348081,5,2,0:0:0:0:
128,128,348181,5,0,0:0:0:0:
128,128,348281,1,0,0:0:0:0:
128,128,348381,5,2,0:0:0:0:
128,128,348431,5,0,0:0:0:0:
128,128,348481,1,0,0:0:0:0:
128,128,348581,5,2,0:0:0:0:
128,128,348681,1,2,0:0:0:0:
128,128,348731,5,0,0:0:0:0:
128,128,348781,1,0,0:0:0:0:
128,128,348881,5,2,0:0:0:0:
256,192,348981,12,0,349131,0:0:0:0:
128,128,349381,5,2,0:0:0:0:
128,128,349481,5,0,0:0:0:0:
128,128,349581,5,2,0:0:0:0:
128,128,349647,5,0,0:0:0:0:
128,128,349714,1,0,0:0:0:0:
128,128,349781,5,2,0:0:0:0:
128,128,349847,5,0,0:0:0:0:
128,128,349914,1,0,0:0:0:0:
128,128,349981,5,6,0:0:0:0:
128,128,350181,5,0,0:0:0:0:
128,128,350281,5,6,0:0:0:0:
128,128,350481,5,0,0:0:0:0:
128,128,350531,1,0,0:0:0:0:
256,192,350581,12,0,350731,0:0:0:0:
128,128,350981,5,0,0:0:0:0:
128,128,351047,1,0,0:0:0:0:
128,128,351114,1,0,0:0:0:0:
128,128,351181,1,0,0:0:0:0:
128,128,351281,5,2,0:0:0:0:
128,128,351381,1,2,0:0:0:0:
128,128,351481,1,2,0:0:0:0:
128,128,351581,5,4,0:0:0:0:
128,128,351681,1,0,0:0:0:0:
128,128,351781,5,2,0:0:0:0:
128,128,351881,5,0,0:0:0:0:
128,128,351981,1,0,0:0:0:0:
128,128,352081,1,0,0:0:0:0:
128,128,352131,1,0,0:0:0:0:
128,128,352181,5,2,0:0:0:0:
128,128,352281,5,0,0:0:0:0:
128,128,352331,1,0,0:0:0:0:
128,128,352381,1,0,0:0:0:0:
128,128,352481,5,2,0:0:0:0:
128,128,352581,5,0,0:0:0:0:
128,128,352681,5,2,0:0:0:0:
128,128,352781,5,0,0:0:0:0:
128,128,352881,1,0,0:0:0:0:
128,128,352931,1,0,0:0:0:0:
128,128,352981,5,2,0:0:0:0:
128,128,353081,5,0,0:0:0:0:
128,128,353181,1,0,0:0:0:0:
128,128,353281,1,0,0:0:0:0:
128,128,353381,5,2,0:0:0:0:
128,128,353481,5,0,0:0:0:0:
128,128,353581,1,0,0:0:0:0:
128,128,353681,1,0,0:0:0:0:
128,128,353731,1,0,0:0:0:0:
128,128,353781,5,2,0:0:0:0:
128,128,353881,5,0,0:0:0:0:
128,128,353931,1,0,0:0:0:0:
128,128,353981,1,0,0:0:0:0:
128,128,354081,5,2,0:0:0:0:
128,128,354181,5,0,0:0:0:0:
128,128,354281,5,2,0:0:0:0:
128,128,354381,5,0,0:0:0:0:
128,128,354481,5,2,0:0:0:0:
128,128,354531,5,0,0:0:0:0:
128,128,354581,5,2,0:0:0:0:
128,128,354681,1,2,0:0:0:0:
128,128,354781,5,0,0:0:0:0:
128,128,354881,1,0,0:0:0:0:
128,128,354981,5,2,0:0:0:0:
128,128,355081,5,0,0:0:0:0:
128,128,355181,1,0,0:0:0:0:
128,128,355281,1,0,0:0:0:0:
128,128,355331,1,0,0:0:0:0:
128,128,355381,5,2,0:0:0:0:
128,128,355481,5,0,0:0:0:0:
128,128,355531,1,0,0:0:0:0:
128,128,355581,1,0,0:0:0:0:
128,128,355681,5,2,0:0:0:0:
128,128,355781,1,2,0:0:0:0:
128,128,355881,1,2,0:0:0:0:
128,128,355981,5,0,0:0:0:0:
128,128,356031,1,0,0:0:0:0:
128,128,356081,1,0,0:0:0:0:
128,128,356181,5,2,0:0:0:0:
128,128,356281,5,0,0:0:0:0:
128,128,356381,5,6,0:0:0:0:
128,128,356581,5,0,0:0:0:0:
128,128,356681,5,6,0:0:0:0:
128,128,356881,5,0,0:0:0:0:
128,128,356931,1,0,0:0:0:0:
128,128,356981,5,2,0:0:0:0:
128,128,357181,1,2,0:0:0:0:
128,128,357281,5,0,0:0:0:0:
128,128,357381,5,2,0:0:0:0:
128,128,357447,1,2,0:0:0:0:
128,128,357514,5,0,0:0:0:0:
128,128,357581,5,2,0:0:0:0:
128,128,357681,1,2,0:0:0:0:
128,128,357781,1,2,0:0:0:0:
128,128,357881,1,2,0:0:0:0:
128,128,357981,5,0,0:0:0:0:
128,128,358031,1,0,0:0:0:0:
128,128,358081,1,0,0:0:0:0:
128,128,358181,5,2,0:0:0:0:
128,128,358281,5,0,0:0:0:0:
128,128,358381,1,0,0:0:0:0:
128,128,358481,1,0,0:0:0:0:
128,128,358531,1,0,0:0:0:0:
128,128,358581,5,2,0:0:0:0:
128,128,358681,5,0,0:0:0:0:
128,128,358731,1,0,0:0:0:0:
128,128,358781,1,0,0:0:0:0:
128,128,358881,5,2,0:0:0:0:
128,128,358981,5,0,0:0:0:0:
128,128,359081,5,2,0:0:0:0:
128,128,359181,5,0,0:0:0:0:
128,128,359231,1,0,0:0:0:0:
128,128,359281,1,0,0:0:0:0:
128,128,359381,5,2,0:0:0:0:
128,128,359481,1,2,0:0:0:0:
128,128,359581,5,0,0:0:0:0:
128,128,359631,1,0,0:0:0:0:
128,128,359681,1,0,0:0:0:0:
128,128,359781,5,2,0:0:0:0:
128,128,359881,5,0,0:0:0:0:
128,128,359981,1,0,0:0:0:0:
128,128,360081,1,0,0:0:0:0:
128,128,360131,1,0,0:0:0:0:
128,128,360181,5,2,0:0:0:0:
128,128,360281,5,0,0:0:0:0:
128,128,360331,1,0,0:0:0:0:
128,128,360381,1,0,0:0:0:0:
128,128,360481,5,2,0:0:0:0:
128,128,360581,5,0,0:0:0:0:
128,128,360681,5,2,0:0:0:0:
128,128,360781,1,2,0:0:0:0:
128,128,360831,5,0,0:0:0:0:
128,128,360881,1,0,0:0:0:0:
128,128,360981,5,2,0:0:0:0:
128,128,361081,5,0,0:0:0:0:
128,128,361181,1,0,0:0:0:0:
128,128,361231,1,0,0:0:0:0:
128,128,361281,1,0,0:0:0:0:
128,128,361381,5,2,0:0:0:0:
128,128,361481,5,0,0:0:0:0:
128,128,361581,1,0,0:0:0:0:
128,128,361631,1,0,0:0:0:0:
128,128,361681,1,0,0:0:0:0:
128,128,361781,5,2,0:0:0:0:
128,128,361881,5,0,0:0:0:0:
128,128,361981,1,0,0:0:0:0:
128,128,362031,1,0,0:0:0:0:
128,128,362081,1,0,0:0:0:0:
128,128,362181,5,2,0:0:0:0:
128,128,362231,5,0,0:0:0:0:
128,128,362281,1,0,0:0:0:0:
128,128,362381,5,2,0:0:0:0:
128,128,362431,1,2,0:0:0:0:
128,128,362481,5,0,0:0:0:0:
128,128,362581,5,2,0:0:0:0:
128,128,362681,1,2,0:0:0:0:
128,128,362781,5,0,0:0:0:0:
128,128,362831,1,0,0:0:0:0:
128,128,362881,1,0,0:0:0:0:
128,128,362981,5,2,0:0:0:0:
128,128,363081,1,2,0:0:0:0:
128,128,363181,5,0,0:0:0:0:
128,128,363231,1,0,0:0:0:0:
128,128,363281,1,0,0:0:0:0:
128,128,363381,5,2,0:0:0:0:
128,128,363481,1,2,0:0:0:0:
128,128,363581,1,2,0:0:0:0:
128,128,363631,5,0,0:0:0:0:
128,128,363681,1,0,0:0:0:0:
128,128,363781,5,2,0:0:0:0:
128,128,363831,1,2,0:0:0:0:
128,128,363881,5,0,0:0:0:0:
128,128,363981,5,2,0:0:0:0:
128,128,364031,1,2,0:0:0:0:
128,128,364081,1,2,0:0:0:0:
128,128,364181,1,2,0:0:0:0:
128,128,364281,1,2,0:0:0:0:
128,128,364381,5,0,0:0:0:0:
128,128,364447,1,0,0:0:0:0:
128,128,364514,1,0,0:0:0:0:
128,128,364581,5,2,0:0:0:0:
128,128,364647,5,0,0:0:0:0:
128,128,364714,1,0,0:0:0:0:
128,128,364781,5,2,0:0:0:0:
128,128,364847,1,2,0:0:0:0:
128,128,364914,1,2,0:0:0:0:
128,128,364981,5,0,0:0:0:0:
128,128,365047,5,2,0:0:0:0:
128,128,365114,1,2,0:0:0:0:
128,128,365181,5,0,0:0:0:0:
128,128,365247,1,0,0:0:0:0:
128,128,365314,1,0,0:0:0:0:
128,128,365381,5,2,0:0:0:0:
128,128,365447,1,2,0:0:0:0:
128,128,365514,1,2,0:0:0:0:
128,128,365581,5,0,0:0:0:0:
128,128,365647,1,0,0:0:0:0:
128,128,365714,5,2,0:0:0:0:
128,128,365781,1,2,0:0:0:0:
128,128,365847,5,0,0:0:0:0:
128,128,365914,1,0,0:0:0:0:
128,128,365981,5,2,0:0:0:0:
128,128,366031,1,2,0:0:0:0:
128,128,366081,5,0,0:0:0:0:
128,128,366181,1,0,0:0:0:0:
128,128,366281,5,2,0:0:0:0:
128,128,366331,1,2,0:0:0:0:
128,128,366381,1,2,0:0:0:0:
128,128,366481,5,0,0:0:0:0:
128,128,366581,5,6,0:0:0:0:
128,128,366781,1,2,0:0:0:0:
128,128,366881,5,0,0:0:0:0:
128,128,366981,5,2,0:0:0:0:
128,128,367047,1,2,0:0:0:0:
128,128,367114,1,2,0:0:0:0:
128,128,367181,1,2,0:0:0:0:
128,128,367281,1,2,0:0:0:0:
128,128,367381,1,2,0:0:0:0:
128,128,367481,1,2,0:0:0:0:
128,128,367581,5,4,0:0:0:0:
128,128,368181,5,6,0:0:0:0:
128,128,368481,5,0,0:0:0:0:
128,128,368581,1,0,0:0:0:0:
128,128,368681,1,0,0:0:0:0:
128,128,368781,1,0,0:0:0:0:
128,128,368847,1,0,0:0:0:0:
128,128,368914,1,0,0:0:0:0:
128,128,368981,1,0,0:0:0:0:
128,128,369047,1,0,0:0:0:0:
128,128,369114,1,0,0:0:0:0:
128,128,369181,1,0,0:0:0:0:
128,128,369781,5,6,0:0:0:0:
128,128,369981,5,0,0:0:0:0:
128,128,370081,1,0,0:0:0:0:
128,128,370281,1,0,0:0:0:0:
128,128,370381,5,2,0:0:0:0:
128,128,370481,5,0,0:0:0:0:
128,128,370581,1,0,0:0:0:0:
128,128,370781,1,0,0:0:0:0:
128,128,370881,5,2,0:0:0:0:
128,128,370981,1,2,0:0:0:0:
128,128,371081,1,2,0:0:0:0:
128,128,371181,1,2,0:0:0:0:
128,128,371281,1,2,0:0:0:0:
128,128,371381,5,0,0:0:0:0:
128,128,371481,1,0,0:0:0:0:
128,128,371581,1,0,0:0:0:0:
128,128,371681,1,0,0:0:0:0:
128,128,371781,1,0,0:0:0:0:
128,128,371881,1,0,0:0:0:0:
128,128,371981,1,0,0:0:0:0:
128,128,372081,1,0,0:0:0:0:
128,128,372181,5,2,0:0:0:0:
128,128,372281,1,2,0:0:0:0:
128,128,372381,5,0,0:0:0:0:
128,128,372447,5,2,0:0:0:0:
128,128,372514,1,2,0:0:0:0:
128,128,372581,1,2,0:0:0:0:
128,128,372647,1,2,0:0:0:0:
128,128,372714,1,2,0:0:0:0:
128,128,372781,5,0,0:0:0:0:
128,128,372847,1,0,0:0:0:0:
128,128,372914,1,0,0:0:0:0:
128,128,372981,1,0,0:0:0:0:
128,128,373047,1,0,0:0:0:0:
128,128,373114,1,0,0:0:0:0:
128,128,373181,1,0,0:0:0:0:
128,128,373247,1,0,0:0:0:0:
128,128,373314,5,2,0:0:0:0:
128,128,373381,1,2,0:0:0:0:
128,128,373581,1,6,0:0:0:0:
128,128,373981,5,0,0:0:0:0:
128,128,374031,1,0,0:0:0:0:
128,128,374081,1,0,0:0:0:0:
128,128,374181,1,0,0:0:0:0:
128,128,374281,1,0,0:0:0:0:
128,128,374381,1,0,0:0:0:0:
128,128,374431,1,0,0:0:0:0:
128,128,374481,1,0,0:0:0:0:
128,128,374581,5,2,0:0:0:0:
128,128,374681,5,0,0:0:0:0:
128,128,374781,1,0,0:0:0:0:
128,128,374831,1,0,0:0:0:0:
128,128,374881,1,0,0:0:0:0:
128,128,374981,5,2,0:0:0:0:
128,128,375081,5,0,0:0:0:0:
128,128,375181,1,0,0:0:0:0:
128,128,375231,1,0,0:0:0:0:
128,128,375281,1,0,0:0:0:0:
128,128,375381,5,2,0:0:0:0:
128,128,375481,5,0,0:0:0:0:
128,128,375581,1,0,0:0:0:0:
128,128,375631,1,0,0:0:0:0:
128,128,375681,1,0,0:0:0:0:
128,128,375781,1,0,0:0:0:0:
128,128,375881,1,0,0:0:0:0:
128,128,375981,1,0,0:0:0:0:
128,128,376031,1,0,0:0:0:0:
128,128,376081,1,0,0:0:0:0:
128,128,376181,5,2,0:0:0:0:
128,128,376281,5,0,0:0:0:0:
128,128,376381,1,0,0:0:0:0:
128,128,376431,1,0,0:0:0:0:
128,128,376481,1,0,0:0:0:0:
128,128,376581,5,2,0:0:0:0:
128,128,376681,5,0,0:0:0:0:
128,128,376781,1,0,0:0:0:0:
128,128,376831,1,0,0:0:0:0:
128,128,376881,1,0,0:0:0:0:
128,128,376981,5,2,0:0:0:0:
128,128,377081,5,0,0:0:0:0:
128,128,377181,1,0,0:0:0:0:
128,128,377231,1,0,0:0:0:0:
128,128,377281,1,0,0:0:0:0:
128,128,377381,1,0,0:0:0:0:
128,128,377481,1,0,0:0:0:0:
128,128,377581,1,0,0:0:0:0:
128,128,377631,1,0,0:0:0:0:
128,128,377681,1,0,0:0:0:0:
128,128,377781,5,2,0:0:0:0:
128,128,377881,5,0,0:0:0:0:
128,128,377981,1,0,0:0:0:0:
128,128,378031,1,0,0:0:0:0:
128,128,378081,1,0,0:0:0:0:
128,128,378181,5,2,0:0:0:0:
128,128,378281,5,0,0:0:0:0:
128,128,378381,1,0,0:0:0:0:
128,128,378431,1,0,0:0:0:0:
128,128,378481,1,0,0:0:0:0:
128,128,378581,5,2,0:0:0:0:
128,128,378681,1,2,0:0:0:0:
128,128,378781,5,0,0:0:0:0:
128,128,378881,5,2,0:0:0:0:
128,128,378981,1,2,0:0:0:0:
128,128,379081,5,0,0:0:0:0:
128,128,379181,1,0,0:0:0:0:
128,128,379281,5,2,0:0:0:0:
128,128,379381,1,2,0:0:0:0:
128,128,379481,5,0,0:0:0:0:
128,128,379581,5,2,0:0:0:0:
128,128,379631,5,0,0:0:0:0:
128,128,379681,1,0,0:0:0:0:
128,128,379781,1,0,0:0:0:0:
128,128,379881,5,2,0:0:0:0:
128,128,379931,5,0,0:0:0:0:
128,128,379981,1,0,0:0:0:0:
128,128,380081,1,0,0:0:0:0:
128,128,380181,5,2,0:0:0:0:
128,128,380247,5,0,0:0:0:0:
128,128,380314,1,0,0:0:0:0:
128,128,380381,1,0,0:0:0:0:
128,128,380431,1,0,0:0:0:0:
128,128,380481,1,0,0:0:0:0:
128,128,380581,1,0,0:0:0:0:
128,128,380681,1,0,0:0:0:0:
128,128,380781,1,0,0:0:0:0:
128,128,380831,1,0,0:0:0:0:
128,128,380881,1,0,0:0:0:0:
128,128,380981,5,2,0:0:0:0:
128,128,381081,5,0,0:0:0:0:
128,128,381181,1,0,0:0:0:0:
128,128,381231,1,0,0:0:0:0:
128,128,381281,1,0,0:0:0:0:
128,128,381381,5,2,0:0:0:0:
128,128,381481,5,0,0:0:0:0:
128,128,381581,1,0,0:0:0:0:
128,128,381631,1,0,0:0:0:0:
128,128,381681,1,0,0:0:0:0:
128,128,381781,5,2,0:0:0:0:
128,128,381881,5,0,0:0:0:0:
128,128,381981,1,0,0:0:0:0:
128,128,382031,1,0,0:0:0:0:
128,128,382081,1,0,0:0:0:0:
128,128,382181,1,0,0:0:0:0:
128,128,382281,1,0,0:0:0:0:
128,128,382381,1,0,0:0:0:0:
128,128,382431,1,0,0:0:0:0:
128,128,382481,1,0,0:0:0:0:
128,128,382581,5,2,0:0:0:0:
128,128,382681,5,0,0:0:0:0:
128,128,382781,1,0,0:0:0:0:
128,128,382831,1,0,0:0:0:0:
128,128,382881,1,0,0:0:0:0:
128,128,382981,5,2,0:0:0:0:
128,128,383081,5,0,0:0:0:0:
128,128,383181,1,0,0:0:0:0:
128,128,383231,1,0,0:0:0:0:
128,128,383281,1,0,0:0:0:0:
128,128,383381,5,2,0:0:0:0:
128,128,383481,5,0,0:0:0:0:
128,128,383581,1,0,0:0:0:0:
128,128,383631,1,0,0:0:0:0:
128,128,383681,1,0,0:0:0:0:
128,128,383781,1,0,0:0:0:0:
128,128,383881,1,0,0:0:0:0:
128,128,383981,5,2,0:0:0:0:
128,128,384081,5,0,0:0:0:0:
128,128,384181,5,2,0:0:0:0:
128,128,384281,5,0,0:0:0:0:
128,128,384381,1,0,0:0:0:0:
128,128,384431,1,0,0:0:0:0:
128,128,384481,1,0,0:0:0:0:
128,128,384581,5,2,0:0:0:0:
128,128,384681,5,0,0:0:0:0:
128,128,384781,5,2,0:0:0:0:
128,128,384881,5,0,0:0:0:0:
128,128,384981,5,2,0:0:0:0:
128,128,385081,5,0,0:0:0:0:
128,128,385181,1,0,0:0:0:0:
128,128,385231,1,0,0:0:0:0:
128,128,385281,5,2,0:0:0:0:
128,128,385381,1,2,0:0:0:0:
128,128,385481,5,0,0:0:0:0:
128,128,385581,5,2,0:0:0:0:
128,128,385681,5,0,0:0:0:0:
128,128,385781,5,2,0:0:0:0:
128,128,385881,1,2,0:0:0:0:
128,128,385981,1,6,0:0:0:0:
128,128,386081,5,0,0:0:0:0:
128,128,386181,5,6,0:0:0:0:
128,128,386281,5,0,0:0:0:0:
128,128,386381,5,6,0:0:0:0:
128,128,386514,5,0,0:0:0:0:
128,128,386581,1,0,0:0:0:0:
128,128,386647,1,0,0:0:0:0:
128,128,386714,1,0,0:0:0:0:
128,128,386781,1,0,0:0:0:0:
128,128,386881,1,0,0:0:0:0:
128,128,386981,5,2,0:0:0:0:
128,128,387081,5,0,0:0:0:0:
128,128,387181,1,0,0:0:0:0:
128,128,387231,1,0,0:0:0:0:
128,128,387281,1,0,0:0:0:0:
128,128,387381,5,2,0:0:0:0:
128,128,387481,5,0,0:0:0:0:
128,128,387531,1,0,0:0:0:0:
128,128,387631,1,0,0:0:0:0:
128,128,387681,1,0,0:0:0:0:
128,128,387781,5,2,0:0:0:0:
128,128,387881,5,0,0:0:0:0:
128,128,387981,1,0,0:0:0:0:
128,128,388031,1,0,0:0:0:0:
128,128,388081,1,0,0:0:0:0:
128,128,388181,5,2,0:0:0:0:
128,128,388281,5,0,0:0:0:0:
128,128,388331,1,0,0:0:0:0:
128,128,388431,1,0,0:0:0:0:
128,128,388481,1,0,0:0:0:0:
128,128,388581,1,0,0:0:0:0:
128,128,388681,5,2,0:0:0:0:
128,128,388781,5,0,0:0:0:0:
128,128,388831,1,0,0:0:0:0:
128,128,388881,1,0,0:0:0:0:
128,128,388981,5,2,0:0:0:0:
128,128,389081,1,2,0:0:0:0:
128,128,389181,5,0,0:0:0:0:
128,128,389281,1,0,0:0:0:0:
128,128,389381,1,0,0:0:0:0:
128,128,389431,5,2,0:0:0:0:
128,128,389481,5,0,0:0:0:0:
128,128,389581,5,2,0:0:0:0:
128,128,389631,1,2,0:0:0:0:
128,128,389681,5,0,0:0:0:0:
128,128,389781,5,2,0:0:0:0:
128,128,389831,1,2,0:0:0:0:
128,128,389881,1,2,0:0:0:0:
128,128,389981,5,0,0:0:0:0:
128,128,390081,1,0,0:0:0:0:
128,128,390181,5,2,0:0:0:0:
128,128,390281,5,0,0:0:0:0:
128,128,390381,5,2,0:0:0:0:
128,128,390431,5,0,0:0:0:0:
128,128,390481,1,0,0:0:0:0:
128,128,390581,5,2,0:0:0:0:
128,128,390681,5,0,0:0:0:0:
128,128,390731,1,0,0:0:0:0:
128,128,390831,1,0,0:0:0:0:
128,128,390881,1,0,0:0:0:0:
128,128,390981,5,2,0:0:0:0:
128,128,391081,5,0,0:0:0:0:
128,128,391181,5,2,0:0:0:0:
128,128,391231,5,0,0:0:0:0:
128,128,391281,1,0,0:0:0:0:
128,128,391381,5,2,0:0:0:0:
128,128,391481,5,0,0:0:0:0:
128,128,391531,1,0,0:0:0:0:
128,128,391631,1,0,0:0:0:0:
128,128,391681,1,0,0:0:0:0:
128,128,391781,1,0,0:0:0:0:
128,128,391881,5,2,0:0:0:0:
128,128,391981,1,2,0:0:0:0:
128,128,392031,5,0,0:0:0:0:
128,128,392081,1,0,0:0:0:0:
128,128,392181,5,2,0:0:0:0:
128,128,392281,1,2,0:0:0:0:
128,128,392381,5,0,0:0:0:0:
128,128,392481,1,0,0:0:0:0:
128,128,392581,1,0,0:0:0:0:
128,128,392631,5,2,0:0:0:0:
128,128,392681,5,0,0:0:0:0:
128,128,392781,5,2,0:0:0:0:
128,128,392847,1,2,0:0:0:0:
128,128,392914,5,0,0:0:0:0:
128,128,392981,5,2,0:0:0:0:
128,128,393047,1,2,0:0:0:0:
128,128,393114,1,2,0:0:0:0:
128,128,393181,5,0,0:0:0:0:
128,128,393281,1,0,0:0:0:0:
128,128,393381,5,2,0:0:0:0:
128,128,393481,5,0,0:0:0:0:
128,128,393581,5,2,0:0:0:0:
128,128,393631,1,2,0:0:0:0:
128,128,393681,5,0,0:0:0:0:
128,128,393781,5,2,0:0:0:0:
128,128,393881,5,0,0:0:0:0:
128,128,393931,1,0,0:0:0:0:
128,128,394031,1,0,0:0:0:0:
128,128,394081,1,0,0:0:0:0:
128,128,394181,5,2,0:0:0:0:
128,128,394281,5,0,0:0:0:0:
128,128,394381,5,2,0:0:0:0:
128,128,394431,1,2,0:0:0:0:
128,128,394481,5,0,0:0:0:0:
128,128,394581,5,2,0:0:0:0:
128,128,394681,5,0,0:0:0:0:
128,128,394731,1,0,0:0:0:0:
128,128,394831,1,0,0:0:0:0:
128,128,394881,1,0,0:0:0:0:
128,128,394981,1,0,0:0:0:0:
128,128,395081,5,2,0:0:0:0:
128,128,395181,1,2,0:0:0:0:
128,128,395231,1,2,0:0:0:0:
128,128,395281,5,0,0:0:0:0:
128,128,395381,5,2,0:0:0:0:
128,128,395481,1,2,0:0:0:0:
128,128,395581,5,0,0:0:0:0:
128,128,395681,1,0,0:0:0:0:
128,128,395781,1,0,0:0:0:0:
128,128,395831,5,2,0:0:0:0:
128,128,395881,5,0,0:0:0:0:
128,128,395981,5,2,0:0:0:0:
128,128,396031,1,2,0:0:0:0:
128,128,396081,5,0,0:0:0:0:
128,128,396181,5,2,0:0:0:0:
128,128,396231,1,2,0:0:0:0:
128,128,396281,1,2,0:0:0:0:
128,128,396381,5,0,0:0:0:0:
128,128,396481,1,0,0:0:0:0:
128,128,396581,5,2,0:0:0:0:
128,128,396681,5,0,0:0:0:0:
128,128,396781,5,2,0:0:0:0:
128,128,396831,5,0,0:0:0:0:
128,128,396881,5,2,0:0:0:0:
128,128,396981,1,2,0:0:0:0:
128,128,397081,5,0,0:0:0:0:
128,128,397131,1,0,0:0:0:0:
128,128,397231,1,0,0:0:0:0:
128,128,397281,1,0,0:0:0:0:
128,128,397381,5,2,0:0:0:0:
128,128,397481,5,0,0:0:0:0:
128,128,397581,5,2,0:0:0:0:
128,128,397631,5,0,0:0:0:0:
128,128,397681,5,2,0:0:0:0:
128,128,397781,1,2,0:0:0:0:
128,128,397881,5,0,0:0:0:0:
128,128,397931,1,0,0:0:0:0:
128,128,398031,1,0,0:0:0:0:
128,128,398081,1,0,0:0:0:0:
128,128,398181,1,0,0:0:0:0:
128,128,398281,5,2,0:0:0:0:
128,128,398381,1,2,0:0:0:0:
128,128,398431,5,0,0:0:0:0:
128,128,398481,5,2,0:0:0:0:
128,128,398581,1,2,0:0:0:0:
128,128,398681,1,2,0:0:0:0:
128,128,398781,5,0,0:0:0:0:
128,128,398881,1,0,0:0:0:0:
128,128,398981,1,0,0:0:0:0:
128,128,399031,5,2,0:0:0:0:
128,128,399081,5,0,0:0:0:0:
128,128,399181,5,2,0:0:0:0:
128,128,399247,1,2,0:0:0:0:
128,128,399314,5,0,0:0:0:0:
128,128,399381,5,2,0:0:0:0:
128,128,399447,1,2,0:0:0:0:
128,128,399514,1,2,0:0:0:0:
128,128,399581,5,0,0:0:0:0:
128,128,399631,1,0,0:0:0:0:
128,128,399681,1,0,0:0:0:0:
128,128,399781,1,0,0:0:0:0:
128,128,399847,5,2,0:0:0:0:
128,128,399914,1,2,0:0:0:0:
128,128,399981,1,2,0:0:0:0:
128,128,400081,1,2,0:0:0:0:
128,128,400181,5,0,0:0:0:0:
128,128,400247,1,0,0:0:0:0:
128,128,400314,1,0,0:0:0:0:
128,128,400381,5,2,0:0:0:0:
128,128,400431,1,2,0:0:0:0:
128,128,400481,1,2,0:0:0:0:
128,128,400581,1,2,0:0:0:0:
128,128,400647,5,0,0:0:0:0:
128,128,400714,1,0,0:0:0:0:
128,128,400781,1,0,0:0:0:0:
128,128,400881,1,0,0:0:0:0:
128,128,400981,5,2,0:0:0:0:
128,128,401047,1,2,0:0:0:0:
128,128,401114,1,2,0:0:0:0:
128,128,401181,5,0,0:0:0:0:
128,128,401231,1,0,0:0:0:0:
128,128,401281,1,0,0:0:0:0:
128,128,401381,1,0,0:0:0:0:
128,128,401447,1,0,0:0:0:0:
128,128,401514,1,0,0:0:0:0:
128,128,401581,5,2,0:0:0:0:
128,128,401631,1,2,0:0:0:0:
128,128,401681,1,2,0:0:0:0:
128,128,401781,1,2,0:0:0:0:
128,128,401847,1,2,0:0:0:0:
128,128,401914,1,2,0:0:0:0:
128,128,401981,5,0,0:0:0:0:
128,128,402031,1,0,0:0:0:0:
128,128,402081,1,0,0:0:0:0:
128,128,402181,5,2,0:0:0:0:
128,128,402247,1,2,0:0:0:0:
128,128,402314,1,2,0:0:0:0:
128,128,402381,5,0,0:0:0:0:
128,128,402431,5,2,0:0:0:0:
128,128,402481,5,0,0:0:0:0:
128,128,402531,5,2,0:0:0:0:
128,128,402581,1,2,0:0:0:0:
128,128,402631,5,0,0:0:0:0:
128,128,402681,5,2,0:0:0:0:
128,128,402731,5,0,0:0:0:0:
128,128,402781,2,0,L|256:256,1,828.1
128,128,404381,2,0,L|256:256,1,828.1
128,128,405981,5,2,0:0:0:0:
128,128,406031,5,0,0:0:0:0:
128,128,406081,1,0,0:0:0:0:
128,128,406131,1,0,0:0:0:0:
128,128,406181,1,0,0:0:0:0:
128,128,406231,1,0,0:0:0:0:
128,128,406281,5,2,0:0:0:0:
128,128,406331,5,0,0:0:0:0:
128,128,406381,1,0,0:0:0:0:
128,128,406431,1,0,0:0:0:0:
128,128,406481,1,0,0:0:0:0:
128,128,406531,1,0,0:0:0:0:
128,128,406581,5,2,0:0:0:0:
128,128,406631,5,0,0:0:0:0:
128,128,406681,1,0,0:0:0:0:
128,128,406731,1,0,0:0:0:0:
128,128,406781,1,0,0:0:0:0:
128,128,406831,1,0,0:0:0:0:
128,128,406881,5,2,0:0:0:0:
128,128,406931,5,0,0:0:0:0:
128,128,406981,1,0,0:0:0:0:
128,128,407031,1,0,0:0:0:0:
128,128,407081,1,0,0:0:0:0:
128,128,407131,5,2,0:0:0:0:
128,128,407181,5,0,0:0:0:0:
128,128,407231,1,0,0:0:0:0:
128,128,407281,1,0,0:0:0:0:
128,128,407331,1,0,0:0:0:0:
128,128,407381,5,2,0:0:0:0:
128,128,407431,5,0,0:0:0:0:
128,128,407481,1,0,0:0:0:0:
128,128,407531,1,0,0:0:0:0:
128,128,407581,1,0,0:0:0:0:
128,128,407631,5,2,0:0:0:0:
128,128,407681,5,0,0:0:0:0:
128,128,407731,1,0,0:0:0:0:
128,128,407781,1,0,0:0:0:0:
128,128,407831,5,2,0:0:0:0:
128,128,407881,5,0,0:0:0:0:
128,128,407931,1,0,0:0:0:0:
128,128,407981,1,0,0:0:0:0:
128,128,408031,5,2,0:0:0:0:
128,128,408081,5,0,0:0:0:0:
128,128,408131,1,0,0:0:0:0:
128,128,408181,1,0,0:0:0:0:
128,128,408231,5,2,0:0:0:0:
128,128,408281,5,0,0:0:0:0:
128,128,408331,1,0,0:0:0:0:
128,128,408381,5,2,0:0:0:0:
128,128,408431,5,0,0:0:0:0:
128,128,408481,1,0,0:0:0:0:
128,128,408531,5,2,0:0:0:0:
128,128,408581,5,0,0:0:0:0:
128,128,408631,1,0,0:0:0:0:
128,128,408681,5,2,0:0:0:0:
128,128,408731,5,0,0:0:0:0:
128,128,408781,1,0,0:0:0:0:
128,128,408831,5,2,0:0:0:0:
128,128,408881,5,0,0:0:0:0:
128,128,408931,5,2,0:0:0:0:
128,128,408981,5,0,0:0:0:0:
128,128,409031,5,2,0:0:0:0:
128,128,409081,5,0,0:0:0:0:
128,128,409131,5,2,0:0:0:0:
128,128,409181,5,0,0:0:0:0:
