osu file format v14

[General]
AudioFilename: audio4.mp3
AudioLeadIn: 0
PreviewTime: 45025
Countdown: 0
SampleSet: None
StackLeniency: 0.7
Mode: 1
LetterboxInBreaks: 0
WidescreenStoryboard: 0

[Editor]
DistanceSpacing: 0.8
BeatDivisor: 4
GridSize: 4
TimelineZoom: 2.3

[Metadata]
Title:Taiko Four Heavenly Maps III
TitleUnicode:Taiko Four Heavenly Maps III
Artist:Various Artists
ArtistUnicode:Various Artists
Creator:_Rise
Version:Laur - Ultima Weapon
Source:
Tags:
BeatmapID:1413859
BeatmapSetID:668284

[Difficulty]
HPDrainRate:6
CircleSize:5
OverallDifficulty:8.7
ApproachRate:5
SliderMultiplier:1.4
SliderTickRate:1

[Events]
//Background and Video events
0,0,"bg4.jpg",0,100
//Break Periods
2,12049,21943
//Storyboard Layer 0 (Background)
//Storyboard Layer 1 (Fail)
//Storyboard Layer 2 (Pass)
//Storyboard Layer 3 (Foreground)
//Storyboard Sound Samples

[TimingPoints]
555,352.941176470588,4,1,0,80,1,0
23143,176.470588235294,4,1,0,80,1,0
23143,-125,4,1,0,80,0,0
34437,-100,4,1,0,90,0,0
45731,-100,4,1,0,90,0,1
68319,-100,4,1,0,80,0,0
69025,-133.333333333333,4,1,0,80,0,0
73966,352.941176470588,4,1,0,80,1,0
73966,-100,4,1,0,80,0,0
79260,-100,4,1,0,5,0,1
79568,-100,4,1,0,80,0,1
79613,-100,4,1,0,80,0,0
85260,176.470588235294,4,1,0,80,1,0
85260,-200,4,1,0,30,0,0
85965,-181.818181818182,4,1,0,40,0,0
86671,-166.666666666667,4,1,0,50,0,0
87377,-153.846153846154,4,1,0,60,0,0
88083,-142.857142857143,4,1,0,70,0,0
88789,-133.333333333333,4,1,0,70,0,0
89495,-125,4,1,0,70,0,0
90201,-100,4,1,0,80,0,0
93730,-125,4,1,0,60,0,0
95848,-100,4,1,0,80,0,0
96554,-125,4,1,0,80,0,0
106436,-117.647058823529,4,1,0,80,0,0
106789,-111.111111111111,4,1,0,80,0,0
107142,-105.263157894737,4,1,0,80,0,0
107495,-100,4,1,0,90,0,0
107848,-100,4,1,0,90,0,1
130436,-100,4,1,0,80,0,0
131142,-125,4,1,0,80,0,0
141730,-111.111111111111,4,1,0,85,0,0
147377,-100,4,1,0,90,0,1
158671,-100,4,1,0,80,0,0
159377,-125,4,1,0,80,0,0
161495,-100,4,1,0,80,0,0

[HitObjects]
256,184,555,5,4,0:0:0:0:
264,180,907,1,2,0:0:0:0:
264,180,1613,1,2,0:0:0:0:
264,180,2319,1,2,0:0:0:0:
264,176,2672,1,0,0:0:0:0:
264,180,3025,1,2,0:0:0:0:
260,172,3731,1,2,0:0:0:0:
260,168,4084,1,0,0:0:0:0:
260,168,4260,1,0,0:0:0:0:
260,172,4437,1,2,0:0:0:0:
260,168,5143,1,2,0:0:0:0:
260,168,5496,1,2,0:0:0:0:
260,168,5672,1,0,0:0:0:0:
260,168,5849,1,2,0:0:0:0:
260,168,6202,1,4,0:0:0:0:
268,164,6555,1,2,0:0:0:0:
268,164,7260,1,2,0:0:0:0:
268,164,7966,1,2,0:0:0:0:
268,164,8319,1,0,0:0:0:0:
268,164,8672,1,2,0:0:0:0:
260,188,9378,1,2,0:0:0:0:
260,188,9643,1,2,0:0:0:0:
260,188,9907,1,0,0:0:0:0:
260,188,10084,1,2,0:0:0:0:
260,188,10437,1,0,0:0:0:0:
256,192,10613,12,0,11672,0:0:0:0:
252,184,11849,5,4,0:0:0:0:
252,188,23143,5,4,0:0:0:0:
252,188,23319,1,0,0:0:0:0:
252,188,23407,1,0,0:0:0:0:
252,188,23584,1,0,0:0:0:0:
252,188,23672,1,0,0:0:0:0:
252,188,23848,1,0,0:0:0:0:
252,188,23937,1,2,0:0:0:0:
252,188,24113,1,0,0:0:0:0:
252,188,24201,1,2,0:0:0:0:
252,188,24554,1,0,0:0:0:0:
252,188,24731,1,0,0:0:0:0:
252,188,24819,1,0,0:0:0:0:
252,188,24995,1,0,0:0:0:0:
252,188,25084,1,0,0:0:0:0:
252,188,25260,1,2,0:0:0:0:
252,188,25437,1,2,0:0:0:0:
252,188,25613,1,0,0:0:0:0:
252,188,25790,1,2,0:0:0:0:
252,188,25966,1,0,0:0:0:0:
252,188,26143,1,0,0:0:0:0:
252,188,26231,1,0,0:0:0:0:
252,188,26407,1,0,0:0:0:0:
252,188,26495,1,0,0:0:0:0:
252,188,26672,1,0,0:0:0:0:
252,188,26760,1,2,0:0:0:0:
252,188,26937,1,0,0:0:0:0:
252,188,27025,1,2,0:0:0:0:
268,192,27378,1,2,0:0:0:0:
268,192,27466,1,2,0:0:0:0:
268,192,27554,1,2,0:0:0:0:
268,192,27642,1,0,0:0:0:0:
268,192,27731,1,0,0:0:0:0:
268,192,27819,1,0,0:0:0:0:
268,192,27907,1,2,0:0:0:0:
268,192,27995,1,2,0:0:0:0:
268,192,28084,1,0,0:0:0:0:
268,192,28172,1,0,0:0:0:0:
268,192,28260,1,0,0:0:0:0:
268,192,28348,1,0,0:0:0:0:
268,192,28437,1,2,0:0:0:0:
264,180,28525,1,0,0:0:0:0:
268,192,28613,1,0,0:0:0:0:
268,192,28701,1,0,0:0:0:0:
272,192,28790,1,4,0:0:0:0:
256,192,29848,1,0,0:0:0:0:
256,192,29892,1,0,0:0:0:0:
256,192,29937,1,0,0:0:0:0:
256,192,30025,1,0,0:0:0:0:
256,192,30113,1,0,0:0:0:0:
256,192,30201,1,0,0:0:0:0:
264,196,31260,1,2,0:0:0:0:
264,196,31304,1,2,0:0:0:0:
264,196,31348,1,2,0:0:0:0:
264,196,31392,1,2,0:0:0:0:
264,196,31437,1,0,0:0:0:0:
264,196,31613,1,0,0:0:0:0:
260,184,31790,1,0,0:0:0:0:
260,184,31966,1,0,0:0:0:0:
260,184,32142,1,0,0:0:0:0:
260,184,32319,1,0,0:0:0:0:
260,184,32407,1,0,0:0:0:0:
260,184,32495,1,0,0:0:0:0:
260,184,32584,1,0,0:0:0:0:
260,184,32672,1,0,0:0:0:0:
260,184,32716,1,0,0:0:0:0:
260,184,32760,1,0,0:0:0:0:
260,184,32804,1,0,0:0:0:0:
260,184,32848,1,0,0:0:0:0:
260,184,32892,1,0,0:0:0:0:
260,184,32937,1,0,0:0:0:0:
264,176,32981,1,0,0:0:0:0:
256,192,33731,12,0,33819,0:0:0:0:
252,208,34084,5,6,0:0:0:0:
256,192,34437,1,4,0:0:0:0:
256,192,34613,1,0,0:0:0:0:
256,192,34701,1,2,0:0:0:0:
256,192,34790,1,0,0:0:0:0:
256,192,34834,1,0,0:0:0:0:
256,192,34878,1,0,0:0:0:0:
256,192,34966,1,2,0:0:0:0:
256,192,35054,1,2,0:0:0:0:
256,192,35142,1,0,0:0:0:0:
256,192,35231,1,2,0:0:0:0:
256,192,35275,1,2,0:0:0:0:
256,192,35319,1,0,0:0:0:0:
256,192,35407,1,0,0:0:0:0:
256,192,35495,1,2,0:0:0:0:
256,192,35584,1,0,0:0:0:0:
256,192,35672,1,2,0:0:0:0:
256,192,35760,1,2,0:0:0:0:
256,192,35848,1,0,0:0:0:0:
256,192,36025,1,0,0:0:0:0:
256,192,36113,1,2,0:0:0:0:
256,192,36201,1,0,0:0:0:0:
256,192,36290,1,0,0:0:0:0:
256,192,36378,1,2,0:0:0:0:
256,192,36466,1,0,0:0:0:0:
256,192,36510,1,0,0:0:0:0:
256,192,36554,1,2,0:0:0:0:
256,192,36642,1,2,0:0:0:0:
256,192,36731,1,0,0:0:0:0:
256,192,36819,1,2,0:0:0:0:
256,192,36907,1,0,0:0:0:0:
256,192,36951,1,0,0:0:0:0:
256,192,36995,1,0,0:0:0:0:
256,192,37084,1,2,0:0:0:0:
256,192,37172,1,2,0:0:0:0:
256,192,37260,1,0,0:0:0:0:
256,192,37437,1,0,0:0:0:0:
256,192,37525,1,2,0:0:0:0:
256,192,37614,1,0,0:0:0:0:
256,192,37658,1,0,0:0:0:0:
256,192,37702,1,0,0:0:0:0:
256,192,37790,1,2,0:0:0:0:
256,192,37878,1,2,0:0:0:0:
256,192,37966,1,0,0:0:0:0:
256,192,38055,1,2,0:0:0:0:
256,192,38099,1,2,0:0:0:0:
256,192,38143,1,0,0:0:0:0:
256,192,38231,1,0,0:0:0:0:
256,192,38319,1,2,0:0:0:0:
256,192,38408,1,2,0:0:0:0:
256,192,38496,1,0,0:0:0:0:
256,192,38540,1,0,0:0:0:0:
256,192,38584,1,0,0:0:0:0:
256,192,38628,1,0,0:0:0:0:
256,192,38672,1,0,0:0:0:0:
256,192,38848,1,0,0:0:0:0:
256,192,38936,1,2,0:0:0:0:
256,192,39024,1,0,0:0:0:0:
256,192,39113,1,0,0:0:0:0:
256,192,39201,1,2,0:0:0:0:
256,192,39289,1,0,0:0:0:0:
268,188,39378,1,0,0:0:0:0:
268,192,39422,1,0,0:0:0:0:
268,192,39466,1,0,0:0:0:0:
256,184,39554,1,2,0:0:0:0:
256,184,39598,1,2,0:0:0:0:
256,192,39642,1,0,0:0:0:0:
260,184,39731,1,2,0:0:0:0:
256,196,39775,1,0,0:0:0:0:
260,184,39819,1,2,0:0:0:0:
260,184,39863,1,2,0:0:0:0:
260,184,39907,1,0,0:0:0:0:
260,180,39951,1,0,0:0:0:0:
256,196,39995,1,0,0:0:0:0:
256,192,40083,1,0,0:0:0:0:
256,192,40260,1,0,0:0:0:0:
256,192,40348,1,2,0:0:0:0:
256,192,40437,1,0,0:0:0:0:
256,192,40481,1,0,0:0:0:0:
256,192,40525,1,0,0:0:0:0:
256,188,40569,1,0,0:0:0:0:
256,192,40613,1,2,0:0:0:0:
256,192,40701,1,2,0:0:0:0:
256,192,40789,1,0,0:0:0:0:
256,192,40878,1,2,0:0:0:0:
256,192,40922,1,2,0:0:0:0:
256,192,40966,1,0,0:0:0:0:
256,192,41054,1,0,0:0:0:0:
256,192,41142,1,2,0:0:0:0:
256,188,41187,1,0,0:0:0:0:
256,192,41231,1,0,0:0:0:0:
256,192,41319,1,2,0:0:0:0:
256,192,41407,1,2,0:0:0:0:
256,192,41495,1,0,0:0:0:0:
256,192,41672,1,0,0:0:0:0:
256,192,41760,1,2,0:0:0:0:
256,192,41848,1,0,0:0:0:0:
256,192,41892,1,0,0:0:0:0:
256,192,41937,1,0,0:0:0:0:
256,192,42025,1,2,0:0:0:0:
256,192,42113,1,0,0:0:0:0:
256,192,42157,1,0,0:0:0:0:
256,192,42201,1,2,0:0:0:0:
256,192,42289,1,2,0:0:0:0:
256,192,42378,1,0,0:0:0:0:
256,192,42466,1,2,0:0:0:0:
256,192,42510,1,2,0:0:0:0:
256,192,42554,1,0,0:0:0:0:
256,192,42598,1,2,0:0:0:0:
256,192,42642,1,0,0:0:0:0:
256,192,42731,1,2,0:0:0:0:
256,192,42819,1,2,0:0:0:0:
256,192,42907,1,0,0:0:0:0:
256,192,43084,1,0,0:0:0:0:
256,192,43172,1,2,0:0:0:0:
256,192,43261,1,0,0:0:0:0:
256,192,43305,1,0,0:0:0:0:
256,192,43349,1,0,0:0:0:0:
256,184,43392,1,0,0:0:0:0:
256,192,43437,1,2,0:0:0:0:
256,192,43525,1,2,0:0:0:0:
256,192,43613,1,0,0:0:0:0:
256,192,43702,1,2,0:0:0:0:
256,192,43746,1,2,0:0:0:0:
256,192,43790,1,0,0:0:0:0:
256,192,43878,1,0,0:0:0:0:
256,192,43966,1,2,0:0:0:0:
256,192,44055,1,2,0:0:0:0:
256,192,44143,1,0,0:0:0:0:
256,192,44187,1,0,0:0:0:0:
256,192,44231,1,0,0:0:0:0:
256,192,44275,1,0,0:0:0:0:
256,192,44319,1,0,0:0:0:0:
256,192,44495,1,0,0:0:0:0:
256,192,44583,1,2,0:0:0:0:
256,192,44671,1,0,0:0:0:0:
248,192,44716,1,0,0:0:0:0:
256,192,44760,1,0,0:0:0:0:
256,192,44848,1,2,0:0:0:0:
256,184,44892,1,2,0:0:0:0:
256,192,44936,1,0,0:0:0:0:
260,188,45025,1,4,0:0:0:0:
256,192,45731,1,2,0:0:0:0:
260,188,45775,1,2,0:0:0:0:
260,188,45819,1,0,0:0:0:0:
256,192,45907,1,2,0:0:0:0:
256,192,45995,1,2,0:0:0:0:
256,184,46040,1,0,0:0:0:0:
256,184,46084,1,2,0:0:0:0:
256,184,46172,1,0,0:0:0:0:
256,184,46216,1,0,0:0:0:0:
256,180,46260,1,2,0:0:0:0:
260,180,46304,1,2,0:0:0:0:
260,180,46348,1,0,0:0:0:0:
256,180,46437,1,2,0:0:0:0:
256,180,46481,1,2,0:0:0:0:
256,180,46525,1,0,0:0:0:0:
260,180,46613,1,0,0:0:0:0:
260,180,46701,1,2,0:0:0:0:
260,180,46745,1,0,0:0:0:0:
260,180,46790,1,2,0:0:0:0:
260,180,46834,1,2,0:0:0:0:
260,180,46878,1,0,0:0:0:0:
260,180,46922,1,0,0:0:0:0:
260,180,46966,1,2,0:0:0:0:
260,180,47054,1,0,0:0:0:0:
256,192,47142,1,2,0:0:0:0:
260,188,47186,1,2,0:0:0:0:
260,188,47230,1,0,0:0:0:0:
256,192,47318,1,2,0:0:0:0:
256,192,47406,1,2,0:0:0:0:
256,184,47451,1,0,0:0:0:0:
256,184,47495,1,2,0:0:0:0:
256,184,47583,1,0,0:0:0:0:
256,184,47627,1,0,0:0:0:0:
256,180,47671,1,2,0:0:0:0:
260,180,47715,1,2,0:0:0:0:
260,180,47759,1,0,0:0:0:0:
256,192,47848,1,2,0:0:0:0:
256,192,47892,1,2,0:0:0:0:
256,192,47937,1,0,0:0:0:0:
260,188,48025,1,0,0:0:0:0:
256,192,48113,1,2,0:0:0:0:
256,192,48157,1,0,0:0:0:0:
256,184,48201,1,2,0:0:0:0:
256,184,48231,1,2,0:0:0:0:
256,184,48260,1,2,0:0:0:0:
256,184,48290,1,2,0:0:0:0:
256,184,48378,1,0,0:0:0:0:
256,180,48466,1,0,0:0:0:0:
256,192,48554,1,2,0:0:0:0:
260,188,48598,1,2,0:0:0:0:
260,188,48642,1,0,0:0:0:0:
256,192,48730,1,2,0:0:0:0:
256,192,48818,1,2,0:0:0:0:
256,184,48863,1,0,0:0:0:0:
256,184,48907,1,2,0:0:0:0:
256,184,48995,1,0,0:0:0:0:
256,184,49039,1,0,0:0:0:0:
256,180,49083,1,2,0:0:0:0:
260,180,49127,1,2,0:0:0:0:
260,180,49171,1,0,0:0:0:0:
256,180,49260,1,2,0:0:0:0:
256,180,49304,1,2,0:0:0:0:
256,180,49348,1,0,0:0:0:0:
260,180,49436,1,0,0:0:0:0:
260,180,49524,1,2,0:0:0:0:
260,180,49568,1,0,0:0:0:0:
260,180,49613,1,2,0:0:0:0:
260,180,49657,1,2,0:0:0:0:
260,180,49701,1,0,0:0:0:0:
260,180,49789,1,2,0:0:0:0:
264,176,49834,1,0,0:0:0:0:
260,180,49877,1,0,0:0:0:0:
256,192,49966,1,2,0:0:0:0:
260,188,50010,1,2,0:0:0:0:
260,188,50054,1,0,0:0:0:0:
256,192,50142,1,2,0:0:0:0:
256,192,50230,1,2,0:0:0:0:
256,184,50275,1,0,0:0:0:0:
256,184,50319,1,2,0:0:0:0:
256,184,50407,1,0,0:0:0:0:
256,184,50451,1,0,0:0:0:0:
256,180,50495,1,2,0:0:0:0:
260,180,50539,1,2,0:0:0:0:
260,180,50583,1,0,0:0:0:0:
256,192,50672,1,2,0:0:0:0:
256,192,50716,1,2,0:0:0:0:
256,192,50761,1,0,0:0:0:0:
260,188,50849,1,0,0:0:0:0:
256,192,50937,1,2,0:0:0:0:
256,192,50981,1,0,0:0:0:0:
256,184,51025,1,2,0:0:0:0:
256,184,51055,1,2,0:0:0:0:
256,184,51084,1,2,0:0:0:0:
260,176,51113,1,0,0:0:0:0:
268,176,51201,1,2,0:0:0:0:
268,172,51231,1,2,0:0:0:0:
268,172,51260,1,2,0:0:0:0:
268,172,51290,1,2,0:0:0:0:
268,172,51319,1,2,0:0:0:0:
268,172,51348,1,2,0:0:0:0:
268,172,51378,1,0,0:0:0:0:
264,184,51422,1,0,0:0:0:0:
264,184,51466,1,0,0:0:0:0:
256,180,51554,1,2,0:0:0:0:
260,176,51598,1,0,0:0:0:0:
260,176,51642,1,2,0:0:0:0:
260,176,51731,1,0,0:0:0:0:
268,176,51819,1,2,0:0:0:0:
268,176,51863,1,0,0:0:0:0:
268,176,51907,1,2,0:0:0:0:
268,176,51951,1,2,0:0:0:0:
268,176,51995,1,0,0:0:0:0:
260,176,52084,1,2,0:0:0:0:
260,176,52128,1,2,0:0:0:0:
260,176,52172,1,0,0:0:0:0:
260,176,52260,1,0,0:0:0:0:
272,176,52304,1,0,0:0:0:0:
260,168,52348,1,2,0:0:0:0:
264,168,52392,1,0,0:0:0:0:
264,168,52437,1,2,0:0:0:0:
272,176,52481,1,2,0:0:0:0:
260,168,52525,1,0,0:0:0:0:
260,168,52613,1,2,0:0:0:0:
268,176,52657,1,0,0:0:0:0:
264,168,52701,1,0,0:0:0:0:
268,172,52790,1,0,0:0:0:0:
264,184,52834,1,0,0:0:0:0:
264,184,52878,1,0,0:0:0:0:
256,180,52966,1,2,0:0:0:0:
260,176,53010,1,0,0:0:0:0:
260,176,53054,1,2,0:0:0:0:
260,180,53098,1,2,0:0:0:0:
260,176,53143,1,0,0:0:0:0:
264,176,53187,1,0,0:0:0:0:
268,176,53231,1,2,0:0:0:0:
268,176,53319,1,2,0:0:0:0:
268,176,53407,1,0,0:0:0:0:
260,176,53496,1,2,0:0:0:0:
260,176,53540,1,2,0:0:0:0:
260,176,53584,1,0,0:0:0:0:
260,176,53672,1,0,0:0:0:0:
260,168,53760,1,2,0:0:0:0:
264,168,53804,1,0,0:0:0:0:
264,168,53848,1,0,0:0:0:0:
264,168,53878,1,2,0:0:0:0:
264,168,53907,1,2,0:0:0:0:
264,168,53937,1,0,0:0:0:0:
264,168,54025,1,2,0:0:0:0:
264,168,54054,1,0,0:0:0:0:
264,168,54084,1,0,0:0:0:0:
264,168,54113,1,2,0:0:0:0:
268,172,54201,1,0,0:0:0:0:
264,184,54245,1,0,0:0:0:0:
264,184,54289,1,0,0:0:0:0:
256,180,54377,1,2,0:0:0:0:
260,176,54421,1,0,0:0:0:0:
260,176,54465,1,2,0:0:0:0:
260,176,54554,1,0,0:0:0:0:
268,176,54642,1,2,0:0:0:0:
268,176,54686,1,0,0:0:0:0:
268,176,54730,1,2,0:0:0:0:
268,176,54774,1,2,0:0:0:0:
268,176,54818,1,0,0:0:0:0:
260,176,54907,1,2,0:0:0:0:
260,176,54951,1,2,0:0:0:0:
260,176,54995,1,0,0:0:0:0:
260,176,55083,1,0,0:0:0:0:
268,180,55128,1,0,0:0:0:0:
260,168,55171,1,2,0:0:0:0:
264,168,55215,1,0,0:0:0:0:
264,168,55260,1,2,0:0:0:0:
268,176,55304,1,2,0:0:0:0:
260,168,55348,1,0,0:0:0:0:
260,168,55436,1,2,0:0:0:0:
260,168,55480,1,2,0:0:0:0:
264,168,55524,1,0,0:0:0:0:
264,180,55613,1,2,0:0:0:0:
264,180,55657,1,0,0:0:0:0:
264,180,55701,1,0,0:0:0:0:
264,180,55745,1,0,0:0:0:0:
264,180,55790,1,2,0:0:0:0:
264,180,55834,1,0,0:0:0:0:
264,180,55878,1,2,0:0:0:0:
268,180,55922,1,2,0:0:0:0:
264,180,55966,1,0,0:0:0:0:
264,180,56010,1,0,0:0:0:0:
264,180,56054,1,2,0:0:0:0:
264,180,56098,1,0,0:0:0:0:
264,180,56142,1,2,0:0:0:0:
264,180,56187,1,2,0:0:0:0:
264,180,56231,1,2,0:0:0:0:
264,180,56275,1,2,0:0:0:0:
264,184,56319,1,0,0:0:0:0:
256,184,57025,1,0,0:0:0:0:
256,184,57113,1,0,0:0:0:0:
256,184,57290,1,0,0:0:0:0:
256,184,57378,1,0,0:0:0:0:
256,184,57554,1,0,0:0:0:0:
256,184,57642,1,0,0:0:0:0:
256,184,57731,1,0,0:0:0:0:
256,184,57819,1,0,0:0:0:0:
256,184,57995,1,0,0:0:0:0:
256,184,58084,1,6,0:0:0:0:
256,184,58437,1,0,0:0:0:0:
256,184,58525,1,0,0:0:0:0:
256,184,58701,1,0,0:0:0:0:
260,176,58790,1,0,0:0:0:0:
264,168,58966,1,0,0:0:0:0:
264,168,59010,1,0,0:0:0:0:
264,168,59054,1,0,0:0:0:0:
260,164,59142,1,0,0:0:0:0:
260,164,59231,1,0,0:0:0:0:
268,160,59407,1,2,0:0:0:0:
268,160,59495,1,4,0:0:0:0:
256,184,59848,1,0,0:0:0:0:
256,184,59936,1,0,0:0:0:0:
256,184,60113,1,0,0:0:0:0:
256,184,60201,1,0,0:0:0:0:
256,184,60377,1,0,0:0:0:0:
256,184,60465,1,0,0:0:0:0:
256,184,60554,1,0,0:0:0:0:
256,184,60642,1,0,0:0:0:0:
256,184,60818,1,0,0:0:0:0:
256,184,60907,1,6,0:0:0:0:
256,184,61260,1,0,0:0:0:0:
256,184,61348,1,0,0:0:0:0:
256,184,61524,1,0,0:0:0:0:
260,176,61613,1,0,0:0:0:0:
264,168,61789,1,0,0:0:0:0:
264,168,61833,1,0,0:0:0:0:
264,168,61877,1,0,0:0:0:0:
260,164,61965,1,0,0:0:0:0:
260,164,62054,1,0,0:0:0:0:
268,160,62230,1,2,0:0:0:0:
268,152,62319,1,0,0:0:0:0:
268,152,62407,1,2,0:0:0:0:
268,152,62451,1,0,0:0:0:0:
268,152,62495,1,2,0:0:0:0:
268,152,62540,1,2,0:0:0:0:
268,152,62584,1,2,0:0:0:0:
268,152,62628,1,2,0:0:0:0:
268,152,62672,1,0,0:0:0:0:
264,152,62760,1,2,0:0:0:0:
264,148,62804,1,2,0:0:0:0:
264,148,62848,1,2,0:0:0:0:
264,148,62937,1,0,0:0:0:0:
264,148,63025,1,2,0:0:0:0:
264,148,63069,1,0,0:0:0:0:
264,148,63113,1,2,0:0:0:0:
264,148,63157,1,2,0:0:0:0:
264,148,63201,1,0,0:0:0:0:
264,148,63290,1,0,0:0:0:0:
264,148,63378,1,0,0:0:0:0:
264,148,63466,1,2,0:0:0:0:
264,148,63510,1,2,0:0:0:0:
264,148,63554,1,2,0:0:0:0:
264,148,63642,1,0,0:0:0:0:
264,148,63731,1,6,0:0:0:0:
264,140,64084,1,0,0:0:0:0:
264,140,64172,1,2,0:0:0:0:
264,140,64216,1,2,0:0:0:0:
264,140,64260,1,2,0:0:0:0:
264,140,64348,1,0,0:0:0:0:
264,136,64437,1,0,0:0:0:0:
264,136,64481,1,2,0:0:0:0:
264,136,64525,1,0,0:0:0:0:
264,140,64569,1,0,0:0:0:0:
264,140,64613,1,2,0:0:0:0:
264,140,64701,1,2,0:0:0:0:
264,140,64745,1,2,0:0:0:0:
264,140,64790,1,0,0:0:0:0:
264,136,64878,1,2,0:0:0:0:
264,136,64922,1,2,0:0:0:0:
264,136,64966,1,2,0:0:0:0:
264,132,65054,1,2,0:0:0:0:
264,132,65142,1,4,0:0:0:0:
260,192,65495,1,0,0:0:0:0:
260,192,65540,1,0,0:0:0:0:
260,164,65584,1,2,0:0:0:0:
260,180,65628,1,2,0:0:0:0:
260,180,65672,1,2,0:0:0:0:
260,176,65716,1,0,0:0:0:0:
260,176,65760,1,2,0:0:0:0:
252,176,65848,1,0,0:0:0:0:
252,176,65892,1,0,0:0:0:0:
252,176,65937,1,2,0:0:0:0:
252,176,65981,1,0,0:0:0:0:
252,176,66025,1,2,0:0:0:0:
252,176,66069,1,2,0:0:0:0:
252,176,66113,1,0,0:0:0:0:
252,176,66157,1,2,0:0:0:0:
256,172,66201,1,0,0:0:0:0:
256,172,66290,1,2,0:0:0:0:
256,172,66334,1,0,0:0:0:0:
256,172,66378,1,2,0:0:0:0:
256,172,66422,1,2,0:0:0:0:
256,172,66466,1,0,0:0:0:0:
260,176,66510,1,0,0:0:0:0:
260,176,66554,1,2,0:0:0:0:
260,168,66598,1,2,0:0:0:0:
260,168,66642,1,2,0:0:0:0:
260,168,66687,1,2,0:0:0:0:
248,168,66731,1,2,0:0:0:0:
248,168,66760,1,2,0:0:0:0:
248,168,66790,1,2,0:0:0:0:
248,168,66819,1,2,0:0:0:0:
248,168,66848,1,2,0:0:0:0:
248,168,66878,1,2,0:0:0:0:
260,164,66907,1,0,0:0:0:0:
256,192,68319,1,4,0:0:0:0:
256,192,68407,12,0,73613,0:0:0:0:
256,192,73966,5,0,0:0:0:0:
256,192,74230,1,0,0:0:0:0:
256,192,74318,1,2,0:0:0:0:
256,192,74407,1,2,0:0:0:0:
256,192,74495,1,0,0:0:0:0:
256,192,74671,1,2,0:0:0:0:
264,196,74936,1,2,0:0:0:0:
252,180,75024,1,0,0:0:0:0:
252,180,75113,1,0,0:0:0:0:
252,180,75201,1,2,0:0:0:0:
252,188,75377,1,0,0:0:0:0:
248,184,75642,1,0,0:0:0:0:
248,184,75730,1,2,0:0:0:0:
248,184,75907,1,0,0:0:0:0:
248,184,76083,1,2,0:0:0:0:
244,184,76260,1,2,0:0:0:0:
248,184,76348,1,0,0:0:0:0:
248,184,76436,1,2,0:0:0:0:
248,184,76524,1,2,0:0:0:0:
248,184,76613,1,0,0:0:0:0:
248,184,76789,1,0,0:0:0:0:
248,184,77054,1,0,0:0:0:0:
248,188,77142,1,2,0:0:0:0:
248,188,77230,1,2,0:0:0:0:
248,184,77318,1,0,0:0:0:0:
248,184,77495,1,2,0:0:0:0:
248,184,77760,1,2,0:0:0:0:
256,184,77848,1,2,0:0:0:0:
248,184,77936,1,0,0:0:0:0:
248,184,78024,1,2,0:0:0:0:
256,192,78201,1,0,0:0:0:0:
256,192,78377,1,2,0:0:0:0:
256,192,78466,1,0,0:0:0:0:
256,192,78554,1,2,0:0:0:0:
256,192,78642,1,2,0:0:0:0:
256,192,78730,1,0,0:0:0:0:
256,192,78818,1,0,0:0:0:0:
256,192,78907,1,2,0:0:0:0:
260,188,78995,1,0,0:0:0:0:
260,188,79083,1,0,0:0:0:0:
256,192,79171,1,0,0:0:0:0:
256,192,79613,5,0,0:0:0:0:
256,192,79877,1,0,0:0:0:0:
256,192,79965,1,2,0:0:0:0:
256,192,80054,1,2,0:0:0:0:
256,192,80142,1,0,0:0:0:0:
256,192,80318,1,2,0:0:0:0:
264,196,80583,1,2,0:0:0:0:
252,180,80671,1,0,0:0:0:0:
252,180,80760,1,0,0:0:0:0:
252,180,80848,1,2,0:0:0:0:
252,188,81024,1,0,0:0:0:0:
248,184,81289,1,0,0:0:0:0:
248,184,81377,1,2,0:0:0:0:
248,184,81554,1,0,0:0:0:0:
248,184,81730,1,2,0:0:0:0:
244,184,81907,1,2,0:0:0:0:
248,184,81995,1,0,0:0:0:0:
248,184,82083,1,2,0:0:0:0:
248,184,82171,1,2,0:0:0:0:
248,184,82260,1,0,0:0:0:0:
248,184,82436,1,0,0:0:0:0:
248,184,82701,1,0,0:0:0:0:
248,188,82789,1,2,0:0:0:0:
248,188,82877,1,2,0:0:0:0:
248,184,82965,1,0,0:0:0:0:
248,184,83142,1,2,0:0:0:0:
248,184,83407,1,2,0:0:0:0:
256,184,83495,1,2,0:0:0:0:
248,184,83583,1,0,0:0:0:0:
248,184,83671,1,2,0:0:0:0:
268,184,83848,1,0,0:0:0:0:
268,184,84024,1,0,0:0:0:0:
268,184,84201,1,2,0:0:0:0:
268,184,84377,1,0,0:0:0:0:
268,184,84466,1,2,0:0:0:0:
268,184,84554,1,0,0:0:0:0:
268,184,84730,1,2,0:0:0:0:
268,184,84907,1,2,0:0:0:0:
268,184,85260,5,0,0:0:0:0:
264,184,85436,1,0,0:0:0:0:
264,184,85612,1,0,0:0:0:0:
268,184,85789,1,0,0:0:0:0:
268,184,85965,1,0,0:0:0:0:
264,184,86142,1,0,0:0:0:0:
264,184,86318,1,0,0:0:0:0:
268,184,86495,1,0,0:0:0:0:
268,184,86671,1,0,0:0:0:0:
264,184,86848,1,0,0:0:0:0:
264,184,87024,1,0,0:0:0:0:
268,184,87201,1,0,0:0:0:0:
268,184,87377,1,0,0:0:0:0:
264,184,87554,1,0,0:0:0:0:
264,184,87730,1,0,0:0:0:0:
268,184,87907,1,0,0:0:0:0:
264,176,87995,1,0,0:0:0:0:
264,176,88083,1,0,0:0:0:0:
268,176,88260,1,0,0:0:0:0:
268,176,88436,1,0,0:0:0:0:
268,176,88612,1,0,0:0:0:0:
264,176,88789,1,0,0:0:0:0:
268,176,88965,1,0,0:0:0:0:
268,176,89142,1,0,0:0:0:0:
268,176,89318,1,0,0:0:0:0:
268,176,89362,1,0,0:0:0:0:
268,176,89407,1,0,0:0:0:0:
264,176,89451,1,0,0:0:0:0:
264,176,89495,1,0,0:0:0:0:
268,176,89671,1,0,0:0:0:0:
268,176,89848,1,0,0:0:0:0:
268,176,90024,1,0,0:0:0:0:
268,176,90201,1,0,0:0:0:0:
268,172,90289,1,2,0:0:0:0:
268,176,90333,1,2,0:0:0:0:
268,176,90421,1,2,0:0:0:0:
268,176,90465,1,2,0:0:0:0:
268,176,90554,1,0,0:0:0:0:
268,176,90598,1,0,0:0:0:0:
268,176,90686,1,0,0:0:0:0:
268,176,90730,1,0,0:0:0:0:
268,176,90818,1,0,0:0:0:0:
260,180,90907,1,4,0:0:0:0:
260,192,93730,1,0,0:0:0:0:
260,192,95848,1,6,0:0:0:0:
264,188,96554,1,4,0:0:0:0:
268,192,96730,1,0,0:0:0:0:
268,192,96818,1,0,0:0:0:0:
264,188,96995,1,0,0:0:0:0:
264,188,97083,1,0,0:0:0:0:
264,188,97260,1,2,0:0:0:0:
264,188,97348,1,2,0:0:0:0:
264,188,97524,1,0,0:0:0:0:
268,192,97612,1,2,0:0:0:0:
264,188,97965,1,0,0:0:0:0:
264,188,98142,1,0,0:0:0:0:
264,188,98230,1,0,0:0:0:0:
264,188,98407,1,0,0:0:0:0:
264,188,98495,1,0,0:0:0:0:
264,188,98671,1,2,0:0:0:0:
264,188,98848,1,2,0:0:0:0:
264,188,99024,1,0,0:0:0:0:
264,188,99201,1,2,0:0:0:0:
264,188,99377,1,0,0:0:0:0:
264,188,99554,1,0,0:0:0:0:
264,188,99642,1,0,0:0:0:0:
264,188,99818,1,0,0:0:0:0:
264,188,99907,1,0,0:0:0:0:
264,188,100083,1,2,0:0:0:0:
264,188,100171,1,2,0:0:0:0:
264,188,100348,1,0,0:0:0:0:
264,188,100436,1,2,0:0:0:0:
252,184,100789,1,2,0:0:0:0:
252,184,100877,1,2,0:0:0:0:
252,184,100965,1,2,0:0:0:0:
252,184,101054,1,0,0:0:0:0:
252,184,101142,1,0,0:0:0:0:
252,184,101230,1,0,0:0:0:0:
252,184,101318,1,2,0:0:0:0:
260,180,101407,1,2,0:0:0:0:
256,180,101495,1,0,0:0:0:0:
256,180,101583,1,0,0:0:0:0:
256,180,101671,1,0,0:0:0:0:
252,184,101759,1,0,0:0:0:0:
252,184,101848,1,2,0:0:0:0:
252,184,101936,1,0,0:0:0:0:
252,184,102024,1,0,0:0:0:0:
256,180,102112,1,0,0:0:0:0:
260,180,102201,1,4,0:0:0:0:
260,192,103259,1,0,0:0:0:0:
260,188,103318,1,0,0:0:0:0:
260,184,103377,1,0,0:0:0:0:
260,184,103495,1,0,0:0:0:0:
260,184,103612,1,0,0:0:0:0:
256,192,104671,1,2,0:0:0:0:
256,192,105024,1,0,0:0:0:0:
256,192,105142,1,0,0:0:0:0:
256,192,105259,1,0,0:0:0:0:
256,192,105377,1,0,0:0:0:0:
256,192,105436,1,0,0:0:0:0:
256,192,105495,1,0,0:0:0:0:
256,192,105612,1,0,0:0:0:0:
256,192,105730,1,0,0:0:0:0:
256,192,105789,1,0,0:0:0:0:
256,192,105848,1,0,0:0:0:0:
256,192,105965,1,0,0:0:0:0:
256,192,106083,1,2,0:0:0:0:
256,192,106142,1,2,0:0:0:0:
256,192,106201,1,2,0:0:0:0:
256,192,106259,1,2,0:0:0:0:
256,192,106318,1,2,0:0:0:0:
256,192,106377,1,2,0:0:0:0:
248,184,106436,1,0,0:0:0:0:
260,188,106789,1,2,0:0:0:0:
260,184,107142,1,0,0:0:0:0:
256,192,107495,5,6,0:0:0:0:
256,188,107848,1,0,0:0:0:0:
256,192,107965,1,0,0:0:0:0:
256,184,108083,1,0,0:0:0:0:
264,192,108201,1,2,0:0:0:0:
264,192,108259,1,2,0:0:0:0:
256,188,108318,1,0,0:0:0:0:
256,184,108436,1,0,0:0:0:0:
264,192,108554,1,2,0:0:0:0:
264,192,108612,1,2,0:0:0:0:
256,180,108671,1,0,0:0:0:0:
256,180,108789,1,0,0:0:0:0:
264,192,108907,1,2,0:0:0:0:
256,184,109142,1,2,0:0:0:0:
260,192,109259,1,0,0:0:0:0:
260,192,109377,1,0,0:0:0:0:
268,192,109495,1,0,0:0:0:0:
252,192,109612,1,2,0:0:0:0:
252,192,109642,1,2,0:0:0:0:
252,192,109671,1,2,0:0:0:0:
252,192,109701,1,2,0:0:0:0:
252,192,109730,1,0,0:0:0:0:
252,192,109848,1,0,0:0:0:0:
260,192,109965,1,2,0:0:0:0:
260,192,110024,1,2,0:0:0:0:
260,192,110083,1,2,0:0:0:0:
268,192,110201,1,0,0:0:0:0:
264,192,110318,1,2,0:0:0:0:
260,188,110377,1,2,0:0:0:0:
256,188,110436,1,0,0:0:0:0:
256,184,110495,1,0,0:0:0:0:
256,184,110554,1,2,0:0:0:0:
256,188,110671,1,0,0:0:0:0:
256,192,110788,1,0,0:0:0:0:
256,184,110906,1,0,0:0:0:0:
264,192,111024,1,2,0:0:0:0:
264,192,111082,1,2,0:0:0:0:
256,188,111141,1,0,0:0:0:0:
256,184,111259,1,0,0:0:0:0:
264,192,111377,1,2,0:0:0:0:
264,192,111435,1,2,0:0:0:0:
256,180,111494,1,0,0:0:0:0:
256,180,111612,1,0,0:0:0:0:
264,192,111730,1,2,0:0:0:0:
260,180,111965,1,2,0:0:0:0:
260,192,112082,1,0,0:0:0:0:
260,192,112200,1,0,0:0:0:0:
268,192,112318,1,0,0:0:0:0:
252,192,112435,1,2,0:0:0:0:
252,192,112465,1,2,0:0:0:0:
252,192,112494,1,2,0:0:0:0:
252,192,112524,1,2,0:0:0:0:
252,192,112553,1,0,0:0:0:0:
252,192,112671,1,0,0:0:0:0:
244,184,112789,1,2,0:0:0:0:
244,184,112848,1,2,0:0:0:0:
256,184,112907,1,2,0:0:0:0:
256,184,113024,1,0,0:0:0:0:
256,192,113142,1,0,0:0:0:0:
256,192,113201,1,0,0:0:0:0:
256,192,113259,1,0,0:0:0:0:
256,192,113318,1,2,0:0:0:0:
260,184,113377,1,2,0:0:0:0:
260,184,113436,1,2,0:0:0:0:
256,188,113495,1,0,0:0:0:0:
256,192,113612,1,0,0:0:0:0:
256,184,113730,1,0,0:0:0:0:
264,192,113848,1,2,0:0:0:0:
264,192,113906,1,2,0:0:0:0:
256,188,113965,1,0,0:0:0:0:
256,184,114083,1,0,0:0:0:0:
264,192,114201,1,2,0:0:0:0:
264,192,114259,1,2,0:0:0:0:
256,180,114318,1,0,0:0:0:0:
256,180,114436,1,0,0:0:0:0:
264,192,114554,1,2,0:0:0:0:
256,184,114789,1,2,0:0:0:0:
260,192,114906,1,0,0:0:0:0:
260,192,115024,1,0,0:0:0:0:
268,192,115142,1,0,0:0:0:0:
252,192,115259,1,2,0:0:0:0:
252,192,115289,1,2,0:0:0:0:
252,192,115318,1,2,0:0:0:0:
252,192,115348,1,2,0:0:0:0:
252,192,115377,1,0,0:0:0:0:
252,192,115495,1,0,0:0:0:0:
260,192,115612,1,2,0:0:0:0:
260,192,115671,1,2,0:0:0:0:
260,192,115730,1,2,0:0:0:0:
268,192,115848,1,0,0:0:0:0:
264,192,115965,1,2,0:0:0:0:
260,188,116024,1,2,0:0:0:0:
256,188,116083,1,0,0:0:0:0:
256,184,116142,1,0,0:0:0:0:
256,184,116201,1,2,0:0:0:0:
256,188,116318,1,0,0:0:0:0:
256,192,116435,1,0,0:0:0:0:
256,184,116553,1,0,0:0:0:0:
264,192,116671,1,2,0:0:0:0:
264,192,116729,1,2,0:0:0:0:
256,188,116788,1,0,0:0:0:0:
256,184,116906,1,0,0:0:0:0:
264,192,117024,1,2,0:0:0:0:
264,192,117082,1,2,0:0:0:0:
256,180,117141,1,0,0:0:0:0:
256,180,117259,1,0,0:0:0:0:
264,192,117377,1,2,0:0:0:0:
260,180,117612,1,2,0:0:0:0:
256,192,117730,1,2,0:0:0:0:
264,192,117789,1,0,0:0:0:0:
264,192,117848,1,0,0:0:0:0:
260,184,117907,1,0,0:0:0:0:
260,184,117965,1,2,0:0:0:0:
264,188,118024,1,0,0:0:0:0:
264,192,118083,1,2,0:0:0:0:
256,192,118142,1,2,0:0:0:0:
264,188,118201,1,0,0:0:0:0:
264,188,118259,1,2,0:0:0:0:
264,188,118318,1,2,0:0:0:0:
264,188,118377,1,2,0:0:0:0:
264,192,118436,1,0,0:0:0:0:
264,188,119142,1,2,0:0:0:0:
260,184,119186,1,2,0:0:0:0:
260,184,119230,1,0,0:0:0:0:
264,188,119318,1,2,0:0:0:0:
272,188,119407,1,2,0:0:0:0:
272,188,119451,1,0,0:0:0:0:
264,188,119495,1,2,0:0:0:0:
272,188,119539,1,2,0:0:0:0:
264,188,119583,1,0,0:0:0:0:
264,188,119627,1,0,0:0:0:0:
264,188,119671,1,2,0:0:0:0:
264,188,119715,1,0,0:0:0:0:
264,188,119759,1,2,0:0:0:0:
272,184,119848,1,2,0:0:0:0:
272,184,119892,1,2,0:0:0:0:
272,184,119936,1,0,0:0:0:0:
252,188,120024,1,0,0:0:0:0:
264,188,120068,1,0,0:0:0:0:
264,188,120112,1,2,0:0:0:0:
268,184,120157,1,0,0:0:0:0:
268,184,120201,1,2,0:0:0:0:
268,184,120245,1,2,0:0:0:0:
264,188,120289,1,0,0:0:0:0:
264,188,120377,1,2,0:0:0:0:
264,188,120421,1,0,0:0:0:0:
264,188,120465,1,0,0:0:0:0:
264,188,120554,1,2,0:0:0:0:
264,188,120598,1,2,0:0:0:0:
264,188,120642,1,0,0:0:0:0:
264,180,120730,1,2,0:0:0:0:
256,184,120818,1,2,0:0:0:0:
256,184,120862,1,0,0:0:0:0:
256,184,120906,1,2,0:0:0:0:
256,184,120950,1,2,0:0:0:0:
256,184,120995,1,0,0:0:0:0:
256,184,121039,1,0,0:0:0:0:
256,184,121083,1,2,0:0:0:0:
256,184,121127,1,0,0:0:0:0:
256,184,121171,1,2,0:0:0:0:
264,176,121259,1,2,0:0:0:0:
264,176,121304,1,2,0:0:0:0:
264,176,121348,1,0,0:0:0:0:
264,176,121436,1,0,0:0:0:0:
264,180,121480,1,0,0:0:0:0:
264,180,121524,1,2,0:0:0:0:
264,176,121568,1,0,0:0:0:0:
272,176,121612,1,2,0:0:0:0:
272,176,121642,1,2,0:0:0:0:
272,176,121671,1,2,0:0:0:0:
272,176,121701,1,2,0:0:0:0:
272,172,121789,1,0,0:0:0:0:
272,176,121811,1,0,0:0:0:0:
272,180,121877,1,0,0:0:0:0:
272,176,121899,1,0,0:0:0:0:
264,188,121965,1,2,0:0:0:0:
260,184,122009,1,2,0:0:0:0:
260,184,122053,1,0,0:0:0:0:
264,188,122141,1,2,0:0:0:0:
272,188,122230,1,2,0:0:0:0:
272,188,122274,1,0,0:0:0:0:
264,188,122318,1,2,0:0:0:0:
272,188,122362,1,2,0:0:0:0:
264,188,122406,1,0,0:0:0:0:
264,188,122450,1,0,0:0:0:0:
264,188,122494,1,2,0:0:0:0:
264,188,122538,1,0,0:0:0:0:
264,188,122582,1,2,0:0:0:0:
272,184,122671,1,2,0:0:0:0:
272,184,122715,1,2,0:0:0:0:
272,184,122759,1,0,0:0:0:0:
252,188,122847,1,0,0:0:0:0:
264,188,122891,1,0,0:0:0:0:
264,188,122935,1,2,0:0:0:0:
268,184,122980,1,0,0:0:0:0:
268,184,123024,1,2,0:0:0:0:
268,184,123068,1,2,0:0:0:0:
264,188,123112,1,0,0:0:0:0:
264,188,123200,1,2,0:0:0:0:
264,188,123244,1,0,0:0:0:0:
264,188,123288,1,0,0:0:0:0:
264,188,123377,1,2,0:0:0:0:
264,188,123421,1,2,0:0:0:0:
264,188,123465,1,0,0:0:0:0:
264,180,123553,1,2,0:0:0:0:
256,184,123641,1,2,0:0:0:0:
256,184,123685,1,0,0:0:0:0:
256,184,123729,1,2,0:0:0:0:
256,184,123773,1,2,0:0:0:0:
256,184,123818,1,0,0:0:0:0:
256,184,123862,1,0,0:0:0:0:
256,184,123906,1,2,0:0:0:0:
256,184,123950,1,0,0:0:0:0:
256,184,123994,1,2,0:0:0:0:
264,176,124083,1,2,0:0:0:0:
264,176,124127,1,2,0:0:0:0:
264,180,124171,1,0,0:0:0:0:
264,180,124259,1,0,0:0:0:0:
264,180,124304,1,0,0:0:0:0:
264,180,124348,1,2,0:0:0:0:
264,176,124392,1,0,0:0:0:0:
268,172,124436,1,2,0:0:0:0:
268,172,124465,1,2,0:0:0:0:
268,172,124495,1,2,0:0:0:0:
268,172,124524,1,0,0:0:0:0:
272,184,124568,1,0,0:0:0:0:
268,172,124612,1,2,0:0:0:0:
268,176,124642,1,2,0:0:0:0:
268,176,124671,1,2,0:0:0:0:
268,176,124701,1,2,0:0:0:0:
268,176,124730,1,2,0:0:0:0:
268,176,124759,1,2,0:0:0:0:
268,176,124789,1,0,0:0:0:0:
272,168,124833,1,0,0:0:0:0:
272,168,124877,1,0,0:0:0:0:
272,168,124965,1,2,0:0:0:0:
272,168,125009,1,0,0:0:0:0:
272,168,125054,1,2,0:0:0:0:
268,168,125098,1,0,0:0:0:0:
272,168,125142,1,0,0:0:0:0:
268,168,125186,1,2,0:0:0:0:
268,168,125230,1,2,0:0:0:0:
272,168,125274,1,0,0:0:0:0:
272,168,125318,1,2,0:0:0:0:
272,168,125362,1,2,0:0:0:0:
272,168,125407,1,0,0:0:0:0:
272,168,125495,1,2,0:0:0:0:
272,168,125539,1,2,0:0:0:0:
272,168,125583,1,0,0:0:0:0:
272,168,125671,1,2,0:0:0:0:
272,168,125715,1,0,0:0:0:0:
272,168,125759,1,2,0:0:0:0:
272,168,125804,1,2,0:0:0:0:
272,168,125848,1,0,0:0:0:0:
268,172,125892,1,2,0:0:0:0:
272,168,125936,1,2,0:0:0:0:
272,168,125980,1,0,0:0:0:0:
272,168,126024,1,2,0:0:0:0:
272,168,126068,1,0,0:0:0:0:
272,168,126112,1,0,0:0:0:0:
268,176,126201,1,2,0:0:0:0:
272,168,126245,1,2,0:0:0:0:
272,168,126289,1,0,0:0:0:0:
272,168,126377,1,2,0:0:0:0:
272,168,126421,1,0,0:0:0:0:
272,168,126466,1,2,0:0:0:0:
264,164,126509,1,0,0:0:0:0:
272,168,126554,1,0,0:0:0:0:
264,160,126598,1,2,0:0:0:0:
272,168,126642,1,2,0:0:0:0:
272,168,126686,1,0,0:0:0:0:
272,168,126730,1,2,0:0:0:0:
272,168,126774,1,2,0:0:0:0:
272,168,126819,1,0,0:0:0:0:
272,168,126907,1,2,0:0:0:0:
272,168,126951,1,2,0:0:0:0:
272,168,126995,1,0,0:0:0:0:
272,168,127083,1,2,0:0:0:0:
272,168,127127,1,0,0:0:0:0:
272,168,127171,1,2,0:0:0:0:
272,168,127216,1,2,0:0:0:0:
268,176,127259,1,0,0:0:0:0:
272,168,127289,1,0,0:0:0:0:
272,168,127318,1,0,0:0:0:0:
272,168,127348,1,2,0:0:0:0:
272,168,127436,1,2,0:0:0:0:
272,168,127458,1,2,0:0:0:0:
272,168,127524,1,2,0:0:0:0:
272,168,127546,1,2,0:0:0:0:
268,176,127612,1,2,0:0:0:0:
272,168,127656,1,2,0:0:0:0:
272,168,127700,1,0,0:0:0:0:
272,168,127788,1,2,0:0:0:0:
272,168,127832,1,0,0:0:0:0:
272,168,127877,1,2,0:0:0:0:
264,160,127921,1,0,0:0:0:0:
272,168,127965,1,0,0:0:0:0:
264,160,128009,1,2,0:0:0:0:
272,168,128053,1,2,0:0:0:0:
272,168,128097,1,0,0:0:0:0:
272,168,128141,1,2,0:0:0:0:
272,168,128185,1,2,0:0:0:0:
272,168,128230,1,0,0:0:0:0:
272,168,128318,1,2,0:0:0:0:
272,168,128362,1,2,0:0:0:0:
272,168,128406,1,0,0:0:0:0:
272,168,128494,1,2,0:0:0:0:
272,168,128538,1,0,0:0:0:0:
272,168,128582,1,2,0:0:0:0:
272,168,128627,1,2,0:0:0:0:
272,168,128671,1,0,0:0:0:0:
264,160,128715,1,2,0:0:0:0:
272,168,128759,1,2,0:0:0:0:
272,168,128803,1,0,0:0:0:0:
272,168,128847,1,2,0:0:0:0:
272,168,128891,1,0,0:0:0:0:
272,168,128935,1,0,0:0:0:0:
260,176,129024,5,2,0:0:0:0:
248,172,129068,1,2,0:0:0:0:
260,176,129112,1,0,0:0:0:0:
260,176,129157,1,0,0:0:0:0:
260,176,129201,1,2,0:0:0:0:
260,176,129245,1,0,0:0:0:0:
260,176,129289,1,2,0:0:0:0:
260,176,129333,1,2,0:0:0:0:
260,176,129377,1,0,0:0:0:0:
260,176,129421,1,2,0:0:0:0:
260,176,129465,1,0,0:0:0:0:
260,176,129509,1,0,0:0:0:0:
260,176,129554,1,2,0:0:0:0:
248,176,129598,1,0,0:0:0:0:
260,176,129642,1,0,0:0:0:0:
260,176,129686,1,0,0:0:0:0:
260,176,129730,1,2,0:0:0:0:
252,176,130436,1,4,0:0:0:0:
256,192,130524,12,0,135730,0:0:0:0:
256,192,136083,5,4,0:0:0:0:
252,184,136259,1,2,0:0:0:0:
252,176,136436,1,2,0:0:0:0:
252,176,136612,1,0,0:0:0:0:
256,168,136789,1,0,0:0:0:0:
256,168,136965,1,2,0:0:0:0:
256,168,137142,1,0,0:0:0:0:
256,168,137318,1,0,0:0:0:0:
256,168,137495,1,0,0:0:0:0:
256,168,137671,1,2,0:0:0:0:
256,168,137848,1,2,0:0:0:0:
256,168,138024,1,0,0:0:0:0:
260,188,138201,1,2,0:0:0:0:
260,188,138377,1,0,0:0:0:0:
260,188,138554,1,0,0:0:0:0:
260,188,138730,1,2,0:0:0:0:
260,188,138907,1,0,0:0:0:0:
260,188,139083,1,2,0:0:0:0:
260,188,139259,1,2,0:0:0:0:
260,188,139436,1,0,0:0:0:0:
260,188,139612,1,0,0:0:0:0:
260,188,139789,1,2,0:0:0:0:
260,188,139965,1,0,0:0:0:0:
260,188,140142,1,0,0:0:0:0:
264,180,140318,1,2,0:0:0:0:
264,180,140407,1,2,0:0:0:0:
264,180,140495,1,2,0:0:0:0:
264,180,140583,1,0,0:0:0:0:
264,180,140671,1,0,0:0:0:0:
264,180,140759,1,0,0:0:0:0:
264,180,140848,1,2,0:0:0:0:
264,180,140936,1,2,0:0:0:0:
264,180,141024,1,0,0:0:0:0:
264,180,141112,1,0,0:0:0:0:
264,180,141201,1,0,0:0:0:0:
264,180,141289,1,0,0:0:0:0:
264,180,141377,1,2,0:0:0:0:
264,180,141465,1,0,0:0:0:0:
264,180,141554,1,0,0:0:0:0:
264,180,141642,1,0,0:0:0:0:
272,176,141730,1,4,0:0:0:0:
268,176,141818,1,0,0:0:0:0:
268,176,141862,1,2,0:0:0:0:
268,168,141907,1,2,0:0:0:0:
268,172,141995,1,0,0:0:0:0:
268,168,142083,1,0,0:0:0:0:
268,168,142127,1,2,0:0:0:0:
268,168,142171,1,2,0:0:0:0:
268,168,142259,1,0,0:0:0:0:
272,168,142348,1,2,0:0:0:0:
272,168,142436,1,0,0:0:0:0:
268,180,142524,1,0,0:0:0:0:
268,176,142568,1,2,0:0:0:0:
268,176,142612,1,2,0:0:0:0:
268,180,142701,1,0,0:0:0:0:
272,168,142789,1,0,0:0:0:0:
272,168,142833,1,2,0:0:0:0:
272,168,142877,1,0,0:0:0:0:
272,164,142921,1,0,0:0:0:0:
272,164,142965,1,2,0:0:0:0:
256,188,143142,1,0,0:0:0:0:
256,188,143230,1,0,0:0:0:0:
256,188,143274,1,2,0:0:0:0:
256,188,143318,1,2,0:0:0:0:
256,188,143407,1,0,0:0:0:0:
264,184,143495,1,2,0:0:0:0:
264,184,143539,1,2,0:0:0:0:
264,184,143583,1,0,0:0:0:0:
264,184,143627,1,0,0:0:0:0:
264,184,143671,1,2,0:0:0:0:
264,184,143715,1,0,0:0:0:0:
264,184,143759,1,0,0:0:0:0:
264,180,143848,1,0,0:0:0:0:
264,180,143936,1,0,0:0:0:0:
264,180,143980,1,0,0:0:0:0:
264,180,144024,1,2,0:0:0:0:
264,180,144068,1,2,0:0:0:0:
264,180,144112,1,0,0:0:0:0:
272,180,144201,1,0,0:0:0:0:
272,180,144245,1,0,0:0:0:0:
264,176,144289,1,2,0:0:0:0:
268,176,144318,1,2,0:0:0:0:
268,176,144348,1,2,0:0:0:0:
272,180,144377,1,0,0:0:0:0:
272,180,144421,1,2,0:0:0:0:
272,176,144465,1,2,0:0:0:0:
272,176,144509,1,2,0:0:0:0:
264,184,144554,1,0,0:0:0:0:
260,184,144642,1,0,0:0:0:0:
260,184,144686,1,2,0:0:0:0:
260,180,144730,1,2,0:0:0:0:
260,180,144818,1,0,0:0:0:0:
264,180,144907,1,0,0:0:0:0:
260,180,144951,1,2,0:0:0:0:
260,180,144995,1,2,0:0:0:0:
264,180,145083,1,2,0:0:0:0:
264,180,145127,1,0,0:0:0:0:
264,180,145171,1,2,0:0:0:0:
264,180,145215,1,2,0:0:0:0:
264,180,145259,1,0,0:0:0:0:
268,180,145348,1,0,0:0:0:0:
268,180,145392,1,2,0:0:0:0:
268,180,145436,1,2,0:0:0:0:
268,172,145524,1,0,0:0:0:0:
268,172,145554,1,0,0:0:0:0:
268,172,145583,1,0,0:0:0:0:
268,172,145612,1,0,0:0:0:0:
264,172,145701,1,2,0:0:0:0:
264,164,145789,1,2,0:0:0:0:
264,168,145877,1,0,0:0:0:0:
264,168,145965,1,0,0:0:0:0:
264,168,146054,1,2,0:0:0:0:
264,168,146098,1,2,0:0:0:0:
264,168,146142,1,0,0:0:0:0:
264,172,146230,1,2,0:0:0:0:
264,172,146274,1,2,0:0:0:0:
264,172,146318,1,0,0:0:0:0:
264,172,146362,1,2,0:0:0:0:
264,172,146407,1,0,0:0:0:0:
264,172,146451,1,0,0:0:0:0:
264,172,146495,1,2,0:0:0:0:
264,168,146539,1,0,0:0:0:0:
256,156,146583,1,0,0:0:0:0:
256,152,146627,1,0,0:0:0:0:
256,152,146671,1,2,0:0:0:0:
256,188,147377,1,0,0:0:0:0:
256,188,147465,1,0,0:0:0:0:
256,188,147642,1,0,0:0:0:0:
256,188,147730,1,0,0:0:0:0:
256,188,147907,1,0,0:0:0:0:
256,188,147995,1,0,0:0:0:0:
256,184,148083,1,0,0:0:0:0:
256,184,148171,1,0,0:0:0:0:
256,184,148215,1,2,0:0:0:0:
256,184,148259,1,2,0:0:0:0:
256,184,148348,1,0,0:0:0:0:
256,184,148436,1,0,0:0:0:0:
256,184,148480,1,2,0:0:0:0:
256,184,148524,1,2,0:0:0:0:
256,184,148612,1,0,0:0:0:0:
256,180,148701,1,2,0:0:0:0:
244,184,148789,1,0,0:0:0:0:
248,184,148877,1,0,0:0:0:0:
252,176,149054,1,0,0:0:0:0:
252,176,149142,1,0,0:0:0:0:
252,176,149318,1,0,0:0:0:0:
252,176,149407,1,0,0:0:0:0:
260,180,149495,1,0,0:0:0:0:
256,176,149583,1,0,0:0:0:0:
256,176,149627,1,2,0:0:0:0:
256,176,149671,1,2,0:0:0:0:
256,176,149760,1,0,0:0:0:0:
252,176,149848,1,0,0:0:0:0:
252,176,149892,1,2,0:0:0:0:
252,176,149936,1,0,0:0:0:0:
252,176,149980,1,0,0:0:0:0:
252,176,150024,1,2,0:0:0:0:
256,188,150201,1,0,0:0:0:0:
256,188,150289,1,0,0:0:0:0:
256,188,150466,1,0,0:0:0:0:
256,188,150554,1,0,0:0:0:0:
256,188,150731,1,0,0:0:0:0:
256,188,150819,1,0,0:0:0:0:
256,184,150907,1,0,0:0:0:0:
256,184,150995,1,0,0:0:0:0:
256,184,151039,1,2,0:0:0:0:
256,184,151083,1,2,0:0:0:0:
256,184,151172,1,0,0:0:0:0:
256,184,151260,1,0,0:0:0:0:
256,184,151304,1,2,0:0:0:0:
256,184,151348,1,2,0:0:0:0:
256,184,151436,1,0,0:0:0:0:
256,180,151525,1,2,0:0:0:0:
244,184,151613,1,0,0:0:0:0:
248,184,151701,1,0,0:0:0:0:
252,176,151878,1,0,0:0:0:0:
252,176,151966,1,0,0:0:0:0:
252,176,152142,1,0,0:0:0:0:
252,176,152231,1,0,0:0:0:0:
260,180,152319,1,0,0:0:0:0:
256,176,152407,1,0,0:0:0:0:
256,176,152451,1,2,0:0:0:0:
256,176,152495,1,2,0:0:0:0:
256,176,152584,1,0,0:0:0:0:
264,168,152671,1,2,0:0:0:0:
252,176,152716,1,2,0:0:0:0:
252,176,152760,1,0,0:0:0:0:
252,176,152804,1,0,0:0:0:0:
252,176,152848,1,2,0:0:0:0:
264,168,152892,1,0,0:0:0:0:
264,160,152936,1,2,0:0:0:0:
264,160,152980,1,2,0:0:0:0:
252,176,153024,1,0,0:0:0:0:
256,172,153112,1,2,0:0:0:0:
256,176,153157,1,2,0:0:0:0:
256,176,153201,1,0,0:0:0:0:
264,168,153289,1,0,0:0:0:0:
264,168,153377,1,2,0:0:0:0:
264,168,153421,1,0,0:0:0:0:
264,168,153465,1,2,0:0:0:0:
264,168,153509,1,2,0:0:0:0:
264,168,153554,1,0,0:0:0:0:
252,176,153642,1,2,0:0:0:0:
264,168,153730,1,0,0:0:0:0:
264,168,153818,1,2,0:0:0:0:
264,168,153862,1,2,0:0:0:0:
264,168,153907,1,2,0:0:0:0:
264,168,153995,1,0,0:0:0:0:
264,176,154083,1,6,0:0:0:0:
272,184,154436,1,0,0:0:0:0:
272,184,154524,1,2,0:0:0:0:
272,184,154568,1,2,0:0:0:0:
272,184,154612,1,0,0:0:0:0:
272,184,154701,1,0,0:0:0:0:
264,180,154789,1,0,0:0:0:0:
264,180,154833,1,2,0:0:0:0:
264,180,154877,1,0,0:0:0:0:
264,180,154921,1,0,0:0:0:0:
264,180,154965,1,2,0:0:0:0:
252,168,155054,1,2,0:0:0:0:
252,168,155098,1,2,0:0:0:0:
248,184,155142,1,0,0:0:0:0:
248,184,155230,1,2,0:0:0:0:
248,184,155274,1,2,0:0:0:0:
256,176,155318,1,2,0:0:0:0:
256,176,155407,1,2,0:0:0:0:
256,176,155495,1,4,0:0:0:0:
264,180,155848,1,2,0:0:0:0:
260,180,155892,1,0,0:0:0:0:
264,168,155936,1,2,0:0:0:0:
264,168,155980,1,2,0:0:0:0:
264,168,156024,1,0,0:0:0:0:
256,184,156068,1,0,0:0:0:0:
256,184,156112,1,2,0:0:0:0:
256,176,156157,1,0,0:0:0:0:
256,176,156201,1,2,0:0:0:0:
264,180,156230,1,2,0:0:0:0:
264,180,156259,1,2,0:0:0:0:
264,180,156289,1,0,0:0:0:0:
264,180,156377,1,2,0:0:0:0:
264,168,156421,1,2,0:0:0:0:
264,180,156465,1,0,0:0:0:0:
264,168,156509,1,2,0:0:0:0:
264,168,156554,1,0,0:0:0:0:
264,180,156598,1,0,0:0:0:0:
264,180,156642,1,2,0:0:0:0:
260,180,156671,1,2,0:0:0:0:
264,180,156701,1,2,0:0:0:0:
264,180,156730,1,0,0:0:0:0:
264,176,156818,1,2,0:0:0:0:
264,176,156862,1,0,0:0:0:0:
252,168,156907,1,2,0:0:0:0:
252,168,156951,1,2,0:0:0:0:
252,168,156995,1,2,0:0:0:0:
252,168,157039,1,2,0:0:0:0:
264,172,157083,1,2,0:0:0:0:
264,172,157112,1,2,0:0:0:0:
264,172,157142,1,2,0:0:0:0:
264,172,157171,1,2,0:0:0:0:
264,168,157201,1,2,0:0:0:0:
264,172,157230,1,2,0:0:0:0:
264,172,157259,1,0,0:0:0:0:
264,184,158671,1,4,0:0:0:0:
256,184,161495,5,0,0:0:0:0:
256,184,161583,1,2,0:0:0:0:
256,184,161627,1,0,0:0:0:0:
256,184,161671,1,2,0:0:0:0:
256,184,161759,1,0,0:0:0:0:
256,184,161848,1,2,0:0:0:0:
256,184,161892,1,0,0:0:0:0:
256,184,161936,1,2,0:0:0:0:
256,184,162024,1,2,0:0:0:0:
256,184,162112,1,0,0:0:0:0:
256,184,162201,1,0,0:0:0:0:
256,184,162245,1,0,0:0:0:0:
256,184,162289,1,2,0:0:0:0:
256,184,162377,1,2,0:0:0:0:
256,184,162465,1,0,0:0:0:0:
260,180,162554,1,2,0:0:0:0:
260,180,162598,1,2,0:0:0:0:
260,180,162642,1,0,0:0:0:0:
260,180,162730,1,2,0:0:0:0:
260,180,162818,1,0,0:0:0:0:
268,180,162907,1,2,0:0:0:0:
268,180,162995,1,0,0:0:0:0:
268,180,163039,1,0,0:0:0:0:
268,180,163083,1,0,0:0:0:0:
264,172,163171,1,2,0:0:0:0:
264,172,163259,1,2,0:0:0:0:
264,172,163304,1,0,0:0:0:0:
264,172,163348,1,2,0:0:0:0:
264,172,163436,1,0,0:0:0:0:
264,172,163524,1,0,0:0:0:0:
260,180,163612,1,2,0:0:0:0:
260,176,163657,1,0,0:0:0:0:
260,176,163701,1,2,0:0:0:0:
260,176,163745,1,2,0:0:0:0:
260,176,163789,1,0,0:0:0:0:
260,176,163877,1,0,0:0:0:0:
260,176,163965,1,2,0:0:0:0:
264,188,164318,5,4,0:0:0:0:
