osu file format v14

[General]
AudioFilename: audio.mp3
AudioLeadIn: 0
PreviewTime: 71275
Countdown: 0
SampleSet: None
StackLeniency: 0.7
Mode: 1
LetterboxInBreaks: 0
WidescreenStoryboard: 0

[Editor]
DistanceSpacing: 0.8
BeatDivisor: 1
GridSize: 4
TimelineZoom: 3.099999

[Metadata]
Title:Taiko Four Heavenly Maps III
TitleUnicode:Taiko Four Heavenly Maps III
Artist:Various Artists
ArtistUnicode:Various Artists
Creator:_Rise
Version:Camellia - Break The Silence
Source:
Tags:
BeatmapID:1413858
BeatmapSetID:668284

[Difficulty]
HPDrainRate:5.5
CircleSize:5
OverallDifficulty:8
ApproachRate:5
SliderMultiplier:1.4
SliderTickRate:1

[Events]
//Background and Video events
0,0,"bg1.jpg",0,0
//Break Periods
//Storyboard Layer 0 (Background)
//Storyboard Layer 1 (Fail)
//Storyboard Layer 2 (Pass)
//Storyboard Layer 3 (Foreground)
//Storyboard Sound Samples

[TimingPoints]
14616,272.727272727273,4,1,0,60,1,0
53888,-100,4,1,0,70,0,0
71343,-100,4,1,0,80,0,1
106252,-100,4,1,0,70,0,0
123706,-100,4,1,0,80,0,1
141161,-100,4,1,0,70,0,0
178252,-100,4,1,0,80,0,1
213161,-100,4,1,0,70,0,0
230616,-100,4,1,0,80,0,1
248070,-100,4,1,0,70,0,0
265525,-100,4,1,0,60,0,0
269888,-100,4,1,0,50,0,0
272070,-100,4,1,0,40,0,0

[HitObjects]
256,192,18298,5,0,0:0:0:0:
256,192,18434,1,0,0:0:0:0:
256,192,18570,1,0,0:0:0:0:
256,192,18707,1,2,0:0:0:0:
256,192,18843,1,2,0:0:0:0:
256,192,18980,1,4,0:0:0:0:
256,184,19797,1,2,0:0:0:0:
252,192,22525,1,2,0:0:0:0:
252,192,22797,1,2,0:0:0:0:
252,192,23070,1,0,0:0:0:0:
248,188,26343,1,0,0:0:0:0:
248,188,26616,1,2,0:0:0:0:
248,188,27025,1,2,0:0:0:0:
248,188,27161,1,2,0:0:0:0:
248,188,27297,1,0,0:0:0:0:
248,188,27434,1,2,0:0:0:0:
248,188,27706,1,2,0:0:0:0:
248,188,28525,1,0,0:0:0:0:
256,172,31252,1,0,0:0:0:0:
256,172,31525,1,2,0:0:0:0:
256,172,31797,1,0,0:0:0:0:
256,200,33434,1,0,0:0:0:0:
256,200,33706,1,0,0:0:0:0:
256,200,33979,1,2,0:0:0:0:
248,176,35752,1,0,0:0:0:0:
248,176,35888,1,0,0:0:0:0:
248,176,36025,1,0,0:0:0:0:
248,176,36161,1,2,0:0:0:0:
248,176,36297,1,2,0:0:0:0:
256,188,36434,1,2,0:0:0:0:
256,188,37252,1,0,0:0:0:0:
260,184,39979,1,2,0:0:0:0:
260,184,40252,1,2,0:0:0:0:
260,184,40525,1,0,0:0:0:0:
256,188,43797,1,0,0:0:0:0:
256,188,44070,1,2,0:0:0:0:
256,188,44479,1,2,0:0:0:0:
256,188,44616,1,2,0:0:0:0:
256,188,44752,1,0,0:0:0:0:
256,188,44888,1,2,0:0:0:0:
256,188,45161,1,2,0:0:0:0:
256,188,45979,1,0,0:0:0:0:
256,196,48706,1,0,0:0:0:0:
256,196,48979,1,2,0:0:0:0:
256,196,49252,1,0,0:0:0:0:
248,192,50888,1,0,0:0:0:0:
248,192,51161,1,0,0:0:0:0:
248,192,51434,1,2,0:0:0:0:
248,192,51706,1,2,0:0:0:0:
248,192,52116,1,2,0:0:0:0:
248,192,52525,1,0,0:0:0:0:
252,200,52797,1,0,0:0:0:0:
252,200,53343,1,2,0:0:0:0:
260,200,53888,1,2,0:0:0:0:
260,200,54025,1,2,0:0:0:0:
248,184,54161,1,0,0:0:0:0:
252,192,54706,1,2,0:0:0:0:
264,188,54843,1,2,0:0:0:0:
256,188,56070,1,2,0:0:0:0:
256,188,56206,1,2,0:0:0:0:
268,184,56343,1,0,0:0:0:0:
256,188,56888,1,2,0:0:0:0:
252,180,57025,1,2,0:0:0:0:
248,172,58252,1,2,0:0:0:0:
248,172,58388,1,2,0:0:0:0:
248,172,58525,1,0,0:0:0:0:
256,176,59070,1,2,0:0:0:0:
256,176,59206,1,2,0:0:0:0:
256,172,60434,1,2,0:0:0:0:
256,172,60570,1,2,0:0:0:0:
256,172,60706,1,0,0:0:0:0:
248,196,61252,1,2,0:0:0:0:
248,196,61388,1,2,0:0:0:0:
248,196,62206,1,0,0:0:0:0:
248,196,62343,1,0,0:0:0:0:
248,196,62479,1,2,0:0:0:0:
248,196,62616,1,0,0:0:0:0:
248,196,62752,1,0,0:0:0:0:
244,180,62888,1,2,0:0:0:0:
248,196,63434,1,2,0:0:0:0:
256,184,63570,1,2,0:0:0:0:
256,184,63843,1,0,0:0:0:0:
244,180,63979,1,2,0:0:0:0:
244,180,64525,1,2,0:0:0:0:
244,180,64797,1,0,0:0:0:0:
244,180,64934,1,0,0:0:0:0:
244,180,65070,1,2,0:0:0:0:
244,180,65343,1,0,0:0:0:0:
244,180,65616,1,2,0:0:0:0:
244,180,65752,1,2,0:0:0:0:
260,192,66025,1,0,0:0:0:0:
260,192,66161,1,2,0:0:0:0:
260,192,66297,1,0,0:0:0:0:
260,192,66366,1,0,0:0:0:0:
260,192,66434,1,0,0:0:0:0:
260,192,66570,1,0,0:0:0:0:
260,192,66706,1,2,0:0:0:0:
256,180,66843,1,0,0:0:0:0:
264,200,66979,1,0,0:0:0:0:
264,200,67116,1,0,0:0:0:0:
264,196,67252,1,2,0:0:0:0:
264,196,67388,1,0,0:0:0:0:
264,196,67456,1,0,0:0:0:0:
264,196,67525,1,2,0:0:0:0:
268,192,67661,1,0,0:0:0:0:
268,192,67797,1,0,0:0:0:0:
268,192,67866,1,0,0:0:0:0:
268,192,67934,1,2,0:0:0:0:
264,200,68070,5,0,0:0:0:0:
264,200,68206,1,2,0:0:0:0:
264,200,68343,1,2,0:0:0:0:
256,200,68479,1,0,0:0:0:0:
256,200,68547,1,0,0:0:0:0:
256,200,68616,1,0,0:0:0:0:
260,200,68752,1,2,0:0:0:0:
260,200,68888,1,2,0:0:0:0:
260,200,69025,1,0,0:0:0:0:
268,192,69161,5,0,0:0:0:0:
268,192,69297,1,0,0:0:0:0:
268,192,69434,1,2,0:0:0:0:
256,200,69570,1,0,0:0:0:0:
256,200,69638,1,2,0:0:0:0:
256,200,69706,1,0,0:0:0:0:
256,200,69843,1,0,0:0:0:0:
256,200,69911,1,0,0:0:0:0:
256,200,69979,1,2,0:0:0:0:
256,200,70116,1,0,0:0:0:0:
268,192,70252,1,2,0:0:0:0:
256,192,70525,1,2,0:0:0:0:
256,192,70797,1,2,0:0:0:0:
256,192,70934,1,2,0:0:0:0:
256,192,71070,1,0,0:0:0:0:
256,192,71138,1,0,0:0:0:0:
256,192,71206,1,0,0:0:0:0:
256,192,71343,1,4,0:0:0:0:
256,192,71547,1,2,0:0:0:0:
256,192,71616,1,0,0:0:0:0:
256,192,71684,1,2,0:0:0:0:
256,192,71752,1,2,0:0:0:0:
260,192,71888,1,0,0:0:0:0:
260,192,71956,1,0,0:0:0:0:
260,192,72093,1,2,0:0:0:0:
260,192,72161,1,0,0:0:0:0:
260,192,72297,1,2,0:0:0:0:
260,192,72434,1,2,0:0:0:0:
260,192,72502,1,2,0:0:0:0:
260,192,72570,1,0,0:0:0:0:
256,192,72706,1,2,0:0:0:0:
256,192,72752,1,2,0:0:0:0:
260,192,72797,1,2,0:0:0:0:
260,192,72843,1,2,0:0:0:0:
264,188,72911,1,2,0:0:0:0:
264,188,72979,1,0,0:0:0:0:
268,184,73116,1,2,0:0:0:0:
268,184,73161,1,2,0:0:0:0:
268,184,73206,1,0,0:0:0:0:
268,184,73252,1,2,0:0:0:0:
264,188,73320,1,0,0:0:0:0:
264,188,73388,1,2,0:0:0:0:
260,192,73525,1,0,0:0:0:0:
260,192,73797,1,2,0:0:0:0:
264,188,73934,1,2,0:0:0:0:
268,184,74002,1,0,0:0:0:0:
264,188,74070,1,2,0:0:0:0:
264,188,74138,1,2,0:0:0:0:
264,188,74206,1,0,0:0:0:0:
256,192,74343,1,0,0:0:0:0:
260,192,74411,1,0,0:0:0:0:
264,184,74479,1,2,0:0:0:0:
264,184,74525,1,2,0:0:0:0:
264,184,74570,1,2,0:0:0:0:
264,184,74616,1,0,0:0:0:0:
256,188,74684,1,2,0:0:0:0:
256,188,74752,1,0,0:0:0:0:
256,188,74820,1,0,0:0:0:0:
256,188,74888,1,2,0:0:0:0:
260,184,74934,1,2,0:0:0:0:
260,184,74979,1,2,0:0:0:0:
260,184,75025,1,0,0:0:0:0:
256,184,75093,1,0,0:0:0:0:
248,180,75229,1,2,0:0:0:0:
248,180,75297,1,0,0:0:0:0:
256,192,75434,1,2,0:0:0:0:
256,192,75502,1,0,0:0:0:0:
256,192,75570,1,2,0:0:0:0:
256,188,75638,1,2,0:0:0:0:
256,188,75706,1,0,0:0:0:0:
256,192,75843,1,2,0:0:0:0:
256,192,75911,1,0,0:0:0:0:
256,192,75979,1,2,0:0:0:0:
256,192,76047,1,2,0:0:0:0:
256,192,76116,1,0,0:0:0:0:
256,196,76184,1,0,0:0:0:0:
264,192,76252,1,0,0:0:0:0:
264,192,76320,1,2,0:0:0:0:
264,192,76388,1,2,0:0:0:0:
264,192,76456,1,2,0:0:0:0:
264,192,76525,1,0,0:0:0:0:
264,192,76661,1,2,0:0:0:0:
256,192,76797,1,0,0:0:0:0:
256,192,76934,1,0,0:0:0:0:
256,184,77070,1,2,0:0:0:0:
256,184,77116,1,2,0:0:0:0:
256,184,77161,1,2,0:0:0:0:
264,192,77206,1,2,0:0:0:0:
264,192,77275,1,2,0:0:0:0:
264,192,77343,1,0,0:0:0:0:
264,192,77479,1,2,0:0:0:0:
252,196,77547,1,2,0:0:0:0:
264,192,77616,1,0,0:0:0:0:
264,192,77661,1,0,0:0:0:0:
264,192,77706,1,0,0:0:0:0:
264,192,77752,1,2,0:0:0:0:
264,184,77888,1,0,0:0:0:0:
264,184,78025,1,0,0:0:0:0:
264,184,78093,1,0,0:0:0:0:
256,184,78161,1,2,0:0:0:0:
256,180,78229,1,2,0:1:0:0:
260,180,78297,1,0,0:1:0:0:
260,180,78366,1,2,0:1:0:0:
260,180,78434,1,0,0:1:0:0:
260,184,78502,1,2,0:1:0:0:
260,180,78570,1,0,0:1:0:0:
256,180,78706,1,0,0:1:0:0:
256,180,78775,1,0,0:1:0:0:
256,180,78843,1,2,0:1:0:0:
252,188,78979,1,4,0:0:0:0:
256,192,79388,1,0,0:1:0:0:
256,192,79434,1,0,0:1:0:0:
256,192,79479,1,0,0:1:0:0:
256,196,79525,1,0,0:1:0:0:
256,196,79593,1,0,0:1:0:0:
264,196,79684,1,0,0:1:0:0:
268,192,79797,1,2,0:1:0:0:
264,188,80070,1,4,0:0:0:0:
260,192,80479,1,0,0:0:0:0:
260,192,80616,1,2,0:0:0:0:
260,192,80684,1,0,0:0:0:0:
260,192,80752,1,0,0:0:0:0:
260,192,80820,1,2,0:0:0:0:
272,192,80888,1,0,0:0:0:0:
272,192,81025,1,2,0:0:0:0:
272,192,81093,1,2,0:0:0:0:
272,192,81161,1,0,0:0:0:0:
260,192,81366,1,0,0:0:0:0:
260,192,81434,1,2,0:0:0:0:
260,192,81570,1,2,0:0:0:0:
260,192,81638,1,2,0:0:0:0:
260,192,81706,1,0,0:0:0:0:
260,192,81758,1,0,0:0:0:0:
256,192,81826,1,0,0:0:0:0:
256,192,81894,1,0,0:0:0:0:
272,192,81979,1,0,0:0:0:0:
264,188,82047,1,0,0:0:0:0:
264,188,82116,1,2,0:0:0:0:
260,192,82252,1,0,0:0:0:0:
260,192,82388,1,0,0:0:0:0:
260,192,82525,1,2,0:0:0:0:
260,192,82661,1,0,0:0:0:0:
260,192,82729,1,2,0:0:0:0:
260,184,82763,1,2,0:0:0:0:
260,184,82797,1,0,0:0:0:0:
260,184,82866,1,2,0:0:0:0:
260,184,82900,1,2,0:0:0:0:
260,184,82934,1,0,0:0:0:0:
260,184,83002,1,0,0:0:0:0:
248,184,83070,1,0,0:0:0:0:
248,184,83138,1,0,0:0:0:0:
248,184,83206,1,2,0:0:0:0:
252,192,83343,1,2,0:0:0:0:
252,192,83411,1,2,0:0:0:0:
252,192,83479,1,0,0:0:0:0:
264,196,83616,1,2,0:0:0:0:
264,192,83661,1,2,0:0:0:0:
264,192,83706,1,2,0:0:0:0:
264,192,83752,1,0,0:0:0:0:
244,188,83820,1,2,0:0:0:0:
248,196,83888,1,0,0:0:0:0:
248,196,83956,1,2,0:0:0:0:
248,200,84025,1,0,0:0:0:0:
248,200,84070,1,0,0:0:0:0:
248,200,84116,1,0,0:0:0:0:
248,200,84161,1,2,0:0:0:0:
248,184,84297,1,2,0:0:0:0:
248,184,84366,1,2,0:0:0:0:
248,188,84434,1,0,0:0:0:0:
264,192,84706,1,2,0:0:0:0:
248,196,84843,1,0,0:0:0:0:
248,196,84888,1,0,0:0:0:0:
248,192,84934,1,0,0:0:0:0:
248,184,84979,1,2,0:0:0:0:
248,184,85047,1,2,0:0:0:0:
248,184,85116,1,0,0:0:0:0:
248,188,85388,1,2,0:0:0:0:
248,200,85525,1,2,0:0:0:0:
248,200,85593,1,2,0:0:0:0:
248,200,85661,1,0,0:0:0:0:
248,200,85797,1,2,0:0:0:0:
252,200,85934,1,2,0:0:0:0:
252,204,86070,1,0,0:0:0:0:
252,204,86206,1,2,0:0:0:0:
252,204,86275,1,0,0:0:0:0:
256,204,86343,1,2,0:0:0:0:
256,204,86388,1,2,0:0:0:0:
256,204,86434,1,2,0:0:0:0:
268,196,86479,1,0,0:0:0:0:
268,196,86513,1,0,0:0:0:0:
268,196,86547,1,0,0:0:0:0:
268,196,86581,1,0,0:0:0:0:
268,196,86616,1,2,0:0:0:0:
268,192,86888,1,2,0:0:0:0:
268,192,87025,1,0,0:0:0:0:
268,192,87093,1,2,0:0:0:0:
268,192,87161,1,0,0:0:0:0:
268,192,87297,1,0,0:0:0:0:
268,196,87570,1,2,0:0:0:0:
256,192,87706,1,2,0:0:0:0:
256,192,87775,1,2,0:0:0:0:
256,192,87843,1,0,0:0:0:0:
256,192,87979,1,2,0:0:0:0:
256,192,88116,1,0,0:0:0:0:
252,188,88252,1,0,0:0:0:0:
252,192,88320,1,0,0:0:0:0:
256,188,88388,1,0,0:0:0:0:
256,184,88479,1,0,0:0:0:0:
256,184,88570,1,0,0:0:0:0:
256,184,88661,1,0,0:0:0:0:
248,188,88706,1,0,0:0:0:0:
248,188,88752,1,0,0:0:0:0:
252,188,88797,1,0,0:0:0:0:
256,192,88934,1,2,0:0:0:0:
256,192,89002,1,0,0:0:0:0:
256,184,89070,1,2,0:0:0:0:
256,180,89116,1,2,0:0:0:0:
256,180,89161,1,2,0:0:0:0:
256,180,89206,1,2,0:0:0:0:
264,180,89275,1,2,0:0:0:0:
244,180,89343,1,0,0:0:0:0:
264,180,89479,1,0,0:0:0:0:
264,180,89547,1,2,0:0:0:0:
264,180,89616,1,0,0:0:0:0:
264,180,89684,1,0,0:0:0:0:
264,180,89752,1,2,0:0:0:0:
256,192,89888,1,2,0:0:0:0:
256,192,89956,1,2,0:0:0:0:
256,192,90025,1,2,0:0:0:0:
256,192,90093,1,0,0:0:0:0:
256,192,90161,1,0,0:0:0:0:
256,192,90229,1,0,0:0:0:0:
256,192,90297,1,2,0:0:0:0:
240,184,90434,1,0,0:0:0:0:
248,192,90570,1,2,0:0:0:0:
256,192,90616,1,2,0:0:0:0:
248,192,90638,1,0,0:0:0:0:
248,192,90706,1,2,0:0:0:0:
256,192,90752,1,2,0:0:0:0:
256,192,90775,1,0,0:0:0:0:
248,192,90843,1,2,0:0:0:0:
252,196,90979,1,0,0:0:0:0:
256,192,91252,1,2,0:0:0:0:
252,196,91343,1,2,0:0:0:0:
256,200,91388,1,2,0:0:0:0:
256,200,91411,1,2,0:0:0:0:
256,200,91434,1,2,0:0:0:0:
256,200,91479,1,2,0:0:0:0:
256,200,91525,1,2,0:0:0:0:
256,204,91593,1,2,0:0:0:0:
256,200,91661,1,0,0:0:0:0:
248,196,91797,1,0,0:0:0:0:
256,184,91934,1,2,0:0:0:0:
256,184,92025,1,2,0:0:0:0:
256,184,92070,1,2,0:0:0:0:
264,184,92116,1,2,0:0:0:0:
264,184,92138,1,2,0:0:0:0:
264,184,92161,1,2,0:0:0:0:
264,184,92184,1,2,0:0:0:0:
256,192,92206,1,0,0:0:0:0:
256,192,92343,1,2,0:0:0:0:
264,184,92479,1,2,0:0:0:0:
264,184,92547,1,0,0:0:0:0:
264,184,92684,1,2,0:0:0:0:
264,184,92752,1,0,0:0:0:0:
272,172,92888,1,2,0:0:0:0:
272,180,92934,1,2,0:0:0:0:
256,184,92979,1,2,0:0:0:0:
268,184,93025,1,2,0:0:0:0:
268,184,93059,1,2,0:0:0:0:
264,184,93093,1,2,0:0:0:0:
264,184,93127,1,2,0:0:0:0:
264,192,93161,1,0,0:0:0:0:
264,192,93297,1,2,0:0:0:0:
264,192,93366,1,0,0:0:0:0:
264,192,93434,1,2,0:0:0:0:
264,192,93502,1,2,0:0:0:0:
264,192,93570,1,0,0:0:0:0:
264,196,93706,1,2,0:0:0:0:
264,196,93775,1,2,0:0:0:0:
264,196,93843,1,0,0:0:0:0:
264,196,93911,1,2,0:0:0:0:
264,196,93979,1,0,0:0:0:0:
264,196,94047,1,0,0:0:0:0:
264,196,94116,1,2,0:0:0:0:
256,192,94252,1,0,0:0:0:0:
256,192,94388,1,0,0:0:0:0:
260,188,94525,1,2,0:0:0:0:
264,196,94559,1,0,0:0:0:0:
264,196,94593,1,0,0:0:0:0:
264,196,94661,1,2,0:0:0:0:
252,192,94706,1,2,0:0:0:0:
268,196,94752,1,2,0:0:0:0:
264,200,94797,1,0,0:0:0:0:
268,188,94934,1,2,0:0:0:0:
268,184,95002,1,0,0:0:0:0:
268,188,95070,1,2,0:0:0:0:
268,188,95138,1,0,0:0:0:0:
272,192,95184,1,2,0:0:0:0:
272,192,95206,1,2,0:0:0:0:
272,192,95343,1,0,0:0:0:0:
268,184,95547,1,0,0:0:0:0:
284,184,95616,1,2,0:0:0:0:
284,184,95667,1,2,0:0:0:0:
284,184,95706,1,2,0:0:0:0:
280,192,95820,1,2,0:0:0:0:
268,188,95888,1,2,0:0:0:0:
272,188,95956,1,0,0:0:0:0:
268,188,96025,1,0,0:0:0:0:
264,184,96161,1,0,0:0:0:0:
264,184,96229,1,0,0:0:0:0:
264,184,96297,1,2,0:0:0:0:
256,184,96434,1,0,0:0:0:0:
256,184,96570,1,0,0:0:0:0:
272,196,96638,1,2,0:0:0:0:
272,192,96655,1,2,0:0:0:0:
260,180,96706,1,2,0:0:0:0:
268,200,96843,1,0,0:0:0:0:
268,196,96979,1,0,0:0:0:0:
268,196,97047,1,2,0:0:0:0:
268,196,97064,1,2,0:0:0:0:
268,200,97116,1,2,0:0:0:0:
260,192,97525,1,4,0:0:0:0:
260,192,97661,1,4,0:0:0:0:
260,192,97797,1,4,0:0:0:0:
260,192,97934,1,4,0:0:0:0:
260,192,98070,1,4,0:0:0:0:
260,192,98206,1,6,0:0:0:0:
260,192,98343,1,0,0:0:0:0:
260,192,98479,1,0,0:0:0:0:
268,192,98616,1,0,0:0:0:0:
272,192,98752,1,0,0:0:0:0:
272,192,98797,1,0,0:0:0:0:
272,192,98843,1,0,0:0:0:0:
272,192,98888,1,0,0:0:0:0:
272,192,98934,1,0,0:0:0:0:
272,192,98979,1,0,0:0:0:0:
272,192,99025,1,2,0:0:0:0:
260,192,99161,1,0,0:0:0:0:
260,192,99229,1,2,0:0:0:0:
260,192,99275,1,2,0:0:0:0:
260,192,99320,1,0,0:0:0:0:
260,192,99366,1,2,0:0:0:0:
260,192,99434,1,0,0:0:0:0:
260,192,99502,1,0,0:0:0:0:
260,192,99570,1,2,0:0:0:0:
264,192,99706,1,0,0:0:0:0:
268,192,99843,1,2,0:0:0:0:
268,192,99911,1,0,0:0:0:0:
268,192,100047,1,2,0:0:0:0:
268,192,100116,1,0,0:0:0:0:
268,192,100252,1,2,0:0:0:0:
268,192,100320,1,0,0:0:0:0:
276,196,100456,1,2,0:0:0:0:
276,196,100525,1,0,0:0:0:0:
272,200,100570,1,0,0:0:0:0:
272,196,100616,1,0,0:0:0:0:
272,196,100661,1,0,0:0:0:0:
276,184,100729,1,0,0:0:0:0:
272,196,100797,1,2,0:0:0:0:
280,192,100866,1,2,0:0:0:0:
280,192,100934,1,0,0:0:0:0:
280,192,101070,1,2,0:0:0:0:
280,188,101206,1,0,0:0:0:0:
280,188,101252,1,0,0:0:0:0:
280,188,101297,1,0,0:0:0:0:
280,188,101343,1,0,0:0:0:0:
280,188,101479,1,2,0:0:0:0:
280,188,101616,1,0,0:0:0:0:
280,192,101752,1,0,0:0:0:0:
288,200,101888,1,0,0:0:0:0:
288,200,101922,1,0,0:0:0:0:
288,200,101956,1,0,0:0:0:0:
288,200,102025,1,0,0:0:0:0:
288,200,102093,1,0,0:0:0:0:
284,180,102161,1,2,0:0:0:0:
284,184,102297,1,0,0:0:0:0:
272,192,102434,1,2,0:0:0:0:
272,192,102570,1,0,0:0:0:0:
272,192,102638,1,0,0:0:0:0:
272,192,102706,1,0,0:0:0:0:
272,192,102775,1,0,0:0:0:0:
272,192,102843,1,2,0:0:0:0:
256,196,102979,1,0,0:0:0:0:
276,184,103252,1,2,0:0:0:0:
276,184,103297,1,2,0:0:0:0:
276,184,103343,1,2,0:0:0:0:
276,184,103388,1,0,0:0:0:0:
276,184,103434,1,0,0:0:0:0:
276,184,103479,1,0,0:0:0:0:
276,184,103525,1,2,0:0:0:0:
248,192,103593,1,2,0:0:0:0:
248,192,103661,1,0,0:0:0:0:
248,192,103866,1,0,0:0:0:0:
248,192,103934,1,2,0:0:0:0:
256,196,104070,1,0,0:0:0:0:
256,196,104206,1,0,0:0:0:0:
256,196,104275,1,0,0:0:0:0:
256,196,104411,1,0,0:0:0:0:
256,196,104479,1,2,0:0:0:0:
256,192,104752,1,2,0:0:0:0:
256,192,104797,1,2,0:0:0:0:
256,192,104843,1,2,0:0:0:0:
256,192,104888,1,0,0:0:0:0:
260,188,104956,1,0,0:0:0:0:
260,188,105025,1,0,0:0:0:0:
260,188,105093,1,0,0:0:0:0:
256,188,105161,1,2,0:0:0:0:
256,188,105195,1,2,0:0:0:0:
256,188,105229,1,2,0:0:0:0:
256,188,105263,1,2,0:0:0:0:
264,192,105297,1,2,0:0:0:0:
264,192,105343,1,2,0:0:0:0:
264,192,105388,1,2,0:0:0:0:
256,192,105456,1,2,0:0:0:0:
248,176,105525,1,2,0:0:0:0:
252,176,105604,1,2,0:0:0:0:
256,192,105706,1,2,0:0:0:0:
256,192,105843,1,2,0:0:0:0:
248,188,105979,1,2,0:0:0:0:
248,184,106116,1,2,0:0:0:0:
248,184,106252,1,4,0:0:0:0:
248,184,107070,1,2,0:0:0:0:
260,192,109797,1,2,0:0:0:0:
260,192,110070,1,2,0:0:0:0:
260,192,110343,1,0,0:0:0:0:
252,196,113616,1,0,0:0:0:0:
252,196,113888,1,2,0:0:0:0:
252,196,114297,1,2,0:0:0:0:
252,196,114434,1,2,0:0:0:0:
252,196,114570,1,0,0:0:0:0:
252,196,114706,1,2,0:0:0:0:
252,196,114979,1,2,0:0:0:0:
252,196,115797,1,0,0:0:0:0:
252,196,116206,1,0,0:0:0:0:
252,196,116343,1,2,0:0:0:0:
248,188,116616,1,0,0:0:0:0:
248,188,116752,1,2,0:0:0:0:
248,188,116888,1,2,0:0:0:0:
252,196,117025,1,2,0:0:0:0:
252,188,117161,1,0,0:0:0:0:
252,188,117297,1,0,0:0:0:0:
248,188,117434,1,2,0:0:0:0:
248,184,117570,1,0,0:0:0:0:
244,172,117638,1,2,0:0:0:0:
244,172,117775,1,2,0:0:0:0:
244,172,117843,1,0,0:0:0:0:
264,196,118116,1,2,0:0:0:0:
264,196,118252,1,2,0:0:0:0:
256,184,118388,1,2,0:0:0:0:
264,188,118525,1,0,0:0:0:0:
252,184,118661,1,2,0:0:0:0:
252,184,118729,1,0,0:0:0:0:
252,184,118866,1,2,0:0:0:0:
252,184,118934,1,0,0:0:0:0:
256,176,119070,1,2,0:0:0:0:
256,176,119206,1,0,0:0:0:0:
256,176,119275,1,0,0:0:0:0:
256,176,119343,1,0,0:0:0:0:
256,192,119479,1,0,0:0:0:0:
256,192,119616,1,2,0:0:0:0:
248,176,119752,1,0,0:0:0:0:
248,176,119820,1,2,0:0:0:0:
248,180,119956,1,2,0:0:0:0:
256,188,120025,1,0,0:0:0:0:
248,180,120161,1,0,0:0:0:0:
248,180,120229,1,0,0:0:0:0:
248,180,120297,1,2,0:0:0:0:
256,180,120366,1,0,0:0:0:0:
256,180,120434,1,2,0:0:0:0:
256,180,120502,1,2,0:0:0:0:
256,180,120570,1,0,0:0:0:0:
264,176,120706,1,2,0:0:0:0:
264,176,120843,1,2,0:0:0:0:
264,176,120979,1,0,0:0:0:0:
256,176,121116,1,2,0:0:0:0:
256,176,121184,1,0,0:0:0:0:
256,176,121252,1,2,0:0:0:0:
256,180,121320,1,2,0:0:0:0:
256,172,121456,1,2,0:0:0:0:
256,172,121525,1,0,0:0:0:0:
260,184,121661,1,0,0:0:0:0:
260,184,121797,1,2,0:0:0:0:
260,184,121934,1,0,0:0:0:0:
260,184,122002,1,2,0:0:0:0:
260,184,122070,1,0,0:0:0:0:
260,184,122138,1,2,0:0:0:0:
260,184,122206,1,0,0:0:0:0:
256,184,122343,1,0,0:0:0:0:
260,184,122479,1,2,0:0:0:0:
256,192,122616,12,0,123570,0:0:0:0:
252,192,123706,5,4,0:0:0:0:
252,192,123911,1,2,0:0:0:0:
252,192,123979,1,0,0:0:0:0:
252,192,124047,1,2,0:0:0:0:
252,192,124116,1,2,0:0:0:0:
260,184,124252,1,0,0:0:0:0:
260,184,124320,1,0,0:0:0:0:
260,184,124456,1,2,0:0:0:0:
260,184,124525,1,0,0:0:0:0:
260,184,124661,1,2,0:0:0:0:
264,188,124797,1,0,0:0:0:0:
268,188,124934,1,0,0:0:0:0:
268,188,124979,1,0,0:0:0:0:
268,188,125025,1,0,0:0:0:0:
268,188,125070,1,0,0:0:0:0:
268,192,125138,1,0,0:0:0:0:
268,188,125206,1,2,0:0:0:0:
268,188,125343,1,0,0:0:0:0:
260,184,125479,1,2,0:0:0:0:
260,184,125513,1,2,0:0:0:0:
260,184,125547,1,0,0:0:0:0:
272,176,125616,1,2,0:0:0:0:
272,180,125661,1,2,0:0:0:0:
272,180,125706,1,0,0:0:0:0:
272,180,125752,1,2,0:0:0:0:
256,184,125888,1,0,0:0:0:0:
256,184,126161,1,2,0:0:0:0:
256,184,126297,1,0,0:0:0:0:
260,184,126366,1,2,0:0:0:0:
260,184,126434,1,0,0:0:0:0:
260,184,126502,1,2,0:0:0:0:
256,184,126570,1,0,0:0:0:0:
256,180,126706,1,0,0:0:0:0:
256,184,126775,1,0,0:0:0:0:
256,188,126843,1,2,0:0:0:0:
256,184,126979,1,2,0:0:0:0:
256,184,127047,1,2,0:0:0:0:
256,184,127116,1,2,0:0:0:0:
248,184,127252,1,0,0:0:0:0:
252,180,127525,1,2,0:0:0:0:
252,180,127570,1,2,0:0:0:0:
252,180,127616,1,2,0:0:0:0:
256,184,127729,1,2,0:0:0:0:
248,184,127797,1,0,0:0:0:0:
248,184,127843,1,2,0:0:0:0:
248,184,127888,1,2,0:0:0:0:
248,184,127934,1,2,0:0:0:0:
256,184,128002,1,2,0:0:0:0:
248,184,128070,1,0,0:0:0:0:
256,180,128206,1,2,0:0:0:0:
256,180,128275,1,0,0:0:0:0:
256,180,128343,1,2,0:0:0:0:
256,180,128411,1,2,0:0:0:0:
256,180,128479,1,0,0:0:0:0:
264,180,128547,1,0,0:0:0:0:
264,180,128616,1,2,0:0:0:0:
264,180,128684,1,2,0:0:0:0:
264,180,128752,1,0,0:0:0:0:
264,180,128820,1,2,0:0:0:0:
264,180,128888,1,0,0:0:0:0:
264,180,128956,1,0,0:0:0:0:
264,184,129025,1,2,0:0:0:0:
264,192,129161,1,0,0:0:0:0:
264,192,129206,1,0,0:0:0:0:
264,192,129252,1,0,0:0:0:0:
264,192,129297,1,0,0:0:0:0:
264,192,129343,1,0,0:0:0:0:
264,192,129388,1,0,0:0:0:0:
264,192,129434,1,2,0:0:0:0:
260,192,129502,1,2,0:0:0:0:
260,192,129536,1,2,0:0:0:0:
260,192,129570,1,2,0:0:0:0:
264,188,129616,1,2,0:0:0:0:
264,188,129661,1,2,0:0:0:0:
256,188,129706,1,0,0:0:0:0:
252,192,129843,1,2,0:0:0:0:
252,192,129866,1,2,0:0:0:0:
248,192,129911,1,0,0:0:0:0:
252,192,129979,1,2,0:0:0:0:
252,192,130002,1,2,0:0:0:0:
248,192,130047,1,0,0:0:0:0:
252,188,130116,1,2,0:0:0:0:
248,184,130252,1,0,0:0:0:0:
248,184,130456,1,0,0:0:0:0:
248,184,130525,1,2,0:0:0:0:
256,188,130661,1,2,0:0:0:0:
256,184,130729,1,2,0:0:0:0:
260,188,130797,1,2,0:0:0:0:
256,180,130934,1,2,0:0:0:0:
256,184,131070,1,0,0:0:0:0:
256,184,131206,1,2,0:0:0:0:
256,188,131275,1,0,0:0:0:0:
256,188,131343,1,2,0:0:0:0:
252,192,131718,1,2,0:0:0:0:
252,192,131752,1,2,0:0:0:0:
264,188,131797,1,2,0:0:0:0:
264,188,131843,1,2,0:0:0:0:
256,188,131888,1,2,0:0:0:0:
260,188,131956,1,2,0:0:0:0:
260,192,132025,1,2,0:0:0:0:
260,192,132093,1,2,0:0:0:0:
256,184,132161,1,0,0:0:0:0:
260,200,132297,1,0,0:0:0:0:
260,188,132434,1,4,0:0:0:0:
260,188,132638,1,0,0:0:0:0:
260,188,132706,1,2,0:0:0:0:
264,188,132775,1,2,0:0:0:0:
256,188,132843,1,2,0:0:0:0:
260,180,132979,1,0,0:0:0:0:
260,184,133047,1,0,0:0:0:0:
260,184,133184,1,2,0:0:0:0:
260,184,133252,1,0,0:0:0:0:
260,184,133388,1,2,0:0:0:0:
256,180,133525,1,0,0:0:0:0:
256,180,133593,1,2,0:0:0:0:
256,180,133661,1,0,0:0:0:0:
256,180,133729,1,0,0:0:0:0:
252,180,133797,1,2,0:0:0:0:
252,180,133866,1,0,0:0:0:0:
252,180,133934,1,2,0:0:0:0:
244,176,134002,1,2,0:0:0:0:
244,176,134047,1,2,0:0:0:0:
244,176,134093,1,2,0:0:0:0:
244,176,134138,1,0,0:0:0:0:
244,176,134206,1,2,0:0:0:0:
244,176,134241,1,2,0:0:0:0:
244,176,134275,1,0,0:0:0:0:
256,176,134343,1,2,0:0:0:0:
256,180,134388,1,2,0:0:0:0:
256,180,134434,1,0,0:0:0:0:
256,180,134479,1,2,0:0:0:0:
256,180,134616,1,0,0:0:0:0:
256,184,134888,1,2,0:0:0:0:
256,184,135025,1,0,0:0:0:0:
256,184,135093,1,2,0:0:0:0:
256,184,135161,1,0,0:0:0:0:
256,184,135229,1,2,0:0:0:0:
256,184,135297,1,0,0:0:0:0:
256,180,135434,1,0,0:0:0:0:
256,180,135502,1,0,0:0:0:0:
256,180,135570,1,2,0:0:0:0:
256,184,135706,1,2,0:0:0:0:
256,176,135775,1,2,0:0:0:0:
256,184,135843,1,2,0:0:0:0:
252,180,135979,1,2,0:0:0:0:
252,180,136116,1,0,0:0:0:0:
252,180,136184,1,2,0:0:0:0:
256,184,136252,1,0,0:0:0:0:
260,188,136388,1,2,0:0:0:0:
260,188,136422,1,2,0:0:0:0:
260,188,136456,1,2,0:0:0:0:
260,188,136491,1,2,0:0:0:0:
260,188,136525,1,0,0:0:0:0:
260,188,136661,1,0,0:0:0:0:
260,188,136695,1,2,0:0:0:0:
260,188,136729,1,2,0:0:0:0:
260,188,136763,1,2,0:0:0:0:
256,188,136797,1,0,0:0:0:0:
264,184,136934,1,0,0:0:0:0:
264,184,137002,1,0,0:0:0:0:
264,188,137070,1,2,0:0:0:0:
264,188,137104,1,2,0:0:0:0:
264,184,137138,1,2,0:0:0:0:
264,184,137172,1,2,0:0:0:0:
268,180,137206,1,2,0:0:0:0:
264,196,137252,1,2,0:0:0:0:
264,192,137297,1,2,0:0:0:0:
268,180,137343,1,2,0:0:0:0:
264,176,137411,1,0,0:0:0:0:
272,184,137479,1,0,0:0:0:0:
272,184,137616,1,0,0:0:0:0:
272,184,137752,1,2,0:0:0:0:
256,192,137888,1,0,0:0:0:0:
256,192,137956,1,2,0:0:0:0:
256,192,138025,1,2,0:0:0:0:
256,192,138093,1,0,0:0:0:0:
256,192,138161,1,2,0:0:0:0:
256,184,138229,1,0,0:0:0:0:
256,192,138297,1,0,0:0:0:0:
256,184,138434,1,0,0:0:0:0:
252,180,138570,1,2,0:0:0:0:
252,180,138604,1,2,0:0:0:0:
252,180,138638,1,0,0:0:0:0:
252,180,138706,1,2,0:0:0:0:
252,180,138775,1,0,0:0:0:0:
252,180,138843,1,2,0:0:0:0:
260,188,138979,1,0,0:0:0:0:
260,188,139047,1,0,0:0:0:0:
260,188,139116,1,0,0:0:0:0:
256,184,139184,1,0,0:0:0:0:
260,184,139252,1,2,0:0:0:0:
260,188,139320,1,0,0:0:0:0:
256,184,139388,1,0,0:0:0:0:
256,176,139456,1,2,0:0:0:0:
256,180,139525,1,2,0:0:0:0:
256,180,139593,1,2,0:0:0:0:
256,180,139661,1,0,0:0:0:0:
260,176,139729,1,0,0:0:0:0:
260,176,139797,1,2,0:0:0:0:
260,176,139866,1,2,0:0:0:0:
260,176,139934,1,0,0:0:0:0:
260,176,140002,1,2,0:0:0:0:
264,176,140070,1,0,0:0:0:0:
264,180,140138,1,0,0:0:0:0:
268,180,140206,1,0,0:0:0:0:
268,180,140275,1,0,0:0:0:0:
268,176,140343,1,2,0:0:0:0:
268,176,140411,1,2,0:0:0:0:
276,184,140479,1,0,0:0:0:0:
272,180,140547,1,0,0:0:0:0:
268,188,140616,1,2,0:0:0:0:
268,188,140684,1,0,0:0:0:0:
268,188,140752,1,2,0:0:0:0:
268,188,140820,1,2,0:0:0:0:
268,188,140888,1,0,0:0:0:0:
268,188,140956,1,2,0:0:0:0:
268,188,141025,1,2,0:0:0:0:
268,188,141093,1,2,0:0:0:0:
268,188,141161,1,0,0:0:0:0:
260,192,141979,1,2,0:0:0:0:
260,192,142116,1,0,0:0:0:0:
260,192,143070,1,2,0:0:0:0:
260,192,143206,1,2,0:0:0:0:
256,192,143343,1,0,0:0:0:0:
256,192,143752,1,0,0:0:0:0:
260,200,144161,1,2,0:0:0:0:
260,200,144297,1,0,0:0:0:0:
260,200,145252,1,0,0:0:0:0:
260,200,145388,1,2,0:0:0:0:
260,192,145525,1,0,0:0:0:0:
260,192,145934,1,0,0:0:0:0:
252,188,147161,1,0,0:0:0:0:
252,188,147706,1,2,0:0:0:0:
252,188,148116,1,2,0:0:0:0:
252,188,148797,1,2,0:0:0:0:
248,188,149888,1,0,0:0:0:0:
248,188,150297,1,0,0:0:0:0:
252,192,150706,1,2,0:0:0:0:
252,192,150843,1,0,0:0:0:0:
252,192,151797,1,2,0:0:0:0:
252,192,151934,1,2,0:0:0:0:
252,192,152070,1,0,0:0:0:0:
252,192,152479,1,0,0:0:0:0:
244,184,152888,1,2,0:0:0:0:
244,188,153025,1,0,0:0:0:0:
244,188,153979,1,0,0:0:0:0:
244,188,154116,1,2,0:0:0:0:
248,192,154252,1,0,0:0:0:0:
260,192,154661,1,0,0:0:0:0:
252,192,155888,1,0,0:0:0:0:
248,188,156434,1,2,0:0:0:0:
248,192,156843,1,2,0:0:0:0:
248,188,157161,1,2,0:0:0:0:
248,188,157343,1,2,0:0:0:0:
248,192,157525,1,0,0:0:0:0:
260,196,158252,1,0,0:0:0:0:
260,196,158434,1,0,0:0:0:0:
260,196,158616,1,2,0:0:0:0:
260,196,159025,1,2,0:0:0:0:
256,188,160070,1,0,0:0:0:0:
252,184,160434,1,0,0:0:0:0:
252,192,160797,1,2,0:0:0:0:
252,192,161206,1,2,0:0:0:0:
268,192,162252,1,2,0:0:0:0:
268,192,162616,1,2,0:0:0:0:
268,192,162979,1,0,0:0:0:0:
272,192,163388,1,0,0:0:0:0:
252,188,164434,1,0,0:0:0:0:
252,188,164797,1,2,0:0:0:0:
252,188,165161,1,0,0:0:0:0:
256,196,166252,1,0,0:0:0:0:
256,196,166797,1,2,0:0:0:0:
256,196,167343,1,4,0:0:0:0:
256,196,167752,1,0,0:0:0:0:
244,192,168797,1,0,0:0:0:0:
244,192,169161,1,0,0:0:0:0:
244,192,169525,1,2,0:0:0:0:
252,192,169934,1,2,0:0:0:0:
256,188,170343,1,2,0:0:0:0:
256,188,170479,1,0,0:0:0:0:
252,192,170616,1,0,0:0:0:0:
252,192,170684,1,0,0:0:0:0:
252,192,170752,1,0,0:0:0:0:
252,180,170979,1,2,0:0:0:0:
248,188,171343,1,2,0:0:0:0:
256,192,171706,1,0,0:0:0:0:
248,188,171979,1,2,0:0:0:0:
256,188,172116,1,0,0:0:0:0:
256,192,172388,1,2,0:0:0:0:
256,192,172456,1,2,0:0:0:0:
256,192,172525,1,0,0:0:0:0:
256,192,172661,1,2,0:0:0:0:
256,192,172797,1,0,0:0:0:0:
256,192,172934,1,2,0:0:0:0:
256,188,173002,1,0,0:0:0:0:
256,192,173070,1,0,0:0:0:0:
256,192,173206,1,2,0:0:0:0:
256,192,173343,1,0,0:0:0:0:
256,192,173479,1,2,0:0:0:0:
256,192,173547,1,2,0:0:0:0:
256,192,173616,1,2,0:0:0:0:
256,192,173752,1,2,0:0:0:0:
256,192,173888,1,0,0:0:0:0:
256,192,174025,1,2,0:0:0:0:
256,196,174093,1,2,0:0:0:0:
256,196,174161,1,0,0:0:0:0:
256,196,174297,1,2,0:0:0:0:
256,196,174366,1,2,0:0:0:0:
256,196,174434,1,0,0:0:0:0:
256,192,174570,1,2,0:0:0:0:
256,192,174638,1,0,0:0:0:0:
256,192,174706,1,0,0:0:0:0:
256,192,174843,1,2,0:0:0:0:
264,192,174979,1,0,0:0:0:0:
264,192,175047,1,0,0:0:0:0:
264,192,175116,1,2,0:0:0:0:
268,196,175184,1,0,0:0:0:0:
264,192,175252,1,2,0:0:0:0:
264,192,175320,1,2,0:0:0:0:
264,192,175388,1,0,0:0:0:0:
264,188,175456,1,0,0:0:0:0:
264,192,175525,1,2,0:0:0:0:
264,192,175593,1,2,0:0:0:0:
264,188,175661,1,2,0:0:0:0:
264,192,175729,1,0,0:0:0:0:
264,192,175797,1,2,0:0:0:0:
256,192,176343,1,2,0:0:0:0:
264,192,176434,1,2,0:0:0:0:
260,192,176525,1,2,0:0:0:0:
260,192,176616,1,0,0:0:0:0:
260,192,176706,1,0,0:0:0:0:
256,192,176797,1,0,0:0:0:0:
252,192,176888,1,2,0:0:0:0:
252,192,176956,1,2,0:0:0:0:
252,192,177025,1,2,0:0:0:0:
252,192,177093,1,0,0:0:0:0:
252,192,177161,1,2,0:0:0:0:
252,192,177229,1,2,0:0:0:0:
252,192,177297,1,0,0:0:0:0:
256,188,177366,1,2,0:0:0:0:
256,188,177434,1,0,0:0:0:0:
256,192,177502,1,0,0:0:0:0:
256,188,177570,1,2,0:0:0:0:
256,188,177638,1,0,0:0:0:0:
256,192,177706,1,2,0:0:0:0:
252,192,177775,1,2,0:0:0:0:
252,192,177843,1,2,0:0:0:0:
256,196,177911,1,0,0:0:0:0:
256,196,177979,1,2,0:0:0:0:
252,192,178252,1,4,0:0:0:0:
256,192,178525,1,2,0:0:0:0:
256,192,178661,1,2,0:0:0:0:
252,192,178729,1,0,0:0:0:0:
252,192,178797,1,2,0:0:0:0:
256,188,178866,1,2,0:0:0:0:
256,188,178934,1,0,0:0:0:0:
256,188,179070,1,0,0:0:0:0:
264,192,179138,1,0,0:0:0:0:
256,188,179206,1,2,0:0:0:0:
260,192,179343,1,0,0:0:0:0:
256,192,179479,1,0,0:0:0:0:
256,196,179547,1,0,0:0:0:0:
256,192,179616,1,2,0:0:0:0:
260,196,179684,1,0,0:0:0:0:
260,196,179752,1,2,0:0:0:0:
260,196,179820,1,2,0:0:0:0:
256,196,179888,1,0,0:0:0:0:
256,188,180025,1,0,0:0:0:0:
256,192,180093,1,0,0:0:0:0:
256,188,180161,1,2,0:0:0:0:
260,192,180297,1,0,0:0:0:0:
248,188,180434,1,0,0:0:0:0:
240,176,180706,1,2,0:0:0:0:
248,184,180843,1,2,0:0:0:0:
248,184,180911,1,0,0:0:0:0:
248,184,180979,1,2,0:0:0:0:
248,184,181047,1,2,0:0:0:0:
248,184,181116,1,0,0:0:0:0:
248,188,181252,1,0,0:0:0:0:
248,188,181388,1,2,0:0:0:0:
256,196,181525,1,2,0:0:0:0:
264,192,181559,1,2,0:0:0:0:
264,192,181593,1,0,0:0:0:0:
268,192,181661,1,0,0:0:0:0:
256,216,181797,1,2,0:0:0:0:
272,192,181934,1,0,0:0:0:0:
272,192,182002,1,2,0:0:0:0:
272,192,182070,1,0,0:0:0:0:
272,200,182206,1,0,0:0:0:0:
272,200,182275,1,0,0:0:0:0:
276,200,182343,1,2,0:0:0:0:
276,200,182411,1,2,0:0:0:0:
276,200,182479,1,2,0:0:0:0:
276,200,182547,1,2,0:0:0:0:
276,200,182616,1,0,0:0:0:0:
256,192,182752,1,0,0:0:0:0:
260,196,182820,1,0,0:0:0:0:
256,192,182888,1,2,0:0:0:0:
256,200,182956,1,0,0:0:0:0:
256,200,183025,1,2,0:0:0:0:
256,204,183161,1,2,0:0:0:0:
256,204,183229,1,0,0:0:0:0:
256,204,183297,1,2,0:0:0:0:
256,204,183366,1,2,0:0:0:0:
256,204,183434,1,0,0:0:0:0:
256,204,183570,1,2,0:0:0:0:
256,196,183706,1,2,0:0:0:0:
256,196,183775,1,2,0:0:0:0:
256,196,183843,1,0,0:0:0:0:
256,200,183979,1,0,0:0:0:0:
256,196,184116,1,2,0:0:0:0:
264,200,184184,1,0,0:0:0:0:
264,200,184252,1,2,0:0:0:0:
264,200,184320,1,2,0:0:0:0:
264,200,184388,1,0,0:0:0:0:
264,200,184456,1,0,0:0:0:0:
260,200,184525,1,0,0:0:0:0:
256,196,184593,1,2,0:0:0:0:
256,196,184661,1,0,0:0:0:0:
260,200,184797,1,0,0:0:0:0:
260,200,184934,1,0,0:0:0:0:
260,200,185002,1,0,0:0:0:0:
260,200,185070,1,2,0:0:0:0:
264,200,185138,1,2,0:0:0:0:
264,200,185206,1,0,0:0:0:0:
264,200,185275,1,2,0:0:0:0:
264,200,185343,1,0,0:0:0:0:
252,200,185479,1,0,0:0:0:0:
256,196,185547,1,2,0:0:0:0:
252,200,185616,1,0,0:0:0:0:
252,200,185684,1,0,0:0:0:0:
252,200,185752,1,2,0:0:0:0:
256,192,185888,1,2,0:0:0:0:
256,192,185956,1,2,0:0:0:0:
256,192,186025,1,0,0:0:0:0:
248,192,186161,1,2,0:0:0:0:
252,192,186297,1,0,0:0:0:0:
252,200,186434,1,0,0:0:0:0:
252,196,186502,1,0,0:0:0:0:
252,200,186570,1,2,0:0:0:0:
252,200,186638,1,0,0:0:0:0:
252,200,186706,1,2,0:0:0:0:
252,196,186775,1,2,0:0:0:0:
252,196,186843,1,0,0:0:0:0:
252,196,186911,1,0,0:0:0:0:
256,192,186979,1,2,0:0:0:0:
252,192,187025,1,2,0:0:0:0:
252,192,187070,1,2,0:0:0:0:
252,192,187116,1,0,0:0:0:0:
256,204,187184,1,0,0:0:0:0:
252,192,187252,1,2,0:0:0:0:
260,200,187388,1,2,0:0:0:0:
260,200,187456,1,0,0:0:0:0:
260,200,187525,1,2,0:0:0:0:
264,204,187593,1,2,0:0:0:0:
260,200,187729,1,2,0:0:0:0:
260,200,187797,1,0,0:0:0:0:
260,200,187934,1,0,0:0:0:0:
260,200,188002,1,0,0:0:0:0:
260,200,188070,1,0,0:0:0:0:
260,200,188206,1,0,0:0:0:0:
260,200,188275,1,0,0:0:0:0:
260,200,188343,1,2,0:0:0:0:
260,200,188411,1,0,0:0:0:0:
260,200,188479,1,2,0:0:0:0:
264,204,188547,1,2,0:0:0:0:
264,204,188616,1,0,0:0:0:0:
264,204,188752,1,2,0:0:0:0:
264,204,188820,1,0,0:0:0:0:
264,204,188888,1,2,0:0:0:0:
264,208,188956,1,0,0:0:0:0:
264,208,189025,1,2,0:0:0:0:
256,208,189161,1,0,0:0:0:0:
260,216,189297,1,0,0:0:0:0:
260,216,189366,1,0,0:0:0:0:
260,216,189434,1,2,0:0:0:0:
260,216,189570,1,2,0:0:0:0:
260,216,189638,1,0,0:0:0:0:
260,216,189706,1,2,0:0:0:0:
260,216,189775,1,2,0:0:0:0:
260,216,189843,1,0,0:0:0:0:
276,204,189911,1,0,0:0:0:0:
260,216,189979,1,0,0:0:0:0:
260,216,190116,1,2,0:0:0:0:
260,216,190252,1,2,0:0:0:0:
260,216,190320,1,2,0:0:0:0:
260,216,190388,1,0,0:0:0:0:
264,212,190525,1,2,0:0:0:0:
268,212,190661,1,2,0:0:0:0:
268,212,190729,1,0,0:0:0:0:
268,212,190866,1,2,0:0:0:0:
268,212,190934,1,0,0:0:0:0:
272,208,191002,1,2,0:0:0:0:
272,208,191070,1,0,0:0:0:0:
276,208,191138,1,2,0:0:0:0:
272,208,191206,1,2,0:0:0:0:
276,208,191275,1,0,0:0:0:0:
272,200,191343,1,0,0:0:0:0:
272,200,191411,1,2,0:0:0:0:
272,200,191479,1,2,0:0:0:0:
272,200,191547,1,0,0:0:0:0:
272,200,191616,1,2,0:0:0:0:
272,200,191752,1,0,0:0:0:0:
272,200,191820,1,2,0:0:0:0:
272,200,191956,1,2,0:0:0:0:
272,208,192025,1,0,0:0:0:0:
276,200,192161,1,0,0:0:0:0:
276,200,192229,1,2,0:0:0:0:
280,200,192297,1,2,0:0:0:0:
272,200,192434,1,2,0:0:0:0:
272,200,192502,1,2,0:0:0:0:
272,200,192570,1,0,0:0:0:0:
272,200,192706,1,2,0:0:0:0:
272,200,192843,1,2,0:0:0:0:
252,192,192979,1,0,0:0:0:0:
252,192,193047,1,2,0:0:0:0:
252,192,193116,1,0,0:0:0:0:
256,192,193184,1,2,0:0:0:0:
256,192,193252,1,2,0:0:0:0:
256,192,193320,1,0,0:0:0:0:
256,192,193388,1,2,0:0:0:0:
272,184,193456,1,2,0:0:0:0:
248,180,193525,1,0,0:0:0:0:
248,180,193593,1,0,0:0:0:0:
264,192,193661,1,0,0:0:0:0:
264,192,193729,1,0,0:0:0:0:
264,192,193797,1,2,0:0:0:0:
252,192,193934,1,2,0:0:0:0:
252,192,194002,1,0,0:0:0:0:
252,192,194070,1,2,0:0:0:0:
256,192,194138,1,2,0:0:0:0:
256,192,194206,1,0,0:0:0:0:
256,192,194275,1,2,0:0:0:0:
256,192,194343,1,0,0:0:0:0:
252,192,194411,1,0,0:0:0:0:
252,192,194479,1,2,0:0:0:0:
260,196,194616,1,2,0:0:0:0:
248,180,194650,1,2,0:0:0:0:
248,180,194684,1,0,0:0:0:0:
260,196,194752,1,0,0:0:0:0:
260,196,194820,1,2,0:0:0:0:
248,180,194854,1,2,0:0:0:0:
260,196,194888,1,0,0:0:0:0:
264,196,194956,1,0,0:0:0:0:
264,196,195025,1,2,0:0:0:0:
264,196,195093,1,2,0:0:0:0:
272,192,195161,1,0,0:0:0:0:
272,192,195206,1,0,0:0:0:0:
272,192,195252,1,0,0:0:0:0:
272,192,195297,1,0,0:0:0:0:
264,184,195366,1,0,0:0:0:0:
264,184,195434,1,2,0:0:0:0:
264,184,195502,1,2,0:0:0:0:
264,184,195570,1,0,0:0:0:0:
264,184,195638,1,0,0:0:0:0:
264,188,195706,1,0,0:0:0:0:
264,188,196116,1,2,0:0:0:0:
256,188,196252,1,2,0:0:0:0:
256,188,196320,1,2,0:0:0:0:
256,188,196388,1,0,0:0:0:0:
256,188,196456,1,2,0:0:0:0:
256,188,196525,1,0,0:0:0:0:
264,184,196661,1,0,0:0:0:0:
264,184,196729,1,0,0:0:0:0:
264,184,196797,1,2,0:0:0:0:
260,180,197206,1,2,0:0:0:0:
260,180,197252,1,2,0:0:0:0:
260,180,197297,1,2,0:0:0:0:
260,180,197343,1,0,0:0:0:0:
248,176,197411,1,0,0:0:0:0:
248,176,197479,1,2,0:0:0:0:
248,176,197547,1,0,0:0:0:0:
248,176,197616,1,2,0:0:0:0:
248,176,197684,1,0,0:0:0:0:
248,176,197752,1,2,0:0:0:0:
256,184,197888,1,0,0:0:0:0:
256,184,198161,1,2,0:0:0:0:
256,184,198297,1,2,0:0:0:0:
256,184,198366,1,0,0:0:0:0:
256,184,198434,1,2,0:0:0:0:
256,184,198502,1,2,0:0:0:0:
256,184,198570,1,0,0:0:0:0:
256,184,198706,1,0,0:0:0:0:
256,184,198775,1,0,0:0:0:0:
256,184,198843,1,2,0:0:0:0:
256,192,198979,1,2,0:0:0:0:
256,192,199013,1,2,0:0:0:0:
256,192,199047,1,0,0:0:0:0:
256,192,199116,1,0,0:0:0:0:
256,192,199252,1,2,0:0:0:0:
256,192,199388,1,0,0:0:0:0:
256,192,199456,1,0,0:0:0:0:
256,192,199525,1,0,0:0:0:0:
256,192,199593,1,0,0:0:0:0:
256,192,199661,1,0,0:0:0:0:
260,200,199797,1,2,0:0:0:0:
260,200,199866,1,0,0:0:0:0:
260,200,199934,1,2,0:0:0:0:
260,200,200002,1,2,0:0:0:0:
260,200,200070,1,0,0:0:0:0:
272,204,200206,1,0,0:0:0:0:
272,204,200275,1,0,0:0:0:0:
272,204,200343,1,2,0:0:0:0:
272,204,200411,1,2,0:0:0:0:
272,200,200479,1,0,0:0:0:0:
272,200,200525,1,0,0:0:0:0:
272,200,200570,1,0,0:0:0:0:
272,200,200616,1,0,0:0:0:0:
260,200,200752,1,2,0:0:0:0:
260,200,200820,1,2,0:0:0:0:
260,200,200888,1,0,0:0:0:0:
260,200,200956,1,0,0:0:0:0:
260,200,201025,1,2,0:0:0:0:
252,188,201161,1,0,0:0:0:0:
252,188,201297,1,0,0:0:0:0:
252,188,201366,1,0,0:0:0:0:
256,196,201434,1,2,0:0:0:0:
256,196,201479,1,2,0:0:0:0:
256,196,201525,1,2,0:0:0:0:
256,196,201570,1,2,0:0:0:0:
256,188,201638,1,2,0:0:0:0:
256,188,201706,1,0,0:0:0:0:
256,188,201775,1,0,0:0:0:0:
256,188,201843,1,2,0:0:0:0:
256,188,201911,1,0,0:0:0:0:
256,188,201979,1,2,0:0:0:0:
252,188,202047,1,0,0:0:0:0:
252,188,202116,1,2,0:0:0:0:
256,184,202252,1,0,0:0:0:0:
256,184,202456,1,0,0:0:0:0:
256,184,202525,1,2,0:0:0:0:
264,192,202661,1,2,0:0:0:0:
264,184,202729,1,2,0:0:0:0:
268,188,202797,1,0,0:0:0:0:
264,184,202866,1,2,0:0:0:0:
264,184,202934,1,0,0:0:0:0:
268,188,203002,1,0,0:0:0:0:
264,184,203070,1,0,0:0:0:0:
264,184,203138,1,0,0:0:0:0:
264,184,203206,1,2,0:0:0:0:
256,176,203343,1,0,0:0:0:0:
256,176,203479,1,0,0:0:0:0:
256,176,203547,1,0,0:0:0:0:
256,176,203616,1,2,0:0:0:0:
256,176,203752,1,0,0:0:0:0:
256,176,203820,1,2,0:0:0:0:
264,176,203888,1,2,0:0:0:0:
264,176,203956,1,0,0:0:0:0:
264,176,204025,1,0,0:0:0:0:
264,176,204093,1,2,0:0:0:0:
264,176,204161,1,0,0:0:0:0:
264,176,204229,1,2,0:0:0:0:
264,176,204297,1,2,0:0:0:0:
264,176,204366,1,0,0:0:0:0:
264,176,204434,1,0,0:0:0:0:
248,188,204843,1,2,0:0:0:0:
252,188,204911,1,0,0:0:0:0:
252,188,204979,1,2,0:0:0:0:
248,188,205047,1,2,0:0:0:0:
248,188,205116,1,0,0:0:0:0:
248,188,205252,1,0,0:0:0:0:
252,188,205320,1,2,0:0:0:0:
252,188,205388,1,2,0:0:0:0:
252,188,205456,1,0,0:0:0:0:
252,188,205525,1,0,0:0:0:0:
260,188,205661,1,0,0:0:0:0:
260,188,205706,1,0,0:0:0:0:
260,188,205752,1,0,0:0:0:0:
256,192,205797,1,0,0:0:0:0:
252,188,205866,1,0,0:0:0:0:
252,188,205934,1,0,0:0:0:0:
256,188,206002,1,0,0:0:0:0:
256,184,206070,1,2,0:0:0:0:
256,184,206138,1,2,0:0:0:0:
256,184,206206,1,0,0:0:0:0:
256,184,206275,1,0,0:0:0:0:
256,184,206343,1,2,0:0:0:0:
256,184,206411,1,0,0:0:0:0:
256,184,206479,1,0,0:0:0:0:
256,184,206547,1,2,0:0:0:0:
256,184,206616,1,0,0:0:0:0:
260,184,206752,1,0,0:0:0:0:
260,184,206888,1,2,0:0:0:0:
256,184,207025,1,2,0:0:0:0:
256,184,207093,1,0,0:0:0:0:
256,184,207161,1,2,0:0:0:0:
256,184,207229,1,2,0:0:0:0:
256,184,207297,1,0,0:0:0:0:
256,184,207434,1,0,0:0:0:0:
260,180,207502,1,0,0:0:0:0:
260,180,207570,1,2,0:0:0:0:
260,184,207638,1,0,0:0:0:0:
260,184,207706,1,2,0:0:0:0:
260,184,207775,1,2,0:0:0:0:
260,184,207843,1,0,0:0:0:0:
252,172,207979,1,0,0:0:0:0:
256,184,208047,1,2,0:0:0:0:
252,172,208116,1,2,0:0:0:0:
252,172,208184,1,0,0:0:0:0:
252,172,208320,1,2,0:0:0:0:
252,172,208388,1,0,0:0:0:0:
256,176,208456,1,0,0:0:0:0:
256,176,208525,1,2,0:0:0:0:
256,176,208593,1,2,0:0:0:0:
264,172,208661,1,0,0:0:0:0:
256,176,208729,1,0,0:0:0:0:
256,176,208797,1,0,0:0:0:0:
264,192,209070,1,0,0:0:0:0:
264,192,209206,1,2,0:0:0:0:
256,192,209275,1,0,0:0:0:0:
256,192,209343,1,2,0:0:0:0:
256,192,209411,1,2,0:0:0:0:
256,192,209479,1,0,0:0:0:0:
256,192,209547,1,0,0:0:0:0:
256,192,209616,1,0,0:0:0:0:
256,192,209684,1,0,0:0:0:0:
256,192,209752,1,2,0:0:0:0:
260,184,209888,1,2,0:0:0:0:
260,184,209956,1,2,0:0:0:0:
260,184,210025,1,0,0:0:0:0:
260,184,210161,1,2,0:0:0:0:
260,184,210297,1,0,0:0:0:0:
260,184,210366,1,2,0:0:0:0:
260,192,210434,1,0,0:0:0:0:
260,192,210502,1,2,0:0:0:0:
260,192,210570,1,0,0:0:0:0:
260,192,210638,1,0,0:0:0:0:
260,192,210706,1,2,0:0:0:0:
260,192,210775,1,2,0:0:0:0:
260,192,210843,1,0,0:0:0:0:
260,192,210911,1,2,0:0:0:0:
260,192,210979,1,0,0:0:0:0:
260,184,211116,1,0,0:0:0:0:
260,184,211184,1,0,0:0:0:0:
260,184,211252,1,2,0:0:0:0:
260,184,211320,1,2,0:0:0:0:
256,184,211388,1,0,0:0:0:0:
256,184,211456,1,2,0:0:0:0:
256,184,211525,1,0,0:0:0:0:
256,184,211593,1,2,0:0:0:0:
256,184,211661,1,0,0:0:0:0:
256,184,211729,1,0,0:0:0:0:
256,184,211797,1,0,0:0:0:0:
256,184,211866,1,0,0:0:0:0:
256,184,211934,1,2,0:0:0:0:
260,184,212070,1,2,0:0:0:0:
260,184,212116,1,2,0:0:0:0:
260,184,212161,1,2,0:0:0:0:
260,184,212206,1,0,0:0:0:0:
264,176,212275,1,0,0:0:0:0:
264,172,212343,1,2,0:0:0:0:
264,172,212411,1,0,0:0:0:0:
264,172,212479,1,2,0:0:0:0:
264,172,212547,1,0,0:0:0:0:
264,172,212616,1,2,0:0:0:0:
264,172,212684,1,0,0:0:0:0:
264,172,212752,1,2,0:0:0:0:
264,172,212820,1,0,0:0:0:0:
276,168,212888,1,2,0:0:0:0:
276,168,212934,1,2,0:0:0:0:
276,168,212979,1,2,0:0:0:0:
280,164,213025,1,2,0:0:0:0:
280,164,213093,1,2,0:0:0:0:
280,164,213161,1,0,0:0:0:0:
264,184,213434,1,2,0:0:0:0:
264,184,213706,1,2,0:0:0:0:
264,184,213843,1,2,0:0:0:0:
264,192,214525,1,2,0:0:0:0:
264,192,214934,1,2,0:0:0:0:
264,192,215070,1,2,0:0:0:0:
252,196,215343,1,0,0:0:0:0:
252,196,215479,1,0,0:0:0:0:
268,188,215616,1,2,0:0:0:0:
268,188,216161,1,2,0:0:0:0:
276,180,216706,1,2,0:0:0:0:
276,180,217116,1,2,0:0:0:0:
264,192,217797,1,2,0:0:0:0:
264,192,218070,1,2,0:0:0:0:
264,192,218206,1,2,0:0:0:0:
264,192,218888,1,2,0:0:0:0:
264,192,219297,1,2,0:0:0:0:
264,192,219434,1,2,0:0:0:0:
268,200,219979,1,2,0:0:0:0:
268,200,220525,1,2,0:0:0:0:
268,200,220797,1,0,0:0:0:0:
268,200,220934,1,2,0:0:0:0:
268,200,221070,1,2,0:0:0:0:
268,200,221206,1,0,0:0:0:0:
268,200,221343,1,2,0:0:0:0:
268,200,221479,1,2,0:0:0:0:
268,200,221616,1,0,0:0:0:0:
268,200,221752,1,0,0:0:0:0:
268,200,221888,1,0,0:0:0:0:
260,192,222161,1,2,0:0:0:0:
260,192,222297,1,0,0:0:0:0:
264,192,222366,1,2,0:0:0:0:
264,192,222502,1,2,0:0:0:0:
264,192,222570,1,0,0:0:0:0:
264,192,222706,1,0,0:0:0:0:
264,192,222843,1,2,0:0:0:0:
260,192,222979,1,0,0:0:0:0:
260,192,223116,1,0,0:0:0:0:
256,184,223252,1,2,0:0:0:0:
256,184,223320,1,2,0:0:0:0:
256,184,223456,1,2,0:0:0:0:
256,184,223525,1,0,0:0:0:0:
256,184,223661,1,2,0:0:0:0:
256,184,223797,1,2,0:0:0:0:
256,188,223934,1,0,0:0:0:0:
260,192,224070,1,0,0:0:0:0:
256,188,224206,1,0,0:0:0:0:
256,188,224343,1,2,0:0:0:0:
256,188,224479,1,0,0:0:0:0:
256,188,224547,1,2,0:0:0:0:
264,192,224684,1,2,0:0:0:0:
264,192,224752,1,2,0:0:0:0:
264,192,224888,1,2,0:0:0:0:
260,192,225025,1,0,0:0:0:0:
268,192,225093,1,2,0:0:0:0:
268,192,225229,1,2,0:0:0:0:
268,192,225297,1,0,0:0:0:0:
268,192,225434,1,2,0:0:0:0:
268,196,225570,1,0,0:0:0:0:
256,192,225706,1,0,0:0:0:0:
256,192,225843,1,0,0:0:0:0:
260,192,225979,1,2,0:0:0:0:
256,192,226047,1,2,0:0:0:0:
256,192,226116,1,2,0:0:0:0:
256,192,226184,1,2,0:0:0:0:
256,192,226252,1,0,0:0:0:0:
268,196,226525,1,2,0:0:0:0:
264,192,226661,1,0,0:0:0:0:
264,192,226729,1,2,0:0:0:0:
264,192,226866,1,2,0:0:0:0:
264,192,226934,1,0,0:0:0:0:
256,192,227070,1,0,0:0:0:0:
256,192,227138,1,0,0:0:0:0:
256,192,227206,1,2,0:0:0:0:
264,192,227343,1,0,0:0:0:0:
264,192,227479,1,0,0:0:0:0:
264,192,227616,1,2,0:0:0:0:
264,192,227752,1,2,0:0:0:0:
264,192,227820,1,0,0:0:0:0:
264,192,227888,1,0,0:0:0:0:
264,192,228025,1,2,0:0:0:0:
264,192,228161,1,2,0:0:0:0:
264,192,228297,1,0,0:0:0:0:
272,192,228434,1,0,0:0:0:0:
272,192,228570,1,0,0:0:0:0:
272,192,228706,1,2,0:0:0:0:
272,192,228843,1,0,0:0:0:0:
272,192,228911,1,2,0:0:0:0:
264,192,228979,1,0,0:0:0:0:
264,192,229047,1,2,0:0:0:0:
264,192,229116,1,0,0:0:0:0:
264,192,229184,1,0,0:0:0:0:
264,192,229252,1,2,0:0:0:0:
264,192,229388,1,0,0:0:0:0:
264,192,229525,1,2,0:0:0:0:
264,192,229559,1,2,0:0:0:0:
264,192,229593,1,2,0:0:0:0:
264,192,229661,1,2,0:0:0:0:
264,192,229729,1,2,0:0:0:0:
272,192,229797,1,2,0:0:0:0:
272,192,229831,1,2,0:0:0:0:
272,192,229934,1,2,0:0:0:0:
272,192,230002,1,2,0:0:0:0:
272,192,230070,1,2,0:0:0:0:
272,192,230206,1,2,0:0:0:0:
272,192,230343,1,2,0:0:0:0:
280,196,230411,1,2,0:0:0:0:
280,196,230479,1,0,0:0:0:0:
280,196,230547,1,0,0:0:0:0:
280,196,230616,1,0,0:0:0:0:
260,192,230888,1,2,0:0:0:0:
260,192,231025,1,2,0:0:0:0:
256,192,231093,1,0,0:0:0:0:
256,192,231161,1,2,0:0:0:0:
256,192,231229,1,2,0:0:0:0:
256,192,231297,1,0,0:0:0:0:
256,192,231366,1,0,0:0:0:0:
264,200,231434,1,2,0:0:0:0:
252,196,231502,1,0,0:0:0:0:
252,196,231570,1,2,0:0:0:0:
252,196,231638,1,2,0:0:0:0:
260,192,231706,1,0,0:0:0:0:
260,192,231775,1,2,0:0:0:0:
260,192,231843,1,2,0:0:0:0:
264,196,231911,1,2,0:0:0:0:
264,196,231979,1,0,0:0:0:0:
264,196,232047,1,0,0:0:0:0:
264,196,232116,1,2,0:0:0:0:
264,196,232184,1,2,0:0:0:0:
264,192,232252,1,0,0:0:0:0:
264,192,232320,1,2,0:0:0:0:
264,192,232388,1,0,0:0:0:0:
264,192,232456,1,0,0:0:0:0:
264,192,232525,1,2,0:0:0:0:
264,192,232593,1,0,0:0:0:0:
268,188,232661,1,2,0:0:0:0:
268,188,232706,1,2,0:0:0:0:
268,188,232752,1,2,0:0:0:0:
268,188,232797,1,0,0:0:0:0:
268,188,232843,1,0,0:0:0:0:
268,188,232888,1,0,0:0:0:0:
264,184,232934,1,0,0:0:0:0:
264,184,232968,1,0,0:0:0:0:
264,184,233002,1,0,0:0:0:0:
264,184,233036,1,0,0:0:0:0:
264,184,233070,1,2,0:0:0:0:
256,184,233206,1,0,0:0:0:0:
256,184,233275,1,2,0:0:0:0:
256,184,233343,1,0,0:0:0:0:
256,184,233411,1,2,0:0:0:0:
256,184,233479,1,0,0:0:0:0:
256,184,233547,1,0,0:0:0:0:
256,184,233616,1,0,0:0:0:0:
256,184,233684,1,0,0:0:0:0:
256,184,233752,1,2,0:0:0:0:
256,188,233820,1,0,0:0:0:0:
256,188,233888,1,2,0:0:0:0:
256,188,233956,1,2,0:0:0:0:
256,188,234025,1,0,0:0:0:0:
256,184,234161,1,2,0:0:0:0:
256,184,234297,1,2,0:0:0:0:
264,188,234366,1,0,0:0:0:0:
256,184,234434,1,2,0:0:0:0:
256,184,234502,1,2,0:0:0:0:
256,184,234570,1,0,0:0:0:0:
256,184,234638,1,0,0:0:0:0:
256,184,234706,1,2,0:0:0:0:
256,188,234775,1,2,0:0:0:0:
256,188,234843,1,2,0:0:0:0:
256,188,234911,1,2,0:0:0:0:
264,192,234979,1,0,0:0:0:0:
264,192,235116,1,2,0:0:0:0:
264,192,235184,1,0,0:0:0:0:
264,188,235320,1,2,0:0:0:0:
264,192,235388,1,0,0:0:0:0:
260,192,235525,1,2,0:0:0:0:
260,192,235593,1,0,0:0:0:0:
260,192,235729,1,2,0:0:0:0:
260,192,235797,1,0,0:0:0:0:
264,192,235934,1,2,0:0:0:0:
264,192,236002,1,0,0:0:0:0:
264,192,236070,1,0,0:0:0:0:
264,192,236138,1,2,0:0:0:0:
264,192,236206,1,0,0:0:0:0:
264,192,236275,1,0,0:0:0:0:
264,180,236343,1,2,0:0:0:0:
264,180,236388,1,2,0:0:0:0:
264,180,236434,1,2,0:0:0:0:
264,180,236479,1,2,0:0:0:0:
264,180,236547,1,2,0:0:0:0:
264,180,236616,1,0,0:0:0:0:
264,180,236684,1,0,0:0:0:0:
264,184,236752,1,2,0:0:0:0:
264,184,236786,1,2,0:0:0:0:
264,184,236820,1,0,0:0:0:0:
264,184,236888,1,2,0:0:0:0:
264,192,236934,1,2,0:0:0:0:
264,192,236979,1,0,0:0:0:0:
264,192,237025,1,2,0:0:0:0:
260,188,237161,1,0,0:0:0:0:
260,192,237297,1,0,0:0:0:0:
260,192,237366,1,0,0:0:0:0:
260,192,237434,1,2,0:0:0:0:
264,188,237570,1,2,0:0:0:0:
264,188,237638,1,0,0:0:0:0:
264,184,237706,1,2,0:0:0:0:
264,184,237775,1,2,0:0:0:0:
264,184,237843,1,0,0:0:0:0:
264,192,237911,1,2,0:0:0:0:
264,192,237979,1,0,0:0:0:0:
264,188,238047,1,0,0:0:0:0:
264,188,238116,1,2,0:0:0:0:
264,188,238184,1,2,0:0:0:0:
264,188,238252,1,0,0:0:0:0:
264,184,238275,1,0,0:0:0:0:
268,188,238320,1,0,0:0:0:0:
268,188,238388,1,0,0:0:0:0:
264,188,238456,1,0,0:0:0:0:
264,188,238525,1,0,0:0:0:0:
264,188,238547,1,0,0:0:0:0:
264,188,238593,1,0,0:0:0:0:
268,188,238661,1,0,0:0:0:0:
268,188,238729,1,0,0:0:0:0:
264,184,238797,1,2,0:0:0:0:
264,184,238820,1,2,0:0:0:0:
268,188,238866,1,2,0:0:0:0:
268,188,238934,1,2,0:0:0:0:
264,188,239002,1,2,0:0:0:0:
264,188,239070,1,0,0:0:0:0:
264,188,239093,1,0,0:0:0:0:
260,180,239138,1,0,0:0:0:0:
264,188,239206,1,0,0:0:0:0:
264,188,239275,1,0,0:0:0:0:
268,188,239343,1,0,0:0:0:0:
272,188,239479,1,0,0:0:0:0:
272,188,239547,1,0,0:0:0:0:
268,188,239616,1,2,0:0:0:0:
264,176,239684,1,2,0:0:0:0:
264,184,239752,1,0,0:0:0:0:
268,188,239820,1,0,0:0:0:0:
268,188,239888,1,2,0:0:0:0:
264,192,239956,1,0,0:0:0:0:
264,192,240025,1,2,0:0:0:0:
264,184,240093,1,2,0:0:0:0:
264,188,240161,1,0,0:0:0:0:
264,188,240229,1,0,0:0:0:0:
268,188,240297,1,2,0:0:0:0:
272,188,240366,1,2,0:0:0:0:
264,192,240434,1,0,0:0:0:0:
268,188,240570,1,2,0:0:0:0:
264,184,240593,1,2,0:0:0:0:
272,180,240638,1,0,0:0:0:0:
264,184,240706,1,2,0:0:0:0:
268,188,240729,1,2,0:0:0:0:
272,180,240775,1,0,0:0:0:0:
268,188,240843,1,2,0:0:0:0:
260,180,240911,1,2,0:0:0:0:
260,180,240979,1,0,0:0:0:0:
264,184,241047,1,0,0:0:0:0:
268,172,241116,1,2,0:0:0:0:
268,172,241150,1,2,0:0:0:0:
268,172,241184,1,0,0:0:0:0:
268,176,241252,1,2,0:0:0:0:
268,176,241297,1,2,0:0:0:0:
268,176,241343,1,0,0:0:0:0:
268,176,241388,1,2,0:0:0:0:
248,176,241525,1,0,0:0:0:0:
256,176,241797,1,2,0:0:0:0:
268,196,241934,1,2,0:0:0:0:
264,184,242002,1,0,0:0:0:0:
256,184,242070,1,2,0:0:0:0:
256,184,242138,1,2,0:0:0:0:
248,192,242206,1,0,0:0:0:0:
248,192,242241,1,0,0:0:0:0:
248,192,242275,1,0,0:0:0:0:
248,192,242309,1,0,0:0:0:0:
248,192,242343,1,0,0:0:0:0:
256,192,242411,1,0,0:0:0:0:
256,192,242479,1,0,0:0:0:0:
256,192,242547,1,0,0:0:0:0:
272,188,242616,1,2,0:0:0:0:
272,188,242650,1,2,0:0:0:0:
272,188,242684,1,2,0:0:0:0:
272,188,242718,1,2,0:0:0:0:
272,188,242752,1,2,0:0:0:0:
272,200,242797,1,2,0:0:0:0:
272,200,242843,1,2,0:0:0:0:
252,200,242888,1,2,0:0:0:0:
252,200,242956,1,2,0:0:0:0:
248,192,243025,5,2,0:0:0:0:
248,192,243116,1,2,0:0:0:0:
260,208,243297,1,2,0:0:0:0:
264,208,243366,1,2,0:0:0:0:
264,208,243434,1,2,0:0:0:0:
264,208,243502,1,2,0:0:0:0:
264,208,243570,1,2,0:0:0:0:
264,208,243638,1,2,0:0:0:0:
264,208,243706,1,0,0:0:0:0:
264,204,243979,1,2,0:0:0:0:
264,204,244047,1,0,0:0:0:0:
260,208,244116,1,0,0:0:0:0:
260,208,244184,1,2,0:0:0:0:
264,196,244252,1,2,0:0:0:0:
264,196,244320,1,2,0:0:0:0:
264,196,244388,1,0,0:0:0:0:
264,196,244456,1,0,0:0:0:0:
264,196,244525,1,0,0:0:0:0:
264,196,244593,1,0,0:0:0:0:
264,196,244661,1,2,0:0:0:0:
256,196,244797,1,2,0:0:0:0:
260,196,244866,1,2,0:0:0:0:
260,196,244934,1,0,0:0:0:0:
260,196,245002,1,0,0:0:0:0:
260,196,245070,1,2,0:0:0:0:
260,196,245138,1,0,0:0:0:0:
264,196,245206,1,2,0:0:0:0:
264,196,245275,1,2,0:0:0:0:
264,196,245343,1,0,0:0:0:0:
256,192,245411,1,0,0:0:0:0:
268,192,245479,1,2,0:0:0:0:
268,192,245513,1,2,0:0:0:0:
268,192,245547,1,0,0:0:0:0:
272,188,245616,1,2,0:0:0:0:
272,188,245661,1,2,0:0:0:0:
272,188,245706,1,0,0:0:0:0:
272,188,245752,1,0,0:0:0:0:
260,196,245820,1,2,0:0:0:0:
260,196,245888,1,2,0:0:0:0:
256,184,245911,1,0,0:0:0:0:
256,184,246025,1,0,0:0:0:0:
256,184,246047,1,0,0:0:0:0:
256,184,246161,1,0,0:0:0:0:
256,184,246184,1,0,0:0:0:0:
256,184,246297,1,2,0:0:0:0:
256,184,246320,1,0,0:0:0:0:
256,184,246434,1,0,0:0:0:0:
256,184,246456,1,0,0:0:0:0:
256,184,246570,1,0,0:0:0:0:
256,184,246593,1,0,0:0:0:0:
256,184,246706,1,2,0:0:0:0:
256,184,246729,1,0,0:0:0:0:
256,184,246843,1,0,0:0:0:0:
256,184,246866,1,0,0:0:0:0:
264,184,246979,1,2,0:0:0:0:
264,184,247047,1,2,0:0:0:0:
264,184,247116,1,0,0:0:0:0:
264,184,247184,1,0,0:0:0:0:
264,184,247252,1,2,0:0:0:0:
264,184,247320,1,0,0:0:0:0:
264,184,247388,1,0,0:0:0:0:
268,180,247456,1,0,0:0:0:0:
268,180,247502,1,2,0:0:0:0:
268,180,247547,1,2,0:0:0:0:
268,180,247593,1,2,0:0:0:0:
264,180,247661,1,2,0:0:0:0:
264,180,247695,1,2,0:0:0:0:
264,180,247729,1,2,0:0:0:0:
264,180,247763,1,2,0:0:0:0:
264,176,247797,1,2,0:0:0:0:
264,176,247843,1,2,0:0:0:0:
264,176,247888,1,2,0:0:0:0:
264,176,247934,1,2,0:0:0:0:
264,176,247979,1,2,0:0:0:0:
264,176,248025,1,2,0:0:0:0:
264,176,248070,1,0,0:0:0:0:
268,176,248343,1,2,0:0:0:0:
260,180,248479,1,0,0:0:0:0:
260,180,248547,1,2,0:0:0:0:
260,172,248684,1,2,0:0:0:0:
264,176,248752,1,0,0:0:0:0:
256,168,248888,1,0,0:0:0:0:
268,172,249025,1,2,0:0:0:0:
268,176,249161,1,0,0:0:0:0:
268,172,249366,1,0,0:0:0:0:
268,172,249570,1,0,0:0:0:0:
256,192,249706,1,2,0:0:0:0:
256,192,249843,1,0,0:0:0:0:
268,180,249911,1,0,0:0:0:0:
256,192,249979,1,0,0:0:0:0:
256,192,250047,1,0,0:0:0:0:
256,192,250116,1,2,0:0:0:0:
252,196,250252,1,0,0:0:0:0:
256,192,250525,1,2,0:0:0:0:
256,192,250661,1,0,0:0:0:0:
256,192,250729,1,2,0:0:0:0:
260,192,250866,1,2,0:0:0:0:
260,192,250934,1,0,0:0:0:0:
260,192,251070,1,0,0:0:0:0:
260,192,251206,1,2,0:0:0:0:
260,192,251343,1,0,0:0:0:0:
260,192,251479,1,2,0:0:0:0:
260,192,251547,1,0,0:0:0:0:
260,192,251684,1,2,0:0:0:0:
260,192,251752,1,0,0:0:0:0:
260,192,251888,1,2,0:0:0:0:
260,192,251956,1,2,0:0:0:0:
260,192,252025,1,0,0:0:0:0:
260,192,252093,1,2,0:0:0:0:
260,192,252161,1,0,0:0:0:0:
260,192,252229,1,0,0:0:0:0:
260,192,252297,1,0,0:0:0:0:
260,192,252434,1,0,0:0:0:0:
260,192,252706,1,2,0:0:0:0:
260,192,252843,1,0,0:0:0:0:
260,192,252979,1,0,0:0:0:0:
260,192,253047,1,0,0:0:0:0:
260,192,253116,1,0,0:0:0:0:
260,192,253252,1,0,0:0:0:0:
260,192,253388,1,2,0:0:0:0:
260,184,253525,1,0,0:0:0:0:
260,184,253661,1,0,0:0:0:0:
264,184,253797,1,2,0:0:0:0:
252,176,253888,1,2,0:0:0:0:
256,176,253934,1,2,0:0:0:0:
256,176,253979,1,2,0:0:0:0:
256,176,254025,1,2,0:0:0:0:
260,172,254070,1,2,0:0:0:0:
248,188,254138,1,2,0:0:0:0:
248,184,254172,1,2,0:0:0:0:
248,184,254206,1,2,0:0:0:0:
264,176,254275,1,2,0:0:0:0:
264,176,254343,1,0,0:0:0:0:
264,176,254411,1,0,0:0:0:0:
264,176,254479,1,2,0:0:0:0:
256,192,254616,1,0,0:0:0:0:
256,192,254888,1,2,0:0:0:0:
256,192,255025,1,0,0:0:0:0:
256,192,255093,1,2,0:0:0:0:
256,192,255229,1,2,0:0:0:0:
256,192,255297,1,0,0:0:0:0:
256,192,255434,1,0,0:0:0:0:
256,192,255570,1,2,0:0:0:0:
256,192,255706,1,0,0:0:0:0:
256,192,255888,1,0,0:0:0:0:
256,192,256070,1,0,0:0:0:0:
256,192,256252,1,2,0:0:0:0:
256,192,256388,1,0,0:0:0:0:
256,192,256525,1,2,0:0:0:0:
256,192,256616,1,0,0:0:0:0:
256,192,256706,1,0,0:0:0:0:
256,192,256797,1,0,0:0:0:0:
256,192,257070,1,2,0:0:0:0:
256,192,257206,1,0,0:0:0:0:
256,192,257275,1,0,0:0:0:0:
256,192,257343,1,0,0:0:0:0:
260,188,257411,1,2,0:0:0:0:
260,188,257479,1,0,0:0:0:0:
256,184,257547,1,2,0:0:0:0:
260,188,257616,1,2,0:0:0:0:
260,188,257752,1,2,0:0:0:0:
260,188,257820,1,2,0:0:0:0:
256,192,257888,1,0,0:0:0:0:
248,188,258161,1,2,0:0:0:0:
256,180,258297,1,2,0:0:0:0:
252,192,258434,1,0,0:0:0:0:
260,188,258570,1,2,0:0:0:0:
260,188,258616,1,2,0:0:0:0:
260,188,258661,1,0,0:0:0:0:
260,188,258706,1,2,0:0:0:0:
260,188,258775,1,0,0:0:0:0:
260,184,258843,1,2,0:0:0:0:
264,184,258979,1,0,0:0:0:0:
264,184,259116,1,0,0:0:0:0:
264,184,259252,1,2,0:0:0:0:
264,184,259388,1,0,0:0:0:0:
264,184,259456,1,2,0:0:0:0:
264,184,259593,1,2,0:0:0:0:
264,184,259661,1,0,0:0:0:0:
260,184,259797,1,0,0:0:0:0:
264,184,259934,1,2,0:0:0:0:
256,192,260070,1,2,0:0:0:0:
256,192,260138,1,2,0:0:0:0:
256,192,260206,1,0,0:0:0:0:
256,192,260343,1,2,0:0:0:0:
252,188,260479,1,2,0:0:0:0:
252,188,260547,1,0,0:0:0:0:
260,184,260684,1,2,0:0:0:0:
260,184,260752,1,0,0:0:0:0:
264,184,260888,1,0,0:0:0:0:
264,184,260979,1,2,0:0:0:0:
264,184,261070,1,2,0:0:0:0:
264,184,261161,1,0,0:0:0:0:
264,184,261252,1,0,0:0:0:0:
264,184,261343,1,0,0:0:0:0:
264,184,261434,1,2,0:0:0:0:
264,172,261468,1,2,0:0:0:0:
268,180,261570,1,0,0:0:0:0:
272,172,261616,1,0,0:0:0:0:
268,180,261706,1,2,0:0:0:0:
264,184,261741,1,2,0:0:0:0:
264,184,261843,1,0,0:0:0:0:
256,176,261888,1,0,0:0:0:0:
264,184,261979,1,2,0:0:0:0:
264,184,262013,1,2,0:0:0:0:
264,184,262116,1,0,0:0:0:0:
260,176,262161,1,0,0:0:0:0:
248,184,262252,1,2,0:0:0:0:
272,188,262275,1,2,0:0:0:0:
248,184,262388,1,0,0:0:0:0:
264,184,262434,1,0,0:0:0:0:
268,180,262525,1,2,0:0:0:0:
268,180,262570,1,2,0:0:0:0:
268,180,262616,1,2,0:0:0:0:
268,180,262661,1,0,0:0:0:0:
256,172,262729,1,0,0:0:0:0:
268,180,262797,1,2,0:0:0:0:
264,184,262934,1,0,0:0:0:0:
264,184,263070,1,2,0:0:0:0:
276,192,263343,1,2,0:0:0:0:
276,192,263547,1,2,0:0:0:0:
276,192,263616,1,0,0:0:0:0:
276,192,263752,1,2,0:0:0:0:
276,192,263956,1,2,0:0:0:0:
276,192,264025,1,0,0:0:0:0:
280,188,264161,1,2,0:0:0:0:
276,192,264366,1,0,0:0:0:0:
276,192,264434,1,0,0:0:0:0:
276,192,264570,1,2,0:0:0:0:
276,184,264775,1,0,0:0:0:0:
276,184,264843,1,0,0:0:0:0:
268,180,264979,1,2,0:0:0:0:
268,180,265116,1,0,0:0:0:0:
268,180,265184,1,2,0:0:0:0:
268,180,265252,1,2,0:0:0:0:
276,176,265388,1,2,0:0:0:0:
276,176,265525,1,0,0:0:0:0:
276,184,265797,1,2,0:0:0:0:
276,180,265934,1,0,0:0:0:0:
276,180,266002,1,2,0:0:0:0:
276,180,266138,1,2,0:0:0:0:
276,176,266206,1,0,0:0:0:0:
276,176,266343,1,2,0:0:0:0:
276,176,266479,1,0,0:0:0:0:
276,172,266547,1,0,0:0:0:0:
276,172,266616,1,0,0:0:0:0:
276,172,266752,1,0,0:0:0:0:
276,172,266888,1,0,0:0:0:0:
276,172,267025,1,2,0:0:0:0:
276,176,267161,1,0,0:0:0:0:
276,176,267297,1,0,0:0:0:0:
276,176,267434,1,2,0:0:0:0:
284,168,267570,1,2,0:0:0:0:
284,168,267706,1,0,0:0:0:0:
260,172,267979,1,2,0:0:0:0:
260,176,268116,1,0,0:0:0:0:
260,176,268184,1,2,0:0:0:0:
260,176,268320,1,2,0:0:0:0:
260,176,268388,1,0,0:0:0:0:
260,176,268525,1,0,0:0:0:0:
260,176,268661,1,2,0:0:0:0:
264,172,268797,1,2,0:0:0:0:
264,172,268866,1,2,0:0:0:0:
264,172,268934,1,0,0:0:0:0:
264,172,269070,1,2,0:0:0:0:
264,172,269206,1,2,0:0:0:0:
264,172,269275,1,0,0:0:0:0:
264,172,269411,1,2,0:0:0:0:
264,172,269479,1,0,0:0:0:0:
264,172,269616,1,2,0:0:0:0:
264,184,269888,1,0,0:0:0:0:
264,184,270025,1,2,0:0:0:0:
264,184,270093,1,2,0:0:0:0:
264,184,270161,1,0,0:0:0:0:
264,188,270229,1,0,0:0:0:0:
264,188,270297,1,2,0:0:0:0:
264,188,270434,1,0,0:0:0:0:
264,188,270502,1,2,0:0:0:0:
268,188,270638,1,2,0:0:0:0:
268,188,270706,1,0,0:0:0:0:
268,188,270843,1,2,0:0:0:0:
264,184,270979,1,0,0:0:0:0:
264,184,271252,1,0,0:0:0:0:
264,184,271320,1,0,0:0:0:0:
264,184,271388,1,0,0:0:0:0:
264,180,271525,1,0,0:0:0:0:
264,180,271593,1,0,0:0:0:0:
264,180,271729,1,2,0:0:0:0:
264,180,271797,1,0,0:0:0:0:
264,184,271934,1,2,0:0:0:0:
256,180,272070,1,0,0:0:0:0:
256,180,272343,1,2,0:0:0:0:
256,180,272479,1,0,0:0:0:0:
256,180,272547,1,2,0:0:0:0:
256,180,272684,1,2,0:0:0:0:
256,180,272752,1,0,0:0:0:0:
256,180,273025,1,2,0:0:0:0:
260,172,273161,1,0,0:0:0:0:
264,172,273570,1,2,0:0:0:0:
264,172,273706,1,2,0:0:0:0:
264,172,273843,1,0,0:0:0:0:
264,172,273979,1,2,0:0:0:0:
260,196,274252,1,2,0:0:0:0:
264,196,275070,1,0,0:0:0:0:
256,208,277797,1,0,0:0:0:0:
256,208,278070,1,2,0:0:0:0:
256,208,278343,1,0,0:0:0:0:
256,200,279979,1,0,0:0:0:0:
256,200,280252,1,0,0:0:0:0:
256,200,280525,1,2,0:0:0:0:
264,208,280797,1,2,0:0:0:0:
264,208,281206,1,2,0:0:0:0:
264,208,281616,1,0,0:0:0:0:
264,208,281888,1,0,0:0:0:0:
264,208,282434,1,2,0:0:0:0:
268,200,282979,1,0,0:0:0:0:
