osu file format v14

[General]
AudioFilename: audio1.mp3
AudioLeadIn: 0
PreviewTime: -1
Countdown: 1
SampleSet: None
StackLeniency: 0.7
Mode: 1
LetterboxInBreaks: 0
WidescreenStoryboard: 1

[Editor]
DistanceSpacing: 0.8
BeatDivisor: 2
GridSize: 8
TimelineZoom: 1.9

[Metadata]
Title:Tag map Pack for Taiko
TitleUnicode:Tag map Pack for Taiko
Artist:Various Artists
ArtistUnicode:Various Artists
Creator:About
Version:Zeami - Sanze no ran (Shiko, Soryu, Yugen) (Best_lolicon) [Oni]
Source:
Tags:
BeatmapID:1872700
BeatmapSetID:890540

[Difficulty]
HPDrainRate:5
CircleSize:5
OverallDifficulty:5
ApproachRate:5
SliderMultiplier:1.4
SliderTickRate:1

[Events]
//Background and Video events
//Break Periods
2,120045,124847
//Storyboard Layer 0 (Background)
//Storyboard Layer 1 (Fail)
//Storyboard Layer 2 (Pass)
//Storyboard Layer 3 (Foreground)
//Storyboard Sound Samples

[TimingPoints]
8370,327.868852459016,4,1,0,100,1,0
70009,-100,4,1,0,100,0,1
80501,-100,4,1,0,100,0,0
98861,-100,4,1,0,100,0,1
119845,-100,4,1,0,100,0,0
125860,187.5,8,1,0,100,1,0
125860,-200,8,1,0,100,0,0
171985,187.5,8,1,0,100,1,0
171985,-200,8,1,0,100,0,0
210985,187.5,8,1,0,100,1,0
210985,-200,8,1,0,100,0,1
234985,-200,8,1,0,100,0,0
245865,375,4,1,0,100,1,0
262365,200,4,1,0,100,1,0
297565,-100,4,1,0,100,0,1
310365,-100,4,1,0,100,0,0
315165,-100,4,1,0,100,0,1
327165,200,6,1,0,100,1,1
328365,200,4,1,0,100,1,1
334765,-100,4,1,0,100,0,0
349965,-100,4,1,0,100,0,1
367565,-100,4,1,0,100,0,0

[HitObjects]
256,192,8369,5,0,0:0:0:0:
256,192,8697,1,0,0:0:0:0:
256,192,9025,1,0,0:0:0:0:
256,192,9353,1,0,0:0:0:0:
256,192,9517,1,0,0:0:0:0:
256,192,9681,1,0,0:0:0:0:
256,192,10009,1,0,0:0:0:0:
256,192,10337,1,0,0:0:0:0:
256,192,10501,1,2,0:0:0:0:
256,192,10583,1,2,0:0:0:0:
256,192,10665,1,2,0:0:0:0:
256,192,10829,1,2,0:0:0:0:
256,192,10910,1,2,0:0:0:0:
256,192,10992,1,0,0:0:0:0:
256,192,11320,1,0,0:0:0:0:
256,192,11648,1,0,0:0:0:0:
256,192,11976,1,0,0:0:0:0:
256,192,12140,1,0,0:0:0:0:
256,192,12304,1,0,0:0:0:0:
256,192,12468,1,2,0:0:0:0:
256,192,12550,1,2,0:0:0:0:
256,192,12632,1,2,0:0:0:0:
256,192,12741,1,2,0:0:0:0:
256,192,12850,1,2,0:0:0:0:
256,192,12960,1,2,0:0:0:0:
256,192,13069,1,2,0:0:0:0:
256,192,13178,1,2,0:0:0:0:
256,192,13288,1,2,0:0:0:0:
256,192,13369,1,2,0:0:0:0:
256,192,13451,1,2,0:0:0:0:
256,192,13533,1,2,0:0:0:0:
256,192,13615,1,0,0:0:0:0:
256,192,13943,1,4,0:0:0:0:
256,192,14271,1,4,0:0:0:0:
256,192,15419,1,2,0:0:0:0:
256,192,15501,1,2,0:0:0:0:
256,192,15583,1,0,0:0:0:0:
256,192,15665,1,0,0:0:0:0:
256,192,15747,1,2,0:0:0:0:
256,192,15910,1,2,0:0:0:0:
256,192,16074,1,2,0:0:0:0:
256,192,16238,1,4,0:0:0:0:
256,192,16566,1,4,0:0:0:0:
256,192,16894,1,4,0:0:0:0:
256,192,18042,1,2,0:0:0:0:
256,192,18124,1,2,0:0:0:0:
256,192,18206,1,0,0:0:0:0:
256,192,18369,1,0,0:0:0:0:
256,192,18533,1,2,0:0:0:0:
256,192,18697,1,0,0:0:0:0:
256,192,18779,1,0,0:0:0:0:
256,192,18861,1,0,0:0:0:0:
256,192,19189,1,4,0:0:0:0:
256,192,19517,1,4,0:0:0:0:
256,192,20665,1,2,0:0:0:0:
256,192,20747,1,2,0:0:0:0:
256,192,20829,1,0,0:0:0:0:
256,192,20910,1,0,0:0:0:0:
256,192,20992,1,2,0:0:0:0:
256,192,21156,1,2,0:0:0:0:
256,192,21320,1,2,0:0:0:0:
256,192,21484,1,4,0:0:0:0:
256,192,21812,1,4,0:0:0:0:
256,192,22140,1,4,0:0:0:0:
256,192,23124,1,4,0:0:0:0:
256,192,23288,1,2,0:0:0:0:
256,192,23369,1,2,0:0:0:0:
256,192,23451,1,0,0:0:0:0:
256,192,23533,1,2,0:0:0:0:
256,192,23615,1,0,0:0:0:0:
256,192,23697,1,2,0:0:0:0:
256,192,23779,1,0,0:0:0:0:
256,192,23861,1,2,0:0:0:0:
256,192,23943,1,0,0:0:0:0:
256,192,24025,1,0,0:0:0:0:
256,192,24107,1,0,0:0:0:0:
256,192,24189,1,0,0:0:0:0:
256,192,24353,1,0,0:0:0:0:
256,192,24435,1,2,0:0:0:0:
256,192,24599,1,0,0:0:0:0:
256,192,24763,1,0,0:0:0:0:
256,192,24845,1,0,0:0:0:0:
256,192,24927,1,0,0:0:0:0:
256,192,25009,1,0,0:0:0:0:
256,192,25091,1,2,0:0:0:0:
256,192,25255,1,0,0:0:0:0:
256,192,25337,1,2,0:0:0:0:
256,192,25419,1,0,0:0:0:0:
256,192,25583,1,2,0:0:0:0:
256,192,25665,1,2,0:0:0:0:
256,192,25747,1,2,0:0:0:0:
256,192,25910,1,2,0:0:0:0:
256,192,25992,1,2,0:0:0:0:
256,192,26074,1,0,0:0:0:0:
256,192,26238,1,2,0:0:0:0:
256,192,26320,1,2,0:0:0:0:
256,192,26402,1,2,0:0:0:0:
256,192,26484,1,0,0:0:0:0:
256,192,26648,1,0,0:0:0:0:
256,192,26730,1,0,0:0:0:0:
256,192,26812,1,0,0:0:0:0:
256,192,26976,1,0,0:0:0:0:
256,192,27058,1,2,0:0:0:0:
256,192,27222,1,0,0:0:0:0:
256,192,27386,1,0,0:0:0:0:
256,192,27468,1,0,0:0:0:0:
256,192,27550,1,0,0:0:0:0:
256,192,27632,1,0,0:0:0:0:
256,192,27714,1,2,0:0:0:0:
256,192,27878,1,0,0:0:0:0:
256,192,28042,1,0,0:0:0:0:
256,192,28206,1,0,0:0:0:0:
256,192,28369,1,2,0:0:0:0:
256,192,28451,1,2,0:0:0:0:
256,192,28533,1,2,0:0:0:0:
256,192,28615,1,2,0:0:0:0:
256,192,28697,1,2,0:0:0:0:
256,192,28779,1,0,0:0:0:0:
256,192,28943,1,0,0:0:0:0:
256,192,29025,1,2,0:0:0:0:
256,192,29107,1,0,0:0:0:0:
256,192,29271,1,0,0:0:0:0:
256,192,29353,1,0,0:0:0:0:
256,192,29435,1,0,0:0:0:0:
256,192,29599,1,0,0:0:0:0:
256,192,29681,1,2,0:0:0:0:
256,192,29845,1,0,0:0:0:0:
256,192,30009,1,0,0:0:0:0:
256,192,30091,1,0,0:0:0:0:
256,192,30173,1,0,0:0:0:0:
256,192,30255,1,0,0:0:0:0:
256,192,30337,1,2,0:0:0:0:
256,192,30501,1,0,0:0:0:0:
256,192,30665,1,0,0:0:0:0:
256,192,30829,1,0,0:0:0:0:
256,192,30992,1,2,0:0:0:0:
256,192,31074,1,2,0:0:0:0:
256,192,31156,1,2,0:0:0:0:
256,192,31238,1,2,0:0:0:0:
256,192,31320,1,2,0:0:0:0:
256,192,31402,1,0,0:0:0:0:
256,192,31566,1,0,0:0:0:0:
256,192,31648,1,2,0:0:0:0:
256,192,31730,1,0,0:0:0:0:
256,192,31894,1,0,0:0:0:0:
256,192,31976,1,0,0:0:0:0:
256,192,32058,1,0,0:0:0:0:
256,192,32222,1,0,0:0:0:0:
256,192,32304,1,2,0:0:0:0:
256,192,32468,1,0,0:0:0:0:
256,192,32632,1,0,0:0:0:0:
256,192,32714,1,0,0:0:0:0:
256,192,32796,1,0,0:0:0:0:
256,192,32878,1,0,0:0:0:0:
256,192,32960,1,2,0:0:0:0:
256,192,33124,1,0,0:0:0:0:
256,192,33206,1,2,0:0:0:0:
256,192,33288,1,0,0:0:0:0:
256,192,33451,1,2,0:0:0:0:
256,192,33533,1,2,0:0:0:0:
256,192,33615,1,2,0:0:0:0:
256,192,33779,1,2,0:0:0:0:
256,192,33861,1,2,0:0:0:0:
256,192,33943,1,0,0:0:0:0:
256,192,34107,1,2,0:0:0:0:
256,192,34189,1,2,0:0:0:0:
256,192,34271,1,2,0:0:0:0:
256,192,34353,1,0,0:0:0:0:
256,192,34517,1,0,0:0:0:0:
256,192,34599,1,0,0:0:0:0:
256,192,34681,1,0,0:0:0:0:
256,192,34845,1,0,0:0:0:0:
256,192,34927,1,2,0:0:0:0:
256,192,35091,1,0,0:0:0:0:
256,192,35255,1,2,0:0:0:0:
256,192,35337,1,0,0:0:0:0:
256,192,35501,1,0,0:0:0:0:
256,192,35583,1,2,0:0:0:0:
256,192,35747,1,0,0:0:0:0:
256,192,35829,1,0,0:0:0:0:
256,192,35910,1,0,0:0:0:0:
256,192,36074,1,2,0:0:0:0:
256,192,36156,1,2,0:0:0:0:
256,192,36238,1,2,0:0:0:0:
256,192,36320,1,0,0:0:0:0:
256,192,36484,1,2,0:0:0:0:
256,192,36566,1,0,0:0:0:0:
256,192,36730,1,2,0:0:0:0:
256,192,36812,1,2,0:0:0:0:
256,192,36894,1,2,0:0:0:0:
256,192,36976,1,0,0:0:0:0:
256,192,37140,1,0,0:0:0:0:
256,192,37222,1,0,0:0:0:0:
256,192,37304,1,0,0:0:0:0:
256,192,37468,1,0,0:0:0:0:
256,192,37550,1,2,0:0:0:0:
256,192,37714,1,0,0:0:0:0:
256,192,37878,1,2,0:0:0:0:
256,192,37960,1,0,0:0:0:0:
256,192,38124,1,0,0:0:0:0:
256,192,38206,1,2,0:0:0:0:
256,192,38369,1,0,0:0:0:0:
256,192,38533,1,0,0:0:0:0:
256,192,38697,1,0,0:0:0:0:
256,192,38861,1,2,0:0:0:0:
256,192,38943,1,2,0:0:0:0:
256,192,39025,1,2,0:0:0:0:
256,192,39107,1,2,0:0:0:0:
256,192,39189,1,2,0:0:0:0:
256,192,39271,1,0,0:0:0:0:
256,192,39435,1,0,0:0:0:0:
256,192,39517,1,2,0:0:0:0:
256,192,39599,1,0,0:0:0:0:
256,192,39763,1,0,0:0:0:0:
256,192,39845,1,0,0:0:0:0:
256,192,39927,1,0,0:0:0:0:
256,192,40091,1,0,0:0:0:0:
256,192,40173,1,2,0:0:0:0:
256,192,40337,1,0,0:0:0:0:
256,192,40501,1,2,0:0:0:0:
256,192,40583,1,0,0:0:0:0:
256,192,40747,1,0,0:0:0:0:
256,192,40829,1,2,0:0:0:0:
256,192,40992,1,0,0:0:0:0:
256,192,41074,1,0,0:0:0:0:
256,192,41156,1,0,0:0:0:0:
256,192,41320,1,2,0:0:0:0:
256,192,41402,1,2,0:0:0:0:
256,192,41484,1,2,0:0:0:0:
256,192,41566,1,0,0:0:0:0:
256,192,41730,1,2,0:0:0:0:
256,192,41812,1,0,0:0:0:0:
256,192,41976,1,2,0:0:0:0:
256,192,42058,1,2,0:0:0:0:
256,192,42140,1,2,0:0:0:0:
256,192,42222,1,0,0:0:0:0:
256,192,42386,1,0,0:0:0:0:
256,192,42468,1,0,0:0:0:0:
256,192,42550,1,0,0:0:0:0:
256,192,42714,1,0,0:0:0:0:
256,192,42796,1,2,0:0:0:0:
256,192,42960,1,0,0:0:0:0:
256,192,43124,1,2,0:0:0:0:
256,192,43206,1,0,0:0:0:0:
256,192,43369,1,0,0:0:0:0:
256,192,43451,1,2,0:0:0:0:
256,192,43615,1,0,0:0:0:0:
256,192,43697,1,2,0:0:0:0:
256,192,43779,1,0,0:0:0:0:
256,192,43861,1,0,0:0:0:0:
256,192,43943,1,0,0:0:0:0:
256,192,44025,1,2,0:0:0:0:
256,192,44107,1,0,0:0:0:0:
256,192,44189,1,0,0:0:0:0:
256,192,44271,1,2,0:0:0:0:
256,192,44353,1,2,0:0:0:0:
256,192,44435,1,0,0:0:0:0:
256,192,44517,1,0,0:0:0:0:
256,192,44599,1,0,0:0:0:0:
256,192,44681,1,2,0:0:0:0:
256,192,44763,1,0,0:0:0:0:
256,192,44845,1,0,0:0:0:0:
256,192,44927,1,2,0:0:0:0:
256,192,45009,1,2,0:0:0:0:
256,192,45091,1,0,0:0:0:0:
256,192,46730,1,2,0:0:0:0:
256,192,47058,1,2,0:0:0:0:
256,192,47386,1,2,0:0:0:0:
256,192,47714,1,4,0:0:0:0:
256,192,49353,1,2,0:0:0:0:
256,192,49681,1,2,0:0:0:0:
256,192,50009,1,2,0:0:0:0:
256,192,50337,1,4,0:0:0:0:
256,192,51648,1,2,0:0:0:0:
256,192,52304,1,2,0:0:0:0:
256,192,52632,1,0,0:0:0:0:
256,192,52960,1,0,0:0:0:0:
256,192,54107,1,2,0:0:0:0:
256,192,54189,1,2,0:0:0:0:
256,192,54271,1,0,0:0:0:0:
256,192,55583,1,0,0:0:0:0:
256,192,55910,1,2,0:0:0:0:
256,192,56238,1,0,0:0:0:0:
256,192,56402,1,0,0:0:0:0:
256,192,56566,1,2,0:0:0:0:
256,192,56730,1,2,0:0:0:0:
256,192,56894,1,0,0:0:0:0:
256,192,57222,1,2,0:0:0:0:
256,192,57550,1,2,0:0:0:0:
256,192,57878,1,2,0:0:0:0:
256,192,58206,1,0,0:0:0:0:
256,192,58533,1,2,0:0:0:0:
256,192,58861,1,0,0:0:0:0:
256,192,59025,1,0,0:0:0:0:
256,192,59189,1,2,0:0:0:0:
256,192,59353,1,2,0:0:0:0:
256,192,59517,1,0,0:0:0:0:
256,192,59681,1,2,0:0:0:0:
256,192,59845,1,2,0:0:0:0:
256,192,60009,1,2,0:0:0:0:
256,192,60173,1,0,0:0:0:0:
256,192,60337,1,2,0:0:0:0:
256,192,60419,1,2,0:0:0:0:
256,192,60501,1,0,0:0:0:0:
256,192,60665,1,2,0:0:0:0:
256,192,60829,1,0,0:0:0:0:
256,192,60992,1,2,0:0:0:0:
256,192,61156,1,2,0:0:0:0:
256,192,61320,1,2,0:0:0:0:
256,192,61484,1,0,0:0:0:0:
256,192,61648,1,2,0:0:0:0:
256,192,61730,1,2,0:0:0:0:
256,192,61812,1,2,0:0:0:0:
256,192,61976,1,2,0:0:0:0:
256,192,62140,1,0,0:0:0:0:
256,192,62304,1,2,0:0:0:0:
256,192,62468,1,2,0:0:0:0:
256,192,62632,1,2,0:0:0:0:
256,192,62796,1,0,0:0:0:0:
256,192,62960,1,2,0:0:0:0:
256,192,63042,1,2,0:0:0:0:
256,192,63124,1,2,0:0:0:0:
256,192,63288,1,2,0:0:0:0:
256,192,63451,1,0,0:0:0:0:
256,192,63615,1,2,0:0:0:0:
256,192,63697,1,2,0:0:0:0:
256,192,63779,1,2,0:0:0:0:
256,192,63943,1,2,0:0:0:0:
256,192,64107,1,2,0:0:0:0:
256,192,64189,1,2,0:0:0:0:
256,192,64271,1,2,0:0:0:0:
256,192,64435,1,2,0:0:0:0:
256,192,64599,1,2,0:0:0:0:
256,192,64763,1,0,0:0:0:0:
256,192,64927,1,2,0:0:0:0:
256,192,65091,1,2,0:0:0:0:
256,192,65173,1,2,0:0:0:0:
256,192,65255,1,2,0:0:0:0:
256,192,65419,1,2,0:0:0:0:
256,192,65583,1,2,0:0:0:0:
256,192,65747,1,2,0:0:0:0:
256,192,65829,1,2,0:0:0:0:
256,192,65910,1,2,0:0:0:0:
256,192,66074,1,0,0:0:0:0:
256,192,66238,1,2,0:0:0:0:
256,192,66402,1,0,0:0:0:0:
256,192,66566,1,2,0:0:0:0:
256,192,66730,1,0,0:0:0:0:
256,192,66812,1,0,0:0:0:0:
256,192,66894,1,0,0:0:0:0:
256,192,67058,1,0,0:0:0:0:
256,192,67222,1,0,0:0:0:0:
256,192,67386,1,0,0:0:0:0:
256,192,67550,1,2,0:0:0:0:
256,192,67632,1,2,0:0:0:0:
256,192,67714,1,2,0:0:0:0:
256,192,67878,1,0,0:0:0:0:
256,192,68042,1,2,0:0:0:0:
256,192,68124,1,2,0:0:0:0:
256,192,68206,1,2,0:0:0:0:
256,192,68369,1,0,0:0:0:0:
256,192,68533,1,2,0:0:0:0:
256,192,68615,1,2,0:0:0:0:
256,192,68697,1,2,0:0:0:0:
256,192,68861,1,0,0:0:0:0:
256,192,69025,1,2,0:0:0:0:
256,192,69189,1,0,0:0:0:0:
256,192,69353,1,2,0:0:0:0:
256,192,69517,1,2,0:0:0:0:
256,192,69681,1,2,0:0:0:0:
256,192,69845,1,2,0:0:0:0:
256,192,70009,1,0,0:0:0:0:
256,192,70173,1,0,0:0:0:0:
256,192,70337,1,2,0:0:0:0:
256,192,70501,1,0,0:0:0:0:
256,192,70583,1,0,0:0:0:0:
256,192,70665,1,2,0:0:0:0:
256,192,70829,1,2,0:0:0:0:
256,192,70992,1,0,0:0:0:0:
256,192,71074,1,2,0:0:0:0:
256,192,71156,1,2,0:0:0:0:
256,192,71320,1,2,0:0:0:0:
256,192,71484,1,2,0:0:0:0:
256,192,71566,1,2,0:0:0:0:
256,192,71648,1,2,0:0:0:0:
256,192,71812,1,2,0:0:0:0:
256,192,71867,1,2,0:0:0:0:
256,192,71921,1,2,0:0:0:0:
256,192,71976,1,2,0:0:0:0:
256,192,72140,1,2,0:0:0:0:
256,192,72304,1,2,0:0:0:0:
256,192,72386,1,2,0:0:0:0:
256,192,72468,1,0,0:0:0:0:
256,192,72550,1,0,0:0:0:0:
256,192,72632,1,0,0:0:0:0:
256,192,72796,1,0,0:0:0:0:
256,192,72960,1,2,0:0:0:0:
256,192,73124,1,0,0:0:0:0:
256,192,73206,1,0,0:0:0:0:
256,192,73288,1,2,0:0:0:0:
256,192,73451,1,2,0:0:0:0:
256,192,73615,1,0,0:0:0:0:
256,192,73697,1,2,0:0:0:0:
256,192,73779,1,2,0:0:0:0:
256,192,73943,1,2,0:0:0:0:
256,192,74107,1,2,0:0:0:0:
256,192,74189,1,2,0:0:0:0:
256,192,74271,1,2,0:0:0:0:
256,192,74435,1,2,0:0:0:0:
256,192,74490,1,2,0:0:0:0:
256,192,74544,1,2,0:0:0:0:
256,192,74599,1,2,0:0:0:0:
256,192,74763,1,2,0:0:0:0:
256,192,74927,1,2,0:0:0:0:
256,192,75009,1,2,0:0:0:0:
256,192,75091,1,0,0:0:0:0:
256,192,75173,1,0,0:0:0:0:
256,192,75255,1,0,0:0:0:0:
256,192,75419,1,0,0:0:0:0:
256,192,75583,1,2,0:0:0:0:
256,192,75637,1,2,0:0:0:0:
256,192,75692,1,2,0:0:0:0:
256,192,75747,1,2,0:0:0:0:
256,192,75910,1,0,0:0:0:0:
256,192,76074,1,2,0:0:0:0:
256,192,76402,1,0,0:0:0:0:
256,192,76566,1,0,0:0:0:0:
256,192,76730,1,0,0:0:0:0:
256,192,76894,1,2,0:0:0:0:
256,192,76949,1,2,0:0:0:0:
256,192,77003,1,2,0:0:0:0:
256,192,77058,1,2,0:0:0:0:
256,192,77222,1,0,0:0:0:0:
256,192,77386,1,2,0:0:0:0:
256,192,77714,1,2,0:0:0:0:
256,192,77878,1,0,0:0:0:0:
256,192,78042,1,0,0:0:0:0:
256,192,78206,1,2,0:0:0:0:
256,192,78288,1,2,0:0:0:0:
256,192,78369,1,0,0:0:0:0:
256,192,78451,1,0,0:0:0:0:
256,192,78533,1,0,0:0:0:0:
256,192,78697,1,2,0:0:0:0:
256,192,78779,1,2,0:0:0:0:
256,192,78861,1,0,0:0:0:0:
256,192,78943,1,2,0:0:0:0:
256,192,79025,1,0,0:0:0:0:
256,192,79189,1,2,0:0:0:0:
256,192,79271,1,2,0:0:0:0:
256,192,79353,1,0,0:0:0:0:
256,192,79435,1,0,0:0:0:0:
256,192,79517,1,2,0:0:0:0:
256,192,79599,1,2,0:0:0:0:
256,192,79681,1,0,0:0:0:0:
256,192,79763,1,2,0:0:0:0:
256,192,79845,1,0,0:0:0:0:
256,192,80009,1,2,0:0:0:0:
256,192,80063,1,2,0:0:0:0:
256,192,80118,1,2,0:0:0:0:
256,192,80173,1,2,0:0:0:0:
256,192,80501,1,0,0:0:0:0:
256,192,80583,1,0,0:0:0:0:
256,192,80665,1,0,0:0:0:0:
256,192,80747,1,0,0:0:0:0:
256,192,80829,1,2,0:0:0:0:
256,192,80910,1,0,0:0:0:0:
256,192,80992,1,2,0:0:0:0:
256,192,81074,1,0,0:0:0:0:
256,192,81156,1,0,0:0:0:0:
256,192,81238,1,0,0:0:0:0:
256,192,81320,1,0,0:0:0:0:
256,192,81402,1,0,0:0:0:0:
256,192,81484,1,2,0:0:0:0:
256,192,81566,1,0,0:0:0:0:
256,192,81648,1,2,0:0:0:0:
256,192,81730,1,0,0:0:0:0:
256,192,81812,1,0,0:0:0:0:
256,192,81894,1,0,0:0:0:0:
256,192,81976,1,0,0:0:0:0:
256,192,82058,1,0,0:0:0:0:
256,192,82140,1,2,0:0:0:0:
256,192,82222,1,0,0:0:0:0:
256,192,82304,1,2,0:0:0:0:
256,192,82386,1,0,0:0:0:0:
256,192,82468,1,2,0:0:0:0:
256,192,82523,1,2,0:0:0:0:
256,192,82577,1,2,0:0:0:0:
256,192,82632,1,2,0:0:0:0:
256,192,82714,1,0,0:0:0:0:
256,192,82796,1,2,0:0:0:0:
256,192,82878,1,0,0:0:0:0:
256,192,82960,1,2,0:0:0:0:
256,192,83042,1,0,0:0:0:0:
256,192,83124,1,0,0:0:0:0:
256,192,83206,1,0,0:0:0:0:
256,192,83288,1,0,0:0:0:0:
256,192,83369,1,0,0:0:0:0:
256,192,83451,1,2,0:0:0:0:
256,192,83533,1,0,0:0:0:0:
256,192,83615,1,2,0:0:0:0:
256,192,83697,1,0,0:0:0:0:
256,192,83779,1,0,0:0:0:0:
256,192,83861,1,0,0:0:0:0:
256,192,83943,1,0,0:0:0:0:
256,192,84025,1,0,0:0:0:0:
256,192,84107,1,2,0:0:0:0:
256,192,84189,1,0,0:0:0:0:
256,192,84271,1,2,0:0:0:0:
256,192,84353,1,0,0:0:0:0:
256,192,84435,1,0,0:0:0:0:
256,192,84517,1,0,0:0:0:0:
256,192,84599,1,0,0:0:0:0:
256,192,84681,1,0,0:0:0:0:
256,192,84763,1,2,0:0:0:0:
256,192,84845,1,0,0:0:0:0:
256,192,84927,1,2,0:0:0:0:
256,192,85009,1,0,0:0:0:0:
256,192,85091,1,2,0:0:0:0:
256,192,85145,1,2,0:0:0:0:
256,192,85200,1,2,0:0:0:0:
256,192,85255,1,2,0:0:0:0:
256,192,85337,1,0,0:0:0:0:
256,192,85419,1,2,0:0:0:0:
256,192,85501,1,0,0:0:0:0:
256,192,85583,1,2,0:0:0:0:
256,192,85665,1,0,0:0:0:0:
256,192,85747,1,0,0:0:0:0:
256,192,85829,1,0,0:0:0:0:
256,192,85910,1,2,0:0:0:0:
256,192,85992,1,0,0:0:0:0:
256,192,86074,1,2,0:0:0:0:
256,192,86156,1,0,0:0:0:0:
256,192,86238,1,2,0:0:0:0:
256,192,86320,1,0,0:0:0:0:
256,192,86402,1,0,0:0:0:0:
256,192,86484,1,0,0:0:0:0:
256,192,86566,1,2,0:0:0:0:
256,192,86648,1,0,0:0:0:0:
256,192,86730,1,2,0:0:0:0:
256,192,86812,1,0,0:0:0:0:
256,192,86894,1,2,0:0:0:0:
256,192,86976,1,0,0:0:0:0:
256,192,87058,1,0,0:0:0:0:
256,192,87140,1,0,0:0:0:0:
256,192,87222,1,2,0:0:0:0:
256,192,87304,1,0,0:0:0:0:
256,192,87386,1,2,0:0:0:0:
256,192,87468,1,0,0:0:0:0:
256,192,87550,1,2,0:0:0:0:
256,192,87632,1,0,0:0:0:0:
256,192,87714,1,2,0:0:0:0:
256,192,87768,1,2,0:0:0:0:
256,192,87823,1,0,0:0:0:0:
256,192,87878,1,0,0:0:0:0:
256,192,87960,1,0,0:0:0:0:
256,192,88042,1,2,0:0:0:0:
256,192,88124,1,0,0:0:0:0:
256,192,88206,1,2,0:0:0:0:
256,192,88288,1,0,0:0:0:0:
256,192,88369,1,0,0:0:0:0:
256,192,88451,1,0,0:0:0:0:
256,192,88533,1,2,0:0:0:0:
256,192,88615,1,0,0:0:0:0:
256,192,88697,1,2,0:0:0:0:
256,192,88779,1,0,0:0:0:0:
256,192,88861,1,2,0:0:0:0:
256,192,88943,1,0,0:0:0:0:
256,192,89025,1,0,0:0:0:0:
256,192,89107,1,0,0:0:0:0:
256,192,89189,1,2,0:0:0:0:
256,192,89271,1,0,0:0:0:0:
256,192,89353,1,2,0:0:0:0:
256,192,89435,1,0,0:0:0:0:
256,192,89517,1,2,0:0:0:0:
256,192,89599,1,0,0:0:0:0:
256,192,89681,1,0,0:0:0:0:
256,192,89763,1,0,0:0:0:0:
256,192,89845,1,2,0:0:0:0:
256,192,89927,1,0,0:0:0:0:
256,192,90009,1,2,0:0:0:0:
256,192,90091,1,0,0:0:0:0:
256,192,90173,1,2,0:0:0:0:
256,192,90255,1,0,0:0:0:0:
256,192,90337,1,2,0:0:0:0:
256,192,90501,1,0,0:0:0:0:
256,192,90665,1,2,0:0:0:0:
256,192,90829,1,0,0:0:0:0:
256,192,90992,1,4,0:0:0:0:
256,192,91320,1,2,0:0:0:0:
256,192,91484,1,2,0:0:0:0:
256,192,92140,1,0,0:0:0:0:
256,192,92222,1,0,0:0:0:0:
256,192,92304,1,0,0:0:0:0:
256,192,92468,1,0,0:0:0:0:
256,192,92632,1,2,0:0:0:0:
256,192,92796,1,0,0:0:0:0:
256,192,92878,1,2,0:0:0:0:
256,192,93042,1,2,0:0:0:0:
256,192,93096,1,2,0:0:0:0:
256,192,93151,1,2,0:0:0:0:
256,192,93206,1,0,0:0:0:0:
256,192,93288,1,0,0:0:0:0:
256,192,93451,1,2,0:0:0:0:
256,192,93615,1,0,0:0:0:0:
256,192,93779,1,2,0:0:0:0:
256,192,93943,1,0,0:0:0:0:
256,192,94025,1,0,0:0:0:0:
256,192,94107,1,2,0:0:0:0:
256,192,94271,1,0,0:0:0:0:
256,192,94435,1,2,0:0:0:0:
256,192,94599,1,0,0:0:0:0:
256,192,94681,1,2,0:0:0:0:
256,192,94763,1,2,0:0:0:0:
256,192,94927,1,0,0:0:0:0:
256,192,95091,1,2,0:0:0:0:
256,192,95255,1,0,0:0:0:0:
256,192,95337,1,0,0:0:0:0:
256,192,95419,1,2,0:0:0:0:
256,192,95583,1,0,0:0:0:0:
256,192,95747,1,2,0:0:0:0:
256,192,95910,1,2,0:0:0:0:
256,192,95965,1,2,0:0:0:0:
256,192,96020,1,2,0:0:0:0:
256,192,96074,1,2,0:0:0:0:
256,192,96129,1,2,0:0:0:0:
256,192,96184,1,2,0:0:0:0:
256,192,96238,1,0,0:0:0:0:
256,192,96402,1,2,0:0:0:0:
256,192,96566,1,0,0:0:0:0:
256,192,96648,1,0,0:0:0:0:
256,192,96730,1,2,0:0:0:0:
256,192,96894,1,0,0:0:0:0:
256,192,97058,1,2,0:0:0:0:
256,192,97222,1,0,0:0:0:0:
256,192,97304,1,2,0:0:0:0:
256,192,97386,1,2,0:0:0:0:
256,192,97550,1,0,0:0:0:0:
256,192,97714,1,0,0:0:0:0:
256,192,97878,1,2,0:0:0:0:
256,192,97960,1,2,0:0:0:0:
256,192,98042,1,0,0:0:0:0:
256,192,98124,1,0,0:0:0:0:
256,192,98206,1,2,0:0:0:0:
256,192,98288,1,0,0:0:0:0:
256,192,98369,1,2,0:0:0:0:
256,192,98451,1,0,0:0:0:0:
256,192,98533,1,2,0:0:0:0:
256,192,98588,1,2,0:0:0:0:
256,192,98643,1,2,0:0:0:0:
256,192,98697,1,2,0:0:0:0:
256,192,98752,1,2,0:0:0:0:
256,192,98807,1,2,0:0:0:0:
256,192,98861,1,0,0:0:0:0:
256,192,99107,1,2,0:0:0:0:
256,192,99189,1,0,0:0:0:0:
256,192,99353,1,2,0:0:0:0:
256,192,99517,1,0,0:0:0:0:
256,192,99681,1,2,0:0:0:0:
256,192,99845,1,0,0:0:0:0:
256,192,99927,1,0,0:0:0:0:
256,192,100009,1,2,0:0:0:0:
256,192,100173,1,0,0:0:0:0:
256,192,100419,1,2,0:0:0:0:
256,192,100501,1,0,0:0:0:0:
256,192,100665,1,2,0:0:0:0:
256,192,100829,1,0,0:0:0:0:
256,192,100992,1,2,0:0:0:0:
256,192,101156,1,0,0:0:0:0:
256,192,101238,1,2,0:0:0:0:
256,192,101320,1,2,0:0:0:0:
256,192,101484,1,0,0:0:0:0:
256,192,101730,1,2,0:0:0:0:
256,192,101812,1,0,0:0:0:0:
256,192,101976,1,2,0:0:0:0:
256,192,102140,1,0,0:0:0:0:
256,192,102304,1,2,0:0:0:0:
256,192,102468,1,0,0:0:0:0:
256,192,102550,1,2,0:0:0:0:
256,192,102632,1,0,0:0:0:0:
256,192,102796,1,0,0:0:0:0:
256,192,102960,1,2,0:0:0:0:
256,192,103042,1,0,0:0:0:0:
256,192,103206,1,0,0:0:0:0:
256,192,103288,1,2,0:0:0:0:
256,192,103615,1,6,0:0:0:0:
256,192,103779,1,2,0:0:0:0:
256,192,103834,1,2,0:0:0:0:
256,192,103889,1,2,0:0:0:0:
256,192,103943,1,0,0:0:0:0:
256,192,104025,1,0,0:0:0:0:
256,192,104107,1,0,0:0:0:0:
256,192,104353,1,2,0:0:0:0:
256,192,104435,1,0,0:0:0:0:
256,192,104599,1,2,0:0:0:0:
256,192,104763,1,0,0:0:0:0:
256,192,104927,1,2,0:0:0:0:
256,192,105091,1,0,0:0:0:0:
256,192,105173,1,0,0:0:0:0:
256,192,105255,1,2,0:0:0:0:
256,192,105419,1,0,0:0:0:0:
256,192,105665,1,2,0:0:0:0:
256,192,105747,1,0,0:0:0:0:
256,192,105910,1,2,0:0:0:0:
256,192,106074,1,0,0:0:0:0:
256,192,106238,1,2,0:0:0:0:
256,192,106402,1,0,0:0:0:0:
256,192,106484,1,2,0:0:0:0:
256,192,106566,1,2,0:0:0:0:
256,192,106730,1,0,0:0:0:0:
256,192,106976,1,2,0:0:0:0:
256,192,107058,1,0,0:0:0:0:
256,192,107222,1,2,0:0:0:0:
256,192,107386,1,0,0:0:0:0:
256,192,107550,1,2,0:0:0:0:
256,192,107714,1,0,0:0:0:0:
256,192,107796,1,2,0:0:0:0:
256,192,107878,1,0,0:0:0:0:
256,192,108042,1,0,0:0:0:0:
256,192,108206,1,2,0:0:0:0:
256,192,108288,1,0,0:0:0:0:
256,192,108451,1,0,0:0:0:0:
256,192,108533,1,2,0:0:0:0:
256,192,108861,1,6,0:0:0:0:
256,192,109025,1,2,0:0:0:0:
256,192,109080,1,2,0:0:0:0:
256,192,109135,1,2,0:0:0:0:
256,192,109189,1,0,0:0:0:0:
256,192,109271,1,0,0:0:0:0:
256,192,109353,1,0,0:0:0:0:
256,192,109517,1,0,0:0:0:0:
256,192,109599,1,2,0:0:0:0:
256,192,109763,1,2,0:0:0:0:
256,192,109845,1,0,0:0:0:0:
256,192,110009,1,0,0:0:0:0:
256,192,110173,1,2,0:0:0:0:
256,192,110255,1,0,0:0:0:0:
256,192,110419,1,0,0:0:0:0:
256,192,110501,1,2,0:0:0:0:
256,192,110665,1,0,0:0:0:0:
256,192,110829,1,0,0:0:0:0:
256,192,110910,1,2,0:0:0:0:
256,192,111074,1,2,0:0:0:0:
256,192,111156,1,0,0:0:0:0:
256,192,111320,1,0,0:0:0:0:
256,192,111484,1,2,0:0:0:0:
256,192,111566,1,0,0:0:0:0:
256,192,111648,1,2,0:0:0:0:
256,192,111730,1,0,0:0:0:0:
256,192,111812,1,2,0:0:0:0:
256,192,111976,1,0,0:0:0:0:
256,192,112140,1,0,0:0:0:0:
256,192,112222,1,2,0:0:0:0:
256,192,112386,1,2,0:0:0:0:
256,192,112468,1,0,0:0:0:0:
256,192,112550,1,2,0:0:0:0:
256,192,112632,1,0,0:0:0:0:
256,192,112796,1,0,0:0:0:0:
256,192,112878,1,2,0:0:0:0:
256,192,113042,1,2,0:0:0:0:
256,192,113124,1,0,0:0:0:0:
256,192,113206,1,2,0:0:0:0:
256,192,113288,1,0,0:0:0:0:
256,192,113451,1,0,0:0:0:0:
256,192,113533,1,2,0:0:0:0:
256,192,113697,1,2,0:0:0:0:
256,192,113779,1,0,0:0:0:0:
256,192,113861,1,2,0:0:0:0:
256,192,113943,1,0,0:0:0:0:
256,192,114107,1,0,0:0:0:0:
256,192,114271,1,2,0:0:0:0:
256,192,114435,1,0,0:0:0:0:
256,192,114517,1,0,0:0:0:0:
256,192,114599,1,0,0:0:0:0:
256,192,114763,1,4,0:0:0:0:
256,192,114927,1,0,0:0:0:0:
256,192,115091,1,4,0:0:0:0:
256,192,115255,1,0,0:0:0:0:
256,192,115419,1,4,0:0:0:0:
256,192,115583,1,0,0:0:0:0:
256,192,115747,1,4,0:0:0:0:
256,192,115910,1,0,0:0:0:0:
256,192,116074,1,6,0:0:0:0:
256,192,116238,1,0,0:0:0:0:
256,192,116402,1,6,0:0:0:0:
256,192,116566,1,6,0:0:0:0:
256,192,116730,1,0,0:0:0:0:
256,192,116894,1,6,0:0:0:0:
256,192,117058,1,6,0:0:0:0:
256,192,117222,1,4,0:0:0:0:
256,192,117386,1,4,0:0:0:0:
256,192,117550,1,0,0:0:0:0:
256,192,117632,1,0,0:0:0:0:
256,192,117714,1,0,0:0:0:0:
256,192,117796,1,0,0:0:0:0:
256,192,117878,1,0,0:0:0:0:
256,192,117960,1,0,0:0:0:0:
256,192,118042,1,0,0:0:0:0:
256,192,118124,1,0,0:0:0:0:
256,192,118206,1,0,0:0:0:0:
256,192,118288,1,0,0:0:0:0:
256,192,118369,1,0,0:0:0:0:
256,192,118451,1,0,0:0:0:0:
256,192,118533,1,2,0:0:0:0:
256,192,118615,1,2,0:0:0:0:
256,192,118697,1,0,0:0:0:0:
256,192,118779,1,2,0:0:0:0:
256,192,118834,1,2,0:0:0:0:
256,192,118889,1,2,0:0:0:0:
256,192,118943,1,2,0:0:0:0:
256,192,119025,1,0,0:0:0:0:
256,192,119107,1,2,0:0:0:0:
256,192,119162,1,2,0:0:0:0:
256,192,119216,1,2,0:0:0:0:
256,192,119271,1,2,0:0:0:0:
256,192,119353,1,0,0:0:0:0:
256,192,119435,1,2,0:0:0:0:
256,192,119517,1,0,0:0:0:0:
256,192,119572,1,2,0:0:0:0:
256,192,119626,1,0,0:0:0:0:
256,192,119681,1,2,0:0:0:0:
256,192,119736,1,0,0:0:0:0:
256,192,119790,1,2,0:0:0:0:
256,192,119845,1,0,0:0:0:0:
256,192,126047,5,8,0:0:0:0:
256,192,126141,1,8,0:0:0:0:
256,192,126235,1,8,0:0:0:0:
256,192,126422,1,4,0:0:0:0:
256,192,126610,1,4,0:0:0:0:
256,192,126985,1,12,0:0:0:0:
256,192,127360,1,4,0:0:0:0:
256,192,127922,1,4,0:0:0:0:
256,192,128297,1,12,0:0:0:0:
256,192,128485,1,12,0:0:0:0:
256,192,128672,1,8,0:0:0:0:
256,192,128766,1,8,0:0:0:0:
256,192,128860,1,0,0:0:0:0:
256,192,129235,1,8,0:0:0:0:
256,192,129797,1,0,0:0:0:0:
256,192,129985,1,8,0:0:0:0:
256,192,130172,1,0,0:0:0:0:
256,192,130360,1,0,0:0:0:0:
256,192,130735,1,8,0:0:0:0:
256,192,131297,1,0,0:0:0:0:
256,192,131485,1,8,0:0:0:0:
256,192,131672,1,8,0:0:0:0:
256,192,131860,1,0,0:0:0:0:
256,192,132235,1,8,0:0:0:0:
256,192,132797,1,0,0:0:0:0:
256,192,132985,1,8,0:0:0:0:
256,192,133172,1,0,0:0:0:0:
256,192,133360,1,0,0:0:0:0:
256,192,133735,1,8,0:0:0:0:
256,192,133922,1,0,0:0:0:0:
256,192,134110,1,0,0:0:0:0:
256,192,134203,1,0,0:0:0:0:
256,192,134250,1,0,0:0:0:0:
256,192,134297,1,8,0:0:0:0:
256,192,134485,1,8,0:0:0:0:
256,192,134531,1,8,0:0:0:0:
256,192,134578,1,8,0:0:0:0:
256,192,134672,1,8,0:0:0:0:
256,192,134719,1,8,0:0:0:0:
256,192,134766,1,8,0:0:0:0:
256,192,134860,1,0,0:0:0:0:
256,192,135235,1,8,0:0:0:0:
256,192,135422,1,0,0:0:0:0:
256,192,135797,1,0,0:0:0:0:
256,192,135985,1,8,0:0:0:0:
256,192,136172,1,8,0:0:0:0:
256,192,136360,1,0,0:0:0:0:
256,192,136735,1,8,0:0:0:0:
256,192,136922,1,0,0:0:0:0:
256,192,137297,1,0,0:0:0:0:
256,192,137485,1,8,0:0:0:0:
256,192,137672,1,8,0:0:0:0:
256,192,137766,1,8,0:0:0:0:
256,192,137813,1,8,0:0:0:0:
256,192,137860,1,0,0:0:0:0:
256,192,138235,1,8,0:0:0:0:
256,192,138422,1,0,0:0:0:0:
256,192,138797,1,0,0:0:0:0:
256,192,138985,1,8,0:0:0:0:
256,192,139172,1,0,0:0:0:0:
256,192,139360,1,0,0:0:0:0:
256,192,139547,1,8,0:0:0:0:
256,192,139735,1,8,0:0:0:0:
256,192,139922,1,0,0:0:0:0:
256,192,140110,1,8,0:0:0:0:
256,192,140297,1,8,0:0:0:0:
256,192,140485,1,0,0:0:0:0:
256,192,140531,1,8,0:0:0:0:
256,192,140578,1,0,0:0:0:0:
256,192,140625,1,8,0:0:0:0:
256,192,140672,1,0,0:0:0:0:
256,192,140719,1,8,0:0:0:0:
256,192,140766,1,0,0:0:0:0:
256,192,140813,1,8,0:0:0:0:
256,192,140860,1,0,0:0:0:0:
256,192,141047,1,0,0:0:0:0:
256,192,141235,1,0,0:0:0:0:
256,192,141422,1,0,0:0:0:0:
256,192,141610,1,8,0:0:0:0:
256,192,141797,1,8,0:0:0:0:
256,192,141985,1,8,0:0:0:0:
256,192,142172,1,8,0:0:0:0:
256,192,142360,1,0,0:0:0:0:
256,192,142547,1,8,0:0:0:0:
256,192,142735,1,0,0:0:0:0:
256,192,142922,1,0,0:0:0:0:
256,192,143110,1,8,0:0:0:0:
256,192,143297,1,0,0:0:0:0:
256,192,143485,1,0,0:0:0:0:
256,192,143672,1,8,0:0:0:0:
256,192,143860,1,0,0:0:0:0:
256,192,144047,1,0,0:0:0:0:
256,192,144235,1,0,0:0:0:0:
256,192,144422,1,0,0:0:0:0:
256,192,144610,1,8,0:0:0:0:
256,192,144797,1,8,0:0:0:0:
256,192,144985,1,8,0:0:0:0:
256,192,145172,1,8,0:0:0:0:
256,192,145360,1,0,0:0:0:0:
256,192,145547,1,8,0:0:0:0:
256,192,145735,1,0,0:0:0:0:
256,192,145922,1,0,0:0:0:0:
256,192,146110,1,8,0:0:0:0:
256,192,146297,1,0,0:0:0:0:
256,192,146485,1,8,0:0:0:0:
256,192,146672,1,8,0:0:0:0:
256,192,146860,1,0,0:0:0:0:
256,192,147047,1,8,0:0:0:0:
256,192,147235,1,0,0:0:0:0:
256,192,147422,1,8,0:0:0:0:
256,192,147610,1,8,0:0:0:0:
256,192,147703,1,8,0:0:0:0:
256,192,147750,1,8,0:0:0:0:
256,192,147797,1,0,0:0:0:0:
256,192,147985,1,8,0:0:0:0:
256,192,148172,1,0,0:0:0:0:
256,192,148360,1,8,0:0:0:0:
256,192,148547,1,8,0:0:0:0:
256,192,148735,1,0,0:0:0:0:
256,192,148922,1,8,0:0:0:0:
256,192,149110,1,8,0:0:0:0:
256,192,149203,1,8,0:0:0:0:
256,192,149250,1,8,0:0:0:0:
256,192,149297,1,0,0:0:0:0:
256,192,149485,1,8,0:0:0:0:
256,192,149672,1,8,0:0:0:0:
256,192,149860,1,8,0:0:0:0:
256,192,150047,1,8,0:0:0:0:
256,192,150235,1,8,0:0:0:0:
256,192,150422,1,0,0:0:0:0:
256,192,150610,1,8,0:0:0:0:
256,192,150797,1,8,0:0:0:0:
256,192,150985,1,0,0:0:0:0:
256,192,151172,1,8,0:0:0:0:
256,192,151360,1,0,0:0:0:0:
256,192,151547,1,8,0:0:0:0:
256,192,151735,1,8,0:0:0:0:
256,192,151922,1,0,0:0:0:0:
256,192,152110,1,8,0:0:0:0:
256,192,152156,1,8,0:0:0:0:
256,192,152203,1,0,0:0:0:0:
256,192,152250,1,0,0:0:0:0:
256,192,152297,1,8,0:0:0:0:
256,192,152344,1,8,0:0:0:0:
256,192,152391,1,0,0:0:0:0:
256,192,152438,1,0,0:0:0:0:
256,192,152485,1,8,0:0:0:0:
256,192,152531,1,8,0:0:0:0:
256,192,152578,1,8,0:0:0:0:
256,192,152625,1,8,0:0:0:0:
256,192,152672,1,0,0:0:0:0:
256,192,152719,1,0,0:0:0:0:
256,192,152766,1,8,0:0:0:0:
256,192,152813,1,8,0:0:0:0:
256,192,152860,1,0,0:0:0:0:
256,192,153047,1,8,0:0:0:0:
256,192,153141,1,8,0:0:0:0:
256,192,153235,1,8,0:0:0:0:
256,192,153422,1,8,0:0:0:0:
256,192,153610,1,0,0:0:0:0:
256,192,153797,1,8,0:0:0:0:
256,192,153891,1,8,0:0:0:0:
256,192,153985,1,8,0:0:0:0:
256,192,154172,1,8,0:0:0:0:
256,192,154360,1,0,0:0:0:0:
256,192,154547,1,8,0:0:0:0:
256,192,154641,1,8,0:0:0:0:
256,192,154735,1,8,0:0:0:0:
256,192,154922,1,8,0:0:0:0:
256,192,155110,1,0,0:0:0:0:
256,192,155297,1,8,0:0:0:0:
256,192,155485,1,8,0:0:0:0:
256,192,155672,1,8,0:0:0:0:
256,192,155860,1,0,0:0:0:0:
256,192,156047,1,8,0:0:0:0:
256,192,156141,1,8,0:0:0:0:
256,192,156235,1,8,0:0:0:0:
256,192,156422,1,8,0:0:0:0:
256,192,156610,1,0,0:0:0:0:
256,192,156797,1,8,0:0:0:0:
256,192,156891,1,8,0:0:0:0:
256,192,156985,1,8,0:0:0:0:
256,192,157172,1,8,0:0:0:0:
256,192,157360,1,0,0:0:0:0:
256,192,157547,1,8,0:0:0:0:
256,192,157641,1,8,0:0:0:0:
256,192,157735,1,8,0:0:0:0:
256,192,157922,1,8,0:0:0:0:
256,192,158110,1,0,0:0:0:0:
256,192,158297,1,8,0:0:0:0:
256,192,158391,1,8,0:0:0:0:
256,192,158438,1,8,0:0:0:0:
256,192,158485,1,0,0:0:0:0:
256,192,158578,1,8,0:0:0:0:
256,192,158625,1,8,0:0:0:0:
256,192,158672,1,0,0:0:0:0:
256,192,158860,1,8,0:0:0:0:
256,192,159047,1,8,0:0:0:0:
256,192,159141,1,0,0:0:0:0:
256,192,159235,1,8,0:0:0:0:
256,192,159422,1,8,0:0:0:0:
256,192,159610,1,8,0:0:0:0:
256,192,159797,1,8,0:0:0:0:
256,192,159891,1,0,0:0:0:0:
256,192,159985,1,8,0:0:0:0:
256,192,160172,1,8,0:0:0:0:
256,192,160360,1,8,0:0:0:0:
256,192,160547,1,8,0:0:0:0:
256,192,160641,1,8,0:0:0:0:
256,192,160735,1,0,0:0:0:0:
256,192,160922,1,8,0:0:0:0:
256,192,161110,1,8,0:0:0:0:
256,192,161297,1,8,0:0:0:0:
256,192,161485,1,0,0:0:0:0:
256,192,161672,1,8,0:0:0:0:
256,192,161860,1,8,0:0:0:0:
256,192,162047,1,8,0:0:0:0:
256,192,162141,1,8,0:0:0:0:
256,192,162235,1,0,0:0:0:0:
256,192,162422,1,8,0:0:0:0:
256,192,162610,1,8,0:0:0:0:
256,192,162797,1,8,0:0:0:0:
256,192,162891,1,8,0:0:0:0:
256,192,162985,1,0,0:0:0:0:
256,192,163172,1,8,0:0:0:0:
256,192,163360,1,8,0:0:0:0:
256,192,163406,1,8,0:0:0:0:
256,192,163453,1,8,0:0:0:0:
256,192,163500,1,8,0:0:0:0:
256,192,163547,1,8,0:0:0:0:
256,192,163594,1,8,0:0:0:0:
256,192,163641,1,8,0:0:0:0:
256,192,163688,1,8,0:0:0:0:
256,192,163735,1,8,0:0:0:0:
256,192,163781,1,8,0:0:0:0:
256,192,163828,1,0,0:0:0:0:
256,192,163875,1,0,0:0:0:0:
256,192,163922,1,8,0:0:0:0:
256,192,163969,1,8,0:0:0:0:
256,192,164016,1,8,0:0:0:0:
256,192,164063,1,8,0:0:0:0:
256,192,164110,1,8,0:0:0:0:
256,192,164156,1,8,0:0:0:0:
256,192,164203,1,8,0:0:0:0:
256,192,164250,1,8,0:0:0:0:
256,192,164297,1,0,0:0:0:0:
256,192,164344,1,0,0:0:0:0:
256,192,164391,1,0,0:0:0:0:
256,192,164438,1,0,0:0:0:0:
256,192,164485,1,8,0:0:0:0:
256,192,164531,1,8,0:0:0:0:
256,192,164578,1,8,0:0:0:0:
256,192,164625,1,8,0:0:0:0:
256,192,164672,1,8,0:0:0:0:
256,192,164719,1,8,0:0:0:0:
256,192,164766,1,8,0:0:0:0:
256,192,164813,1,8,0:0:0:0:
256,192,164860,1,0,0:0:0:0:
256,192,165610,1,0,0:0:0:0:
256,192,166172,1,12,0:0:0:0:
256,192,166547,1,12,0:0:0:0:
256,192,167110,1,0,0:0:0:0:
256,192,168047,1,12,0:0:0:0:
256,192,168235,1,12,0:0:0:0:
256,192,168610,1,0,0:0:0:0:
256,192,168985,1,8,0:0:0:0:
256,192,169547,1,0,0:0:0:0:
256,192,169735,1,8,0:0:0:0:
256,192,169922,1,8,0:0:0:0:
256,192,170110,1,0,0:0:0:0:
256,192,170297,1,8,0:0:0:0:
256,192,170485,1,8,0:0:0:0:
256,192,170672,1,0,0:0:0:0:
256,192,170860,1,8,0:0:0:0:
256,192,171047,1,8,0:0:0:0:
256,192,171235,1,0,0:0:0:0:
256,192,171422,1,12,0:0:0:0:
256,192,171985,1,0,0:0:0:0:
256,192,172172,1,0,0:0:0:0:
256,192,172360,1,8,0:0:0:0:
256,192,172547,1,0,0:0:0:0:
256,192,172735,1,0,0:0:0:0:
256,192,172922,1,8,0:0:0:0:
256,192,173016,1,8,0:0:0:0:
256,192,173110,1,8,0:0:0:0:
256,192,173297,1,8,0:0:0:0:
256,192,173485,1,0,0:0:0:0:
256,192,173672,1,8,0:0:0:0:
256,192,173860,1,0,0:0:0:0:
256,192,174047,1,8,0:0:0:0:
256,192,174235,1,0,0:0:0:0:
256,192,174422,1,8,0:0:0:0:
256,192,174516,1,8,0:0:0:0:
256,192,174610,1,8,0:0:0:0:
256,192,174797,1,8,0:0:0:0:
256,192,174985,1,0,0:0:0:0:
256,192,175078,1,0,0:0:0:0:
256,192,175172,1,8,0:0:0:0:
256,192,175360,1,0,0:0:0:0:
256,192,175547,1,8,0:0:0:0:
256,192,175735,1,0,0:0:0:0:
256,192,175922,1,8,0:0:0:0:
256,192,176016,1,8,0:0:0:0:
256,192,176110,1,8,0:0:0:0:
256,192,176297,1,8,0:0:0:0:
256,192,176485,1,0,0:0:0:0:
256,192,176672,1,8,0:0:0:0:
256,192,176860,1,8,0:0:0:0:
256,192,177047,1,8,0:0:0:0:
256,192,177235,1,8,0:0:0:0:
256,192,177422,1,8,0:0:0:0:
256,192,177516,1,0,0:0:0:0:
256,192,177610,1,0,0:0:0:0:
256,192,177797,1,0,0:0:0:0:
256,192,177985,1,8,0:0:0:0:
256,192,178172,1,0,0:0:0:0:
256,192,178360,1,8,0:0:0:0:
256,192,178547,1,0,0:0:0:0:
256,192,178735,1,8,0:0:0:0:
256,192,178922,1,8,0:0:0:0:
256,192,179016,1,8,0:0:0:0:
256,192,179110,1,0,0:0:0:0:
256,192,179297,1,0,0:0:0:0:
256,192,179485,1,0,0:0:0:0:
256,192,179672,1,8,0:0:0:0:
256,192,179860,1,0,0:0:0:0:
256,192,180047,1,8,0:0:0:0:
256,192,180235,1,0,0:0:0:0:
256,192,180422,1,8,0:0:0:0:
256,192,180516,1,0,0:0:0:0:
256,192,180797,1,8,0:0:0:0:
256,192,180985,1,0,0:0:0:0:
256,192,181078,1,0,0:0:0:0:
256,192,181172,1,8,0:0:0:0:
256,192,181266,1,8,0:0:0:0:
256,192,181360,1,0,0:0:0:0:
256,192,181453,1,0,0:0:0:0:
256,192,181547,1,8,0:0:0:0:
256,192,181641,1,8,0:0:0:0:
256,192,181735,1,0,0:0:0:0:
256,192,181922,1,8,0:0:0:0:
256,192,182016,1,8,0:0:0:0:
256,192,182110,1,8,0:0:0:0:
256,192,182297,1,8,0:0:0:0:
256,192,182485,1,0,0:0:0:0:
256,192,182578,1,0,0:0:0:0:
256,192,182672,1,0,0:0:0:0:
256,192,182766,1,0,0:0:0:0:
256,192,182860,1,8,0:0:0:0:
256,192,182953,1,8,0:0:0:0:
256,192,183047,1,8,0:0:0:0:
256,192,183141,1,8,0:0:0:0:
256,192,183235,1,0,0:0:0:0:
256,192,183422,1,0,0:0:0:0:
256,192,183610,1,0,0:0:0:0:
256,192,183703,1,8,0:0:0:0:
256,192,183750,1,8,0:0:0:0:
256,192,183797,1,0,0:0:0:0:
256,192,183891,1,8,0:0:0:0:
256,192,183938,1,8,0:0:0:0:
256,192,183985,1,0,0:0:0:0:
256,192,184172,1,8,0:0:0:0:
256,192,184360,1,0,0:0:0:0:
256,192,184547,1,8,0:0:0:0:
256,192,184735,1,0,0:0:0:0:
256,192,184922,1,8,0:0:0:0:
256,192,185016,1,8,0:0:0:0:
256,192,185110,1,0,0:0:0:0:
256,192,185485,1,0,0:0:0:0:
256,192,185672,1,8,0:0:0:0:
256,192,185860,1,0,0:0:0:0:
256,192,186047,1,8,0:0:0:0:
256,192,186235,1,0,0:0:0:0:
256,192,186422,1,8,0:0:0:0:
256,192,186516,1,8,0:0:0:0:
256,192,186610,1,0,0:0:0:0:
256,192,186985,1,0,0:0:0:0:
256,192,187172,1,8,0:0:0:0:
256,192,187360,1,0,0:0:0:0:
256,192,187547,1,8,0:0:0:0:
256,192,187735,1,0,0:0:0:0:
256,192,187922,1,8,0:0:0:0:
256,192,188016,1,8,0:0:0:0:
256,192,188110,1,0,0:0:0:0:
256,192,188485,1,0,0:0:0:0:
256,192,188672,1,8,0:0:0:0:
256,192,188860,1,8,0:0:0:0:
256,192,189047,1,0,0:0:0:0:
256,192,189235,1,8,0:0:0:0:
256,192,189422,1,8,0:0:0:0:
256,192,189516,1,0,0:0:0:0:
256,192,189610,1,8,0:0:0:0:
256,192,189703,1,8,0:0:0:0:
256,192,189750,1,8,0:0:0:0:
256,192,189797,1,0,0:0:0:0:
256,192,189891,1,0,0:0:0:0:
256,192,189938,1,0,0:0:0:0:
256,192,189985,1,0,0:0:0:0:
256,192,190172,1,8,0:0:0:0:
256,192,190360,1,0,0:0:0:0:
256,192,190547,1,8,0:0:0:0:
256,192,190735,1,0,0:0:0:0:
256,192,190922,1,8,0:0:0:0:
256,192,191016,1,8,0:0:0:0:
256,192,191110,1,8,0:0:0:0:
256,192,191485,1,0,0:0:0:0:
256,192,191672,1,8,0:0:0:0:
256,192,191860,1,0,0:0:0:0:
256,192,192047,1,8,0:0:0:0:
256,192,192235,1,0,0:0:0:0:
256,192,192422,1,8,0:0:0:0:
256,192,192516,1,8,0:0:0:0:
256,192,192610,1,8,0:0:0:0:
256,192,192797,1,0,0:0:0:0:
256,192,192985,1,8,0:0:0:0:
256,192,193172,1,8,0:0:0:0:
256,192,193360,1,8,0:0:0:0:
256,192,193453,1,8,0:0:0:0:
256,192,193500,1,8,0:0:0:0:
256,192,193547,1,8,0:0:0:0:
256,192,193641,1,8,0:0:0:0:
256,192,193688,1,8,0:0:0:0:
256,192,193735,1,8,0:0:0:0:
256,192,193922,1,8,0:0:0:0:
256,192,194016,1,0,0:0:0:0:
256,192,194110,1,0,0:0:0:0:
256,192,194297,1,0,0:0:0:0:
256,192,194485,1,8,0:0:0:0:
256,192,194672,1,8,0:0:0:0:
256,192,194860,1,8,0:0:0:0:
256,192,195047,1,8,0:0:0:0:
256,192,195235,1,0,0:0:0:0:
256,192,195422,1,8,0:0:0:0:
256,192,195516,1,8,0:0:0:0:
256,192,195610,1,8,0:0:0:0:
256,192,195797,1,0,0:0:0:0:
256,192,195844,1,0,0:0:0:0:
256,192,195891,1,0,0:0:0:0:
256,192,195938,1,0,0:0:0:0:
256,192,195985,1,8,0:0:0:0:
256,192,196172,1,0,0:0:0:0:
256,192,196360,1,8,0:0:0:0:
256,192,196547,1,0,0:0:0:0:
256,192,196735,1,8,0:0:0:0:
256,192,196922,1,8,0:0:0:0:
256,192,197016,1,0,0:0:0:0:
256,192,197110,1,0,0:0:0:0:
256,192,197297,1,8,0:0:0:0:
256,192,197391,1,8,0:0:0:0:
256,192,197438,1,8,0:0:0:0:
256,192,197485,1,8,0:0:0:0:
256,192,197672,1,0,0:0:0:0:
256,192,197860,1,8,0:0:0:0:
256,192,198047,1,0,0:0:0:0:
256,192,198141,1,8,0:0:0:0:
256,192,198188,1,8,0:0:0:0:
256,192,198235,1,8,0:0:0:0:
256,192,198422,1,8,0:0:0:0:
256,192,198516,1,0,0:0:0:0:
256,192,198610,1,0,0:0:0:0:
256,192,198797,1,8,0:0:0:0:
256,192,198891,1,8,0:0:0:0:
256,192,198938,1,8,0:0:0:0:
256,192,198985,1,8,0:0:0:0:
256,192,199172,1,0,0:0:0:0:
256,192,199360,1,8,0:0:0:0:
256,192,199547,1,0,0:0:0:0:
256,192,199735,1,8,0:0:0:0:
256,192,199922,1,0,0:0:0:0:
256,192,200016,1,0,0:0:0:0:
256,192,200110,1,0,0:0:0:0:
256,192,200297,1,8,0:0:0:0:
256,192,200391,1,8,0:0:0:0:
256,192,200438,1,8,0:0:0:0:
256,192,200485,1,8,0:0:0:0:
256,192,200672,1,0,0:0:0:0:
256,192,200860,1,8,0:0:0:0:
256,192,201047,1,0,0:0:0:0:
256,192,201141,1,8,0:0:0:0:
256,192,201188,1,8,0:0:0:0:
256,192,201235,1,8,0:0:0:0:
256,192,201422,1,8,0:0:0:0:
256,192,201516,1,0,0:0:0:0:
256,192,201610,1,0,0:0:0:0:
256,192,201797,1,8,0:0:0:0:
256,192,201891,1,8,0:0:0:0:
256,192,201938,1,8,0:0:0:0:
256,192,201985,1,0,0:0:0:0:
256,192,202172,1,8,0:0:0:0:
256,192,202360,1,0,0:0:0:0:
256,192,202547,1,8,0:0:0:0:
256,192,202735,1,0,0:0:0:0:
256,192,202922,1,8,0:0:0:0:
256,192,203110,1,0,0:0:0:0:
256,192,203297,1,8,0:0:0:0:
256,192,203391,1,8,0:0:0:0:
256,192,203438,1,8,0:0:0:0:
256,192,203485,1,0,0:0:0:0:
256,192,203672,1,8,0:0:0:0:
256,192,203860,1,0,0:0:0:0:
256,192,204047,1,8,0:0:0:0:
256,192,204141,1,8,0:0:0:0:
256,192,204188,1,8,0:0:0:0:
256,192,204235,1,0,0:0:0:0:
256,192,204422,1,8,0:0:0:0:
256,192,204516,1,0,0:0:0:0:
256,192,204610,1,0,0:0:0:0:
256,192,204797,1,8,0:0:0:0:
256,192,204891,1,8,0:0:0:0:
256,192,204938,1,8,0:0:0:0:
256,192,204985,1,0,0:0:0:0:
256,192,205172,1,8,0:0:0:0:
256,192,205360,1,0,0:0:0:0:
256,192,205547,1,8,0:0:0:0:
256,192,205641,1,8,0:0:0:0:
256,192,205688,1,8,0:0:0:0:
256,192,205735,1,0,0:0:0:0:
256,192,205922,1,8,0:0:0:0:
256,192,206110,1,0,0:0:0:0:
256,192,206297,1,8,0:0:0:0:
256,192,206391,1,8,0:0:0:0:
256,192,206438,1,8,0:0:0:0:
256,192,206485,1,0,0:0:0:0:
256,192,206672,1,0,0:0:0:0:
256,192,206860,1,0,0:0:0:0:
256,192,207047,1,8,0:0:0:0:
256,192,207235,1,0,0:0:0:0:
256,192,207422,1,0,0:0:0:0:
256,192,207610,1,8,0:0:0:0:
256,192,207797,1,0,0:0:0:0:
256,192,207985,1,0,0:0:0:0:
256,192,208172,1,8,0:0:0:0:
256,192,208360,1,0,0:0:0:0:
256,192,208547,1,0,0:0:0:0:
256,192,208735,1,8,0:0:0:0:
256,192,208922,1,0,0:0:0:0:
256,192,209110,1,0,0:0:0:0:
256,192,209297,1,0,0:0:0:0:
256,192,209485,1,8,0:0:0:0:
256,192,209531,1,8,0:0:0:0:
256,192,209578,1,8,0:0:0:0:
256,192,209625,1,8,0:0:0:0:
256,192,209672,1,8,0:0:0:0:
256,192,209719,1,8,0:0:0:0:
256,192,209766,1,8,0:0:0:0:
256,192,209813,1,8,0:0:0:0:
256,192,209860,1,0,0:0:0:0:
256,192,209906,1,0,0:0:0:0:
256,192,209953,1,0,0:0:0:0:
256,192,210000,1,0,0:0:0:0:
256,192,210047,1,0,0:0:0:0:
256,192,210094,1,0,0:0:0:0:
256,192,210141,1,0,0:0:0:0:
256,192,210188,1,0,0:0:0:0:
256,192,210235,1,8,0:0:0:0:
256,192,210281,1,8,0:0:0:0:
256,192,210328,1,8,0:0:0:0:
256,192,210375,1,8,0:0:0:0:
256,192,210422,1,0,0:0:0:0:
256,192,210469,1,0,0:0:0:0:
256,192,210516,1,0,0:0:0:0:
256,192,210563,1,0,0:0:0:0:
256,192,210610,1,0,0:0:0:0:
256,192,210656,1,0,0:0:0:0:
256,192,210703,1,0,0:0:0:0:
256,192,210750,1,0,0:0:0:0:
256,192,210797,1,8,0:0:0:0:
256,192,210844,1,8,0:0:0:0:
256,192,210891,1,8,0:0:0:0:
256,192,210938,1,8,0:0:0:0:
256,192,210985,1,0,0:0:0:0:
256,192,211172,1,8,0:0:0:0:
256,192,211219,1,8,0:0:0:0:
256,192,211266,1,8,0:0:0:0:
256,192,211313,1,8,0:0:0:0:
256,192,211360,1,0,0:0:0:0:
256,192,211547,1,8,0:0:0:0:
256,192,211594,1,8,0:0:0:0:
256,192,211641,1,8,0:0:0:0:
256,192,211735,1,0,0:0:0:0:
256,192,211922,1,8,0:0:0:0:
256,192,211969,1,8,0:0:0:0:
256,192,212016,1,8,0:0:0:0:
256,192,212063,1,8,0:0:0:0:
256,192,212110,1,0,0:0:0:0:
256,192,212203,1,0,0:0:0:0:
256,192,212297,1,8,0:0:0:0:
256,192,212344,1,8,0:0:0:0:
256,192,212391,1,8,0:0:0:0:
256,192,212485,1,0,0:0:0:0:
256,192,212672,1,8,0:0:0:0:
256,192,212719,1,8,0:0:0:0:
256,192,212766,1,8,0:0:0:0:
256,192,212813,1,8,0:0:0:0:
256,192,212860,1,0,0:0:0:0:
256,192,213047,1,8,0:0:0:0:
256,192,213094,1,8,0:0:0:0:
256,192,213235,1,0,0:0:0:0:
256,192,213328,1,0,0:0:0:0:
256,192,213422,1,8,0:0:0:0:
256,192,213469,1,8,0:0:0:0:
256,192,213516,1,8,0:0:0:0:
256,192,213610,1,0,0:0:0:0:
256,192,213703,1,0,0:0:0:0:
256,192,213797,1,8,0:0:0:0:
256,192,213844,1,8,0:0:0:0:
256,192,213891,1,8,0:0:0:0:
256,192,213938,1,8,0:0:0:0:
256,192,213985,1,0,0:0:0:0:
256,192,214172,1,8,0:0:0:0:
256,192,214219,1,8,0:0:0:0:
256,192,214266,1,8,0:0:0:0:
256,192,214313,1,8,0:0:0:0:
256,192,214360,1,0,0:0:0:0:
256,192,214453,1,0,0:0:0:0:
256,192,214547,1,8,0:0:0:0:
256,192,214594,1,8,0:0:0:0:
256,192,214641,1,8,0:0:0:0:
256,192,214735,1,0,0:0:0:0:
256,192,214922,1,8,0:0:0:0:
256,192,214969,1,8,0:0:0:0:
256,192,215016,1,8,0:0:0:0:
256,192,215063,1,8,0:0:0:0:
256,192,215110,1,0,0:0:0:0:
256,192,215297,1,8,0:0:0:0:
256,192,215344,1,8,0:0:0:0:
256,192,215391,1,8,0:0:0:0:
256,192,215485,1,0,0:0:0:0:
256,192,215672,1,8,0:0:0:0:
256,192,215719,1,8,0:0:0:0:
256,192,215766,1,8,0:0:0:0:
256,192,215813,1,8,0:0:0:0:
256,192,215860,1,0,0:0:0:0:
256,192,216047,1,8,0:0:0:0:
256,192,216094,1,8,0:0:0:0:
256,192,216235,1,0,0:0:0:0:
256,192,216328,1,0,0:0:0:0:
256,192,216375,1,0,0:0:0:0:
256,192,216422,1,8,0:0:0:0:
256,192,216469,1,8,0:0:0:0:
256,192,216516,1,0,0:0:0:0:
256,192,216610,1,8,0:0:0:0:
256,192,216656,1,8,0:0:0:0:
256,192,216703,1,0,0:0:0:0:
256,192,216797,1,8,0:0:0:0:
256,192,216844,1,8,0:0:0:0:
256,192,216891,1,0,0:0:0:0:
256,192,216938,1,0,0:0:0:0:
256,192,216985,1,8,0:0:0:0:
256,192,217172,1,0,0:0:0:0:
256,192,217219,1,0,0:0:0:0:
256,192,217266,1,0,0:0:0:0:
256,192,217313,1,0,0:0:0:0:
256,192,217360,1,8,0:0:0:0:
256,192,217547,1,0,0:0:0:0:
256,192,217594,1,0,0:0:0:0:
256,192,217641,1,0,0:0:0:0:
256,192,217735,1,8,0:0:0:0:
256,192,217922,1,0,0:0:0:0:
256,192,217969,1,0,0:0:0:0:
256,192,218016,1,0,0:0:0:0:
256,192,218063,1,0,0:0:0:0:
256,192,218110,1,8,0:0:0:0:
256,192,218203,1,8,0:0:0:0:
256,192,218297,1,0,0:0:0:0:
256,192,218344,1,0,0:0:0:0:
256,192,218391,1,0,0:0:0:0:
256,192,218485,1,8,0:0:0:0:
256,192,218672,1,0,0:0:0:0:
256,192,218719,1,0,0:0:0:0:
256,192,218766,1,0,0:0:0:0:
256,192,218813,1,0,0:0:0:0:
256,192,218860,1,8,0:0:0:0:
256,192,219047,1,0,0:0:0:0:
256,192,219094,1,0,0:0:0:0:
256,192,219235,1,8,0:0:0:0:
256,192,219328,1,8,0:0:0:0:
256,192,219422,1,0,0:0:0:0:
256,192,219469,1,0,0:0:0:0:
256,192,219516,1,0,0:0:0:0:
256,192,219610,1,8,0:0:0:0:
256,192,219703,1,8,0:0:0:0:
256,192,219797,1,0,0:0:0:0:
256,192,219844,1,0,0:0:0:0:
256,192,219891,1,0,0:0:0:0:
256,192,219938,1,0,0:0:0:0:
256,192,219985,1,8,0:0:0:0:
256,192,220172,1,0,0:0:0:0:
256,192,220219,1,0,0:0:0:0:
256,192,220266,1,0,0:0:0:0:
256,192,220313,1,0,0:0:0:0:
256,192,220360,1,8,0:0:0:0:
256,192,220453,1,8,0:0:0:0:
256,192,220547,1,0,0:0:0:0:
256,192,220594,1,0,0:0:0:0:
256,192,220641,1,0,0:0:0:0:
256,192,220735,1,8,0:0:0:0:
256,192,220922,1,0,0:0:0:0:
256,192,220969,1,0,0:0:0:0:
256,192,221016,1,0,0:0:0:0:
256,192,221063,1,0,0:0:0:0:
256,192,221110,1,8,0:0:0:0:
256,192,221297,1,0,0:0:0:0:
256,192,221344,1,0,0:0:0:0:
256,192,221391,1,0,0:0:0:0:
256,192,221485,1,8,0:0:0:0:
256,192,221672,1,0,0:0:0:0:
256,192,221719,1,0,0:0:0:0:
256,192,221766,1,0,0:0:0:0:
256,192,221813,1,0,0:0:0:0:
256,192,221860,1,8,0:0:0:0:
256,192,222047,1,0,0:0:0:0:
256,192,222094,1,0,0:0:0:0:
256,192,222235,1,8,0:0:0:0:
256,192,222328,1,8,0:0:0:0:
256,192,222375,1,8,0:0:0:0:
256,192,222422,1,0,0:0:0:0:
256,192,222469,1,0,0:0:0:0:
256,192,222516,1,8,0:0:0:0:
256,192,222610,1,0,0:0:0:0:
256,192,222656,1,0,0:0:0:0:
256,192,222703,1,8,0:0:0:0:
256,192,222797,1,0,0:0:0:0:
256,192,222844,1,0,0:0:0:0:
256,192,222891,1,8,0:0:0:0:
256,192,222938,1,8,0:0:0:0:
256,192,222985,1,0,0:0:0:0:
256,192,223172,1,0,0:0:0:0:
256,192,223360,1,8,0:0:0:0:
256,192,223453,1,8,0:0:0:0:
256,192,223547,1,8,0:0:0:0:
256,192,223594,1,8,0:0:0:0:
256,192,223641,1,8,0:0:0:0:
256,192,223735,1,8,0:0:0:0:
256,192,223828,1,8,0:0:0:0:
256,192,223922,1,0,0:0:0:0:
256,192,224016,1,0,0:0:0:0:
256,192,224110,1,8,0:0:0:0:
256,192,224203,1,8,0:0:0:0:
256,192,224297,1,0,0:0:0:0:
256,192,224391,1,0,0:0:0:0:
256,192,224485,1,0,0:0:0:0:
256,192,224578,1,0,0:0:0:0:
256,192,224672,1,8,0:0:0:0:
256,192,224766,1,8,0:0:0:0:
256,192,224860,1,0,0:0:0:0:
256,192,224953,1,0,0:0:0:0:
256,192,225047,1,8,0:0:0:0:
256,192,225141,1,8,0:0:0:0:
256,192,225235,1,8,0:0:0:0:
256,192,225281,1,8,0:0:0:0:
256,192,225328,1,8,0:0:0:0:
256,192,225422,1,0,0:0:0:0:
256,192,225469,1,0,0:0:0:0:
256,192,225516,1,0,0:0:0:0:
256,192,225610,1,8,0:0:0:0:
256,192,225656,1,8,0:0:0:0:
256,192,225703,1,8,0:0:0:0:
256,192,225797,1,0,0:0:0:0:
256,192,225844,1,0,0:0:0:0:
256,192,225891,1,0,0:0:0:0:
256,192,225985,1,0,0:0:0:0:
256,192,226172,1,8,0:0:0:0:
256,192,226219,1,8,0:0:0:0:
256,192,226313,1,8,0:0:0:0:
256,192,226360,1,0,0:0:0:0:
256,192,226453,1,0,0:0:0:0:
256,192,226500,1,0,0:0:0:0:
256,192,226547,1,8,0:0:0:0:
256,192,226641,1,8,0:0:0:0:
256,192,226688,1,8,0:0:0:0:
256,192,226735,1,8,0:0:0:0:
256,192,226828,1,8,0:0:0:0:
256,192,226922,1,0,0:0:0:0:
256,192,227110,1,8,0:0:0:0:
256,192,227203,1,8,0:0:0:0:
256,192,227297,1,0,0:0:0:0:
256,192,227485,1,0,0:0:0:0:
256,192,227578,1,0,0:0:0:0:
256,192,227625,1,0,0:0:0:0:
256,192,227672,1,8,0:0:0:0:
256,192,227766,1,8,0:0:0:0:
256,192,227813,1,8,0:0:0:0:
256,192,227860,1,0,0:0:0:0:
256,192,227953,1,0,0:0:0:0:
256,192,228000,1,0,0:0:0:0:
256,192,228047,1,8,0:0:0:0:
256,192,228141,1,8,0:0:0:0:
256,192,228188,1,8,0:0:0:0:
256,192,228235,1,0,0:0:0:0:
256,192,228422,1,8,0:0:0:0:
256,192,228469,1,8,0:0:0:0:
256,192,228516,1,8,0:0:0:0:
256,192,228563,1,8,0:0:0:0:
256,192,228610,1,0,0:0:0:0:
256,192,228656,1,0,0:0:0:0:
256,192,228703,1,0,0:0:0:0:
256,192,228750,1,0,0:0:0:0:
256,192,228797,1,8,0:0:0:0:
256,192,228844,1,8,0:0:0:0:
256,192,228891,1,8,0:0:0:0:
256,192,228938,1,8,0:0:0:0:
256,192,228985,1,0,0:0:0:0:
256,192,229078,1,0,0:0:0:0:
256,192,229125,1,0,0:0:0:0:
256,192,229172,1,8,0:0:0:0:
256,192,229266,1,8,0:0:0:0:
256,192,229313,1,8,0:0:0:0:
256,192,229360,1,8,0:0:0:0:
256,192,229453,1,8,0:0:0:0:
256,192,229500,1,8,0:0:0:0:
256,192,229547,1,0,0:0:0:0:
256,192,229641,1,0,0:0:0:0:
256,192,229688,1,0,0:0:0:0:
256,192,229735,1,0,0:0:0:0:
256,192,229828,1,0,0:0:0:0:
256,192,229875,1,0,0:0:0:0:
256,192,229922,1,8,0:0:0:0:
256,192,230016,1,8,0:0:0:0:
256,192,230063,1,8,0:0:0:0:
256,192,230110,1,8,0:0:0:0:
256,192,230203,1,8,0:0:0:0:
256,192,230250,1,8,0:0:0:0:
256,192,230297,1,8,0:0:0:0:
256,192,230391,1,8,0:0:0:0:
256,192,230438,1,8,0:0:0:0:
256,192,230485,1,0,0:0:0:0:
256,192,230672,1,8,0:0:0:0:
256,192,230766,1,8,0:0:0:0:
256,192,230860,1,0,0:0:0:0:
256,192,231047,1,8,0:0:0:0:
256,192,231235,1,0,0:0:0:0:
256,192,231422,1,8,0:0:0:0:
256,192,231610,1,0,0:0:0:0:
256,192,231656,1,8,0:0:0:0:
256,192,231703,1,8,0:0:0:0:
256,192,231750,1,8,0:0:0:0:
256,192,231797,1,8,0:0:0:0:
256,192,231844,1,8,0:0:0:0:
256,192,231891,1,0,0:0:0:0:
256,192,231938,1,8,0:0:0:0:
256,192,231985,1,8,0:0:0:0:
256,192,232078,1,0,0:0:0:0:
256,192,232172,1,8,0:0:0:0:
256,192,232266,1,0,0:0:0:0:
256,192,232360,1,8,0:0:0:0:
256,192,232453,1,0,0:0:0:0:
256,192,232547,1,8,0:0:0:0:
256,192,232641,1,0,0:0:0:0:
256,192,232735,1,0,0:0:0:0:
256,192,232781,1,0,0:0:0:0:
256,192,232828,1,0,0:0:0:0:
256,192,232875,1,0,0:0:0:0:
256,192,232922,1,8,0:0:0:0:
256,192,232969,1,8,0:0:0:0:
256,192,233016,1,8,0:0:0:0:
256,192,233063,1,8,0:0:0:0:
256,192,233110,1,8,0:0:0:0:
256,192,233156,1,8,0:0:0:0:
256,192,233203,1,8,0:0:0:0:
256,192,233250,1,8,0:0:0:0:
256,192,233297,1,8,0:0:0:0:
256,192,233344,1,8,0:0:0:0:
256,192,233391,1,8,0:0:0:0:
256,192,233438,1,8,0:0:0:0:
256,192,233485,1,0,0:0:0:0:
256,192,233531,1,0,0:0:0:0:
256,192,233578,1,0,0:0:0:0:
256,192,233625,1,0,0:0:0:0:
256,192,233672,1,8,0:0:0:0:
256,192,233719,1,8,0:0:0:0:
256,192,233766,1,8,0:0:0:0:
256,192,233813,1,8,0:0:0:0:
256,192,233860,1,8,0:0:0:0:
256,192,233906,1,8,0:0:0:0:
256,192,233953,1,8,0:0:0:0:
256,192,234000,1,8,0:0:0:0:
256,192,234047,1,0,0:0:0:0:
256,192,234094,1,0,0:0:0:0:
256,192,234141,1,0,0:0:0:0:
256,192,234188,1,0,0:0:0:0:
256,192,234235,1,8,0:0:0:0:
256,192,234281,1,8,0:0:0:0:
256,192,234328,1,8,0:0:0:0:
256,192,234375,1,8,0:0:0:0:
256,192,234422,1,0,0:0:0:0:
256,192,234469,1,8,0:0:0:0:
256,192,234516,1,8,0:0:0:0:
256,192,234563,1,8,0:0:0:0:
256,192,234610,1,0,0:0:0:0:
256,192,234656,1,8,0:0:0:0:
256,192,234703,1,8,0:0:0:0:
256,192,234750,1,8,0:0:0:0:
256,192,234797,1,0,0:0:0:0:
256,192,234844,1,0,0:0:0:0:
256,192,234891,1,0,0:0:0:0:
256,192,234938,1,0,0:0:0:0:
256,192,234985,1,8,0:0:0:0:
256,192,235360,1,0,0:0:0:0:
256,192,235547,1,8,0:0:0:0:
256,192,235735,1,0,0:0:0:0:
256,192,236110,1,8,0:0:0:0:
256,192,236203,1,8,0:0:0:0:
256,192,236297,1,8,0:0:0:0:
256,192,236485,1,0,0:0:0:0:
256,192,236672,1,8,0:0:0:0:
256,192,236860,1,8,0:0:0:0:
256,192,237047,1,0,0:0:0:0:
256,192,237235,1,8,0:0:0:0:
256,192,237422,1,8,0:0:0:0:
256,192,237516,1,8,0:0:0:0:
256,192,237563,1,8,0:0:0:0:
256,192,237610,1,8,0:0:0:0:
256,192,237703,1,8,0:0:0:0:
256,192,237750,1,8,0:0:0:0:
256,192,237797,1,0,0:0:0:0:
256,192,237891,1,0,0:0:0:0:
256,192,237938,1,0,0:0:0:0:
256,192,237985,1,8,0:0:0:0:
256,192,238172,1,0,0:0:0:0:
256,192,238360,1,8,0:0:0:0:
256,192,238547,1,0,0:0:0:0:
256,192,238735,1,8,0:0:0:0:
256,192,238922,1,0,0:0:0:0:
256,192,239110,1,8,0:0:0:0:
256,192,239203,1,8,0:0:0:0:
256,192,239297,1,8,0:0:0:0:
256,192,239485,1,0,0:0:0:0:
256,192,239672,1,0,0:0:0:0:
256,192,239860,1,8,0:0:0:0:
256,192,240047,1,0,0:0:0:0:
256,192,240235,1,0,0:0:0:0:
256,192,240422,1,8,0:0:0:0:
256,192,240610,1,8,0:0:0:0:
256,192,240703,1,8,0:0:0:0:
256,192,240797,1,8,0:0:0:0:
256,192,240985,1,0,0:0:0:0:
256,192,241078,1,8,0:0:0:0:
256,192,241172,1,8,0:0:0:0:
256,192,241266,1,8,0:0:0:0:
256,192,241360,1,0,0:0:0:0:
256,192,241453,1,8,0:0:0:0:
256,192,241547,1,8,0:0:0:0:
256,192,241641,1,8,0:0:0:0:
256,192,241735,1,0,0:0:0:0:
256,192,241828,1,8,0:0:0:0:
256,192,241922,1,8,0:0:0:0:
256,192,242016,1,8,0:0:0:0:
256,192,242110,1,0,0:0:0:0:
256,192,242203,1,8,0:0:0:0:
256,192,242297,1,8,0:0:0:0:
256,192,242391,1,8,0:0:0:0:
256,192,242485,1,0,0:0:0:0:
256,192,242578,1,8,0:0:0:0:
256,192,242672,1,8,0:0:0:0:
256,192,242766,1,8,0:0:0:0:
256,192,242860,1,0,0:0:0:0:
256,192,242953,1,8,0:0:0:0:
256,192,243047,1,8,0:0:0:0:
256,192,243141,1,8,0:0:0:0:
256,192,243235,1,0,0:0:0:0:
256,192,243328,1,8,0:0:0:0:
256,192,243422,1,0,0:0:0:0:
256,192,243516,1,8,0:0:0:0:
256,192,243610,1,0,0:0:0:0:
256,192,243703,1,8,0:0:0:0:
256,192,243797,1,8,0:0:0:0:
256,192,243844,1,8,0:0:0:0:
256,192,243891,1,8,0:0:0:0:
256,192,243985,1,0,0:0:0:0:
256,192,245865,5,0,0:0:0:0:
256,192,245990,1,0,0:0:0:0:
256,192,246115,1,0,0:0:0:0:
256,192,246240,1,0,0:0:0:0:
256,192,246615,1,0,0:0:0:0:
256,192,246740,1,0,0:0:0:0:
256,192,246865,1,0,0:0:0:0:
256,192,246990,1,0,0:0:0:0:
256,192,247365,1,0,0:0:0:0:
256,192,247490,1,0,0:0:0:0:
256,192,247615,1,0,0:0:0:0:
256,192,247740,1,0,0:0:0:0:
256,192,248115,1,0,0:0:0:0:
256,192,248240,1,0,0:0:0:0:
256,192,248365,1,0,0:0:0:0:
256,192,248490,1,2,0:0:0:0:
256,192,248615,1,2,0:0:0:0:
256,192,248740,1,2,0:0:0:0:
256,192,248865,1,0,0:0:0:0:
256,192,248990,1,0,0:0:0:0:
256,192,249115,1,0,0:0:0:0:
256,192,249240,1,0,0:0:0:0:
256,192,249615,1,0,0:0:0:0:
256,192,249740,1,0,0:0:0:0:
256,192,249865,1,0,0:0:0:0:
256,192,249990,1,0,0:0:0:0:
256,192,250365,1,0,0:0:0:0:
256,192,250490,1,0,0:0:0:0:
256,192,250615,1,0,0:0:0:0:
256,192,250740,1,0,0:0:0:0:
256,192,251115,1,2,0:0:0:0:
256,192,251240,1,2,0:0:0:0:
256,192,251365,1,0,0:0:0:0:
256,192,251490,1,2,0:0:0:0:
256,192,251615,1,2,0:0:0:0:
256,192,251740,1,0,0:0:0:0:
256,192,251865,1,0,0:0:0:0:
256,192,251990,1,0,0:0:0:0:
256,192,252115,1,0,0:0:0:0:
256,192,252240,1,0,0:0:0:0:
256,192,252615,1,0,0:0:0:0:
256,192,252740,1,0,0:0:0:0:
256,192,252865,1,0,0:0:0:0:
256,192,252990,1,0,0:0:0:0:
256,192,253365,1,0,0:0:0:0:
256,192,253490,1,0,0:0:0:0:
256,192,253615,1,0,0:0:0:0:
256,192,253740,1,0,0:0:0:0:
256,192,254115,1,0,0:0:0:0:
256,192,254240,1,0,0:0:0:0:
256,192,254365,1,0,0:0:0:0:
256,192,254490,1,2,0:0:0:0:
256,192,254615,1,2,0:0:0:0:
256,192,254740,1,2,0:0:0:0:
256,192,254865,1,0,0:0:0:0:
256,192,254990,1,0,0:0:0:0:
256,192,255115,1,0,0:0:0:0:
256,192,255240,1,0,0:0:0:0:
256,192,255615,1,0,0:0:0:0:
256,192,255740,1,0,0:0:0:0:
256,192,255865,1,0,0:0:0:0:
256,192,255990,1,0,0:0:0:0:
256,192,256365,1,0,0:0:0:0:
256,192,256490,1,0,0:0:0:0:
256,192,256615,1,0,0:0:0:0:
256,192,256740,1,0,0:0:0:0:
256,192,257115,1,2,0:0:0:0:
256,192,257240,1,2,0:0:0:0:
256,192,257365,1,0,0:0:0:0:
256,192,257490,1,2,0:0:0:0:
256,192,257615,1,0,0:0:0:0:
256,192,257740,1,2,0:0:0:0:
256,192,257865,1,2,0:0:0:0:
256,192,257990,1,0,0:0:0:0:
256,192,258115,1,0,0:0:0:0:
256,192,258240,1,0,0:0:0:0:
256,192,258365,1,2,0:0:0:0:
256,192,258490,1,0,0:0:0:0:
256,192,258615,1,2,0:0:0:0:
256,192,258740,1,0,0:0:0:0:
256,192,258865,1,2,0:0:0:0:
256,192,258990,1,0,0:0:0:0:
256,192,259115,1,2,0:0:0:0:
256,192,259240,1,0,0:0:0:0:
256,192,259365,1,2,0:0:0:0:
256,192,259490,1,0,0:0:0:0:
256,192,259615,1,2,0:0:0:0:
256,192,259740,1,2,0:0:0:0:
256,192,259865,1,0,0:0:0:0:
256,192,259990,1,2,0:0:0:0:
256,192,260115,1,2,0:0:0:0:
256,192,260240,1,0,0:0:0:0:
256,192,260365,1,2,0:0:0:0:
256,192,260490,1,0,0:0:0:0:
256,192,260615,1,2,0:0:0:0:
256,192,260740,1,0,0:0:0:0:
256,192,262365,1,2,0:0:0:0:
256,192,262465,1,0,0:0:0:0:
256,192,262565,1,2,0:0:0:0:
256,192,262665,1,0,0:0:0:0:
256,192,262765,1,2,0:0:0:0:
256,192,262865,1,0,0:0:0:0:
256,192,262915,1,0,0:0:0:0:
256,192,263065,1,2,0:0:0:0:
256,192,263165,1,2,0:0:0:0:
256,192,263265,1,2,0:0:0:0:
256,192,263365,1,2,0:0:0:0:
256,192,263465,1,0,0:0:0:0:
256,192,263565,1,2,0:0:0:0:
256,192,263665,1,2,0:0:0:0:
256,192,263765,1,0,0:0:0:0:
256,192,263815,1,0,0:0:0:0:
256,192,263865,1,2,0:0:0:0:
256,192,263965,1,2,0:0:0:0:
256,192,264065,1,0,0:0:0:0:
256,192,264165,1,2,0:0:0:0:
256,192,264265,1,0,0:0:0:0:
256,192,264365,1,2,0:0:0:0:
256,192,264465,1,0,0:0:0:0:
256,192,264515,1,0,0:0:0:0:
256,192,264665,1,2,0:0:0:0:
256,192,264765,1,2,0:0:0:0:
256,192,264865,1,2,0:0:0:0:
256,192,264965,1,0,0:0:0:0:
256,192,265065,1,2,0:0:0:0:
256,192,265165,1,2,0:0:0:0:
256,192,265265,1,0,0:0:0:0:
256,192,265365,1,0,0:0:0:0:
256,192,265415,1,0,0:0:0:0:
256,192,265465,1,2,0:0:0:0:
256,192,265565,1,2,0:0:0:0:
256,192,265665,1,0,0:0:0:0:
256,192,265765,1,2,0:0:0:0:
256,192,265865,1,0,0:0:0:0:
256,192,265965,1,2,0:0:0:0:
256,192,266065,1,0,0:0:0:0:
256,192,266165,1,0,0:0:0:0:
256,192,266265,1,2,0:0:0:0:
256,192,266365,1,2,0:0:0:0:
256,192,266465,1,0,0:0:0:0:
256,192,266565,1,0,0:0:0:0:
256,192,266665,1,2,0:0:0:0:
256,192,266765,1,0,0:0:0:0:
256,192,266865,1,0,0:0:0:0:
256,192,266915,1,2,0:0:0:0:
256,192,266965,1,0,0:0:0:0:
256,192,267015,1,2,0:0:0:0:
256,192,267065,1,2,0:0:0:0:
256,192,267115,1,2,0:0:0:0:
256,192,267165,1,0,0:0:0:0:
256,192,267265,1,2,0:0:0:0:
256,192,267365,1,0,0:0:0:0:
256,192,267465,1,2,0:0:0:0:
256,192,267565,1,0,0:0:0:0:
256,192,267665,1,2,0:0:0:0:
256,192,267715,1,2,0:0:0:0:
256,192,267765,1,2,0:0:0:0:
256,192,267865,1,2,0:0:0:0:
256,192,267965,1,0,0:0:0:0:
256,192,268065,1,2,0:0:0:0:
256,192,268165,1,0,0:0:0:0:
256,192,268215,1,0,0:0:0:0:
256,192,268265,1,2,0:0:0:0:
256,192,268315,1,0,0:0:0:0:
256,192,268365,1,2,0:0:0:0:
256,192,268415,1,0,0:0:0:0:
256,192,268465,1,2,0:0:0:0:
256,192,268565,1,0,0:0:0:0:
256,192,268615,1,0,0:0:0:0:
256,192,268665,1,2,0:0:0:0:
256,192,268715,1,2,0:0:0:0:
256,192,268765,1,0,0:0:0:0:
256,192,268865,1,2,0:0:0:0:
256,192,268965,1,0,0:0:0:0:
256,192,269065,1,2,0:0:0:0:
256,192,269165,1,0,0:0:0:0:
256,192,269265,1,2,0:0:0:0:
256,192,269315,1,2,0:0:0:0:
256,192,269365,1,0,0:0:0:0:
256,192,269415,1,0,0:0:0:0:
256,192,269465,1,2,0:0:0:0:
256,192,269565,1,0,0:0:0:0:
256,192,269665,1,2,0:0:0:0:
256,192,269765,1,0,0:0:0:0:
256,192,269865,1,2,0:0:0:0:
256,192,269965,1,0,0:0:0:0:
256,192,270065,1,2,0:0:0:0:
256,192,270115,1,2,0:0:0:0:
256,192,270165,1,0,0:0:0:0:
256,192,270215,1,2,0:0:0:0:
256,192,270265,1,2,0:0:0:0:
256,192,270365,1,0,0:0:0:0:
256,192,270465,1,2,0:0:0:0:
256,192,270565,1,0,0:0:0:0:
256,192,270665,1,2,0:0:0:0:
256,192,270765,1,0,0:0:0:0:
256,192,270815,1,0,0:0:0:0:
256,192,270865,1,2,0:0:0:0:
256,192,270915,1,2,0:0:0:0:
256,192,270965,1,0,0:0:0:0:
256,192,271015,1,0,0:0:0:0:
256,192,271065,1,2,0:0:0:0:
256,192,271115,1,2,0:0:0:0:
256,192,271165,1,0,0:0:0:0:
256,192,271265,1,2,0:0:0:0:
256,192,271365,1,0,0:0:0:0:
256,192,271465,1,2,0:0:0:0:
256,192,271565,1,0,0:0:0:0:
256,192,271665,1,2,0:0:0:0:
256,192,271715,1,2,0:0:0:0:
256,192,271765,1,2,0:0:0:0:
256,192,271815,1,2,0:0:0:0:
256,192,271865,1,2,0:0:0:0:
256,192,271915,1,2,0:0:0:0:
256,192,271965,1,0,0:0:0:0:
256,192,272065,1,2,0:0:0:0:
256,192,272165,1,0,0:0:0:0:
256,192,272265,1,2,0:0:0:0:
256,192,272365,1,0,0:0:0:0:
256,192,272465,1,2,0:0:0:0:
256,192,272515,1,2,0:0:0:0:
256,192,272565,1,0,0:0:0:0:
256,192,272615,1,0,0:0:0:0:
256,192,272665,1,2,0:0:0:0:
256,192,272765,1,0,0:0:0:0:
256,192,272865,1,2,0:0:0:0:
256,192,272965,1,0,0:0:0:0:
256,192,273065,1,2,0:0:0:0:
256,192,273165,1,0,0:0:0:0:
256,192,273265,1,2,0:0:0:0:
256,192,273315,1,2,0:0:0:0:
256,192,273365,1,0,0:0:0:0:
256,192,273415,1,2,0:0:0:0:
256,192,273465,1,2,0:0:0:0:
256,192,273565,1,0,0:0:0:0:
256,192,273665,1,2,0:0:0:0:
256,192,273765,1,0,0:0:0:0:
256,192,273865,1,2,0:0:0:0:
256,192,273965,1,0,0:0:0:0:
256,192,274015,1,0,0:0:0:0:
256,192,274065,1,2,0:0:0:0:
256,192,274115,1,2,0:0:0:0:
256,192,274165,1,0,0:0:0:0:
256,192,274215,1,0,0:0:0:0:
256,192,274265,1,2,0:0:0:0:
256,192,274315,1,2,0:0:0:0:
256,192,274365,1,0,0:0:0:0:
256,192,274465,1,2,0:0:0:0:
256,192,274565,1,0,0:0:0:0:
256,192,274665,1,2,0:0:0:0:
256,192,274765,1,0,0:0:0:0:
256,192,274865,1,2,0:0:0:0:
256,192,274915,1,2,0:0:0:0:
256,192,274965,1,2,0:0:0:0:
256,192,275015,1,2,0:0:0:0:
256,192,275065,1,2,0:0:0:0:
256,192,275115,1,2,0:0:0:0:
256,192,275165,1,0,0:0:0:0:
256,192,275265,1,2,0:0:0:0:
256,192,275365,1,0,0:0:0:0:
256,192,275465,1,2,0:0:0:0:
256,192,275565,1,0,0:0:0:0:
256,192,275665,1,2,0:0:0:0:
256,192,275765,1,0,0:0:0:0:
256,192,275865,1,2,0:0:0:0:
256,192,275915,1,2,0:0:0:0:
256,192,275965,1,0,0:0:0:0:
256,192,276015,1,0,0:0:0:0:
256,192,276065,1,0,0:0:0:0:
256,192,276115,1,0,0:0:0:0:
256,192,276165,1,2,0:0:0:0:
256,192,276215,1,2,0:0:0:0:
256,192,276265,1,2,0:0:0:0:
256,192,276315,1,2,0:0:0:0:
256,192,276365,1,0,0:0:0:0:
256,192,276415,1,0,0:0:0:0:
256,192,276465,1,0,0:0:0:0:
256,192,276515,1,0,0:0:0:0:
256,192,276565,1,2,0:0:0:0:
256,192,276615,1,2,0:0:0:0:
256,192,276665,1,2,0:0:0:0:
256,192,276715,1,2,0:0:0:0:
256,192,276765,1,0,0:0:0:0:
256,192,276815,1,0,0:0:0:0:
256,192,276865,1,2,0:0:0:0:
256,192,276915,1,2,0:0:0:0:
256,192,276965,1,0,0:0:0:0:
256,192,277015,1,0,0:0:0:0:
256,192,277065,1,2,0:0:0:0:
256,192,277115,1,2,0:0:0:0:
256,192,277165,1,0,0:0:0:0:
256,192,277215,1,2,0:0:0:0:
256,192,277265,1,2,0:0:0:0:
256,192,277315,1,2,0:0:0:0:
256,192,277365,1,2,0:0:0:0:
256,192,277415,1,2,0:0:0:0:
256,192,277465,1,2,0:0:0:0:
256,192,277515,1,2,0:0:0:0:
256,192,277565,1,0,0:0:0:0:
256,192,277765,1,0,0:0:0:0:
256,192,278065,1,0,0:0:0:0:
256,192,278165,1,0,0:0:0:0:
256,192,278215,1,2,0:0:0:0:
256,192,278265,1,2,0:0:0:0:
256,192,278315,1,2,0:0:0:0:
256,192,278365,1,0,0:0:0:0:
256,192,278465,1,0,0:0:0:0:
256,192,278565,1,0,0:0:0:0:
256,192,278765,1,2,0:0:0:0:
256,192,278865,1,2,0:0:0:0:
256,192,278965,1,2,0:0:0:0:
256,192,279165,1,0,0:0:0:0:
256,192,279265,1,0,0:0:0:0:
256,192,279365,1,0,0:0:0:0:
256,192,279565,1,2,0:0:0:0:
256,192,279665,1,0,0:0:0:0:
256,192,279765,1,2,0:0:0:0:
256,192,279865,1,0,0:0:0:0:
256,192,279915,1,2,0:0:0:0:
256,192,279965,1,0,0:0:0:0:
256,192,280065,1,0,0:0:0:0:
256,192,280165,1,0,0:0:0:0:
256,192,280365,1,2,0:0:0:0:
256,192,280465,1,2,0:0:0:0:
256,192,280565,1,2,0:0:0:0:
256,192,280765,1,0,0:0:0:0:
256,192,280865,1,0,0:0:0:0:
256,192,280965,1,0,0:0:0:0:
256,192,281165,1,0,0:0:0:0:
256,192,281215,1,2,0:0:0:0:
256,192,281265,1,2,0:0:0:0:
256,192,281315,1,2,0:0:0:0:
256,192,281365,1,0,0:0:0:0:
256,192,281415,1,2,0:0:0:0:
256,192,281465,1,2,0:0:0:0:
256,192,281515,1,2,0:0:0:0:
256,192,281565,1,0,0:0:0:0:
256,192,281665,1,0,0:0:0:0:
256,192,281765,1,0,0:0:0:0:
256,192,281965,1,2,0:0:0:0:
256,192,282065,1,2,0:0:0:0:
256,192,282165,1,2,0:0:0:0:
256,192,282365,1,0,0:0:0:0:
256,192,282465,1,0,0:0:0:0:
256,192,282565,1,0,0:0:0:0:
256,192,282765,1,2,0:0:0:0:
256,192,282815,1,0,0:0:0:0:
256,192,282865,1,2,0:0:0:0:
256,192,282915,1,0,0:0:0:0:
256,192,282965,1,2,0:0:0:0:
256,192,283015,1,0,0:0:0:0:
256,192,283065,1,2,0:0:0:0:
256,192,283115,1,2,0:0:0:0:
256,192,283165,1,0,0:0:0:0:
256,192,283265,1,0,0:0:0:0:
256,192,283365,1,0,0:0:0:0:
256,192,283565,1,2,0:0:0:0:
256,192,283665,1,2,0:0:0:0:
256,192,283765,1,2,0:0:0:0:
256,192,283965,1,0,0:0:0:0:
256,192,284065,1,0,0:0:0:0:
256,192,284165,1,0,0:0:0:0:
256,192,284365,1,0,0:0:0:0:
256,192,284415,1,2,0:0:0:0:
256,192,284465,1,2,0:0:0:0:
256,192,284515,1,2,0:0:0:0:
256,192,284565,1,0,0:0:0:0:
256,192,284615,1,0,0:0:0:0:
256,192,284665,1,2,0:0:0:0:
256,192,284715,1,2,0:0:0:0:
256,192,284765,1,2,0:0:0:0:
256,192,284865,1,2,0:0:0:0:
256,192,284965,1,0,0:0:0:0:
256,192,285065,1,0,0:0:0:0:
256,192,285165,1,2,0:0:0:0:
256,192,285265,1,2,0:0:0:0:
256,192,285365,1,0,0:0:0:0:
256,192,285465,1,0,0:0:0:0:
256,192,285565,1,2,0:0:0:0:
256,192,285615,1,2,0:0:0:0:
256,192,285665,1,2,0:0:0:0:
256,192,285715,1,2,0:0:0:0:
256,192,285765,1,0,0:0:0:0:
256,192,285815,1,0,0:0:0:0:
256,192,285865,1,0,0:0:0:0:
256,192,285915,1,0,0:0:0:0:
256,192,285965,1,2,0:0:0:0:
256,192,286015,1,2,0:0:0:0:
256,192,286065,1,2,0:0:0:0:
256,192,286115,1,2,0:0:0:0:
256,192,286165,1,0,0:0:0:0:
256,192,286215,1,0,0:0:0:0:
256,192,286265,1,0,0:0:0:0:
256,192,286315,1,0,0:0:0:0:
256,192,286365,1,2,0:0:0:0:
256,192,286415,1,2,0:0:0:0:
256,192,286465,1,0,0:0:0:0:
256,192,286515,1,0,0:0:0:0:
256,192,286565,1,2,0:0:0:0:
256,192,286615,1,2,0:0:0:0:
256,192,286665,1,0,0:0:0:0:
256,192,286715,1,0,0:0:0:0:
256,192,286765,1,2,0:0:0:0:
256,192,286815,1,2,0:0:0:0:
256,192,286865,1,2,0:0:0:0:
256,192,286915,1,2,0:0:0:0:
256,192,286965,1,0,0:0:0:0:
256,192,287015,1,0,0:0:0:0:
256,192,287065,1,0,0:0:0:0:
256,192,287115,1,0,0:0:0:0:
256,192,287165,1,0,0:0:0:0:
256,192,287565,1,2,0:0:0:0:
256,192,287965,1,0,0:0:0:0:
256,192,288165,1,2,0:0:0:0:
256,192,288265,1,2,0:0:0:0:
256,192,288365,1,2,0:0:0:0:
256,192,288565,1,2,0:0:0:0:
256,192,288765,1,0,0:0:0:0:
256,192,288965,1,0,0:0:0:0:
256,192,289165,1,2,0:0:0:0:
256,192,289365,1,0,0:0:0:0:
256,192,289565,1,0,0:0:0:0:
256,192,289765,1,2,0:0:0:0:
256,192,289865,1,2,0:0:0:0:
256,192,289965,1,2,0:0:0:0:
256,192,290165,1,2,0:0:0:0:
256,192,290365,1,0,0:0:0:0:
256,192,290765,1,2,0:0:0:0:
256,192,291165,1,0,0:0:0:0:
256,192,291365,1,2,0:0:0:0:
256,192,291465,1,2,0:0:0:0:
256,192,291565,1,2,0:0:0:0:
256,192,291765,1,2,0:0:0:0:
256,192,291965,1,0,0:0:0:0:
256,192,292165,1,0,0:0:0:0:
256,192,292365,1,2,0:0:0:0:
256,192,292565,1,0,0:0:0:0:
256,192,292765,1,2,0:0:0:0:
256,192,292865,1,2,0:0:0:0:
256,192,292965,1,0,0:0:0:0:
256,192,293065,1,2,0:0:0:0:
256,192,293165,1,2,0:0:0:0:
256,192,293365,1,2,0:0:0:0:
256,192,293565,1,0,0:0:0:0:
256,192,293765,1,0,0:0:0:0:
256,192,293965,1,2,0:0:0:0:
256,192,294165,1,0,0:0:0:0:
256,192,294365,1,0,0:0:0:0:
256,192,294565,1,2,0:0:0:0:
256,192,294665,1,2,0:0:0:0:
256,192,294765,1,2,0:0:0:0:
256,192,294965,1,2,0:0:0:0:
256,192,295165,1,2,0:0:0:0:
256,192,295265,1,0,0:0:0:0:
256,192,295365,1,0,0:0:0:0:
256,192,295465,1,0,0:0:0:0:
256,192,295565,1,2,0:0:0:0:
256,192,295665,1,2,0:0:0:0:
256,192,295765,1,2,0:0:0:0:
256,192,295865,1,2,0:0:0:0:
256,192,295965,1,2,0:0:0:0:
256,192,296065,1,0,0:0:0:0:
256,192,296165,1,0,0:0:0:0:
256,192,296265,1,0,0:0:0:0:
256,192,296365,1,2,0:0:0:0:
256,192,296465,1,2,0:0:0:0:
256,192,296565,1,0,0:0:0:0:
256,192,296665,1,0,0:0:0:0:
256,192,296765,1,2,0:0:0:0:
256,192,296865,1,2,0:0:0:0:
256,192,296965,1,2,0:0:0:0:
256,192,297065,1,2,0:0:0:0:
256,192,297165,1,2,0:0:0:0:
256,192,297265,1,2,0:0:0:0:
256,192,297365,1,2,0:0:0:0:
256,192,297465,1,2,0:0:0:0:
256,192,297565,1,0,0:0:0:0:
256,192,297665,1,0,0:0:0:0:
256,192,297765,1,2,0:0:0:0:
256,192,297865,1,2,0:0:0:0:
256,192,297965,1,0,0:0:0:0:
256,192,298065,1,0,0:0:0:0:
256,192,298165,1,2,0:0:0:0:
256,192,298265,1,2,0:0:0:0:
256,192,298365,1,0,0:0:0:0:
256,192,298465,1,0,0:0:0:0:
256,192,298565,1,2,0:0:0:0:
256,192,298665,1,2,0:0:0:0:
256,192,298765,1,0,0:0:0:0:
256,192,298865,1,2,0:0:0:0:
256,192,298965,1,2,0:0:0:0:
256,192,299065,1,2,0:0:0:0:
256,192,299165,1,0,0:0:0:0:
256,192,299265,1,0,0:0:0:0:
256,192,299365,1,2,0:0:0:0:
256,192,299465,1,2,0:0:0:0:
256,192,299565,1,0,0:0:0:0:
256,192,299665,1,0,0:0:0:0:
256,192,299765,1,2,0:0:0:0:
256,192,299865,1,2,0:0:0:0:
256,192,299965,1,0,0:0:0:0:
256,192,300015,1,2,0:0:0:0:
256,192,300065,1,0,0:0:0:0:
256,192,300115,1,2,0:0:0:0:
256,192,300165,1,0,0:0:0:0:
256,192,300215,1,2,0:0:0:0:
256,192,300265,1,0,0:0:0:0:
256,192,300315,1,2,0:0:0:0:
256,192,300365,1,0,0:0:0:0:
256,192,300465,1,2,0:0:0:0:
256,192,300565,1,2,0:0:0:0:
256,192,300665,1,2,0:0:0:0:
256,192,300765,1,0,0:0:0:0:
256,192,300865,1,0,0:0:0:0:
256,192,300965,1,2,0:0:0:0:
256,192,301065,1,2,0:0:0:0:
256,192,301165,1,0,0:0:0:0:
256,192,301265,1,0,0:0:0:0:
256,192,301365,1,2,0:0:0:0:
256,192,301465,1,2,0:0:0:0:
256,192,301565,1,0,0:0:0:0:
256,192,301665,1,0,0:0:0:0:
256,192,301765,1,2,0:0:0:0:
256,192,301865,1,2,0:0:0:0:
256,192,301965,1,0,0:0:0:0:
256,192,302065,1,2,0:0:0:0:
256,192,302165,1,2,0:0:0:0:
256,192,302265,1,2,0:0:0:0:
256,192,302365,1,0,0:0:0:0:
256,192,302465,1,2,0:0:0:0:
256,192,302565,1,2,0:0:0:0:
256,192,302665,1,0,0:0:0:0:
256,192,302765,1,2,0:0:0:0:
256,192,302865,1,0,0:0:0:0:
256,192,302965,1,0,0:0:0:0:
256,192,303065,1,2,0:0:0:0:
256,192,303165,1,0,0:0:0:0:
256,192,303265,1,2,0:0:0:0:
256,192,303365,1,0,0:0:0:0:
256,192,303465,1,2,0:0:0:0:
256,192,303565,1,2,0:0:0:0:
256,192,303615,1,0,0:0:0:0:
256,192,303715,1,2,0:0:0:0:
256,192,303765,1,2,0:0:0:0:
256,192,303815,1,0,0:0:0:0:
256,192,303865,1,2,0:0:0:0:
256,192,303915,1,2,0:0:0:0:
256,192,303965,1,0,0:0:0:0:
256,192,304065,1,0,0:0:0:0:
256,192,304165,1,2,0:0:0:0:
256,192,304265,1,2,0:0:0:0:
256,192,304365,1,0,0:0:0:0:
256,192,304465,1,0,0:0:0:0:
256,192,304565,1,2,0:0:0:0:
256,192,304665,1,2,0:0:0:0:
256,192,304765,1,0,0:0:0:0:
256,192,304865,1,0,0:0:0:0:
256,192,304965,1,2,0:0:0:0:
256,192,305065,1,2,0:0:0:0:
256,192,305165,1,0,0:0:0:0:
256,192,305265,1,2,0:0:0:0:
256,192,305365,1,2,0:0:0:0:
256,192,305465,1,2,0:0:0:0:
256,192,305565,1,0,0:0:0:0:
256,192,305665,1,0,0:0:0:0:
256,192,305765,1,2,0:0:0:0:
256,192,305865,1,2,0:0:0:0:
256,192,305965,1,0,0:0:0:0:
256,192,306065,1,0,0:0:0:0:
256,192,306165,1,2,0:0:0:0:
256,192,306265,1,2,0:0:0:0:
256,192,306365,1,0,0:0:0:0:
256,192,306415,1,2,0:0:0:0:
256,192,306465,1,0,0:0:0:0:
256,192,306515,1,2,0:0:0:0:
256,192,306565,1,0,0:0:0:0:
256,192,306615,1,2,0:0:0:0:
256,192,306665,1,0,0:0:0:0:
256,192,306715,1,2,0:0:0:0:
256,192,306765,1,0,0:0:0:0:
256,192,306865,1,2,0:0:0:0:
256,192,306965,1,2,0:0:0:0:
256,192,307065,1,2,0:0:0:0:
256,192,307165,1,0,0:0:0:0:
256,192,307265,1,0,0:0:0:0:
256,192,307365,1,2,0:0:0:0:
256,192,307465,1,2,0:0:0:0:
256,192,307565,1,0,0:0:0:0:
256,192,307665,1,0,0:0:0:0:
256,192,307765,1,2,0:0:0:0:
256,192,307865,1,2,0:0:0:0:
256,192,307965,1,0,0:0:0:0:
256,192,308065,1,0,0:0:0:0:
256,192,308165,1,2,0:0:0:0:
256,192,308265,1,2,0:0:0:0:
256,192,308365,1,0,0:0:0:0:
256,192,308465,1,2,0:0:0:0:
256,192,308565,1,2,0:0:0:0:
256,192,308665,1,2,0:0:0:0:
256,192,308765,1,0,0:0:0:0:
256,192,308865,1,2,0:0:0:0:
256,192,308965,1,2,0:0:0:0:
256,192,309065,1,0,0:0:0:0:
256,192,309165,1,2,0:0:0:0:
256,192,309265,1,0,0:0:0:0:
256,192,309365,1,0,0:0:0:0:
256,192,309465,1,2,0:0:0:0:
256,192,309565,1,0,0:0:0:0:
256,192,309665,1,2,0:0:0:0:
256,192,309765,1,0,0:0:0:0:
256,192,309865,1,2,0:0:0:0:
256,192,309965,1,2,0:0:0:0:
256,192,310015,1,0,0:0:0:0:
256,192,310115,1,2,0:0:0:0:
256,192,310165,1,2,0:0:0:0:
256,192,310215,1,0,0:0:0:0:
256,192,310265,1,2,0:0:0:0:
256,192,310315,1,2,0:0:0:0:
256,192,310365,1,0,0:0:0:0:
256,192,310465,1,2,0:0:0:0:
256,192,310515,1,2,0:0:0:0:
256,192,310565,1,2,0:0:0:0:
256,192,310615,1,2,0:0:0:0:
256,192,310665,1,2,0:0:0:0:
256,192,310715,1,2,0:0:0:0:
256,192,310765,1,2,0:0:0:0:
256,192,310815,1,2,0:0:0:0:
256,192,310865,1,2,0:0:0:0:
256,192,310915,1,2,0:0:0:0:
256,192,310965,1,2,0:0:0:0:
256,192,311015,1,2,0:0:0:0:
256,192,311065,1,2,0:0:0:0:
256,192,311115,1,2,0:0:0:0:
256,192,311165,1,0,0:0:0:0:
256,192,311215,1,0,0:0:0:0:
256,192,311265,1,0,0:0:0:0:
256,192,311315,1,0,0:0:0:0:
256,192,311365,1,0,0:0:0:0:
256,192,311415,1,0,0:0:0:0:
256,192,311465,1,0,0:0:0:0:
256,192,311515,1,0,0:0:0:0:
256,192,311565,1,0,0:0:0:0:
256,192,311615,1,0,0:0:0:0:
256,192,311665,1,0,0:0:0:0:
256,192,311715,1,0,0:0:0:0:
256,192,311765,1,0,0:0:0:0:
256,192,311815,1,0,0:0:0:0:
256,192,311865,1,0,0:0:0:0:
256,192,311915,1,0,0:0:0:0:
256,192,311965,1,2,0:0:0:0:
256,192,312015,1,2,0:0:0:0:
256,192,312065,1,2,0:0:0:0:
256,192,312115,1,2,0:0:0:0:
256,192,312165,1,2,0:0:0:0:
256,192,312215,1,2,0:0:0:0:
256,192,312265,1,2,0:0:0:0:
256,192,312315,1,2,0:0:0:0:
256,192,312365,1,0,0:0:0:0:
256,192,312415,1,0,0:0:0:0:
256,192,312465,1,0,0:0:0:0:
256,192,312515,1,0,0:0:0:0:
256,192,312565,1,0,0:0:0:0:
256,192,312615,1,0,0:0:0:0:
256,192,312665,1,0,0:0:0:0:
256,192,312715,1,0,0:0:0:0:
256,192,312765,1,2,0:0:0:0:
256,192,312815,1,2,0:0:0:0:
256,192,312865,1,2,0:0:0:0:
256,192,312915,1,2,0:0:0:0:
256,192,312965,1,2,0:0:0:0:
256,192,313015,1,2,0:0:0:0:
256,192,313065,1,2,0:0:0:0:
256,192,313115,1,2,0:0:0:0:
256,192,313165,1,0,0:0:0:0:
256,192,313215,1,0,0:0:0:0:
256,192,313265,1,0,0:0:0:0:
256,192,313315,1,0,0:0:0:0:
256,192,313365,1,0,0:0:0:0:
256,192,313415,1,0,0:0:0:0:
256,192,313465,1,0,0:0:0:0:
256,192,313515,1,0,0:0:0:0:
256,192,313565,1,2,0:0:0:0:
256,192,313615,1,2,0:0:0:0:
256,192,313665,1,2,0:0:0:0:
256,192,313715,1,2,0:0:0:0:
256,192,313765,1,0,0:0:0:0:
256,192,313815,1,0,0:0:0:0:
256,192,313865,1,0,0:0:0:0:
256,192,313915,1,0,0:0:0:0:
256,192,313965,1,2,0:0:0:0:
256,192,314015,1,2,0:0:0:0:
256,192,314065,1,2,0:0:0:0:
256,192,314115,1,2,0:0:0:0:
256,192,314165,1,0,0:0:0:0:
256,192,314215,1,0,0:0:0:0:
256,192,314265,1,0,0:0:0:0:
256,192,314315,1,0,0:0:0:0:
256,192,314365,1,2,0:0:0:0:
256,192,314415,1,0,0:0:0:0:
256,192,314465,1,2,0:0:0:0:
256,192,314515,1,0,0:0:0:0:
256,192,314565,1,2,0:0:0:0:
256,192,314615,1,0,0:0:0:0:
256,192,314665,1,2,0:0:0:0:
256,192,314715,1,0,0:0:0:0:
256,192,314765,1,2,0:0:0:0:
256,192,314815,1,0,0:0:0:0:
256,192,314865,1,2,0:0:0:0:
256,192,314915,1,0,0:0:0:0:
256,192,314965,1,2,0:0:0:0:
256,192,315015,1,0,0:0:0:0:
256,192,315065,1,2,0:0:0:0:
256,192,315115,1,0,0:0:0:0:
256,192,315165,1,2,0:0:0:0:
256,192,315265,1,0,0:0:0:0:
256,192,315365,1,2,0:0:0:0:
256,192,315465,1,0,0:0:0:0:
256,192,315565,1,2,0:0:0:0:
256,192,315665,1,2,0:0:0:0:
256,192,315765,1,0,0:0:0:0:
256,192,315865,1,2,0:0:0:0:
256,192,315965,1,2,0:0:0:0:
256,192,316065,1,0,0:0:0:0:
256,192,316165,1,2,0:0:0:0:
256,192,316265,1,0,0:0:0:0:
256,192,316365,1,2,0:0:0:0:
256,192,316465,1,0,0:0:0:0:
256,192,316565,1,2,0:0:0:0:
256,192,316665,1,2,0:0:0:0:
256,192,316765,1,2,0:0:0:0:
256,192,316865,1,0,0:0:0:0:
256,192,316965,1,2,0:0:0:0:
256,192,317065,1,0,0:0:0:0:
256,192,317165,1,2,0:0:0:0:
256,192,317265,1,2,0:0:0:0:
256,192,317365,1,0,0:0:0:0:
256,192,317465,1,2,0:0:0:0:
256,192,317565,1,2,0:0:0:0:
256,192,317665,1,0,0:0:0:0:
256,192,317765,1,2,0:0:0:0:
256,192,317815,1,0,0:0:0:0:
256,192,317865,1,0,0:0:0:0:
256,192,317915,1,0,0:0:0:0:
256,192,318015,1,0,0:0:0:0:
256,192,318065,1,0,0:0:0:0:
256,192,318115,1,0,0:0:0:0:
256,192,318165,1,2,0:0:0:0:
256,192,318215,1,0,0:0:0:0:
256,192,318265,1,2,0:0:0:0:
256,192,318365,1,2,0:0:0:0:
256,192,318465,1,0,0:0:0:0:
256,192,318565,1,2,0:0:0:0:
256,192,318665,1,0,0:0:0:0:
256,192,318765,1,2,0:0:0:0:
256,192,318865,1,2,0:0:0:0:
256,192,318965,1,0,0:0:0:0:
256,192,319065,1,2,0:0:0:0:
256,192,319165,1,2,0:0:0:0:
256,192,319265,1,0,0:0:0:0:
256,192,319365,1,2,0:0:0:0:
256,192,319465,1,0,0:0:0:0:
256,192,319565,1,0,0:0:0:0:
256,192,319665,1,2,0:0:0:0:
256,192,319765,1,0,0:0:0:0:
256,192,319865,1,2,0:0:0:0:
256,192,319965,1,2,0:0:0:0:
256,192,320065,1,2,0:0:0:0:
256,192,320165,1,0,0:0:0:0:
256,192,320265,1,2,0:0:0:0:
256,192,320365,1,0,0:0:0:0:
256,192,320465,1,2,0:0:0:0:
256,192,320565,1,0,0:0:0:0:
256,192,320665,1,2,0:0:0:0:
256,192,320765,1,2,0:0:0:0:
256,192,320865,1,2,0:0:0:0:
256,192,320965,1,0,0:0:0:0:
256,192,321015,1,0,0:0:0:0:
256,192,321065,1,2,0:0:0:0:
256,192,321115,1,2,0:0:0:0:
256,192,321215,1,0,0:0:0:0:
256,192,321265,1,2,0:0:0:0:
256,192,321315,1,0,0:0:0:0:
256,192,321365,1,0,0:0:0:0:
256,192,321415,1,0,0:0:0:0:
256,192,321465,1,2,0:0:0:0:
256,192,321565,1,2,0:0:0:0:
256,192,321665,1,2,0:0:0:0:
256,192,321765,1,0,0:0:0:0:
256,192,321865,1,2,0:0:0:0:
256,192,321965,1,0,0:0:0:0:
256,192,322065,1,2,0:0:0:0:
256,192,322165,1,0,0:0:0:0:
256,192,322265,1,2,0:0:0:0:
256,192,322365,1,0,0:0:0:0:
256,192,322465,1,0,0:0:0:0:
256,192,322565,1,2,0:0:0:0:
256,192,322665,1,2,0:0:0:0:
256,192,322765,1,2,0:0:0:0:
256,192,322865,1,0,0:0:0:0:
256,192,322965,1,2,0:0:0:0:
256,192,323065,1,0,0:0:0:0:
256,192,323165,1,2,0:0:0:0:
256,192,323265,1,2,0:0:0:0:
256,192,323365,1,0,0:0:0:0:
256,192,323465,1,2,0:0:0:0:
256,192,323565,1,0,0:0:0:0:
256,192,323665,1,2,0:0:0:0:
256,192,323765,1,0,0:0:0:0:
256,192,323865,1,2,0:0:0:0:
256,192,323965,1,0,0:0:0:0:
256,192,324065,1,0,0:0:0:0:
256,192,324165,1,2,0:0:0:0:
256,192,324215,1,0,0:0:0:0:
256,192,324265,1,0,0:0:0:0:
256,192,324315,1,0,0:0:0:0:
256,192,324415,1,0,0:0:0:0:
256,192,324465,1,0,0:0:0:0:
256,192,324515,1,0,0:0:0:0:
256,192,324565,1,2,0:0:0:0:
256,192,324615,1,0,0:0:0:0:
256,192,324665,1,2,0:0:0:0:
256,192,324765,1,2,0:0:0:0:
256,192,324865,1,0,0:0:0:0:
256,192,324965,1,2,0:0:0:0:
256,192,325065,1,0,0:0:0:0:
256,192,325165,1,2,0:0:0:0:
256,192,325265,1,2,0:0:0:0:
256,192,325365,1,0,0:0:0:0:
256,192,325465,1,2,0:0:0:0:
256,192,325565,1,0,0:0:0:0:
256,192,325665,1,2,0:0:0:0:
256,192,325765,1,0,0:0:0:0:
256,192,325865,1,2,0:0:0:0:
256,192,325965,1,0,0:0:0:0:
256,192,326065,1,2,0:0:0:0:
256,192,326165,1,2,0:0:0:0:
256,192,326265,1,0,0:0:0:0:
256,192,326365,1,2,0:0:0:0:
256,192,326465,1,0,0:0:0:0:
256,192,326565,1,2,0:0:0:0:
256,192,326665,1,2,0:0:0:0:
256,192,326765,1,0,0:0:0:0:
256,192,326865,1,2,0:0:0:0:
256,192,326965,1,0,0:0:0:0:
256,192,327065,1,2,0:0:0:0:
256,192,327165,1,0,0:0:0:0:
256,192,327215,1,0,0:0:0:0:
256,192,327265,1,0,0:0:0:0:
256,192,327315,1,0,0:0:0:0:
256,192,327365,1,2,0:0:0:0:
256,192,327415,1,2,0:0:0:0:
256,192,327465,1,0,0:0:0:0:
256,192,327515,1,0,0:0:0:0:
256,192,327565,1,2,0:0:0:0:
256,192,327665,1,2,0:0:0:0:
256,192,327765,1,2,0:0:0:0:
256,192,327865,1,2,0:0:0:0:
256,192,327965,1,2,0:0:0:0:
256,192,328015,1,2,0:0:0:0:
256,192,328065,1,0,0:0:0:0:
256,192,328165,1,2,0:0:0:0:
256,192,328215,1,2,0:0:0:0:
256,192,328265,1,0,0:0:0:0:
256,192,328365,1,0,0:0:0:0:
256,192,328415,1,0,0:0:0:0:
256,192,328465,1,2,0:0:0:0:
256,192,328565,1,2,0:0:0:0:
256,192,328615,1,2,0:0:0:0:
256,192,328665,1,0,0:0:0:0:
256,192,328765,1,2,0:0:0:0:
256,192,328815,1,2,0:0:0:0:
256,192,328865,1,0,0:0:0:0:
256,192,328965,1,2,0:0:0:0:
256,192,329015,1,2,0:0:0:0:
256,192,329065,1,0,0:0:0:0:
256,192,329115,1,2,0:0:0:0:
256,192,329165,1,2,0:0:0:0:
256,192,329215,1,0,0:0:0:0:
256,192,329265,1,2,0:0:0:0:
256,192,329315,1,2,0:0:0:0:
256,192,329365,1,0,0:0:0:0:
256,192,329415,1,2,0:0:0:0:
256,192,329465,1,0,0:0:0:0:
256,192,329515,1,2,0:0:0:0:
256,192,329565,1,0,0:0:0:0:
256,192,329765,1,0,0:0:0:0:
256,192,329965,1,0,0:0:0:0:
256,192,330165,1,0,0:0:0:0:
256,192,330365,1,0,0:0:0:0:
256,192,330565,1,2,0:0:0:0:
256,192,330665,1,2,0:0:0:0:
256,192,330765,1,0,0:0:0:0:
256,192,330965,1,0,0:0:0:0:
256,192,331065,1,2,0:0:0:0:
256,192,331165,1,0,0:0:0:0:
256,192,331365,1,0,0:0:0:0:
256,192,331465,1,2,0:0:0:0:
256,192,331565,1,0,0:0:0:0:
256,192,331615,1,0,0:0:0:0:
256,192,331665,1,2,0:0:0:0:
256,192,331715,1,0,0:0:0:0:
256,192,331765,1,2,0:0:0:0:
256,192,331815,1,0,0:0:0:0:
256,192,331865,1,2,0:0:0:0:
256,192,331915,1,0,0:0:0:0:
256,192,331965,1,0,0:0:0:0:
256,192,332165,1,0,0:0:0:0:
256,192,332215,1,2,0:0:0:0:
256,192,332265,1,0,0:0:0:0:
256,192,332315,1,0,0:0:0:0:
256,192,332365,1,2,0:0:0:0:
256,192,332415,1,0,0:0:0:0:
256,192,332465,1,0,0:0:0:0:
256,192,332515,1,2,0:0:0:0:
256,192,332565,1,0,0:0:0:0:
256,192,332765,1,2,0:0:0:0:
256,192,332815,1,0,0:0:0:0:
256,192,332865,1,0,0:0:0:0:
256,192,332915,1,0,0:0:0:0:
256,192,332965,1,2,0:0:0:0:
256,192,333015,1,0,0:0:0:0:
256,192,333065,1,0,0:0:0:0:
256,192,333115,1,0,0:0:0:0:
256,192,333165,1,2,0:0:0:0:
256,192,333215,1,0,0:0:0:0:
256,192,333265,1,0,0:0:0:0:
256,192,333315,1,2,0:0:0:0:
256,192,333365,1,0,0:0:0:0:
256,192,333415,1,0,0:0:0:0:
256,192,333465,1,2,0:0:0:0:
256,192,333515,1,0,0:0:0:0:
256,192,333565,1,0,0:0:0:0:
256,192,333615,1,2,0:0:0:0:
256,192,333665,1,0,0:0:0:0:
256,192,333715,1,0,0:0:0:0:
256,192,333765,1,2,0:0:0:0:
256,192,333815,1,0,0:0:0:0:
256,192,333865,1,0,0:0:0:0:
256,192,333915,1,2,0:0:0:0:
256,192,333965,1,0,0:0:0:0:
256,192,334015,1,2,0:0:0:0:
256,192,334065,1,0,0:0:0:0:
256,192,334115,1,2,0:0:0:0:
256,192,334165,1,0,0:0:0:0:
256,192,334215,1,2,0:0:0:0:
256,192,334265,1,0,0:0:0:0:
256,192,334315,1,2,0:0:0:0:
256,192,334365,1,0,0:0:0:0:
256,192,334415,1,2,0:0:0:0:
256,192,334465,1,0,0:0:0:0:
256,192,334515,1,2,0:0:0:0:
256,192,334565,1,0,0:0:0:0:
256,192,334615,1,2,0:0:0:0:
256,192,334665,1,0,0:0:0:0:
256,192,334715,1,2,0:0:0:0:
256,192,334765,1,0,0:0:0:0:
256,192,334965,1,0,0:0:0:0:
256,192,335265,1,4,0:0:0:0:
256,192,335565,1,2,0:0:0:0:
256,192,335765,1,2,0:0:0:0:
256,192,336065,1,6,0:0:0:0:
256,192,336365,1,0,0:0:0:0:
256,192,336565,1,0,0:0:0:0:
256,192,336865,1,4,0:0:0:0:
256,192,337165,1,2,0:0:0:0:
256,192,337365,1,2,0:0:0:0:
256,192,337665,1,6,0:0:0:0:
256,192,337965,1,0,0:0:0:0:
256,192,338165,1,0,0:0:0:0:
256,192,338465,1,4,0:0:0:0:
256,192,338765,1,2,0:0:0:0:
256,192,338965,1,2,0:0:0:0:
256,192,339265,1,6,0:0:0:0:
256,192,339565,1,0,0:0:0:0:
256,192,339765,1,0,0:0:0:0:
256,192,340065,1,4,0:0:0:0:
256,192,340365,1,2,0:0:0:0:
256,192,340465,1,2,0:0:0:0:
256,192,340565,1,0,0:0:0:0:
256,192,340665,1,2,0:0:0:0:
256,192,340765,1,2,0:0:0:0:
256,192,340865,1,0,0:0:0:0:
256,192,340965,1,2,0:0:0:0:
256,192,341015,1,2,0:0:0:0:
256,192,341065,1,2,0:0:0:0:
256,192,341115,1,2,0:0:0:0:
256,192,341165,1,2,0:0:0:0:
256,192,341265,1,2,0:0:0:0:
256,192,341365,1,0,0:0:0:0:
256,192,341465,1,0,0:0:0:0:
256,192,341565,1,2,0:0:0:0:
256,192,341665,1,2,0:0:0:0:
256,192,341765,1,0,0:0:0:0:
256,192,341865,1,0,0:0:0:0:
256,192,341965,1,2,0:0:0:0:
256,192,342065,1,2,0:0:0:0:
256,192,342165,1,0,0:0:0:0:
256,192,342265,1,0,0:0:0:0:
256,192,342365,1,2,0:0:0:0:
256,192,342465,1,0,0:0:0:0:
256,192,342565,1,0,0:0:0:0:
256,192,342665,1,2,0:0:0:0:
256,192,342765,1,2,0:0:0:0:
256,192,342865,1,2,0:0:0:0:
256,192,342965,1,0,0:0:0:0:
256,192,343065,1,0,0:0:0:0:
256,192,343165,1,2,0:0:0:0:
256,192,343265,1,2,0:0:0:0:
256,192,343365,1,0,0:0:0:0:
256,192,343465,1,0,0:0:0:0:
256,192,343565,1,2,0:0:0:0:
256,192,343665,1,2,0:0:0:0:
256,192,343765,1,0,0:0:0:0:
256,192,343865,1,0,0:0:0:0:
256,192,343965,1,0,0:0:0:0:
256,192,344015,1,2,0:0:0:0:
256,192,344065,1,2,0:0:0:0:
256,192,344115,1,2,0:0:0:0:
256,192,344165,1,2,0:0:0:0:
256,192,344215,1,2,0:0:0:0:
256,192,344265,1,2,0:0:0:0:
256,192,344315,1,2,0:0:0:0:
256,192,344365,1,2,0:0:0:0:
256,192,344465,1,2,0:0:0:0:
256,192,344565,1,0,0:0:0:0:
256,192,344665,1,0,0:0:0:0:
256,192,344765,1,2,0:0:0:0:
256,192,344865,1,2,0:0:0:0:
256,192,344965,1,0,0:0:0:0:
256,192,345065,1,0,0:0:0:0:
256,192,345165,1,2,0:0:0:0:
256,192,345265,1,2,0:0:0:0:
256,192,345365,1,0,0:0:0:0:
256,192,345465,1,0,0:0:0:0:
256,192,345565,1,2,0:0:0:0:
256,192,345665,1,0,0:0:0:0:
256,192,345765,1,2,0:0:0:0:
256,192,345865,1,0,0:0:0:0:
256,192,345965,1,2,0:0:0:0:
256,192,346065,1,2,0:0:0:0:
256,192,346165,1,0,0:0:0:0:
256,192,346265,1,0,0:0:0:0:
256,192,346365,1,2,0:0:0:0:
256,192,346465,1,2,0:0:0:0:
256,192,346565,1,0,0:0:0:0:
256,192,346665,1,0,0:0:0:0:
256,192,346765,1,2,0:0:0:0:
256,192,346865,1,2,0:0:0:0:
256,192,346965,1,0,0:0:0:0:
256,192,347065,1,0,0:0:0:0:
256,192,347165,1,2,0:0:0:0:
256,192,347215,1,2,0:0:0:0:
256,192,347265,1,2,0:0:0:0:
256,192,347315,1,2,0:0:0:0:
256,192,347365,1,0,0:0:0:0:
256,192,347415,1,0,0:0:0:0:
256,192,347465,1,2,0:0:0:0:
256,192,347515,1,2,0:0:0:0:
256,192,347565,1,2,0:0:0:0:
256,192,347665,1,2,0:0:0:0:
256,192,347765,1,0,0:0:0:0:
256,192,347865,1,0,0:0:0:0:
256,192,347965,1,2,0:0:0:0:
256,192,348065,1,0,0:0:0:0:
256,192,348165,1,0,0:0:0:0:
256,192,348265,1,2,0:0:0:0:
256,192,348365,1,0,0:0:0:0:
256,192,348465,1,2,0:0:0:0:
256,192,348515,1,2,0:0:0:0:
256,192,348565,1,2,0:0:0:0:
256,192,348665,1,0,0:0:0:0:
256,192,348765,1,2,0:0:0:0:
256,192,348865,1,2,0:0:0:0:
256,192,348965,1,0,0:0:0:0:
256,192,349065,1,2,0:0:0:0:
256,192,349115,1,2,0:0:0:0:
256,192,349165,1,0,0:0:0:0:
256,192,349215,1,0,0:0:0:0:
256,192,349265,1,0,0:0:0:0:
256,192,349315,1,0,0:0:0:0:
256,192,349365,1,0,0:0:0:0:
256,192,349415,1,0,0:0:0:0:
256,192,349465,1,0,0:0:0:0:
256,192,349515,1,0,0:0:0:0:
256,192,349565,1,2,0:0:0:0:
256,192,349615,1,2,0:0:0:0:
256,192,349665,1,2,0:0:0:0:
256,192,349715,1,2,0:0:0:0:
256,192,349765,1,2,0:0:0:0:
256,192,349815,1,2,0:0:0:0:
256,192,349865,1,2,0:0:0:0:
256,192,349915,1,2,0:0:0:0:
256,192,349965,1,0,0:0:0:0:
256,192,350065,1,0,0:0:0:0:
256,192,350165,1,2,0:0:0:0:
256,192,350265,1,2,0:0:0:0:
256,192,350365,1,0,0:0:0:0:
256,192,350465,1,2,0:0:0:0:
256,192,350565,1,0,0:0:0:0:
256,192,350665,1,0,0:0:0:0:
256,192,350765,1,0,0:0:0:0:
256,192,350865,1,2,0:0:0:0:
256,192,350965,1,0,0:0:0:0:
256,192,351065,1,0,0:0:0:0:
256,192,351165,1,2,0:0:0:0:
256,192,351265,1,0,0:0:0:0:
256,192,351365,1,0,0:0:0:0:
256,192,351465,1,0,0:0:0:0:
256,192,351565,1,2,0:0:0:0:
256,192,351665,1,2,0:0:0:0:
256,192,351765,1,0,0:0:0:0:
256,192,351865,1,2,0:0:0:0:
256,192,351965,1,0,0:0:0:0:
256,192,352065,1,2,0:0:0:0:
256,192,352165,1,0,0:0:0:0:
256,192,352265,1,0,0:0:0:0:
256,192,352365,1,2,0:0:0:0:
256,192,352465,1,0,0:0:0:0:
256,192,352565,1,0,0:0:0:0:
256,192,352665,1,2,0:0:0:0:
256,192,352765,1,0,0:0:0:0:
256,192,352865,1,0,0:0:0:0:
256,192,352965,1,2,0:0:0:0:
256,192,353065,1,0,0:0:0:0:
256,192,353165,1,2,0:0:0:0:
256,192,353265,1,0,0:0:0:0:
256,192,353365,1,0,0:0:0:0:
256,192,353465,1,2,0:0:0:0:
256,192,353565,1,0,0:0:0:0:
256,192,353665,1,0,0:0:0:0:
256,192,353765,1,2,0:0:0:0:
256,192,353865,1,0,0:0:0:0:
256,192,353965,1,0,0:0:0:0:
256,192,354065,1,2,0:0:0:0:
256,192,354165,1,0,0:0:0:0:
256,192,354265,1,2,0:0:0:0:
256,192,354365,1,0,0:0:0:0:
256,192,354465,1,2,0:0:0:0:
256,192,354565,1,0,0:0:0:0:
256,192,354665,1,2,0:0:0:0:
256,192,354765,1,0,0:0:0:0:
256,192,354865,1,2,0:0:0:0:
256,192,354965,1,0,0:0:0:0:
256,192,355165,1,2,0:0:0:0:
256,192,355265,1,0,0:0:0:0:
256,192,355365,1,0,0:0:0:0:
256,192,355465,1,2,0:0:0:0:
256,192,355565,1,0,0:0:0:0:
256,192,355765,1,2,0:0:0:0:
256,192,355865,1,0,0:0:0:0:
256,192,355965,1,0,0:0:0:0:
256,192,356165,1,2,0:0:0:0:
256,192,356265,1,0,0:0:0:0:
256,192,356365,1,0,0:0:0:0:
256,192,356565,1,2,0:0:0:0:
256,192,356615,1,0,0:0:0:0:
256,192,356665,1,0,0:0:0:0:
256,192,356715,1,0,0:0:0:0:
256,192,356765,1,0,0:0:0:0:
256,192,356865,1,2,0:0:0:0:
256,192,356965,1,0,0:0:0:0:
256,192,357065,1,2,0:0:0:0:
256,192,357165,1,0,0:0:0:0:
256,192,357265,1,2,0:0:0:0:
256,192,357365,1,0,0:0:0:0:
256,192,357465,1,2,0:0:0:0:
256,192,357565,1,0,0:0:0:0:
256,192,357665,1,2,0:0:0:0:
256,192,357765,1,0,0:0:0:0:
256,192,357865,1,2,0:0:0:0:
256,192,357915,1,0,0:0:0:0:
256,192,357965,1,0,0:0:0:0:
256,192,358015,1,0,0:0:0:0:
256,192,358065,1,0,0:0:0:0:
256,192,358165,1,2,0:0:0:0:
256,192,358265,1,0,0:0:0:0:
256,192,358365,1,0,0:0:0:0:
256,192,358465,1,2,0:0:0:0:
256,192,358565,1,0,0:0:0:0:
256,192,358665,1,2,0:0:0:0:
256,192,358765,1,0,0:0:0:0:
256,192,358865,1,0,0:0:0:0:
256,192,358965,1,2,0:0:0:0:
256,192,359065,1,0,0:0:0:0:
256,192,359165,1,0,0:0:0:0:
256,192,359265,1,2,0:0:0:0:
256,192,359315,1,2,0:0:0:0:
256,192,359365,1,2,0:0:0:0:
256,192,359415,1,2,0:0:0:0:
256,192,359465,1,2,0:0:0:0:
256,192,359515,1,2,0:0:0:0:
256,192,359565,1,0,0:0:0:0:
256,192,359665,1,0,0:0:0:0:
256,192,359765,1,4,0:0:0:0:
256,192,360065,1,0,0:0:0:0:
256,192,360165,1,0,0:0:0:0:
256,192,360265,1,4,0:0:0:0:
256,192,360465,1,0,0:0:0:0:
256,192,360565,1,0,0:0:0:0:
256,192,360665,1,0,0:0:0:0:
256,192,360765,1,2,0:0:0:0:
256,192,360815,1,0,0:0:0:0:
256,192,360865,1,2,0:0:0:0:
256,192,360915,1,0,0:0:0:0:
256,192,360965,1,2,0:0:0:0:
256,192,361015,1,0,0:0:0:0:
256,192,361065,1,2,0:0:0:0:
256,192,361115,1,0,0:0:0:0:
256,192,361165,1,0,0:0:0:0:
256,192,361265,1,0,0:0:0:0:
256,192,361365,1,4,0:0:0:0:
256,192,361665,1,0,0:0:0:0:
256,192,361865,1,4,0:0:0:0:
256,192,361965,1,2,0:0:0:0:
256,192,362065,1,2,0:0:0:0:
256,192,362165,1,2,0:0:0:0:
256,192,362265,1,2,0:0:0:0:
256,192,362365,1,0,0:0:0:0:
256,192,362465,1,2,0:0:0:0:
256,192,362515,1,2,0:0:0:0:
256,192,362565,1,2,0:0:0:0:
256,192,362615,1,2,0:0:0:0:
256,192,362665,1,2,0:0:0:0:
256,192,362715,1,2,0:0:0:0:
256,192,362765,1,0,0:0:0:0:
256,192,362865,1,0,0:0:0:0:
256,192,362965,1,4,0:0:0:0:
256,192,363265,1,0,0:0:0:0:
256,192,363365,1,0,0:0:0:0:
256,192,363465,1,4,0:0:0:0:
256,192,363665,1,0,0:0:0:0:
256,192,363765,1,0,0:0:0:0:
256,192,363865,1,0,0:0:0:0:
256,192,363965,1,2,0:0:0:0:
256,192,364015,1,0,0:0:0:0:
256,192,364065,1,2,0:0:0:0:
256,192,364115,1,0,0:0:0:0:
256,192,364165,1,2,0:0:0:0:
256,192,364215,1,0,0:0:0:0:
256,192,364265,1,2,0:0:0:0:
256,192,364315,1,0,0:0:0:0:
256,192,364365,1,0,0:0:0:0:
256,192,364465,1,0,0:0:0:0:
256,192,364565,1,4,0:0:0:0:
256,192,364865,1,0,0:0:0:0:
256,192,365065,1,4,0:0:0:0:
256,192,365165,1,0,0:0:0:0:
256,192,365215,1,0,0:0:0:0:
256,192,365265,1,0,0:0:0:0:
256,192,365315,1,0,0:0:0:0:
256,192,365365,1,0,0:0:0:0:
256,192,365415,1,0,0:0:0:0:
256,192,365465,1,2,0:0:0:0:
256,192,365515,1,0,0:0:0:0:
256,192,365565,1,2,0:0:0:0:
256,192,365615,1,0,0:0:0:0:
256,192,365665,1,2,0:0:0:0:
256,192,365715,1,0,0:0:0:0:
256,192,365765,1,2,0:0:0:0:
256,192,365815,1,0,0:0:0:0:
256,192,365865,1,2,0:0:0:0:
256,192,365915,1,0,0:0:0:0:
256,192,365965,2,0,L|320:192,32,35
