osu file format v14

[General]
AudioFilename: audio.mp3
AudioLeadIn: 0
PreviewTime: -1
Countdown: 1
SampleSet: Normal
StackLeniency: 0.7
Mode: 3
LetterboxInBreaks: 0
SpecialStyle: 0
WidescreenStoryboard: 0

[Editor]
DistanceSpacing: 1.5
BeatDivisor: 1
GridSize: 4
TimelineZoom: 1

[Metadata]
Title:TR1PLE DAN
TitleUnicode:TR1PLE DAN
Artist:Various Artists
ArtistUnicode:Various Artists
Creator:wonder5193
Version:Stage ~ BETA ~
Source:
Tags:
BeatmapID:1961201
BeatmapSetID:938887

[Difficulty]
HPDrainRate:8
CircleSize:4
OverallDifficulty:8
ApproachRate:5
SliderMultiplier:1.4
SliderTickRate:1

[Events]
//Background and Video events
0,0,"Stage - BETA.PNG",0,0
//Break Periods
2,111181,121655
2,234012,242766
2,364166,377016
//Storyboard Layer 0 (Background)
//Storyboard Layer 1 (Fail)
//Storyboard Layer 2 (Pass)
//Storyboard Layer 3 (Foreground)
//Storyboard Sound Samples

[TimingPoints]
1696,428.571428571429,4,1,0,25,1,0
1696,-53.850296176629,4,1,0,25,0,0
122880,199.335548172757,4,1,0,25,1,0
122880,-115.874855156431,4,1,0,25,0,0
243971,230.769230769231,4,1,0,25,1,0

[HitObjects]
64,192,1696,5,0,0:0:0:0:
320,192,1910,1,0,0:0:0:0:
64,192,2124,1,0,0:0:0:0:
448,192,2124,1,0,0:0:0:0:
320,192,2338,1,0,0:0:0:0:
192,192,2553,1,0,0:0:0:0:
320,192,2660,1,0,0:0:0:0:
64,192,2767,1,0,0:0:0:0:
320,192,2981,1,0,0:0:0:0:
320,192,3410,1,0,0:0:0:0:
64,192,3624,1,0,0:0:0:0:
320,192,3838,1,0,0:0:0:0:
64,192,4053,1,0,0:0:0:0:
192,192,4160,1,0,0:0:0:0:
448,192,4481,1,0,0:0:0:0:
192,192,4695,1,0,0:0:0:0:
64,192,5124,1,0,0:0:0:0:
320,192,5338,1,0,0:0:0:0:
448,192,5553,1,0,0:0:0:0:
192,192,5767,1,0,0:0:0:0:
320,192,5981,1,0,0:0:0:0:
192,192,6088,1,0,0:0:0:0:
64,192,6195,1,0,0:0:0:0:
448,192,6196,1,0,0:0:0:0:
320,192,6410,1,0,0:0:0:0:
448,192,6838,1,0,0:0:0:0:
320,192,7053,1,0,0:0:0:0:
64,192,7267,1,0,0:0:0:0:
448,192,7481,1,0,0:0:0:0:
192,192,7588,1,0,0:0:0:0:
448,192,7910,1,0,0:0:0:0:
192,192,8124,1,0,0:0:0:0:
64,192,8553,1,0,0:0:0:0:
192,192,8553,1,0,0:0:0:0:
448,192,8553,1,0,0:0:0:0:
64,192,8660,1,0,0:0:0:0:
320,192,8660,1,0,0:0:0:0:
448,192,8660,1,0,0:0:0:0:
192,192,8767,1,0,0:0:0:0:
320,192,8767,1,0,0:0:0:0:
448,192,8767,1,0,0:0:0:0:
64,192,8874,1,0,0:0:0:0:
192,192,8874,1,0,0:0:0:0:
320,192,8874,1,0,0:0:0:0:
64,192,8981,1,0,0:0:0:0:
448,192,8981,1,0,0:0:0:0:
192,192,8981,1,0,0:0:0:0:
320,192,9195,1,0,0:0:0:0:
192,192,9410,1,0,0:0:0:0:
320,192,9517,1,0,0:0:0:0:
192,192,9624,1,0,0:0:0:0:
448,192,9838,1,0,0:0:0:0:
320,192,10481,1,0,0:0:0:0:
448,192,10695,1,0,0:0:0:0:
64,192,10695,1,0,0:0:0:0:
320,192,10910,1,0,0:0:0:0:
192,192,11017,1,0,0:0:0:0:
64,192,11124,1,0,0:0:0:0:
448,192,11124,1,0,0:0:0:0:
448,192,11338,1,0,0:0:0:0:
320,192,11553,1,0,0:0:0:0:
64,192,11981,1,0,0:0:0:0:
192,192,12195,1,0,0:0:0:0:
320,192,12410,1,0,0:0:0:0:
192,192,12517,1,0,0:0:0:0:
448,192,12624,1,0,0:0:0:0:
64,192,12624,1,0,0:0:0:0:
320,192,12838,1,0,0:0:0:0:
192,192,13053,1,0,0:0:0:0:
320,192,13267,1,0,0:0:0:0:
448,192,13696,1,0,0:0:0:0:
192,192,13910,1,0,0:0:0:0:
448,192,14124,1,0,0:0:0:0:
64,192,15410,1,0,0:0:0:0:
192,192,15410,1,0,0:0:0:0:
448,192,15410,1,0,0:0:0:0:
64,192,15517,1,0,0:0:0:0:
320,192,15517,1,0,0:0:0:0:
448,192,15517,1,0,0:0:0:0:
320,192,15624,1,0,0:0:0:0:
192,192,15624,1,0,0:0:0:0:
64,192,15624,1,0,0:0:0:0:
192,192,15731,1,0,0:0:0:0:
448,192,15731,1,0,0:0:0:0:
320,192,15731,1,0,0:0:0:0:
64,192,15838,1,0,0:0:0:0:
320,192,15838,1,0,0:0:0:0:
448,192,15838,1,0,0:0:0:0:
192,192,15946,1,0,0:0:0:0:
448,192,15946,1,0,0:0:0:0:
64,192,16053,1,0,0:0:0:0:
320,192,16053,1,0,0:0:0:0:
192,192,16160,1,0,0:0:0:0:
448,192,16160,1,0,0:0:0:0:
192,192,16267,1,0,0:0:0:0:
448,192,16267,1,0,0:0:0:0:
320,192,16267,1,0,0:0:0:0:
64,192,16267,1,0,0:0:0:0:
320,192,16374,1,0,0:0:0:0:
64,192,16374,1,0,0:0:0:0:
320,192,16481,1,0,0:0:0:0:
448,192,16481,1,0,0:0:0:0:
64,192,16588,1,0,0:0:0:0:
448,192,16588,1,0,0:0:0:0:
64,192,16696,1,0,0:0:0:0:
192,192,16696,1,0,0:0:0:0:
320,192,16696,1,0,0:0:0:0:
448,192,16696,1,0,0:0:0:0:
64,192,16803,1,0,0:0:0:0:
320,192,16803,1,0,0:0:0:0:
192,192,16910,1,0,0:0:0:0:
320,192,16910,1,0,0:0:0:0:
448,192,17017,1,0,0:0:0:0:
64,192,17017,1,0,0:0:0:0:
64,192,17124,1,0,0:0:0:0:
192,192,17124,1,0,0:0:0:0:
320,192,17124,1,0,0:0:0:0:
448,192,17124,1,0,0:0:0:0:
320,192,17231,1,0,0:0:0:0:
64,192,17231,1,0,0:0:0:0:
448,192,17338,1,0,0:0:0:0:
192,192,17338,1,0,0:0:0:0:
64,192,17446,1,0,0:0:0:0:
192,192,17446,1,0,0:0:0:0:
192,192,17553,1,0,0:0:0:0:
64,192,17553,1,0,0:0:0:0:
320,192,17553,1,0,0:0:0:0:
448,192,17553,1,0,0:0:0:0:
64,192,17660,1,0,0:0:0:0:
448,192,17660,1,0,0:0:0:0:
448,192,17767,1,0,0:0:0:0:
192,192,17767,1,0,0:0:0:0:
64,192,17874,1,0,0:0:0:0:
320,192,17874,1,0,0:0:0:0:
64,192,17981,1,0,0:0:0:0:
192,192,17981,1,0,0:0:0:0:
320,192,17981,1,0,0:0:0:0:
448,192,17981,1,0,0:0:0:0:
448,192,18088,1,0,0:0:0:0:
192,192,18088,1,0,0:0:0:0:
320,192,18196,1,0,0:0:0:0:
192,192,18196,1,0,0:0:0:0:
64,192,18303,1,0,0:0:0:0:
448,192,18303,1,0,0:0:0:0:
64,192,18410,1,0,0:0:0:0:
192,192,18410,1,0,0:0:0:0:
320,192,18410,1,0,0:0:0:0:
448,192,18410,1,0,0:0:0:0:
320,192,18517,1,0,0:0:0:0:
192,192,18517,1,0,0:0:0:0:
64,192,18624,1,0,0:0:0:0:
448,192,18624,1,0,0:0:0:0:
192,192,18731,1,0,0:0:0:0:
64,192,18731,1,0,0:0:0:0:
320,192,18838,1,0,0:0:0:0:
448,192,18838,1,0,0:0:0:0:
64,192,18838,1,0,0:0:0:0:
192,192,18838,1,0,0:0:0:0:
448,192,18946,1,0,0:0:0:0:
192,192,18946,1,0,0:0:0:0:
320,192,19053,1,0,0:0:0:0:
64,192,19053,1,0,0:0:0:0:
192,192,19160,1,0,0:0:0:0:
320,192,19160,1,0,0:0:0:0:
64,192,19267,1,0,0:0:0:0:
192,192,19267,1,0,0:0:0:0:
320,192,19267,1,0,0:0:0:0:
448,192,19267,1,0,0:0:0:0:
448,192,19374,1,0,0:0:0:0:
64,192,19374,1,0,0:0:0:0:
64,192,19481,1,0,0:0:0:0:
320,192,19481,1,0,0:0:0:0:
448,192,19588,1,0,0:0:0:0:
192,192,19588,1,0,0:0:0:0:
192,192,19696,1,0,0:0:0:0:
64,192,19696,1,0,0:0:0:0:
320,192,19696,1,0,0:0:0:0:
448,192,19696,1,0,0:0:0:0:
320,192,19803,1,0,0:0:0:0:
64,192,19803,1,0,0:0:0:0:
192,192,19910,1,0,0:0:0:0:
320,192,19910,1,0,0:0:0:0:
448,192,20017,1,0,0:0:0:0:
64,192,20017,1,0,0:0:0:0:
64,192,20124,1,0,0:0:0:0:
192,192,20124,1,0,0:0:0:0:
320,192,20124,1,0,0:0:0:0:
448,192,20124,1,0,0:0:0:0:
320,192,20231,1,0,0:0:0:0:
192,192,20231,1,0,0:0:0:0:
448,192,20338,1,0,0:0:0:0:
192,192,20338,1,0,0:0:0:0:
64,192,20446,1,0,0:0:0:0:
448,192,20446,1,0,0:0:0:0:
448,192,20553,1,0,0:0:0:0:
320,192,20553,1,0,0:0:0:0:
192,192,20553,1,0,0:0:0:0:
64,192,20553,1,0,0:0:0:0:
320,192,20660,1,0,0:0:0:0:
64,192,20660,1,0,0:0:0:0:
192,192,20767,1,0,0:0:0:0:
320,192,20767,1,0,0:0:0:0:
448,192,20874,1,0,0:0:0:0:
64,192,20874,1,0,0:0:0:0:
192,192,20981,1,0,0:0:0:0:
64,192,20981,1,0,0:0:0:0:
320,192,20981,1,0,0:0:0:0:
448,192,20981,1,0,0:0:0:0:
320,192,21088,1,0,0:0:0:0:
64,192,21088,1,0,0:0:0:0:
448,192,21196,1,0,0:0:0:0:
192,192,21196,1,0,0:0:0:0:
320,192,21303,1,0,0:0:0:0:
192,192,21303,1,0,0:0:0:0:
64,192,21410,1,0,0:0:0:0:
192,192,21410,1,0,0:0:0:0:
320,192,21410,1,0,0:0:0:0:
448,192,21410,1,0,0:0:0:0:
64,192,21517,1,0,0:0:0:0:
448,192,21517,1,0,0:0:0:0:
320,192,21624,1,0,0:0:0:0:
192,192,21624,1,0,0:0:0:0:
64,192,21731,1,0,0:0:0:0:
320,192,21731,1,0,0:0:0:0:
64,192,21838,1,0,0:0:0:0:
192,192,21838,1,0,0:0:0:0:
320,192,21838,1,0,0:0:0:0:
448,192,21838,1,0,0:0:0:0:
448,192,21946,1,0,0:0:0:0:
192,192,21946,1,0,0:0:0:0:
320,192,22053,1,0,0:0:0:0:
64,192,22053,1,0,0:0:0:0:
192,192,22160,1,0,0:0:0:0:
320,192,22160,1,0,0:0:0:0:
448,192,22267,1,0,0:0:0:0:
320,192,22267,1,0,0:0:0:0:
192,192,22267,1,0,0:0:0:0:
64,192,22267,1,0,0:0:0:0:
448,192,22374,1,0,0:0:0:0:
64,192,22374,1,0,0:0:0:0:
320,192,22481,1,0,0:0:0:0:
192,192,22481,1,0,0:0:0:0:
64,192,22588,1,0,0:0:0:0:
320,192,22588,1,0,0:0:0:0:
192,192,22696,1,0,0:0:0:0:
448,192,22696,1,0,0:0:0:0:
64,192,22696,1,0,0:0:0:0:
320,192,22696,1,0,0:0:0:0:
192,192,22803,1,0,0:0:0:0:
448,192,22803,1,0,0:0:0:0:
64,192,22803,1,0,0:0:0:0:
320,192,22910,1,0,0:0:0:0:
192,192,22910,1,0,0:0:0:0:
64,192,23017,1,0,0:0:0:0:
320,192,23017,1,0,0:0:0:0:
448,192,23017,1,0,0:0:0:0:
320,192,23124,1,0,0:0:0:0:
192,192,23124,1,0,0:0:0:0:
448,192,23231,1,0,0:0:0:0:
64,192,23231,1,0,0:0:0:0:
192,192,23231,1,0,0:0:0:0:
448,192,23338,1,0,0:0:0:0:
64,192,23338,1,0,0:0:0:0:
320,192,23446,1,0,0:0:0:0:
192,192,23446,1,0,0:0:0:0:
64,192,23446,1,0,0:0:0:0:
64,192,23553,1,0,0:0:0:0:
192,192,23553,1,0,0:0:0:0:
320,192,23553,1,0,0:0:0:0:
448,192,23553,1,0,0:0:0:0:
448,192,23660,1,0,0:0:0:0:
192,192,23660,1,0,0:0:0:0:
320,192,23660,1,0,0:0:0:0:
64,192,23767,1,0,0:0:0:0:
448,192,23767,1,0,0:0:0:0:
192,192,23874,1,0,0:0:0:0:
320,192,23874,1,0,0:0:0:0:
64,192,23874,1,0,0:0:0:0:
448,192,23981,1,0,0:0:0:0:
192,192,23981,1,0,0:0:0:0:
64,192,24088,1,0,0:0:0:0:
320,192,24088,1,0,0:0:0:0:
448,192,24088,1,0,0:0:0:0:
192,192,24196,1,0,0:0:0:0:
320,192,24196,1,0,0:0:0:0:
64,192,24303,1,0,0:0:0:0:
192,192,24303,1,0,0:0:0:0:
448,192,24303,1,0,0:0:0:0:
64,192,24410,1,0,0:0:0:0:
192,192,24410,1,0,0:0:0:0:
320,192,24410,1,0,0:0:0:0:
448,192,24410,1,0,0:0:0:0:
320,192,24517,1,0,0:0:0:0:
448,192,24517,1,0,0:0:0:0:
64,192,24517,1,0,0:0:0:0:
192,192,24624,1,0,0:0:0:0:
320,192,24624,1,0,0:0:0:0:
64,192,24731,1,0,0:0:0:0:
448,192,24731,1,0,0:0:0:0:
192,192,24731,1,0,0:0:0:0:
192,192,24838,1,0,0:0:0:0:
320,192,24838,1,0,0:0:0:0:
448,192,24946,1,0,0:0:0:0:
320,192,24946,1,0,0:0:0:0:
64,192,24946,1,0,0:0:0:0:
64,192,25053,1,0,0:0:0:0:
448,192,25053,1,0,0:0:0:0:
192,192,25160,1,0,0:0:0:0:
320,192,25160,1,0,0:0:0:0:
448,192,25160,1,0,0:0:0:0:
64,192,25267,1,0,0:0:0:0:
192,192,25267,1,0,0:0:0:0:
320,192,25267,1,0,0:0:0:0:
448,192,25267,1,0,0:0:0:0:
64,192,25374,1,0,0:0:0:0:
320,192,25374,1,0,0:0:0:0:
192,192,25374,1,0,0:0:0:0:
448,192,25481,1,0,0:0:0:0:
64,192,25481,1,0,0:0:0:0:
192,192,25588,1,0,0:0:0:0:
320,192,25588,1,0,0:0:0:0:
448,192,25588,1,0,0:0:0:0:
64,192,25696,1,0,0:0:0:0:
192,192,25696,1,0,0:0:0:0:
192,192,25803,1,0,0:0:0:0:
320,192,25803,1,0,0:0:0:0:
448,192,25803,1,0,0:0:0:0:
64,192,25910,1,0,0:0:0:0:
448,192,25910,1,0,0:0:0:0:
320,192,26017,1,0,0:0:0:0:
192,192,26017,1,0,0:0:0:0:
64,192,26017,1,0,0:0:0:0:
64,192,26124,1,0,0:0:0:0:
192,192,26124,1,0,0:0:0:0:
320,192,26124,1,0,0:0:0:0:
448,192,26124,1,0,0:0:0:0:
192,192,26231,1,0,0:0:0:0:
320,192,26231,1,0,0:0:0:0:
448,192,26231,1,0,0:0:0:0:
64,192,26338,1,0,0:0:0:0:
448,192,26338,1,0,0:0:0:0:
192,192,26446,1,0,0:0:0:0:
320,192,26446,1,0,0:0:0:0:
64,192,26446,1,0,0:0:0:0:
64,192,26553,1,0,0:0:0:0:
192,192,26553,1,0,0:0:0:0:
448,192,26553,1,0,0:0:0:0:
320,192,26553,1,0,0:0:0:0:
448,192,26660,1,0,0:0:0:0:
192,192,26660,1,0,0:0:0:0:
64,192,26660,1,0,0:0:0:0:
448,192,26767,1,0,0:0:0:0:
192,192,26767,1,0,0:0:0:0:
64,192,26874,1,0,0:0:0:0:
320,192,26874,1,0,0:0:0:0:
448,192,26874,1,0,0:0:0:0:
64,192,26981,1,0,0:0:0:0:
192,192,26981,1,0,0:0:0:0:
320,192,26981,1,0,0:0:0:0:
448,192,26981,1,0,0:0:0:0:
192,192,27088,1,0,0:0:0:0:
64,192,27088,1,0,0:0:0:0:
320,192,27088,1,0,0:0:0:0:
448,192,27196,1,0,0:0:0:0:
192,192,27196,1,0,0:0:0:0:
320,192,27303,1,0,0:0:0:0:
64,192,27303,1,0,0:0:0:0:
448,192,27303,1,0,0:0:0:0:
64,192,27410,1,0,0:0:0:0:
192,192,27410,1,0,0:0:0:0:
320,192,27410,1,0,0:0:0:0:
448,192,27410,1,0,0:0:0:0:
320,192,27517,1,0,0:0:0:0:
64,192,27517,1,0,0:0:0:0:
448,192,27517,1,0,0:0:0:0:
192,192,27624,1,0,0:0:0:0:
320,192,27624,1,0,0:0:0:0:
64,192,27731,1,0,0:0:0:0:
192,192,27731,1,0,0:0:0:0:
448,192,27731,1,0,0:0:0:0:
64,192,27838,1,0,0:0:0:0:
192,192,27838,1,0,0:0:0:0:
320,192,27838,1,0,0:0:0:0:
448,192,27838,1,0,0:0:0:0:
448,192,27946,1,0,0:0:0:0:
320,192,27946,1,0,0:0:0:0:
64,192,28053,1,0,0:0:0:0:
192,192,28053,1,0,0:0:0:0:
320,192,28053,1,0,0:0:0:0:
448,192,28053,1,0,0:0:0:0:
192,192,28160,1,0,0:0:0:0:
64,192,28160,1,0,0:0:0:0:
64,192,28267,1,0,0:0:0:0:
192,192,28267,1,0,0:0:0:0:
320,192,28267,1,0,0:0:0:0:
448,192,28267,1,0,0:0:0:0:
448,192,28374,1,0,0:0:0:0:
320,192,28374,1,0,0:0:0:0:
192,192,28481,1,0,0:0:0:0:
64,192,28481,1,0,0:0:0:0:
320,192,28481,1,0,0:0:0:0:
448,192,28481,1,0,0:0:0:0:
64,192,28696,128,0,28910:0:0:0:0:
448,192,28696,128,0,28910:0:0:0:0:
192,192,28910,128,0,29124:0:0:0:0:
320,192,28910,128,0,29124:0:0:0:0:
448,192,29124,1,0,0:0:0:0:
64,192,29124,1,0,0:0:0:0:
192,192,29231,1,0,0:0:0:0:
320,192,29231,1,0,0:0:0:0:
64,192,29338,1,0,0:0:0:0:
448,192,29338,1,0,0:0:0:0:
192,192,29446,1,0,0:0:0:0:
320,192,29446,1,0,0:0:0:0:
64,192,29553,1,0,0:0:0:0:
192,192,29553,1,0,0:0:0:0:
320,192,29553,1,0,0:0:0:0:
448,192,29553,1,0,0:0:0:0:
320,192,29660,1,0,0:0:0:0:
64,192,29660,1,0,0:0:0:0:
448,192,29660,1,0,0:0:0:0:
192,192,29767,1,0,0:0:0:0:
320,192,29767,1,0,0:0:0:0:
448,192,29767,1,0,0:0:0:0:
64,192,29874,1,0,0:0:0:0:
448,192,29874,1,0,0:0:0:0:
192,192,29874,1,0,0:0:0:0:
320,192,29981,1,0,0:0:0:0:
192,192,29981,1,0,0:0:0:0:
64,192,29981,1,0,0:0:0:0:
448,192,30088,1,0,0:0:0:0:
64,192,30088,1,0,0:0:0:0:
320,192,30088,1,0,0:0:0:0:
448,192,30196,1,0,0:0:0:0:
192,192,30196,1,0,0:0:0:0:
320,192,30196,1,0,0:0:0:0:
64,192,30303,1,0,0:0:0:0:
192,192,30303,1,0,0:0:0:0:
448,192,30303,1,0,0:0:0:0:
448,192,30410,1,0,0:0:0:0:
320,192,30410,1,0,0:0:0:0:
192,192,30410,1,0,0:0:0:0:
64,192,30517,1,0,0:0:0:0:
192,192,30517,1,0,0:0:0:0:
320,192,30517,1,0,0:0:0:0:
448,192,30624,1,0,0:0:0:0:
320,192,30624,1,0,0:0:0:0:
64,192,30624,1,0,0:0:0:0:
320,192,30731,1,0,0:0:0:0:
64,192,30731,1,0,0:0:0:0:
192,192,30731,1,0,0:0:0:0:
448,192,30838,1,0,0:0:0:0:
192,192,30838,1,0,0:0:0:0:
64,192,30838,1,0,0:0:0:0:
320,192,30946,1,0,0:0:0:0:
192,192,30946,1,0,0:0:0:0:
448,192,30946,1,0,0:0:0:0:
320,192,31053,1,0,0:0:0:0:
192,192,31053,1,0,0:0:0:0:
64,192,31053,1,0,0:0:0:0:
448,192,31053,1,0,0:0:0:0:
320,192,31160,1,0,0:0:0:0:
448,192,31160,1,0,0:0:0:0:
192,192,31160,1,0,0:0:0:0:
64,192,31160,1,0,0:0:0:0:
320,192,31267,1,0,0:0:0:0:
64,192,31267,1,0,0:0:0:0:
192,192,31267,1,0,0:0:0:0:
448,192,31267,1,0,0:0:0:0:
320,192,31374,1,0,0:0:0:0:
448,192,31374,1,0,0:0:0:0:
192,192,31374,1,0,0:0:0:0:
64,192,31374,1,0,0:0:0:0:
64,192,31481,1,0,0:0:0:0:
192,192,31481,1,0,0:0:0:0:
448,192,31481,1,0,0:0:0:0:
320,192,31481,1,0,0:0:0:0:
448,192,31588,1,0,0:0:0:0:
64,192,31588,1,0,0:0:0:0:
320,192,31588,1,0,0:0:0:0:
192,192,31696,1,0,0:0:0:0:
64,192,31696,1,0,0:0:0:0:
448,192,31696,1,0,0:0:0:0:
320,192,31803,1,0,0:0:0:0:
192,192,31803,1,0,0:0:0:0:
64,192,31803,1,0,0:0:0:0:
448,192,31910,1,0,0:0:0:0:
192,192,31910,1,0,0:0:0:0:
320,192,31910,1,0,0:0:0:0:
64,192,32017,1,0,0:0:0:0:
320,192,32017,1,0,0:0:0:0:
448,192,32017,1,0,0:0:0:0:
192,192,32124,1,0,0:0:0:0:
64,192,32124,1,0,0:0:0:0:
448,192,32124,1,0,0:0:0:0:
320,192,32231,1,0,0:0:0:0:
64,192,32231,1,0,0:0:0:0:
448,192,32231,1,0,0:0:0:0:
192,192,32338,1,0,0:0:0:0:
64,192,32338,1,0,0:0:0:0:
448,192,32338,1,0,0:0:0:0:
448,192,32553,1,0,0:0:0:0:
320,192,32553,1,0,0:0:0:0:
192,192,32553,1,0,0:0:0:0:
64,192,32553,1,0,0:0:0:0:
448,192,32660,1,0,0:0:0:0:
64,192,32660,1,0,0:0:0:0:
320,192,32767,1,0,0:0:0:0:
64,192,32767,1,0,0:0:0:0:
192,192,32767,1,0,0:0:0:0:
448,192,32767,1,0,0:0:0:0:
320,192,32874,1,0,0:0:0:0:
192,192,32874,1,0,0:0:0:0:
64,192,32981,1,0,0:0:0:0:
192,192,32981,1,0,0:0:0:0:
448,192,32981,1,0,0:0:0:0:
448,192,33088,1,0,0:0:0:0:
64,192,33088,1,0,0:0:0:0:
320,192,33088,1,0,0:0:0:0:
64,192,33195,1,0,0:0:0:0:
192,192,33195,1,0,0:0:0:0:
448,192,33195,1,0,0:0:0:0:
320,192,33303,1,0,0:0:0:0:
192,192,33303,1,0,0:0:0:0:
64,192,33303,1,0,0:0:0:0:
448,192,33410,1,0,0:0:0:0:
192,192,33410,1,0,0:0:0:0:
320,192,33410,1,0,0:0:0:0:
64,192,33517,1,0,0:0:0:0:
320,192,33517,1,0,0:0:0:0:
448,192,33517,1,0,0:0:0:0:
320,192,33624,1,0,0:0:0:0:
64,192,33624,1,0,0:0:0:0:
192,192,33624,1,0,0:0:0:0:
448,192,33731,1,0,0:0:0:0:
192,192,33731,1,0,0:0:0:0:
64,192,33731,1,0,0:0:0:0:
320,192,33838,1,0,0:0:0:0:
192,192,33838,1,0,0:0:0:0:
448,192,33838,1,0,0:0:0:0:
64,192,33945,1,0,0:0:0:0:
192,192,33945,1,0,0:0:0:0:
448,192,33945,1,0,0:0:0:0:
320,192,34053,1,0,0:0:0:0:
64,192,34053,1,0,0:0:0:0:
448,192,34053,1,0,0:0:0:0:
320,192,34160,1,0,0:0:0:0:
192,192,34160,1,0,0:0:0:0:
64,192,34160,1,0,0:0:0:0:
448,192,34267,1,0,0:0:0:0:
192,192,34267,1,0,0:0:0:0:
320,192,34267,1,0,0:0:0:0:
64,192,34374,1,0,0:0:0:0:
192,192,34374,1,0,0:0:0:0:
448,192,34374,1,0,0:0:0:0:
192,192,34481,1,0,0:0:0:0:
64,192,34481,1,0,0:0:0:0:
320,192,34481,1,0,0:0:0:0:
448,192,34481,1,0,0:0:0:0:
320,192,34588,1,0,0:0:0:0:
448,192,34588,1,0,0:0:0:0:
192,192,34588,1,0,0:0:0:0:
64,192,34588,1,0,0:0:0:0:
320,192,34695,1,0,0:0:0:0:
64,192,34695,1,0,0:0:0:0:
192,192,34695,1,0,0:0:0:0:
448,192,34695,1,0,0:0:0:0:
320,192,34803,1,0,0:0:0:0:
448,192,34803,1,0,0:0:0:0:
192,192,34803,1,0,0:0:0:0:
64,192,34803,1,0,0:0:0:0:
448,192,34910,1,0,0:0:0:0:
192,192,34910,1,0,0:0:0:0:
64,192,34910,1,0,0:0:0:0:
320,192,35017,1,0,0:0:0:0:
448,192,35017,1,0,0:0:0:0:
192,192,35017,1,0,0:0:0:0:
64,192,35124,1,0,0:0:0:0:
320,192,35124,1,0,0:0:0:0:
448,192,35124,1,0,0:0:0:0:
192,192,35231,1,0,0:0:0:0:
320,192,35231,1,0,0:0:0:0:
64,192,35231,1,0,0:0:0:0:
448,192,35338,1,0,0:0:0:0:
192,192,35338,1,0,0:0:0:0:
64,192,35338,1,0,0:0:0:0:
320,192,35445,1,0,0:0:0:0:
192,192,35445,1,0,0:0:0:0:
448,192,35445,1,0,0:0:0:0:
448,192,35553,1,0,0:0:0:0:
320,192,35553,1,0,0:0:0:0:
64,192,35553,1,0,0:0:0:0:
320,192,35660,1,0,0:0:0:0:
192,192,35660,1,0,0:0:0:0:
64,192,35660,1,0,0:0:0:0:
320,192,35767,1,0,0:0:0:0:
448,192,35767,1,0,0:0:0:0:
192,192,35767,1,0,0:0:0:0:
64,192,35767,1,0,0:0:0:0:
448,192,35874,1,0,0:0:0:0:
192,192,35874,1,0,0:0:0:0:
320,192,35981,1,0,0:0:0:0:
192,192,35981,1,0,0:0:0:0:
64,192,35981,1,0,0:0:0:0:
448,192,35981,1,0,0:0:0:0:
64,192,36410,1,0,0:0:0:0:
320,192,36410,1,0,0:0:0:0:
448,192,36410,1,0,0:0:0:0:
320,192,36517,1,0,0:0:0:0:
448,192,36517,1,0,0:0:0:0:
192,192,36517,1,0,0:0:0:0:
320,192,36624,1,0,0:0:0:0:
448,192,36624,1,0,0:0:0:0:
64,192,36624,1,0,0:0:0:0:
320,192,36731,1,0,0:0:0:0:
448,192,36731,1,0,0:0:0:0:
192,192,36731,1,0,0:0:0:0:
64,192,36838,1,0,0:0:0:0:
192,192,36838,1,0,0:0:0:0:
320,192,36838,1,0,0:0:0:0:
192,192,36945,1,0,0:0:0:0:
64,192,36945,1,0,0:0:0:0:
448,192,36945,1,0,0:0:0:0:
192,192,37053,1,0,0:0:0:0:
64,192,37053,1,0,0:0:0:0:
320,192,37053,1,0,0:0:0:0:
192,192,37160,1,0,0:0:0:0:
64,192,37160,1,0,0:0:0:0:
320,192,37160,1,0,0:0:0:0:
320,192,37267,1,0,0:0:0:0:
448,192,37267,1,0,0:0:0:0:
64,192,37267,1,0,0:0:0:0:
320,192,37374,1,0,0:0:0:0:
448,192,37374,1,0,0:0:0:0:
192,192,37374,1,0,0:0:0:0:
320,192,37481,1,0,0:0:0:0:
448,192,37481,1,0,0:0:0:0:
64,192,37481,1,0,0:0:0:0:
320,192,37588,1,0,0:0:0:0:
448,192,37588,1,0,0:0:0:0:
192,192,37588,1,0,0:0:0:0:
192,192,37695,1,0,0:0:0:0:
64,192,37695,1,0,0:0:0:0:
448,192,37695,1,0,0:0:0:0:
192,192,37803,1,0,0:0:0:0:
64,192,37803,1,0,0:0:0:0:
320,192,37803,1,0,0:0:0:0:
192,192,37910,1,0,0:0:0:0:
64,192,37910,1,0,0:0:0:0:
320,192,37910,1,0,0:0:0:0:
192,192,38017,1,0,0:0:0:0:
64,192,38017,1,0,0:0:0:0:
448,192,38017,1,0,0:0:0:0:
320,192,38124,1,0,0:0:0:0:
448,192,38124,1,0,0:0:0:0:
64,192,38124,1,0,0:0:0:0:
448,192,38231,1,0,0:0:0:0:
320,192,38231,1,0,0:0:0:0:
192,192,38231,1,0,0:0:0:0:
448,192,38338,1,0,0:0:0:0:
320,192,38338,1,0,0:0:0:0:
64,192,38338,1,0,0:0:0:0:
448,192,38445,1,0,0:0:0:0:
320,192,38445,1,0,0:0:0:0:
64,192,38445,1,0,0:0:0:0:
192,192,38553,1,0,0:0:0:0:
64,192,38553,1,0,0:0:0:0:
320,192,38553,1,0,0:0:0:0:
192,192,38660,1,0,0:0:0:0:
64,192,38660,1,0,0:0:0:0:
448,192,38660,1,0,0:0:0:0:
192,192,38767,1,0,0:0:0:0:
64,192,38767,1,0,0:0:0:0:
320,192,38767,1,0,0:0:0:0:
192,192,38874,1,0,0:0:0:0:
64,192,38874,1,0,0:0:0:0:
448,192,38874,1,0,0:0:0:0:
320,192,38981,1,0,0:0:0:0:
448,192,38981,1,0,0:0:0:0:
192,192,38981,1,0,0:0:0:0:
320,192,39088,1,0,0:0:0:0:
448,192,39088,1,0,0:0:0:0:
64,192,39088,1,0,0:0:0:0:
320,192,39195,1,0,0:0:0:0:
448,192,39195,1,0,0:0:0:0:
192,192,39195,1,0,0:0:0:0:
320,192,39303,1,0,0:0:0:0:
448,192,39303,1,0,0:0:0:0:
64,192,39303,1,0,0:0:0:0:
192,192,39410,1,0,0:0:0:0:
64,192,39410,1,0,0:0:0:0:
320,192,39410,1,0,0:0:0:0:
192,192,39517,1,0,0:0:0:0:
64,192,39517,1,0,0:0:0:0:
320,192,39517,1,0,0:0:0:0:
192,192,39624,1,0,0:0:0:0:
64,192,39624,1,0,0:0:0:0:
448,192,39624,1,0,0:0:0:0:
192,192,39731,1,0,0:0:0:0:
64,192,39731,1,0,0:0:0:0:
448,192,39731,1,0,0:0:0:0:
320,192,39838,1,0,0:0:0:0:
448,192,39838,1,0,0:0:0:0:
192,192,39838,1,0,0:0:0:0:
448,192,39945,1,0,0:0:0:0:
320,192,39945,1,0,0:0:0:0:
64,192,39945,1,0,0:0:0:0:
448,192,40053,1,0,0:0:0:0:
320,192,40053,1,0,0:0:0:0:
192,192,40053,1,0,0:0:0:0:
448,192,40160,1,0,0:0:0:0:
320,192,40160,1,0,0:0:0:0:
64,192,40160,1,0,0:0:0:0:
192,192,40267,1,0,0:0:0:0:
64,192,40267,1,0,0:0:0:0:
320,192,40267,1,0,0:0:0:0:
192,192,40374,1,0,0:0:0:0:
64,192,40374,1,0,0:0:0:0:
320,192,40374,1,0,0:0:0:0:
192,192,40481,1,0,0:0:0:0:
64,192,40481,1,0,0:0:0:0:
448,192,40481,1,0,0:0:0:0:
192,192,40588,1,0,0:0:0:0:
64,192,40588,1,0,0:0:0:0:
320,192,40588,1,0,0:0:0:0:
320,192,40695,1,0,0:0:0:0:
448,192,40695,1,0,0:0:0:0:
192,192,40695,1,0,0:0:0:0:
320,192,40803,1,0,0:0:0:0:
448,192,40803,1,0,0:0:0:0:
64,192,40803,1,0,0:0:0:0:
320,192,40910,1,0,0:0:0:0:
448,192,40910,1,0,0:0:0:0:
192,192,40910,1,0,0:0:0:0:
320,192,41017,1,0,0:0:0:0:
448,192,41017,1,0,0:0:0:0:
192,192,41017,1,0,0:0:0:0:
192,192,41124,1,0,0:0:0:0:
64,192,41124,1,0,0:0:0:0:
448,192,41124,1,0,0:0:0:0:
192,192,41231,1,0,0:0:0:0:
64,192,41231,1,0,0:0:0:0:
320,192,41231,1,0,0:0:0:0:
192,192,41338,1,0,0:0:0:0:
64,192,41338,1,0,0:0:0:0:
320,192,41338,1,0,0:0:0:0:
192,192,41445,1,0,0:0:0:0:
64,192,41445,1,0,0:0:0:0:
448,192,41445,1,0,0:0:0:0:
320,192,41553,1,0,0:0:0:0:
448,192,41553,1,0,0:0:0:0:
192,192,41553,1,0,0:0:0:0:
320,192,41660,1,0,0:0:0:0:
448,192,41660,1,0,0:0:0:0:
64,192,41660,1,0,0:0:0:0:
320,192,41767,1,0,0:0:0:0:
448,192,41767,1,0,0:0:0:0:
192,192,41767,1,0,0:0:0:0:
320,192,41874,1,0,0:0:0:0:
448,192,41874,1,0,0:0:0:0:
64,192,41874,1,0,0:0:0:0:
192,192,41981,1,0,0:0:0:0:
64,192,41981,1,0,0:0:0:0:
320,192,41981,1,0,0:0:0:0:
192,192,42088,1,0,0:0:0:0:
64,192,42088,1,0,0:0:0:0:
448,192,42088,1,0,0:0:0:0:
192,192,42195,1,0,0:0:0:0:
64,192,42195,1,0,0:0:0:0:
320,192,42195,1,0,0:0:0:0:
192,192,42303,1,0,0:0:0:0:
64,192,42303,1,0,0:0:0:0:
448,192,42303,1,0,0:0:0:0:
320,192,42410,1,0,0:0:0:0:
192,192,42410,1,0,0:0:0:0:
64,192,42410,1,0,0:0:0:0:
320,192,42624,1,0,0:0:0:0:
192,192,42624,1,0,0:0:0:0:
448,192,42624,1,0,0:0:0:0:
448,192,42838,1,0,0:0:0:0:
320,192,42838,1,0,0:0:0:0:
64,192,42838,1,0,0:0:0:0:
192,192,42945,1,0,0:0:0:0:
64,192,42945,1,0,0:0:0:0:
448,192,42945,1,0,0:0:0:0:
448,192,43053,1,0,0:0:0:0:
320,192,43053,1,0,0:0:0:0:
64,192,43053,1,0,0:0:0:0:
192,192,43160,1,0,0:0:0:0:
64,192,43160,1,0,0:0:0:0:
448,192,43160,1,0,0:0:0:0:
320,192,43267,1,0,0:0:0:0:
192,192,43267,1,0,0:0:0:0:
320,192,43481,1,0,0:0:0:0:
192,192,43481,1,0,0:0:0:0:
64,192,43481,1,0,0:0:0:0:
448,192,43481,1,0,0:0:0:0:
320,192,43588,1,0,0:0:0:0:
64,192,43588,1,0,0:0:0:0:
448,192,43588,1,0,0:0:0:0:
192,192,43696,1,0,0:0:0:0:
320,192,43696,1,0,0:0:0:0:
448,192,43696,1,0,0:0:0:0:
64,192,43803,1,0,0:0:0:0:
448,192,43803,1,0,0:0:0:0:
192,192,43803,1,0,0:0:0:0:
320,192,43910,1,0,0:0:0:0:
192,192,43910,1,0,0:0:0:0:
64,192,43910,1,0,0:0:0:0:
448,192,44017,1,0,0:0:0:0:
64,192,44017,1,0,0:0:0:0:
320,192,44017,1,0,0:0:0:0:
448,192,44124,1,0,0:0:0:0:
192,192,44124,1,0,0:0:0:0:
320,192,44124,1,0,0:0:0:0:
64,192,44231,1,0,0:0:0:0:
192,192,44231,1,0,0:0:0:0:
448,192,44231,1,0,0:0:0:0:
448,192,44338,1,0,0:0:0:0:
320,192,44338,1,0,0:0:0:0:
192,192,44338,1,0,0:0:0:0:
64,192,44446,1,0,0:0:0:0:
192,192,44446,1,0,0:0:0:0:
320,192,44446,1,0,0:0:0:0:
448,192,44553,1,0,0:0:0:0:
320,192,44553,1,0,0:0:0:0:
64,192,44553,1,0,0:0:0:0:
320,192,44660,1,0,0:0:0:0:
64,192,44660,1,0,0:0:0:0:
192,192,44660,1,0,0:0:0:0:
448,192,44767,1,0,0:0:0:0:
192,192,44767,1,0,0:0:0:0:
64,192,44767,1,0,0:0:0:0:
320,192,44874,1,0,0:0:0:0:
192,192,44874,1,0,0:0:0:0:
448,192,44874,1,0,0:0:0:0:
320,192,44981,1,0,0:0:0:0:
192,192,44981,1,0,0:0:0:0:
64,192,44981,1,0,0:0:0:0:
448,192,44981,1,0,0:0:0:0:
320,192,45088,1,0,0:0:0:0:
448,192,45088,1,0,0:0:0:0:
192,192,45088,1,0,0:0:0:0:
64,192,45088,1,0,0:0:0:0:
320,192,45196,1,0,0:0:0:0:
64,192,45196,1,0,0:0:0:0:
192,192,45196,1,0,0:0:0:0:
448,192,45196,1,0,0:0:0:0:
320,192,45303,1,0,0:0:0:0:
448,192,45303,1,0,0:0:0:0:
192,192,45303,1,0,0:0:0:0:
64,192,45303,1,0,0:0:0:0:
64,192,45410,1,0,0:0:0:0:
192,192,45410,1,0,0:0:0:0:
448,192,45410,1,0,0:0:0:0:
320,192,45410,1,0,0:0:0:0:
448,192,45517,1,0,0:0:0:0:
64,192,45517,1,0,0:0:0:0:
320,192,45517,1,0,0:0:0:0:
192,192,45624,1,0,0:0:0:0:
64,192,45624,1,0,0:0:0:0:
448,192,45624,1,0,0:0:0:0:
320,192,45731,1,0,0:0:0:0:
192,192,45731,1,0,0:0:0:0:
64,192,45731,1,0,0:0:0:0:
448,192,45838,1,0,0:0:0:0:
192,192,45838,1,0,0:0:0:0:
320,192,45838,1,0,0:0:0:0:
64,192,45946,1,0,0:0:0:0:
320,192,45946,1,0,0:0:0:0:
448,192,45946,1,0,0:0:0:0:
192,192,46053,1,0,0:0:0:0:
64,192,46053,1,0,0:0:0:0:
448,192,46053,1,0,0:0:0:0:
320,192,46160,1,0,0:0:0:0:
64,192,46160,1,0,0:0:0:0:
448,192,46160,1,0,0:0:0:0:
192,192,46267,1,0,0:0:0:0:
64,192,46267,1,0,0:0:0:0:
448,192,46267,1,0,0:0:0:0:
320,192,46374,1,0,0:0:0:0:
192,192,46374,1,0,0:0:0:0:
448,192,46481,1,0,0:0:0:0:
320,192,46481,1,0,0:0:0:0:
192,192,46481,1,0,0:0:0:0:
64,192,46481,1,0,0:0:0:0:
448,192,46588,1,0,0:0:0:0:
64,192,46588,1,0,0:0:0:0:
320,192,46696,1,0,0:0:0:0:
64,192,46696,1,0,0:0:0:0:
192,192,46696,1,0,0:0:0:0:
448,192,46696,1,0,0:0:0:0:
320,192,46803,1,0,0:0:0:0:
192,192,46803,1,0,0:0:0:0:
64,192,46910,1,0,0:0:0:0:
192,192,46910,1,0,0:0:0:0:
448,192,46910,1,0,0:0:0:0:
448,192,47017,1,0,0:0:0:0:
64,192,47017,1,0,0:0:0:0:
320,192,47017,1,0,0:0:0:0:
64,192,47124,1,0,0:0:0:0:
192,192,47124,1,0,0:0:0:0:
448,192,47124,1,0,0:0:0:0:
320,192,47231,1,0,0:0:0:0:
192,192,47231,1,0,0:0:0:0:
64,192,47231,1,0,0:0:0:0:
448,192,47338,1,0,0:0:0:0:
192,192,47338,1,0,0:0:0:0:
320,192,47338,1,0,0:0:0:0:
64,192,47446,1,0,0:0:0:0:
320,192,47446,1,0,0:0:0:0:
448,192,47446,1,0,0:0:0:0:
320,192,47553,1,0,0:0:0:0:
64,192,47553,1,0,0:0:0:0:
192,192,47553,1,0,0:0:0:0:
448,192,47660,1,0,0:0:0:0:
192,192,47660,1,0,0:0:0:0:
64,192,47660,1,0,0:0:0:0:
320,192,47767,1,0,0:0:0:0:
192,192,47767,1,0,0:0:0:0:
448,192,47767,1,0,0:0:0:0:
64,192,47874,1,0,0:0:0:0:
192,192,47874,1,0,0:0:0:0:
448,192,47874,1,0,0:0:0:0:
320,192,47981,1,0,0:0:0:0:
64,192,47981,1,0,0:0:0:0:
448,192,47981,1,0,0:0:0:0:
320,192,48088,1,0,0:0:0:0:
192,192,48088,1,0,0:0:0:0:
64,192,48088,1,0,0:0:0:0:
448,192,48196,1,0,0:0:0:0:
192,192,48196,1,0,0:0:0:0:
320,192,48196,1,0,0:0:0:0:
64,192,48303,1,0,0:0:0:0:
192,192,48303,1,0,0:0:0:0:
448,192,48303,1,0,0:0:0:0:
448,192,48410,1,0,0:0:0:0:
320,192,48410,1,0,0:0:0:0:
192,192,48481,1,0,0:0:0:0:
64,192,48481,1,0,0:0:0:0:
320,192,48553,1,0,0:0:0:0:
448,192,48553,1,0,0:0:0:0:
192,192,48624,1,0,0:0:0:0:
64,192,48624,1,0,0:0:0:0:
320,192,48696,1,0,0:0:0:0:
448,192,48696,1,0,0:0:0:0:
192,192,48767,1,0,0:0:0:0:
64,192,48767,1,0,0:0:0:0:
448,192,48838,1,0,0:0:0:0:
192,192,48838,1,0,0:0:0:0:
320,192,48838,1,0,0:0:0:0:
320,192,48946,1,0,0:0:0:0:
448,192,48946,1,0,0:0:0:0:
192,192,48946,1,0,0:0:0:0:
64,192,49053,1,0,0:0:0:0:
320,192,49053,1,0,0:0:0:0:
448,192,49053,1,0,0:0:0:0:
192,192,49160,1,0,0:0:0:0:
320,192,49160,1,0,0:0:0:0:
64,192,49160,1,0,0:0:0:0:
448,192,49267,1,0,0:0:0:0:
192,192,49267,1,0,0:0:0:0:
64,192,49267,1,0,0:0:0:0:
64,192,49410,1,0,0:0:0:0:
448,192,49410,1,0,0:0:0:0:
320,192,49410,1,0,0:0:0:0:
320,192,49553,1,0,0:0:0:0:
192,192,49553,1,0,0:0:0:0:
448,192,49553,1,0,0:0:0:0:
64,192,49696,1,0,0:0:0:0:
192,192,49696,1,0,0:0:0:0:
320,192,49696,1,0,0:0:0:0:
448,192,49696,1,0,0:0:0:0:
64,192,49910,1,0,0:0:0:0:
448,192,49910,1,0,0:0:0:0:
192,192,50124,1,0,0:0:0:0:
64,192,50124,1,0,0:0:0:0:
448,192,50178,1,0,0:0:0:0:
320,192,50178,1,0,0:0:0:0:
192,192,50231,1,0,0:0:0:0:
64,192,50231,1,0,0:0:0:0:
320,192,50285,1,0,0:0:0:0:
448,192,50285,1,0,0:0:0:0:
64,192,50338,1,0,0:0:0:0:
192,192,50338,1,0,0:0:0:0:
320,192,50446,1,0,0:0:0:0:
192,192,50446,1,0,0:0:0:0:
64,192,50446,1,0,0:0:0:0:
320,192,50553,1,0,0:0:0:0:
448,192,50553,1,0,0:0:0:0:
64,192,50553,1,0,0:0:0:0:
320,192,50660,1,0,0:0:0:0:
192,192,50660,1,0,0:0:0:0:
448,192,50660,1,0,0:0:0:0:
64,192,50767,1,0,0:0:0:0:
192,192,50767,1,0,0:0:0:0:
448,192,50767,1,0,0:0:0:0:
320,192,50874,1,0,0:0:0:0:
192,192,50874,1,0,0:0:0:0:
64,192,50874,1,0,0:0:0:0:
64,192,50981,1,0,0:0:0:0:
320,192,50981,1,0,0:0:0:0:
448,192,50981,1,0,0:0:0:0:
320,192,51088,1,0,0:0:0:0:
64,192,51088,1,0,0:0:0:0:
448,192,51088,1,0,0:0:0:0:
192,192,51196,1,0,0:0:0:0:
448,192,51196,1,0,0:0:0:0:
320,192,51196,1,0,0:0:0:0:
64,192,51303,1,0,0:0:0:0:
192,192,51303,1,0,0:0:0:0:
448,192,51303,1,0,0:0:0:0:
320,192,51410,1,0,0:0:0:0:
192,192,51410,1,0,0:0:0:0:
64,192,51410,1,0,0:0:0:0:
448,192,51517,1,0,0:0:0:0:
192,192,51517,1,0,0:0:0:0:
64,192,51517,1,0,0:0:0:0:
320,192,51624,1,0,0:0:0:0:
448,192,51624,1,0,0:0:0:0:
64,192,51624,1,0,0:0:0:0:
320,192,51731,1,0,0:0:0:0:
192,192,51731,1,0,0:0:0:0:
448,192,51731,1,0,0:0:0:0:
64,192,51838,1,0,0:0:0:0:
192,192,51838,1,0,0:0:0:0:
448,192,51910,1,0,0:0:0:0:
320,192,51910,1,0,0:0:0:0:
192,192,51981,1,0,0:0:0:0:
64,192,51981,1,0,0:0:0:0:
320,192,52053,1,0,0:0:0:0:
448,192,52053,1,0,0:0:0:0:
192,192,52160,1,0,0:0:0:0:
64,192,52160,1,0,0:0:0:0:
448,192,52160,1,0,0:0:0:0:
320,192,52267,1,0,0:0:0:0:
192,192,52267,1,0,0:0:0:0:
448,192,52267,1,0,0:0:0:0:
64,192,52374,1,0,0:0:0:0:
320,192,52374,1,0,0:0:0:0:
192,192,52374,1,0,0:0:0:0:
448,192,52481,1,0,0:0:0:0:
64,192,52481,1,0,0:0:0:0:
320,192,52481,1,0,0:0:0:0:
192,192,52588,1,0,0:0:0:0:
448,192,52588,1,0,0:0:0:0:
64,192,52588,1,0,0:0:0:0:
320,192,52696,1,0,0:0:0:0:
192,192,52696,1,0,0:0:0:0:
448,192,52696,1,0,0:0:0:0:
64,192,52803,1,0,0:0:0:0:
320,192,52803,1,0,0:0:0:0:
192,192,52803,1,0,0:0:0:0:
448,192,52910,1,0,0:0:0:0:
64,192,52910,1,0,0:0:0:0:
320,192,52910,1,0,0:0:0:0:
192,192,53017,1,0,0:0:0:0:
448,192,53017,1,0,0:0:0:0:
64,192,53017,1,0,0:0:0:0:
320,192,53124,1,0,0:0:0:0:
192,192,53124,1,0,0:0:0:0:
448,192,53124,1,0,0:0:0:0:
64,192,53124,1,0,0:0:0:0:
320,192,53231,1,0,0:0:0:0:
192,192,53231,1,0,0:0:0:0:
64,192,53338,1,0,0:0:0:0:
192,192,53338,1,0,0:0:0:0:
448,192,53338,1,0,0:0:0:0:
320,192,53338,1,0,0:0:0:0:
320,192,53553,1,0,0:0:0:0:
192,192,53553,1,0,0:0:0:0:
64,192,53553,1,0,0:0:0:0:
448,192,53553,1,0,0:0:0:0:
192,192,53767,1,0,0:0:0:0:
320,192,53874,1,0,0:0:0:0:
448,192,53981,1,0,0:0:0:0:
64,192,53981,1,0,0:0:0:0:
192,192,53981,1,0,0:0:0:0:
320,192,54053,1,0,0:0:0:0:
192,192,54124,1,0,0:0:0:0:
448,192,54124,1,0,0:0:0:0:
64,192,54196,1,0,0:0:0:0:
192,192,54267,1,0,0:0:0:0:
320,192,54267,1,0,0:0:0:0:
448,192,54267,1,0,0:0:0:0:
64,192,54338,1,0,0:0:0:0:
192,192,54410,1,0,0:0:0:0:
448,192,54410,1,0,0:0:0:0:
320,192,54481,1,0,0:0:0:0:
192,192,54553,1,0,0:0:0:0:
64,192,54553,1,0,0:0:0:0:
448,192,54553,1,0,0:0:0:0:
320,192,54624,1,0,0:0:0:0:
192,192,54696,1,0,0:0:0:0:
64,192,54696,1,0,0:0:0:0:
320,192,54767,1,0,0:0:0:0:
448,192,54838,1,0,0:0:0:0:
192,192,54838,1,0,0:0:0:0:
64,192,54838,1,0,0:0:0:0:
320,192,54910,1,0,0:0:0:0:
192,192,54981,1,0,0:0:0:0:
448,192,54981,1,0,0:0:0:0:
64,192,55053,1,0,0:0:0:0:
192,192,55124,1,0,0:0:0:0:
320,192,55124,1,0,0:0:0:0:
448,192,55124,1,0,0:0:0:0:
64,192,55196,1,0,0:0:0:0:
192,192,55267,1,0,0:0:0:0:
320,192,55267,1,0,0:0:0:0:
448,192,55267,1,0,0:0:0:0:
448,192,55588,1,0,0:0:0:0:
320,192,55588,1,0,0:0:0:0:
192,192,55588,1,0,0:0:0:0:
64,192,55588,1,0,0:0:0:0:
448,192,55910,5,0,0:0:0:0:
192,192,55910,1,0,0:0:0:0:
64,192,55910,1,0,0:0:0:0:
320,192,56017,1,0,0:0:0:0:
192,192,56124,1,0,0:0:0:0:
64,192,56553,1,0,0:0:0:0:
448,192,56553,1,0,0:0:0:0:
320,192,56981,5,0,0:0:0:0:
64,192,56981,1,0,0:0:0:0:
448,192,56981,1,0,0:0:0:0:
320,192,57410,1,0,0:0:0:0:
192,192,57517,1,0,0:0:0:0:
64,192,57838,1,0,0:0:0:0:
192,192,57838,1,0,0:0:0:0:
320,192,57838,1,0,0:0:0:0:
448,192,58267,1,0,0:0:0:0:
64,192,58374,1,0,0:0:0:0:
64,192,58696,1,0,0:0:0:0:
320,192,58696,1,0,0:0:0:0:
448,192,58696,1,0,0:0:0:0:
192,192,58803,1,0,0:0:0:0:
320,192,58910,1,0,0:0:0:0:
448,192,59124,1,0,0:0:0:0:
320,192,59231,1,0,0:0:0:0:
64,192,59446,1,0,0:0:0:0:
448,192,59446,1,0,0:0:0:0:
320,192,59446,1,0,0:0:0:0:
448,192,59660,1,0,0:0:0:0:
320,192,59767,1,0,0:0:0:0:
192,192,59874,1,0,0:0:0:0:
64,192,59981,1,0,0:0:0:0:
448,192,59981,1,0,0:0:0:0:
320,192,59981,1,0,0:0:0:0:
192,192,60088,1,0,0:0:0:0:
448,192,60410,1,0,0:0:0:0:
192,192,60410,1,0,0:0:0:0:
64,192,60410,1,0,0:0:0:0:
320,192,60517,1,0,0:0:0:0:
192,192,60624,1,0,0:0:0:0:
320,192,60731,1,0,0:0:0:0:
448,192,60838,1,0,0:0:0:0:
320,192,60946,1,0,0:0:0:0:
64,192,61267,1,0,0:0:0:0:
448,192,61267,1,0,0:0:0:0:
320,192,61267,1,0,0:0:0:0:
320,192,61481,1,0,0:0:0:0:
448,192,61696,1,0,0:0:0:0:
320,192,61803,1,0,0:0:0:0:
64,192,62124,1,0,0:0:0:0:
448,192,62124,1,0,0:0:0:0:
320,192,62124,1,0,0:0:0:0:
192,192,62231,1,0,0:0:0:0:
320,192,62338,1,0,0:0:0:0:
448,192,62446,1,0,0:0:0:0:
192,192,62660,1,0,0:0:0:0:
320,192,62874,1,0,0:0:0:0:
448,192,62981,1,0,0:0:0:0:
64,192,62981,1,0,0:0:0:0:
320,192,63088,1,0,0:0:0:0:
192,192,63088,1,0,0:0:0:0:
64,192,63196,1,0,0:0:0:0:
448,192,63196,1,0,0:0:0:0:
192,192,63410,1,0,0:0:0:0:
320,192,63410,1,0,0:0:0:0:
64,192,63517,1,0,0:0:0:0:
448,192,63517,1,0,0:0:0:0:
64,192,63838,1,0,0:0:0:0:
320,192,63838,1,0,0:0:0:0:
192,192,63838,1,0,0:0:0:0:
448,192,63946,1,0,0:0:0:0:
320,192,64053,1,0,0:0:0:0:
192,192,64053,1,0,0:0:0:0:
64,192,64160,1,0,0:0:0:0:
192,192,64267,1,0,0:0:0:0:
448,192,64267,1,0,0:0:0:0:
320,192,64374,1,0,0:0:0:0:
64,192,64481,1,0,0:0:0:0:
448,192,64481,1,0,0:0:0:0:
192,192,64588,1,0,0:0:0:0:
448,192,64696,1,0,0:0:0:0:
64,192,64696,1,0,0:0:0:0:
320,192,64696,1,0,0:0:0:0:
192,192,64803,1,0,0:0:0:0:
448,192,64910,1,0,0:0:0:0:
64,192,64910,1,0,0:0:0:0:
320,192,65017,1,0,0:0:0:0:
192,192,65124,1,0,0:0:0:0:
448,192,65124,1,0,0:0:0:0:
64,192,65231,1,0,0:0:0:0:
192,192,65338,1,0,0:0:0:0:
448,192,65338,1,0,0:0:0:0:
320,192,65446,1,0,0:0:0:0:
192,192,65553,1,0,0:0:0:0:
64,192,65553,1,0,0:0:0:0:
448,192,65553,1,0,0:0:0:0:
320,192,65660,1,0,0:0:0:0:
192,192,65767,1,0,0:0:0:0:
64,192,65767,1,0,0:0:0:0:
320,192,65874,1,0,0:0:0:0:
448,192,65981,1,0,0:0:0:0:
192,192,65981,1,0,0:0:0:0:
64,192,66088,1,0,0:0:0:0:
192,192,66196,1,0,0:0:0:0:
320,192,66196,1,0,0:0:0:0:
448,192,66303,1,0,0:0:0:0:
320,192,66410,1,0,0:0:0:0:
192,192,66410,1,0,0:0:0:0:
64,192,66410,1,0,0:0:0:0:
448,192,66517,1,0,0:0:0:0:
320,192,66624,1,0,0:0:0:0:
192,192,66624,1,0,0:0:0:0:
64,192,66731,1,0,0:0:0:0:
448,192,66838,1,0,0:0:0:0:
192,192,66838,1,0,0:0:0:0:
320,192,66838,1,0,0:0:0:0:
64,192,66946,1,0,0:0:0:0:
192,192,67053,1,0,0:0:0:0:
448,192,67053,1,0,0:0:0:0:
320,192,67160,1,0,0:0:0:0:
192,192,67267,1,0,0:0:0:0:
64,192,67267,1,0,0:0:0:0:
448,192,67267,1,0,0:0:0:0:
320,192,67374,1,0,0:0:0:0:
192,192,67481,1,0,0:0:0:0:
64,192,67481,1,0,0:0:0:0:
320,192,67588,1,0,0:0:0:0:
448,192,67696,1,0,0:0:0:0:
64,192,67696,1,0,0:0:0:0:
320,192,67803,1,0,0:0:0:0:
192,192,67910,1,0,0:0:0:0:
64,192,67910,1,0,0:0:0:0:
320,192,68017,1,0,0:0:0:0:
448,192,68124,1,0,0:0:0:0:
192,192,68124,1,0,0:0:0:0:
64,192,68124,1,0,0:0:0:0:
320,192,68231,1,0,0:0:0:0:
192,192,68338,1,0,0:0:0:0:
64,192,68338,1,0,0:0:0:0:
320,192,68446,1,0,0:0:0:0:
448,192,68553,1,0,0:0:0:0:
192,192,68553,1,0,0:0:0:0:
64,192,68660,1,0,0:0:0:0:
192,192,68767,1,0,0:0:0:0:
448,192,68767,1,0,0:0:0:0:
320,192,68874,1,0,0:0:0:0:
64,192,68981,1,0,0:0:0:0:
448,192,68981,1,0,0:0:0:0:
192,192,68981,1,0,0:0:0:0:
320,192,69088,1,0,0:0:0:0:
64,192,69196,1,0,0:0:0:0:
448,192,69196,1,0,0:0:0:0:
192,192,69303,1,0,0:0:0:0:
320,192,69410,1,0,0:0:0:0:
448,192,69410,1,0,0:0:0:0:
192,192,69517,1,0,0:0:0:0:
64,192,69624,1,0,0:0:0:0:
320,192,69624,1,0,0:0:0:0:
448,192,69731,1,0,0:0:0:0:
320,192,69838,1,0,0:0:0:0:
192,192,69838,1,0,0:0:0:0:
64,192,69838,1,0,0:0:0:0:
448,192,69946,1,0,0:0:0:0:
320,192,70053,1,0,0:0:0:0:
192,192,70160,1,0,0:0:0:0:
448,192,70267,1,0,0:0:0:0:
320,192,70267,1,0,0:0:0:0:
64,192,70267,1,0,0:0:0:0:
448,192,70696,1,0,0:0:0:0:
320,192,70696,1,0,0:0:0:0:
192,192,70696,1,0,0:0:0:0:
64,192,70696,1,0,0:0:0:0:
448,192,70803,1,0,0:0:0:0:
320,192,70803,1,0,0:0:0:0:
448,192,70910,1,0,0:0:0:0:
320,192,70910,1,0,0:0:0:0:
448,192,71017,1,0,0:0:0:0:
320,192,71017,1,0,0:0:0:0:
192,192,71017,1,0,0:0:0:0:
64,192,71017,1,0,0:0:0:0:
192,192,71124,1,0,0:0:0:0:
64,192,71124,1,0,0:0:0:0:
192,192,71231,1,0,0:0:0:0:
64,192,71231,1,0,0:0:0:0:
64,192,71338,1,0,0:0:0:0:
192,192,71338,1,0,0:0:0:0:
320,192,71338,1,0,0:0:0:0:
448,192,71338,1,0,0:0:0:0:
320,192,71446,1,0,0:0:0:0:
448,192,71446,1,0,0:0:0:0:
448,192,71553,1,0,0:0:0:0:
320,192,71553,1,0,0:0:0:0:
192,192,71553,1,0,0:0:0:0:
64,192,71553,1,0,0:0:0:0:
448,192,71981,1,0,0:0:0:0:
64,192,71981,1,0,0:0:0:0:
320,192,72088,1,0,0:0:0:0:
192,192,72088,1,0,0:0:0:0:
448,192,72410,1,0,0:0:0:0:
320,192,72410,1,0,0:0:0:0:
192,192,72410,1,0,0:0:0:0:
64,192,72410,1,0,0:0:0:0:
320,192,72517,1,0,0:0:0:0:
192,192,72517,1,0,0:0:0:0:
320,192,72624,1,0,0:0:0:0:
192,192,72624,1,0,0:0:0:0:
448,192,72731,1,0,0:0:0:0:
320,192,72731,1,0,0:0:0:0:
192,192,72731,1,0,0:0:0:0:
64,192,72731,1,0,0:0:0:0:
192,192,72838,1,0,0:0:0:0:
64,192,72838,1,0,0:0:0:0:
192,192,72946,1,0,0:0:0:0:
64,192,72946,1,0,0:0:0:0:
448,192,73053,1,0,0:0:0:0:
320,192,73053,1,0,0:0:0:0:
192,192,73053,1,0,0:0:0:0:
64,192,73053,1,0,0:0:0:0:
448,192,73160,1,0,0:0:0:0:
320,192,73160,1,0,0:0:0:0:
448,192,73267,1,0,0:0:0:0:
320,192,73267,1,0,0:0:0:0:
192,192,73267,1,0,0:0:0:0:
64,192,73267,1,0,0:0:0:0:
64,192,73696,1,0,0:0:0:0:
448,192,73696,1,0,0:0:0:0:
192,192,73696,128,0,73910:0:0:0:0:
320,192,73696,128,0,73910:0:0:0:0:
64,192,74124,1,0,0:0:0:0:
192,192,74124,1,0,0:0:0:0:
320,192,74124,1,0,0:0:0:0:
448,192,74124,1,0,0:0:0:0:
448,192,74231,1,0,0:0:0:0:
320,192,74231,1,0,0:0:0:0:
192,192,74338,1,0,0:0:0:0:
64,192,74338,1,0,0:0:0:0:
448,192,74446,1,0,0:0:0:0:
320,192,74446,1,0,0:0:0:0:
192,192,74446,1,0,0:0:0:0:
64,192,74446,1,0,0:0:0:0:
320,192,74553,1,0,0:0:0:0:
448,192,74553,1,0,0:0:0:0:
192,192,74660,1,0,0:0:0:0:
64,192,74660,1,0,0:0:0:0:
64,192,74767,1,0,0:0:0:0:
192,192,74767,1,0,0:0:0:0:
320,192,74767,1,0,0:0:0:0:
448,192,74767,1,0,0:0:0:0:
320,192,74874,1,0,0:0:0:0:
448,192,74874,1,0,0:0:0:0:
448,192,74981,1,0,0:0:0:0:
320,192,74981,1,0,0:0:0:0:
192,192,74981,1,0,0:0:0:0:
64,192,74981,1,0,0:0:0:0:
192,192,75410,1,0,0:0:0:0:
320,192,75410,1,0,0:0:0:0:
448,192,75517,1,0,0:0:0:0:
64,192,75517,1,0,0:0:0:0:
64,192,75838,1,0,0:0:0:0:
192,192,75838,1,0,0:0:0:0:
320,192,75838,1,0,0:0:0:0:
448,192,75838,1,0,0:0:0:0:
192,192,75946,1,0,0:0:0:0:
64,192,75946,1,0,0:0:0:0:
192,192,76053,1,0,0:0:0:0:
64,192,76053,1,0,0:0:0:0:
448,192,76160,1,0,0:0:0:0:
320,192,76160,1,0,0:0:0:0:
192,192,76160,1,0,0:0:0:0:
64,192,76160,1,0,0:0:0:0:
320,192,76267,1,0,0:0:0:0:
448,192,76267,1,0,0:0:0:0:
192,192,76374,1,0,0:0:0:0:
64,192,76374,1,0,0:0:0:0:
64,192,76481,1,0,0:0:0:0:
192,192,76481,1,0,0:0:0:0:
320,192,76481,1,0,0:0:0:0:
448,192,76481,1,0,0:0:0:0:
320,192,76588,1,0,0:0:0:0:
448,192,76588,1,0,0:0:0:0:
448,192,76696,1,0,0:0:0:0:
320,192,76696,1,0,0:0:0:0:
192,192,76696,1,0,0:0:0:0:
64,192,76696,1,0,0:0:0:0:
64,192,77124,1,0,0:0:0:0:
448,192,77124,1,0,0:0:0:0:
64,192,77553,1,0,0:0:0:0:
320,192,77553,1,0,0:0:0:0:
448,192,77553,1,0,0:0:0:0:
192,192,77660,1,0,0:0:0:0:
320,192,77767,1,0,0:0:0:0:
448,192,77874,1,0,0:0:0:0:
192,192,77874,1,0,0:0:0:0:
64,192,77874,1,0,0:0:0:0:
320,192,77981,1,0,0:0:0:0:
192,192,78088,1,0,0:0:0:0:
320,192,78196,1,0,0:0:0:0:
64,192,78196,1,0,0:0:0:0:
448,192,78196,1,0,0:0:0:0:
192,192,78303,1,0,0:0:0:0:
320,192,78410,1,0,0:0:0:0:
448,192,78410,1,0,0:0:0:0:
64,192,78410,1,0,0:0:0:0:
192,192,78517,1,0,0:0:0:0:
320,192,78624,1,0,0:0:0:0:
64,192,78624,1,0,0:0:0:0:
448,192,78731,1,0,0:0:0:0:
64,192,78838,1,0,0:0:0:0:
320,192,78838,1,0,0:0:0:0:
192,192,78838,1,0,0:0:0:0:
448,192,78946,1,0,0:0:0:0:
64,192,79053,1,0,0:0:0:0:
320,192,79160,1,0,0:0:0:0:
448,192,79267,1,0,0:0:0:0:
64,192,79267,1,0,0:0:0:0:
192,192,79267,1,0,0:0:0:0:
320,192,79374,1,0,0:0:0:0:
192,192,79481,1,0,0:0:0:0:
448,192,79588,1,0,0:0:0:0:
64,192,79588,1,0,0:0:0:0:
320,192,79588,1,0,0:0:0:0:
192,192,79696,1,0,0:0:0:0:
320,192,79803,1,0,0:0:0:0:
448,192,79910,1,0,0:0:0:0:
192,192,79910,1,0,0:0:0:0:
64,192,79910,1,0,0:0:0:0:
320,192,80017,1,0,0:0:0:0:
448,192,80124,1,0,0:0:0:0:
192,192,80124,1,0,0:0:0:0:
64,192,80124,1,0,0:0:0:0:
320,192,80231,1,0,0:0:0:0:
192,192,80338,1,0,0:0:0:0:
64,192,80446,1,0,0:0:0:0:
320,192,80553,1,0,0:0:0:0:
192,192,80553,1,0,0:0:0:0:
448,192,80553,1,0,0:0:0:0:
64,192,80660,1,0,0:0:0:0:
320,192,80767,1,0,0:0:0:0:
192,192,80874,1,0,0:0:0:0:
448,192,80981,1,0,0:0:0:0:
64,192,80981,1,0,0:0:0:0:
320,192,80981,1,0,0:0:0:0:
192,192,81088,1,0,0:0:0:0:
320,192,81196,1,0,0:0:0:0:
448,192,81303,1,0,0:0:0:0:
64,192,81303,1,0,0:0:0:0:
192,192,81303,1,0,0:0:0:0:
320,192,81410,1,0,0:0:0:0:
192,192,81517,1,0,0:0:0:0:
448,192,81624,1,0,0:0:0:0:
64,192,81624,1,0,0:0:0:0:
320,192,81624,1,0,0:0:0:0:
192,192,81731,1,0,0:0:0:0:
320,192,81838,1,0,0:0:0:0:
448,192,81838,1,0,0:0:0:0:
192,192,81910,1,0,0:0:0:0:
64,192,81910,1,0,0:0:0:0:
320,192,81981,1,0,0:0:0:0:
448,192,81981,1,0,0:0:0:0:
192,192,82053,1,0,0:0:0:0:
64,192,82053,1,0,0:0:0:0:
320,192,82124,1,0,0:0:0:0:
448,192,82124,1,0,0:0:0:0:
192,192,82196,1,0,0:0:0:0:
64,192,82196,1,0,0:0:0:0:
320,192,82267,1,0,0:0:0:0:
448,192,82267,1,0,0:0:0:0:
192,192,82338,1,0,0:0:0:0:
64,192,82338,1,0,0:0:0:0:
320,192,82410,1,0,0:0:0:0:
448,192,82410,1,0,0:0:0:0:
192,192,82481,1,0,0:0:0:0:
64,192,82481,1,0,0:0:0:0:
320,192,82553,1,0,0:0:0:0:
448,192,82553,1,0,0:0:0:0:
192,192,82624,1,0,0:0:0:0:
64,192,82624,1,0,0:0:0:0:
448,192,82696,1,0,0:0:0:0:
320,192,82696,1,0,0:0:0:0:
192,192,82803,1,0,0:0:0:0:
64,192,82910,1,0,0:0:0:0:
192,192,83017,1,0,0:0:0:0:
448,192,83124,1,0,0:0:0:0:
320,192,83231,1,0,0:0:0:0:
192,192,83338,1,0,0:0:0:0:
64,192,83446,1,0,0:0:0:0:
448,192,83553,1,0,0:0:0:0:
320,192,83553,1,0,0:0:0:0:
192,192,83553,1,0,0:0:0:0:
64,192,83660,1,0,0:0:0:0:
192,192,83874,1,0,0:0:0:0:
64,192,83874,1,0,0:0:0:0:
320,192,83874,1,0,0:0:0:0:
448,192,83981,1,0,0:0:0:0:
320,192,83981,1,0,0:0:0:0:
192,192,84035,1,0,0:0:0:0:
64,192,84035,1,0,0:0:0:0:
320,192,84088,1,0,0:0:0:0:
448,192,84088,1,0,0:0:0:0:
192,192,84142,1,0,0:0:0:0:
64,192,84142,1,0,0:0:0:0:
320,192,84196,1,0,0:0:0:0:
448,192,84196,1,0,0:0:0:0:
192,192,84249,1,0,0:0:0:0:
64,192,84249,1,0,0:0:0:0:
320,192,84303,1,0,0:0:0:0:
448,192,84303,1,0,0:0:0:0:
192,192,84356,1,0,0:0:0:0:
64,192,84356,1,0,0:0:0:0:
448,192,84410,1,0,0:0:0:0:
320,192,84410,1,0,0:0:0:0:
64,192,84517,1,0,0:0:0:0:
192,192,84517,1,0,0:0:0:0:
448,192,84517,1,0,0:0:0:0:
192,192,84624,1,0,0:0:0:0:
64,192,84624,1,0,0:0:0:0:
320,192,84624,1,0,0:0:0:0:
448,192,84731,1,0,0:0:0:0:
320,192,84731,1,0,0:0:0:0:
64,192,84731,1,0,0:0:0:0:
192,192,84838,1,0,0:0:0:0:
448,192,84838,1,0,0:0:0:0:
320,192,84838,1,0,0:0:0:0:
64,192,84946,1,0,0:0:0:0:
192,192,84946,1,0,0:0:0:0:
448,192,84946,1,0,0:0:0:0:
320,192,85053,1,0,0:0:0:0:
64,192,85053,1,0,0:0:0:0:
192,192,85053,1,0,0:0:0:0:
64,192,85160,1,0,0:0:0:0:
320,192,85160,1,0,0:0:0:0:
448,192,85160,1,0,0:0:0:0:
320,192,85267,1,0,0:0:0:0:
192,192,85267,1,0,0:0:0:0:
448,192,85267,1,0,0:0:0:0:
64,192,85374,1,0,0:0:0:0:
192,192,85374,1,0,0:0:0:0:
448,192,85374,1,0,0:0:0:0:
320,192,85481,1,0,0:0:0:0:
192,192,85481,1,0,0:0:0:0:
64,192,85481,1,0,0:0:0:0:
64,192,85588,1,0,0:0:0:0:
320,192,85588,1,0,0:0:0:0:
448,192,85588,1,0,0:0:0:0:
192,192,85696,1,0,0:0:0:0:
448,192,85696,1,0,0:0:0:0:
320,192,85696,1,0,0:0:0:0:
64,192,85803,1,0,0:0:0:0:
192,192,85803,1,0,0:0:0:0:
448,192,85803,1,0,0:0:0:0:
320,192,85910,1,0,0:0:0:0:
64,192,85910,1,0,0:0:0:0:
192,192,85910,1,0,0:0:0:0:
448,192,86017,1,0,0:0:0:0:
64,192,86017,1,0,0:0:0:0:
192,192,86017,1,0,0:0:0:0:
320,192,86124,1,0,0:0:0:0:
448,192,86124,1,0,0:0:0:0:
320,192,86231,1,0,0:0:0:0:
448,192,86231,1,0,0:0:0:0:
64,192,86231,1,0,0:0:0:0:
320,192,86338,1,0,0:0:0:0:
448,192,86338,1,0,0:0:0:0:
64,192,86446,1,0,0:0:0:0:
192,192,86446,1,0,0:0:0:0:
320,192,86446,1,0,0:0:0:0:
448,192,86553,1,0,0:0:0:0:
192,192,86553,1,0,0:0:0:0:
64,192,86553,1,0,0:0:0:0:
192,192,86660,1,0,0:0:0:0:
320,192,86660,1,0,0:0:0:0:
448,192,86660,1,0,0:0:0:0:
64,192,86767,1,0,0:0:0:0:
320,192,86767,1,0,0:0:0:0:
448,192,86767,1,0,0:0:0:0:
192,192,86874,1,0,0:0:0:0:
64,192,86874,1,0,0:0:0:0:
320,192,86874,1,0,0:0:0:0:
448,192,86981,1,0,0:0:0:0:
192,192,86981,1,0,0:0:0:0:
64,192,86981,1,0,0:0:0:0:
320,192,87088,1,0,0:0:0:0:
192,192,87088,1,0,0:0:0:0:
448,192,87088,1,0,0:0:0:0:
64,192,87196,1,0,0:0:0:0:
320,192,87196,1,0,0:0:0:0:
448,192,87196,1,0,0:0:0:0:
192,192,87303,1,0,0:0:0:0:
64,192,87303,1,0,0:0:0:0:
320,192,87303,1,0,0:0:0:0:
448,192,87410,1,0,0:0:0:0:
192,192,87410,1,0,0:0:0:0:
64,192,87410,1,0,0:0:0:0:
320,192,87517,1,0,0:0:0:0:
192,192,87517,1,0,0:0:0:0:
448,192,87517,1,0,0:0:0:0:
320,192,87624,1,0,0:0:0:0:
64,192,87624,1,0,0:0:0:0:
448,192,87624,1,0,0:0:0:0:
192,192,87731,1,0,0:0:0:0:
320,192,87731,1,0,0:0:0:0:
64,192,87731,1,0,0:0:0:0:
448,192,87838,1,0,0:0:0:0:
192,192,87838,1,0,0:0:0:0:
64,192,87838,1,0,0:0:0:0:
192,192,87946,1,0,0:0:0:0:
320,192,87946,1,0,0:0:0:0:
448,192,87946,1,0,0:0:0:0:
64,192,88053,1,0,0:0:0:0:
320,192,88053,1,0,0:0:0:0:
448,192,88053,1,0,0:0:0:0:
192,192,88160,1,0,0:0:0:0:
64,192,88160,1,0,0:0:0:0:
320,192,88160,1,0,0:0:0:0:
448,192,88267,1,0,0:0:0:0:
192,192,88267,1,0,0:0:0:0:
64,192,88267,1,0,0:0:0:0:
320,192,88374,1,0,0:0:0:0:
192,192,88374,1,0,0:0:0:0:
448,192,88374,1,0,0:0:0:0:
64,192,88481,1,0,0:0:0:0:
320,192,88481,1,0,0:0:0:0:
448,192,88481,1,0,0:0:0:0:
192,192,88588,1,0,0:0:0:0:
64,192,88588,1,0,0:0:0:0:
320,192,88588,1,0,0:0:0:0:
448,192,88696,1,0,0:0:0:0:
192,192,88696,1,0,0:0:0:0:
64,192,88696,1,0,0:0:0:0:
192,192,88803,1,0,0:0:0:0:
320,192,88803,1,0,0:0:0:0:
448,192,88803,1,0,0:0:0:0:
64,192,88910,1,0,0:0:0:0:
320,192,88910,1,0,0:0:0:0:
448,192,88910,1,0,0:0:0:0:
64,192,89017,1,0,0:0:0:0:
192,192,89017,1,0,0:0:0:0:
320,192,89017,1,0,0:0:0:0:
192,192,89124,1,0,0:0:0:0:
64,192,89124,1,0,0:0:0:0:
448,192,89124,1,0,0:0:0:0:
320,192,89231,1,0,0:0:0:0:
192,192,89231,1,0,0:0:0:0:
64,192,89231,1,0,0:0:0:0:
320,192,89338,1,0,0:0:0:0:
448,192,89338,1,0,0:0:0:0:
64,192,89338,1,0,0:0:0:0:
320,192,89446,1,0,0:0:0:0:
192,192,89446,1,0,0:0:0:0:
448,192,89446,1,0,0:0:0:0:
448,192,89553,1,0,0:0:0:0:
64,192,89553,1,0,0:0:0:0:
192,192,89553,1,0,0:0:0:0:
320,192,89660,1,0,0:0:0:0:
192,192,89660,1,0,0:0:0:0:
448,192,89660,1,0,0:0:0:0:
320,192,89767,1,0,0:0:0:0:
448,192,89767,1,0,0:0:0:0:
64,192,89767,1,0,0:0:0:0:
192,192,89874,1,0,0:0:0:0:
64,192,89874,1,0,0:0:0:0:
448,192,89874,1,0,0:0:0:0:
192,192,89981,1,0,0:0:0:0:
320,192,89981,1,0,0:0:0:0:
64,192,89981,1,0,0:0:0:0:
192,192,90088,1,0,0:0:0:0:
320,192,90088,1,0,0:0:0:0:
448,192,90088,1,0,0:0:0:0:
64,192,90196,1,0,0:0:0:0:
320,192,90196,1,0,0:0:0:0:
448,192,90196,1,0,0:0:0:0:
448,192,90303,1,0,0:0:0:0:
64,192,90303,1,0,0:0:0:0:
192,192,90303,1,0,0:0:0:0:
320,192,90410,1,0,0:0:0:0:
192,192,90410,1,0,0:0:0:0:
64,192,90410,1,0,0:0:0:0:
448,192,90517,1,0,0:0:0:0:
192,192,90517,1,0,0:0:0:0:
320,192,90517,1,0,0:0:0:0:
64,192,90624,1,0,0:0:0:0:
320,192,90624,1,0,0:0:0:0:
448,192,90624,1,0,0:0:0:0:
192,192,90731,1,0,0:0:0:0:
64,192,90731,1,0,0:0:0:0:
448,192,90731,1,0,0:0:0:0:
320,192,90838,1,0,0:0:0:0:
192,192,90838,1,0,0:0:0:0:
64,192,90838,1,0,0:0:0:0:
448,192,90946,1,0,0:0:0:0:
320,192,90946,1,0,0:0:0:0:
192,192,90946,1,0,0:0:0:0:
64,192,91053,1,0,0:0:0:0:
320,192,91053,1,0,0:0:0:0:
448,192,91053,1,0,0:0:0:0:
192,192,91160,1,0,0:0:0:0:
448,192,91160,1,0,0:0:0:0:
64,192,91160,1,0,0:0:0:0:
320,192,91267,1,0,0:0:0:0:
192,192,91267,1,0,0:0:0:0:
64,192,91267,1,0,0:0:0:0:
448,192,91374,1,0,0:0:0:0:
320,192,91374,1,0,0:0:0:0:
192,192,91374,1,0,0:0:0:0:
64,192,91481,1,0,0:0:0:0:
320,192,91481,1,0,0:0:0:0:
448,192,91481,1,0,0:0:0:0:
192,192,91588,1,0,0:0:0:0:
64,192,91588,1,0,0:0:0:0:
448,192,91588,1,0,0:0:0:0:
320,192,91696,1,0,0:0:0:0:
192,192,91696,1,0,0:0:0:0:
64,192,91696,1,0,0:0:0:0:
448,192,91803,1,0,0:0:0:0:
320,192,91803,1,0,0:0:0:0:
192,192,91803,1,0,0:0:0:0:
64,192,91910,1,0,0:0:0:0:
320,192,91910,1,0,0:0:0:0:
448,192,91910,1,0,0:0:0:0:
448,192,92017,1,0,0:0:0:0:
192,192,92017,1,0,0:0:0:0:
64,192,92017,1,0,0:0:0:0:
320,192,92124,1,0,0:0:0:0:
192,192,92124,1,0,0:0:0:0:
64,192,92124,1,0,0:0:0:0:
448,192,92231,1,0,0:0:0:0:
192,192,92231,1,0,0:0:0:0:
64,192,92231,1,0,0:0:0:0:
192,192,92338,1,0,0:0:0:0:
320,192,92338,1,0,0:0:0:0:
448,192,92338,1,0,0:0:0:0:
64,192,92446,1,0,0:0:0:0:
320,192,92446,1,0,0:0:0:0:
448,192,92446,1,0,0:0:0:0:
192,192,92553,1,0,0:0:0:0:
320,192,92553,1,0,0:0:0:0:
64,192,92553,1,0,0:0:0:0:
320,192,92660,1,0,0:0:0:0:
192,192,92660,1,0,0:0:0:0:
448,192,92660,1,0,0:0:0:0:
192,192,92767,1,0,0:0:0:0:
64,192,92767,1,0,0:0:0:0:
448,192,92767,1,0,0:0:0:0:
192,192,92874,1,0,0:0:0:0:
64,192,92874,1,0,0:0:0:0:
320,192,92874,1,0,0:0:0:0:
192,192,92981,1,0,0:0:0:0:
64,192,92981,1,0,0:0:0:0:
448,192,92981,1,0,0:0:0:0:
192,192,93088,1,0,0:0:0:0:
64,192,93088,1,0,0:0:0:0:
320,192,93088,1,0,0:0:0:0:
192,192,93196,1,0,0:0:0:0:
64,192,93196,1,0,0:0:0:0:
448,192,93196,1,0,0:0:0:0:
320,192,93303,1,0,0:0:0:0:
192,192,93303,1,0,0:0:0:0:
448,192,93303,1,0,0:0:0:0:
320,192,93410,1,0,0:0:0:0:
64,192,93410,1,0,0:0:0:0:
448,192,93410,1,0,0:0:0:0:
192,192,93517,1,0,0:0:0:0:
320,192,93517,1,0,0:0:0:0:
64,192,93517,1,0,0:0:0:0:
192,192,93624,1,0,0:0:0:0:
448,192,93624,1,0,0:0:0:0:
64,192,93624,1,0,0:0:0:0:
320,192,93731,1,0,0:0:0:0:
192,192,93731,1,0,0:0:0:0:
448,192,93731,1,0,0:0:0:0:
64,192,93838,1,0,0:0:0:0:
448,192,93838,1,0,0:0:0:0:
320,192,93838,1,0,0:0:0:0:
192,192,93946,1,0,0:0:0:0:
320,192,93946,1,0,0:0:0:0:
64,192,93946,1,0,0:0:0:0:
64,192,94053,128,0,94267:0:0:0:0:
448,192,94053,128,0,94267:0:0:0:0:
320,192,94267,1,0,0:0:0:0:
192,192,94267,1,0,0:0:0:0:
64,192,94374,1,0,0:0:0:0:
192,192,94374,1,0,0:0:0:0:
320,192,94374,1,0,0:0:0:0:
448,192,94374,1,0,0:0:0:0:
64,192,94481,128,0,94696:0:0:0:0:
448,192,94481,128,0,94696:0:0:0:0:
192,192,94696,1,0,0:0:0:0:
320,192,94696,1,0,0:0:0:0:
448,192,94803,1,0,0:0:0:0:
320,192,94803,1,0,0:0:0:0:
64,192,94803,1,0,0:0:0:0:
320,192,94910,1,0,0:0:0:0:
192,192,94910,1,0,0:0:0:0:
448,192,94910,1,0,0:0:0:0:
64,192,95017,1,0,0:0:0:0:
192,192,95017,1,0,0:0:0:0:
448,192,95017,1,0,0:0:0:0:
320,192,95124,1,0,0:0:0:0:
192,192,95124,1,0,0:0:0:0:
64,192,95124,1,0,0:0:0:0:
448,192,95231,1,0,0:0:0:0:
64,192,95231,1,0,0:0:0:0:
320,192,95231,1,0,0:0:0:0:
192,192,95338,1,0,0:0:0:0:
320,192,95338,1,0,0:0:0:0:
448,192,95338,1,0,0:0:0:0:
64,192,95446,1,0,0:0:0:0:
448,192,95446,1,0,0:0:0:0:
192,192,95446,1,0,0:0:0:0:
320,192,95553,1,0,0:0:0:0:
192,192,95553,1,0,0:0:0:0:
64,192,95553,1,0,0:0:0:0:
448,192,95660,1,0,0:0:0:0:
64,192,95660,1,0,0:0:0:0:
320,192,95660,1,0,0:0:0:0:
192,192,95767,1,0,0:0:0:0:
448,192,95767,1,0,0:0:0:0:
320,192,95767,1,0,0:0:0:0:
64,192,95874,1,0,0:0:0:0:
192,192,95874,1,0,0:0:0:0:
448,192,95874,1,0,0:0:0:0:
320,192,95981,1,0,0:0:0:0:
192,192,95981,1,0,0:0:0:0:
64,192,95981,1,0,0:0:0:0:
448,192,96088,1,0,0:0:0:0:
64,192,96088,1,0,0:0:0:0:
320,192,96088,1,0,0:0:0:0:
192,192,96196,1,0,0:0:0:0:
320,192,96196,1,0,0:0:0:0:
448,192,96196,1,0,0:0:0:0:
64,192,96303,1,0,0:0:0:0:
192,192,96303,1,0,0:0:0:0:
448,192,96303,1,0,0:0:0:0:
320,192,96410,1,0,0:0:0:0:
64,192,96410,1,0,0:0:0:0:
192,192,96410,1,0,0:0:0:0:
448,192,96731,1,0,0:0:0:0:
320,192,96731,1,0,0:0:0:0:
192,192,96731,1,0,0:0:0:0:
64,192,96731,1,0,0:0:0:0:
64,192,97053,1,0,0:0:0:0:
192,192,97053,1,0,0:0:0:0:
448,192,97053,1,0,0:0:0:0:
320,192,97053,1,0,0:0:0:0:
448,192,97160,1,0,0:0:0:0:
320,192,97160,1,0,0:0:0:0:
448,192,97267,1,0,0:0:0:0:
320,192,97267,1,0,0:0:0:0:
192,192,97267,1,0,0:0:0:0:
64,192,97267,1,0,0:0:0:0:
64,192,97481,1,0,0:0:0:0:
448,192,97481,1,0,0:0:0:0:
320,192,97588,1,0,0:0:0:0:
192,192,97588,1,0,0:0:0:0:
64,192,97696,1,0,0:0:0:0:
448,192,97696,1,0,0:0:0:0:
64,192,98124,1,0,0:0:0:0:
192,192,98124,1,0,0:0:0:0:
320,192,98124,1,0,0:0:0:0:
448,192,98124,1,0,0:0:0:0:
448,192,98231,1,0,0:0:0:0:
64,192,98231,1,0,0:0:0:0:
320,192,98231,1,0,0:0:0:0:
192,192,98338,1,0,0:0:0:0:
320,192,98338,1,0,0:0:0:0:
64,192,98446,1,0,0:0:0:0:
192,192,98446,1,0,0:0:0:0:
320,192,98446,1,0,0:0:0:0:
448,192,98446,1,0,0:0:0:0:
448,192,98553,1,0,0:0:0:0:
64,192,98553,1,0,0:0:0:0:
192,192,98553,1,0,0:0:0:0:
320,192,98660,1,0,0:0:0:0:
64,192,98660,1,0,0:0:0:0:
448,192,98767,1,0,0:0:0:0:
320,192,98767,1,0,0:0:0:0:
192,192,98767,1,0,0:0:0:0:
64,192,98767,1,0,0:0:0:0:
448,192,98874,1,0,0:0:0:0:
320,192,98874,1,0,0:0:0:0:
64,192,98981,1,0,0:0:0:0:
192,192,98981,1,0,0:0:0:0:
448,192,98981,1,0,0:0:0:0:
320,192,98981,1,0,0:0:0:0:
64,192,99088,1,0,0:0:0:0:
192,192,99088,1,0,0:0:0:0:
448,192,99088,1,0,0:0:0:0:
320,192,99196,1,0,0:0:0:0:
192,192,99196,1,0,0:0:0:0:
448,192,99303,1,0,0:0:0:0:
320,192,99303,1,0,0:0:0:0:
192,192,99303,1,0,0:0:0:0:
64,192,99303,1,0,0:0:0:0:
64,192,99410,1,0,0:0:0:0:
320,192,99410,1,0,0:0:0:0:
448,192,99410,1,0,0:0:0:0:
192,192,99517,1,0,0:0:0:0:
448,192,99517,1,0,0:0:0:0:
448,192,99624,1,0,0:0:0:0:
320,192,99624,1,0,0:0:0:0:
64,192,99624,1,0,0:0:0:0:
192,192,99624,1,0,0:0:0:0:
192,192,99731,1,0,0:0:0:0:
64,192,99731,1,0,0:0:0:0:
64,192,99838,1,0,0:0:0:0:
192,192,99838,1,0,0:0:0:0:
320,192,99838,1,0,0:0:0:0:
448,192,99838,1,0,0:0:0:0:
448,192,99946,1,0,0:0:0:0:
64,192,99946,1,0,0:0:0:0:
320,192,99946,1,0,0:0:0:0:
192,192,100053,1,0,0:0:0:0:
448,192,100053,1,0,0:0:0:0:
448,192,100160,1,0,0:0:0:0:
320,192,100160,1,0,0:0:0:0:
192,192,100160,1,0,0:0:0:0:
64,192,100160,1,0,0:0:0:0:
64,192,100267,1,0,0:0:0:0:
320,192,100267,1,0,0:0:0:0:
192,192,100267,1,0,0:0:0:0:
448,192,100374,1,0,0:0:0:0:
192,192,100374,1,0,0:0:0:0:
448,192,100481,1,0,0:0:0:0:
320,192,100481,1,0,0:0:0:0:
64,192,100481,1,0,0:0:0:0:
192,192,100481,1,0,0:0:0:0:
448,192,100588,1,0,0:0:0:0:
320,192,100588,1,0,0:0:0:0:
64,192,100588,1,0,0:0:0:0:
320,192,100696,1,0,0:0:0:0:
192,192,100696,1,0,0:0:0:0:
64,192,100696,1,0,0:0:0:0:
448,192,100803,1,0,0:0:0:0:
192,192,100803,1,0,0:0:0:0:
320,192,100803,1,0,0:0:0:0:
64,192,100910,1,0,0:0:0:0:
192,192,100910,1,0,0:0:0:0:
448,192,100910,1,0,0:0:0:0:
448,192,101017,1,0,0:0:0:0:
320,192,101017,1,0,0:0:0:0:
320,192,101124,1,0,0:0:0:0:
64,192,101124,1,0,0:0:0:0:
192,192,101124,1,0,0:0:0:0:
448,192,101124,1,0,0:0:0:0:
192,192,101231,1,0,0:0:0:0:
64,192,101231,1,0,0:0:0:0:
448,192,101338,1,0,0:0:0:0:
320,192,101338,1,0,0:0:0:0:
192,192,101338,1,0,0:0:0:0:
64,192,101338,1,0,0:0:0:0:
320,192,101446,1,0,0:0:0:0:
448,192,101446,1,0,0:0:0:0:
448,192,101553,1,0,0:0:0:0:
320,192,101553,1,0,0:0:0:0:
192,192,101553,1,0,0:0:0:0:
64,192,101553,1,0,0:0:0:0:
64,192,101660,1,0,0:0:0:0:
448,192,101660,1,0,0:0:0:0:
192,192,101660,1,0,0:0:0:0:
320,192,101767,1,0,0:0:0:0:
64,192,101767,1,0,0:0:0:0:
448,192,101874,1,0,0:0:0:0:
320,192,101874,1,0,0:0:0:0:
192,192,101874,1,0,0:0:0:0:
64,192,101874,1,0,0:0:0:0:
448,192,101981,1,0,0:0:0:0:
192,192,101981,1,0,0:0:0:0:
320,192,101981,1,0,0:0:0:0:
64,192,102088,1,0,0:0:0:0:
448,192,102088,1,0,0:0:0:0:
448,192,102196,1,0,0:0:0:0:
320,192,102196,1,0,0:0:0:0:
192,192,102196,1,0,0:0:0:0:
64,192,102196,1,0,0:0:0:0:
320,192,102303,1,0,0:0:0:0:
192,192,102303,1,0,0:0:0:0:
64,192,102410,1,0,0:0:0:0:
192,192,102410,1,0,0:0:0:0:
320,192,102410,1,0,0:0:0:0:
448,192,102410,1,0,0:0:0:0:
64,192,102517,1,0,0:0:0:0:
448,192,102517,1,0,0:0:0:0:
320,192,102517,1,0,0:0:0:0:
192,192,102624,1,0,0:0:0:0:
448,192,102624,1,0,0:0:0:0:
448,192,102731,1,0,0:0:0:0:
320,192,102731,1,0,0:0:0:0:
192,192,102731,1,0,0:0:0:0:
64,192,102731,1,0,0:0:0:0:
64,192,102838,1,0,0:0:0:0:
320,192,102838,1,0,0:0:0:0:
192,192,102838,1,0,0:0:0:0:
448,192,102946,1,0,0:0:0:0:
320,192,102946,1,0,0:0:0:0:
448,192,103053,1,0,0:0:0:0:
320,192,103053,1,0,0:0:0:0:
192,192,103053,1,0,0:0:0:0:
64,192,103053,1,0,0:0:0:0:
64,192,103160,1,0,0:0:0:0:
192,192,103160,1,0,0:0:0:0:
448,192,103267,1,0,0:0:0:0:
320,192,103267,1,0,0:0:0:0:
192,192,103267,1,0,0:0:0:0:
64,192,103267,1,0,0:0:0:0:
448,192,103374,1,0,0:0:0:0:
192,192,103374,1,0,0:0:0:0:
320,192,103374,1,0,0:0:0:0:
64,192,103481,1,0,0:0:0:0:
448,192,103481,1,0,0:0:0:0:
448,192,103588,1,0,0:0:0:0:
320,192,103588,1,0,0:0:0:0:
192,192,103588,1,0,0:0:0:0:
64,192,103588,1,0,0:0:0:0:
320,192,103696,1,0,0:0:0:0:
192,192,103696,1,0,0:0:0:0:
64,192,103696,1,0,0:0:0:0:
448,192,103803,1,0,0:0:0:0:
192,192,103803,1,0,0:0:0:0:
448,192,103910,1,0,0:0:0:0:
320,192,103910,1,0,0:0:0:0:
192,192,103910,1,0,0:0:0:0:
64,192,103910,1,0,0:0:0:0:
448,192,104017,1,0,0:0:0:0:
320,192,104017,1,0,0:0:0:0:
64,192,104124,1,0,0:0:0:0:
192,192,104124,1,0,0:0:0:0:
320,192,104124,1,0,0:0:0:0:
448,192,104124,1,0,0:0:0:0:
64,192,104231,1,0,0:0:0:0:
192,192,104231,1,0,0:0:0:0:
448,192,104231,1,0,0:0:0:0:
192,192,104338,1,0,0:0:0:0:
64,192,104338,1,0,0:0:0:0:
320,192,104338,1,0,0:0:0:0:
448,192,104446,1,0,0:0:0:0:
320,192,104446,1,0,0:0:0:0:
64,192,104446,1,0,0:0:0:0:
320,192,104553,1,0,0:0:0:0:
192,192,104553,1,0,0:0:0:0:
64,192,104553,1,0,0:0:0:0:
448,192,104553,1,0,0:0:0:0:
448,192,104660,1,0,0:0:0:0:
320,192,104660,1,0,0:0:0:0:
448,192,104767,1,0,0:0:0:0:
320,192,104767,1,0,0:0:0:0:
192,192,104767,1,0,0:0:0:0:
64,192,104767,1,0,0:0:0:0:
192,192,104874,1,0,0:0:0:0:
64,192,104874,1,0,0:0:0:0:
448,192,104981,1,0,0:0:0:0:
320,192,104981,1,0,0:0:0:0:
192,192,104981,1,0,0:0:0:0:
64,192,104981,1,0,0:0:0:0:
448,192,105088,1,0,0:0:0:0:
64,192,105088,1,0,0:0:0:0:
320,192,105088,1,0,0:0:0:0:
192,192,105196,1,0,0:0:0:0:
448,192,105196,1,0,0:0:0:0:
320,192,105196,1,0,0:0:0:0:
64,192,105303,1,0,0:0:0:0:
192,192,105303,1,0,0:0:0:0:
448,192,105303,1,0,0:0:0:0:
320,192,105410,1,0,0:0:0:0:
192,192,105410,1,0,0:0:0:0:
64,192,105410,1,0,0:0:0:0:
448,192,105517,1,0,0:0:0:0:
64,192,105517,1,0,0:0:0:0:
320,192,105517,1,0,0:0:0:0:
192,192,105624,1,0,0:0:0:0:
448,192,105624,1,0,0:0:0:0:
320,192,105624,1,0,0:0:0:0:
64,192,105731,1,0,0:0:0:0:
192,192,105731,1,0,0:0:0:0:
448,192,105731,1,0,0:0:0:0:
320,192,105838,1,0,0:0:0:0:
64,192,105838,1,0,0:0:0:0:
192,192,105838,1,0,0:0:0:0:
64,192,105946,1,0,0:0:0:0:
448,192,105946,1,0,0:0:0:0:
320,192,105946,1,0,0:0:0:0:
192,192,106053,1,0,0:0:0:0:
448,192,106053,1,0,0:0:0:0:
320,192,106053,1,0,0:0:0:0:
192,192,106160,1,0,0:0:0:0:
320,192,106160,1,0,0:0:0:0:
448,192,106160,1,0,0:0:0:0:
448,192,106267,1,0,0:0:0:0:
320,192,106267,1,0,0:0:0:0:
192,192,106267,1,0,0:0:0:0:
64,192,106267,1,0,0:0:0:0:
64,192,106481,1,0,0:0:0:0:
192,192,106481,1,0,0:0:0:0:
320,192,106481,1,0,0:0:0:0:
448,192,106481,1,0,0:0:0:0:
64,192,106588,1,0,0:0:0:0:
192,192,106588,1,0,0:0:0:0:
448,192,106588,1,0,0:0:0:0:
320,192,106696,1,0,0:0:0:0:
64,192,106696,1,0,0:0:0:0:
192,192,106696,1,0,0:0:0:0:
448,192,106803,1,0,0:0:0:0:
320,192,106803,1,0,0:0:0:0:
64,192,106803,1,0,0:0:0:0:
192,192,106910,1,0,0:0:0:0:
448,192,106910,1,0,0:0:0:0:
320,192,106910,1,0,0:0:0:0:
64,192,107017,1,0,0:0:0:0:
192,192,107017,1,0,0:0:0:0:
448,192,107017,1,0,0:0:0:0:
320,192,107124,1,0,0:0:0:0:
192,192,107124,1,0,0:0:0:0:
64,192,107124,1,0,0:0:0:0:
448,192,107231,1,0,0:0:0:0:
64,192,107231,1,0,0:0:0:0:
320,192,107231,1,0,0:0:0:0:
192,192,107338,1,0,0:0:0:0:
448,192,107338,1,0,0:0:0:0:
320,192,107338,1,0,0:0:0:0:
64,192,107446,1,0,0:0:0:0:
192,192,107446,1,0,0:0:0:0:
448,192,107446,1,0,0:0:0:0:
192,192,107553,1,0,0:0:0:0:
64,192,107553,1,0,0:0:0:0:
320,192,107553,1,0,0:0:0:0:
448,192,107660,1,0,0:0:0:0:
64,192,107660,1,0,0:0:0:0:
320,192,107660,1,0,0:0:0:0:
192,192,107767,1,0,0:0:0:0:
448,192,107767,1,0,0:0:0:0:
320,192,107767,1,0,0:0:0:0:
64,192,107874,1,0,0:0:0:0:
192,192,107874,1,0,0:0:0:0:
448,192,107874,1,0,0:0:0:0:
320,192,107981,1,0,0:0:0:0:
64,192,107981,1,0,0:0:0:0:
192,192,107981,1,0,0:0:0:0:
320,192,108088,1,0,0:0:0:0:
448,192,108088,1,0,0:0:0:0:
448,192,108196,1,0,0:0:0:0:
320,192,108196,1,0,0:0:0:0:
192,192,108196,1,0,0:0:0:0:
64,192,108196,1,0,0:0:0:0:
192,192,108303,1,0,0:0:0:0:
448,192,108303,1,0,0:0:0:0:
64,192,108303,1,0,0:0:0:0:
320,192,108410,1,0,0:0:0:0:
192,192,108410,1,0,0:0:0:0:
448,192,108410,1,0,0:0:0:0:
64,192,108517,1,0,0:0:0:0:
320,192,108517,1,0,0:0:0:0:
192,192,108517,1,0,0:0:0:0:
448,192,108624,1,0,0:0:0:0:
64,192,108624,1,0,0:0:0:0:
320,192,108624,1,0,0:0:0:0:
192,192,108731,1,0,0:0:0:0:
448,192,108731,1,0,0:0:0:0:
64,192,108731,1,0,0:0:0:0:
320,192,108838,1,0,0:0:0:0:
192,192,108838,1,0,0:0:0:0:
448,192,108838,1,0,0:0:0:0:
320,192,108946,1,0,0:0:0:0:
64,192,108946,1,0,0:0:0:0:
448,192,108946,1,0,0:0:0:0:
448,192,109053,1,0,0:0:0:0:
192,192,109053,1,0,0:0:0:0:
64,192,109053,1,0,0:0:0:0:
192,192,109160,1,0,0:0:0:0:
64,192,109160,1,0,0:0:0:0:
320,192,109160,1,0,0:0:0:0:
448,192,109267,1,0,0:0:0:0:
320,192,109267,1,0,0:0:0:0:
192,192,109321,1,0,0:0:0:0:
64,192,109321,1,0,0:0:0:0:
320,192,109374,1,0,0:0:0:0:
448,192,109374,1,0,0:0:0:0:
192,192,109428,1,0,0:0:0:0:
64,192,109428,1,0,0:0:0:0:
448,192,109481,1,0,0:0:0:0:
320,192,109481,1,0,0:0:0:0:
192,192,109535,1,0,0:0:0:0:
64,192,109535,1,0,0:0:0:0:
448,192,109588,1,0,0:0:0:0:
320,192,109588,1,0,0:0:0:0:
192,192,109642,1,0,0:0:0:0:
64,192,109642,1,0,0:0:0:0:
320,192,109696,1,0,0:0:0:0:
448,192,109696,1,0,0:0:0:0:
64,192,109749,1,0,0:0:0:0:
192,192,109749,1,0,0:0:0:0:
320,192,109803,1,0,0:0:0:0:
448,192,109803,1,0,0:0:0:0:
64,192,109856,1,0,0:0:0:0:
192,192,109856,1,0,0:0:0:0:
448,192,109910,1,0,0:0:0:0:
320,192,109910,1,0,0:0:0:0:
192,192,109963,1,0,0:0:0:0:
64,192,109963,1,0,0:0:0:0:
448,192,110017,1,0,0:0:0:0:
320,192,110017,1,0,0:0:0:0:
192,192,110071,1,0,0:0:0:0:
448,192,110124,1,0,0:0:0:0:
320,192,110124,1,0,0:0:0:0:
64,192,110124,1,0,0:0:0:0:
192,192,110178,1,0,0:0:0:0:
320,192,110231,1,0,0:0:0:0:
192,192,110285,1,0,0:0:0:0:
320,192,110338,1,0,0:0:0:0:
192,192,110392,1,0,0:0:0:0:
320,192,110446,1,0,0:0:0:0:
192,192,110499,1,0,0:0:0:0:
320,192,110553,1,0,0:0:0:0:
192,192,110606,1,0,0:0:0:0:
320,192,110660,1,0,0:0:0:0:
192,192,110713,1,0,0:0:0:0:
320,192,110767,1,0,0:0:0:0:
192,192,110821,1,0,0:0:0:0:
320,192,110874,1,0,0:0:0:0:
192,192,110928,1,0,0:0:0:0:
64,192,110981,1,0,0:0:0:0:
448,192,110981,1,0,0:0:0:0:
448,192,122855,5,0,0:0:0:0:
320,192,122899,1,0,0:0:0:0:
192,192,122956,1,0,0:0:0:0:
64,192,123014,1,0,0:0:0:0:
448,192,123057,1,0,0:0:0:0:
320,192,123100,1,0,0:0:0:0:
192,192,123158,1,0,0:0:0:0:
64,192,123201,1,0,0:0:0:0:
448,192,123259,1,0,0:0:0:0:
64,192,123302,1,0,0:0:0:0:
320,192,123302,1,0,0:0:0:0:
192,192,123302,1,0,0:0:0:0:
64,192,123937,1,0,0:0:0:0:
448,192,124153,1,0,0:0:0:0:
320,192,124572,1,0,0:0:0:0:
192,192,124990,1,0,0:0:0:0:
64,192,125826,1,0,0:0:0:0:
192,192,126245,1,0,0:0:0:0:
320,192,126663,1,0,0:0:0:0:
448,192,127514,1,0,0:0:0:0:
320,192,127932,1,0,0:0:0:0:
192,192,128350,1,0,0:0:0:0:
448,192,130024,1,0,0:0:0:0:
192,192,130024,1,0,0:0:0:0:
64,192,130024,1,0,0:0:0:0:
320,192,130341,1,0,0:0:0:0:
192,192,130557,1,0,0:0:0:0:
448,192,130658,1,0,0:0:0:0:
320,192,130658,1,0,0:0:0:0:
64,192,130658,1,0,0:0:0:0:
64,192,131076,1,0,0:0:0:0:
192,192,131076,1,0,0:0:0:0:
320,192,131177,1,0,0:0:0:0:
64,192,131293,1,0,0:0:0:0:
192,192,131293,1,0,0:0:0:0:
448,192,131293,1,0,0:0:0:0:
320,192,131610,1,0,0:0:0:0:
448,192,131812,1,0,0:0:0:0:
64,192,131913,1,0,0:0:0:0:
192,192,131913,1,0,0:0:0:0:
320,192,131913,1,0,0:0:0:0:
448,192,132548,1,0,0:0:0:0:
320,192,132548,1,0,0:0:0:0:
64,192,132548,1,0,0:0:0:0:
448,192,132865,1,0,0:0:0:0:
192,192,132865,1,0,0:0:0:0:
320,192,133067,1,0,0:0:0:0:
64,192,133182,1,0,0:0:0:0:
448,192,133182,1,0,0:0:0:0:
192,192,133182,1,0,0:0:0:0:
192,192,133600,1,0,0:0:0:0:
64,192,133600,1,0,0:0:0:0:
64,192,133802,1,0,0:0:0:0:
448,192,133802,1,0,0:0:0:0:
320,192,133802,1,0,0:0:0:0:
192,192,134134,1,0,0:0:0:0:
448,192,134336,1,0,0:0:0:0:
320,192,134336,1,0,0:0:0:0:
448,192,134437,1,0,0:0:0:0:
192,192,134437,1,0,0:0:0:0:
64,192,134437,1,0,0:0:0:0:
448,192,135072,1,0,0:0:0:0:
192,192,135072,1,0,0:0:0:0:
64,192,135072,1,0,0:0:0:0:
320,192,135389,1,0,0:0:0:0:
192,192,135591,1,0,0:0:0:0:
64,192,135706,1,0,0:0:0:0:
448,192,135706,1,0,0:0:0:0:
320,192,135706,1,0,0:0:0:0:
320,192,136125,1,0,0:0:0:0:
192,192,136225,1,0,0:0:0:0:
64,192,136326,1,0,0:0:0:0:
448,192,136326,1,0,0:0:0:0:
320,192,136326,1,0,0:0:0:0:
192,192,136644,1,0,0:0:0:0:
320,192,136860,1,0,0:0:0:0:
448,192,136961,1,0,0:0:0:0:
64,192,136961,1,0,0:0:0:0:
192,192,136961,1,0,0:0:0:0:
448,192,137379,1,0,0:0:0:0:
320,192,137480,1,0,0:0:0:0:
448,192,137596,1,0,0:0:0:0:
64,192,137596,1,0,0:0:0:0:
192,192,137596,1,0,0:0:0:0:
64,192,138014,1,0,0:0:0:0:
448,192,138230,1,0,0:0:0:0:
320,192,138230,1,0,0:0:0:0:
192,192,138230,1,0,0:0:0:0:
448,192,138432,1,0,0:0:0:0:
320,192,138432,1,0,0:0:0:0:
64,192,138649,1,0,0:0:0:0:
192,192,138649,1,0,0:0:0:0:
448,192,138850,1,0,0:0:0:0:
320,192,138850,1,0,0:0:0:0:
192,192,138850,1,0,0:0:0:0:
192,192,139903,1,0,0:0:0:0:
320,192,140004,1,0,0:0:0:0:
64,192,140105,1,0,0:0:0:0:
320,192,140105,1,0,0:0:0:0:
448,192,140105,1,0,0:0:0:0:
192,192,140105,1,0,0:0:0:0:
448,192,140538,1,0,0:0:0:0:
320,192,140538,1,0,0:0:0:0:
448,192,140740,1,0,0:0:0:0:
64,192,140740,1,0,0:0:0:0:
192,192,140740,1,0,0:0:0:0:
320,192,140740,1,0,0:0:0:0:
192,192,140956,1,0,0:0:0:0:
64,192,141173,1,0,0:0:0:0:
192,192,141375,1,0,0:0:0:0:
448,192,141375,1,0,0:0:0:0:
320,192,141375,1,0,0:0:0:0:
192,192,141475,1,0,0:0:0:0:
448,192,141475,1,0,0:0:0:0:
320,192,141475,1,0,0:0:0:0:
64,192,141576,1,0,0:0:0:0:
192,192,141677,1,0,0:0:0:0:
448,192,141793,1,0,0:0:0:0:
320,192,141894,1,0,0:0:0:0:
64,192,141995,1,0,0:0:0:0:
192,192,142110,1,0,0:0:0:0:
448,192,142211,1,0,0:0:0:0:
320,192,142326,1,0,0:0:0:0:
64,192,142427,1,0,0:0:0:0:
192,192,142528,1,0,0:0:0:0:
448,192,142629,1,0,0:0:0:0:
320,192,142745,1,0,0:0:0:0:
64,192,142846,1,0,0:0:0:0:
192,192,142947,1,0,0:0:0:0:
64,192,143048,1,0,0:0:0:0:
448,192,143048,1,0,0:0:0:0:
320,192,143048,1,0,0:0:0:0:
448,192,143163,1,0,0:0:0:0:
320,192,143163,1,0,0:0:0:0:
64,192,143163,1,0,0:0:0:0:
192,192,143264,1,0,0:0:0:0:
320,192,143365,1,0,0:0:0:0:
64,192,143480,1,0,0:0:0:0:
448,192,143581,1,0,0:0:0:0:
192,192,143682,1,0,0:0:0:0:
320,192,143783,1,0,0:0:0:0:
64,192,143899,1,0,0:0:0:0:
448,192,144000,1,0,0:0:0:0:
192,192,144100,1,0,0:0:0:0:
320,192,144201,1,0,0:0:0:0:
448,192,144317,1,0,0:0:0:0:
64,192,144317,1,0,0:0:0:0:
192,192,144360,1,0,0:0:0:0:
320,192,144360,1,0,0:0:0:0:
64,192,144418,1,0,0:0:0:0:
192,192,144475,1,0,0:0:0:0:
448,192,144519,1,0,0:0:0:0:
320,192,144519,1,0,0:0:0:0:
64,192,144576,1,0,0:0:0:0:
192,192,144576,1,0,0:0:0:0:
448,192,144634,1,0,0:0:0:0:
320,192,144634,1,0,0:0:0:0:
192,192,144677,1,0,0:0:0:0:
320,192,144735,1,0,0:0:0:0:
64,192,144735,1,0,0:0:0:0:
448,192,144735,1,0,0:0:0:0:
192,192,144836,1,0,0:0:0:0:
448,192,144937,1,0,0:0:0:0:
64,192,144937,1,0,0:0:0:0:
320,192,145052,1,0,0:0:0:0:
192,192,145153,1,0,0:0:0:0:
64,192,145153,1,0,0:0:0:0:
448,192,145254,1,0,0:0:0:0:
64,192,145370,1,0,0:0:0:0:
320,192,145370,1,0,0:0:0:0:
448,192,145413,1,0,0:0:0:0:
192,192,145413,1,0,0:0:0:0:
64,192,145471,1,0,0:0:0:0:
320,192,145471,1,0,0:0:0:0:
192,192,145514,1,0,0:0:0:0:
64,192,145572,1,0,0:0:0:0:
448,192,145572,1,0,0:0:0:0:
320,192,145572,1,0,0:0:0:0:
192,192,145687,1,0,0:0:0:0:
448,192,145788,1,0,0:0:0:0:
64,192,145788,1,0,0:0:0:0:
192,192,145889,1,0,0:0:0:0:
448,192,145990,1,0,0:0:0:0:
320,192,145990,1,0,0:0:0:0:
64,192,146091,1,0,0:0:0:0:
320,192,146206,1,0,0:0:0:0:
192,192,146206,1,0,0:0:0:0:
448,192,146307,1,0,0:0:0:0:
192,192,146423,1,0,0:0:0:0:
64,192,146423,1,0,0:0:0:0:
320,192,146423,1,0,0:0:0:0:
448,192,146524,1,0,0:0:0:0:
192,192,146625,1,0,0:0:0:0:
64,192,146625,1,0,0:0:0:0:
320,192,146725,1,0,0:0:0:0:
448,192,146841,1,0,0:0:0:0:
64,192,146841,1,0,0:0:0:0:
192,192,146942,1,0,0:0:0:0:
448,192,147043,1,0,0:0:0:0:
320,192,147043,1,0,0:0:0:0:
448,192,147144,1,0,0:0:0:0:
64,192,147144,1,0,0:0:0:0:
192,192,147144,1,0,0:0:0:0:
320,192,147144,1,0,0:0:0:0:
64,192,147360,1,0,0:0:0:0:
192,192,147360,1,0,0:0:0:0:
320,192,147461,1,0,0:0:0:0:
448,192,147461,1,0,0:0:0:0:
64,192,147461,1,0,0:0:0:0:
192,192,147461,1,0,0:0:0:0:
448,192,147677,1,0,0:0:0:0:
320,192,147677,1,0,0:0:0:0:
64,192,147778,1,0,0:0:0:0:
192,192,147778,1,0,0:0:0:0:
448,192,147836,1,0,0:0:0:0:
320,192,147836,1,0,0:0:0:0:
64,192,147879,1,0,0:0:0:0:
192,192,147879,1,0,0:0:0:0:
448,192,147937,1,0,0:0:0:0:
64,192,147995,1,0,0:0:0:0:
192,192,147995,1,0,0:0:0:0:
448,192,148038,1,0,0:0:0:0:
320,192,148038,1,0,0:0:0:0:
64,192,148096,1,0,0:0:0:0:
192,192,148096,1,0,0:0:0:0:
448,192,148153,1,0,0:0:0:0:
320,192,148197,1,0,0:0:0:0:
192,192,148254,1,0,0:0:0:0:
448,192,148298,1,0,0:0:0:0:
64,192,148298,1,0,0:0:0:0:
192,192,148355,1,0,0:0:0:0:
448,192,148413,1,0,0:0:0:0:
320,192,148456,1,0,0:0:0:0:
64,192,148514,1,0,0:0:0:0:
192,192,148514,1,0,0:0:0:0:
320,192,148572,1,0,0:0:0:0:
448,192,148615,1,0,0:0:0:0:
64,192,148673,1,0,0:0:0:0:
320,192,148730,1,0,0:0:0:0:
192,192,148730,1,0,0:0:0:0:
448,192,148774,1,0,0:0:0:0:
320,192,148831,1,0,0:0:0:0:
192,192,148875,1,0,0:0:0:0:
448,192,148932,1,0,0:0:0:0:
64,192,148932,1,0,0:0:0:0:
192,192,148990,1,0,0:0:0:0:
320,192,149033,1,0,0:0:0:0:
448,192,149091,1,0,0:0:0:0:
64,192,149149,1,0,0:0:0:0:
192,192,149149,1,0,0:0:0:0:
320,192,149192,1,0,0:0:0:0:
192,192,149250,1,0,0:0:0:0:
64,192,149307,1,0,0:0:0:0:
448,192,149350,1,0,0:0:0:0:
320,192,149350,1,0,0:0:0:0:
64,192,149408,1,0,0:0:0:0:
448,192,149466,1,0,0:0:0:0:
192,192,149466,1,0,0:0:0:0:
320,192,149509,1,0,0:0:0:0:
64,192,149567,1,0,0:0:0:0:
448,192,149567,1,0,0:0:0:0:
192,192,149610,1,0,0:0:0:0:
448,192,149668,1,0,0:0:0:0:
320,192,149725,1,0,0:0:0:0:
448,192,149769,1,0,0:0:0:0:
64,192,149769,1,0,0:0:0:0:
192,192,149769,1,0,0:0:0:0:
192,192,150504,1,0,0:0:0:0:
64,192,150504,1,0,0:0:0:0:
320,192,150504,1,0,0:0:0:0:
448,192,150504,1,0,0:0:0:0:
320,192,151456,1,0,0:0:0:0:
64,192,151456,1,0,0:0:0:0:
192,192,151456,1,0,0:0:0:0:
192,192,152192,1,0,0:0:0:0:
64,192,152192,1,0,0:0:0:0:
320,192,152192,1,0,0:0:0:0:
448,192,152192,1,0,0:0:0:0:
320,192,152711,1,0,0:0:0:0:
192,192,152711,1,0,0:0:0:0:
448,192,152769,1,0,0:0:0:0:
64,192,152769,1,0,0:0:0:0:
320,192,152826,1,0,0:0:0:0:
64,192,152884,1,0,0:0:0:0:
192,192,152884,1,0,0:0:0:0:
448,192,152927,1,0,0:0:0:0:
320,192,152927,1,0,0:0:0:0:
192,192,152985,1,0,0:0:0:0:
64,192,152985,1,0,0:0:0:0:
448,192,153028,1,0,0:0:0:0:
320,192,153028,1,0,0:0:0:0:
64,192,153086,1,0,0:0:0:0:
192,192,153086,1,0,0:0:0:0:
448,192,153129,1,0,0:0:0:0:
320,192,153129,1,0,0:0:0:0:
64,192,153187,1,0,0:0:0:0:
192,192,153245,1,0,0:0:0:0:
320,192,153302,1,0,0:0:0:0:
192,192,153346,1,0,0:0:0:0:
64,192,153346,1,0,0:0:0:0:
448,192,153346,1,0,0:0:0:0:
320,192,153403,1,0,0:0:0:0:
192,192,153461,1,0,0:0:0:0:
448,192,153504,1,0,0:0:0:0:
320,192,153562,1,0,0:0:0:0:
64,192,153562,1,0,0:0:0:0:
192,192,153605,1,0,0:0:0:0:
320,192,153663,1,0,0:0:0:0:
448,192,153721,1,0,0:0:0:0:
64,192,153764,1,0,0:0:0:0:
320,192,153764,1,0,0:0:0:0:
192,192,153764,1,0,0:0:0:0:
448,192,153822,1,0,0:0:0:0:
64,192,153879,1,0,0:0:0:0:
192,192,153923,1,0,0:0:0:0:
64,192,153980,1,0,0:0:0:0:
448,192,153980,1,0,0:0:0:0:
320,192,153980,1,0,0:0:0:0:
192,192,154038,1,0,0:0:0:0:
320,192,154081,1,0,0:0:0:0:
448,192,154139,1,0,0:0:0:0:
320,192,154182,1,0,0:0:0:0:
64,192,154182,1,0,0:0:0:0:
192,192,154182,1,0,0:0:0:0:
448,192,154240,1,0,0:0:0:0:
192,192,154298,1,0,0:0:0:0:
320,192,154341,1,0,0:0:0:0:
64,192,154399,1,0,0:0:0:0:
448,192,154399,1,0,0:0:0:0:
320,192,154456,1,0,0:0:0:0:
192,192,154500,1,0,0:0:0:0:
64,192,154557,1,0,0:0:0:0:
448,192,154600,1,0,0:0:0:0:
192,192,154600,1,0,0:0:0:0:
320,192,154600,1,0,0:0:0:0:
64,192,154658,1,0,0:0:0:0:
192,192,154716,1,0,0:0:0:0:
320,192,154759,1,0,0:0:0:0:
192,192,154817,1,0,0:0:0:0:
64,192,154817,1,0,0:0:0:0:
448,192,154817,1,0,0:0:0:0:
320,192,154875,1,0,0:0:0:0:
64,192,154918,1,0,0:0:0:0:
192,192,154975,1,0,0:0:0:0:
64,192,155033,1,0,0:0:0:0:
448,192,155033,1,0,0:0:0:0:
320,192,155033,1,0,0:0:0:0:
192,192,155134,1,0,0:0:0:0:
64,192,155134,1,0,0:0:0:0:
448,192,155134,1,0,0:0:0:0:
320,192,155235,1,0,0:0:0:0:
448,192,155235,1,0,0:0:0:0:
192,192,155235,1,0,0:0:0:0:
320,192,155336,1,0,0:0:0:0:
192,192,155336,1,0,0:0:0:0:
64,192,155336,1,0,0:0:0:0:
448,192,155451,1,0,0:0:0:0:
320,192,155451,1,0,0:0:0:0:
64,192,155451,1,0,0:0:0:0:
320,192,155552,1,0,0:0:0:0:
192,192,155552,1,0,0:0:0:0:
64,192,155552,1,0,0:0:0:0:
448,192,155653,1,0,0:0:0:0:
64,192,155653,1,0,0:0:0:0:
192,192,155653,1,0,0:0:0:0:
320,192,155653,1,0,0:0:0:0:
448,192,155812,1,0,0:0:0:0:
320,192,155841,1,0,0:0:0:0:
192,192,155870,1,0,0:0:0:0:
64,192,155870,1,0,0:0:0:0:
64,192,155971,1,0,0:0:0:0:
448,192,155971,1,0,0:0:0:0:
320,192,155971,1,0,0:0:0:0:
192,192,156072,1,0,0:0:0:0:
64,192,156072,1,0,0:0:0:0:
448,192,156129,1,0,0:0:0:0:
320,192,156129,1,0,0:0:0:0:
192,192,156187,1,0,0:0:0:0:
64,192,156187,1,0,0:0:0:0:
448,192,156230,1,0,0:0:0:0:
320,192,156230,1,0,0:0:0:0:
64,192,156288,1,0,0:0:0:0:
192,192,156288,1,0,0:0:0:0:
448,192,156346,1,0,0:0:0:0:
320,192,156346,1,0,0:0:0:0:
64,192,156403,1,0,0:0:0:0:
192,192,156403,1,0,0:0:0:0:
448,192,156447,1,0,0:0:0:0:
320,192,156447,1,0,0:0:0:0:
64,192,156490,1,0,0:0:0:0:
192,192,156490,1,0,0:0:0:0:
192,192,156706,1,0,0:0:0:0:
320,192,157125,1,0,0:0:0:0:
192,192,157341,1,0,0:0:0:0:
64,192,157557,1,0,0:0:0:0:
192,192,157975,1,0,0:0:0:0:
192,192,158177,1,0,0:0:0:0:
448,192,158177,1,0,0:0:0:0:
320,192,158177,1,0,0:0:0:0:
64,192,158177,1,0,0:0:0:0:
448,192,158278,1,0,0:0:0:0:
320,192,158278,1,0,0:0:0:0:
448,192,158394,1,0,0:0:0:0:
320,192,158394,1,0,0:0:0:0:
320,192,158495,1,0,0:0:0:0:
448,192,158495,1,0,0:0:0:0:
192,192,158495,1,0,0:0:0:0:
64,192,158495,1,0,0:0:0:0:
64,192,158596,1,0,0:0:0:0:
192,192,158596,1,0,0:0:0:0:
192,192,158711,1,0,0:0:0:0:
64,192,158711,1,0,0:0:0:0:
320,192,158812,1,0,0:0:0:0:
448,192,158812,1,0,0:0:0:0:
64,192,158812,1,0,0:0:0:0:
192,192,158812,1,0,0:0:0:0:
320,192,158913,1,0,0:0:0:0:
192,192,158913,1,0,0:0:0:0:
448,192,158971,1,0,0:0:0:0:
64,192,158971,1,0,0:0:0:0:
320,192,159014,1,0,0:0:0:0:
192,192,159014,1,0,0:0:0:0:
448,192,159129,1,0,0:0:0:0:
320,192,159129,1,0,0:0:0:0:
64,192,159129,1,0,0:0:0:0:
192,192,159129,1,0,0:0:0:0:
320,192,159432,1,0,0:0:0:0:
192,192,159649,1,0,0:0:0:0:
448,192,159850,1,0,0:0:0:0:
320,192,159850,1,0,0:0:0:0:
64,192,159850,1,0,0:0:0:0:
192,192,159923,1,0,0:0:0:0:
320,192,159966,1,0,0:0:0:0:
448,192,160009,1,0,0:0:0:0:
320,192,160067,1,0,0:0:0:0:
192,192,160067,1,0,0:0:0:0:
64,192,160067,1,0,0:0:0:0:
448,192,160125,1,0,0:0:0:0:
64,192,160168,1,0,0:0:0:0:
192,192,160225,1,0,0:0:0:0:
448,192,160283,1,0,0:0:0:0:
320,192,160283,1,0,0:0:0:0:
192,192,160326,1,0,0:0:0:0:
64,192,160384,1,0,0:0:0:0:
320,192,160427,1,0,0:0:0:0:
64,192,160500,1,0,0:0:0:0:
192,192,160500,1,0,0:0:0:0:
448,192,160500,1,0,0:0:0:0:
320,192,160543,1,0,0:0:0:0:
64,192,160600,1,0,0:0:0:0:
192,192,160644,1,0,0:0:0:0:
320,192,160701,1,0,0:0:0:0:
448,192,160701,1,0,0:0:0:0:
64,192,160745,1,0,0:0:0:0:
448,192,160802,1,0,0:0:0:0:
320,192,160860,1,0,0:0:0:0:
448,192,160918,1,0,0:0:0:0:
64,192,160918,1,0,0:0:0:0:
192,192,160918,1,0,0:0:0:0:
320,192,160961,1,0,0:0:0:0:
192,192,161019,1,0,0:0:0:0:
64,192,161076,1,0,0:0:0:0:
448,192,161120,1,0,0:0:0:0:
320,192,161120,1,0,0:0:0:0:
192,192,161120,1,0,0:0:0:0:
64,192,161177,1,0,0:0:0:0:
192,192,161221,1,0,0:0:0:0:
320,192,161278,1,0,0:0:0:0:
64,192,161336,1,0,0:0:0:0:
192,192,161336,1,0,0:0:0:0:
448,192,161336,1,0,0:0:0:0:
320,192,161379,1,0,0:0:0:0:
192,192,161437,1,0,0:0:0:0:
448,192,161495,1,0,0:0:0:0:
64,192,161538,1,0,0:0:0:0:
320,192,161538,1,0,0:0:0:0:
192,192,161596,1,0,0:0:0:0:
320,192,161653,1,0,0:0:0:0:
448,192,161697,1,0,0:0:0:0:
320,192,161754,1,0,0:0:0:0:
64,192,161754,1,0,0:0:0:0:
192,192,161754,1,0,0:0:0:0:
448,192,161798,1,0,0:0:0:0:
192,192,161855,1,0,0:0:0:0:
64,192,161913,1,0,0:0:0:0:
320,192,161956,1,0,0:0:0:0:
448,192,161956,1,0,0:0:0:0:
64,192,162014,1,0,0:0:0:0:
192,192,162072,1,0,0:0:0:0:
320,192,162115,1,0,0:0:0:0:
64,192,162173,1,0,0:0:0:0:
192,192,162173,1,0,0:0:0:0:
448,192,162173,1,0,0:0:0:0:
320,192,162230,1,0,0:0:0:0:
192,192,162274,1,0,0:0:0:0:
64,192,162331,1,0,0:0:0:0:
448,192,162375,1,0,0:0:0:0:
320,192,162375,1,0,0:0:0:0:
64,192,162432,1,0,0:0:0:0:
192,192,162490,1,0,0:0:0:0:
320,192,162533,1,0,0:0:0:0:
64,192,162591,1,0,0:0:0:0:
192,192,162591,1,0,0:0:0:0:
448,192,162591,1,0,0:0:0:0:
320,192,162649,1,0,0:0:0:0:
64,192,162692,1,0,0:0:0:0:
192,192,162750,1,0,0:0:0:0:
64,192,162807,1,0,0:0:0:0:
448,192,162807,1,0,0:0:0:0:
320,192,162807,1,0,0:0:0:0:
192,192,162850,1,0,0:0:0:0:
448,192,162908,1,0,0:0:0:0:
320,192,162951,1,0,0:0:0:0:
448,192,163009,1,0,0:0:0:0:
64,192,163009,1,0,0:0:0:0:
192,192,163009,1,0,0:0:0:0:
320,192,163067,1,0,0:0:0:0:
64,192,163110,1,0,0:0:0:0:
192,192,163168,1,0,0:0:0:0:
64,192,163225,1,0,0:0:0:0:
448,192,163225,1,0,0:0:0:0:
320,192,163225,1,0,0:0:0:0:
192,192,163269,1,0,0:0:0:0:
320,192,163326,1,0,0:0:0:0:
448,192,163384,1,0,0:0:0:0:
320,192,163427,1,0,0:0:0:0:
64,192,163427,1,0,0:0:0:0:
192,192,163427,1,0,0:0:0:0:
448,192,163485,1,0,0:0:0:0:
320,192,163528,1,0,0:0:0:0:
192,192,163586,1,0,0:0:0:0:
448,192,163644,1,0,0:0:0:0:
64,192,163644,1,0,0:0:0:0:
192,192,163687,1,0,0:0:0:0:
320,192,163745,1,0,0:0:0:0:
448,192,163802,1,0,0:0:0:0:
320,192,163846,1,0,0:0:0:0:
64,192,163846,1,0,0:0:0:0:
192,192,163846,1,0,0:0:0:0:
448,192,163903,1,0,0:0:0:0:
320,192,163961,1,0,0:0:0:0:
192,192,164004,1,0,0:0:0:0:
320,192,164062,1,0,0:0:0:0:
64,192,164062,1,0,0:0:0:0:
448,192,164062,1,0,0:0:0:0:
192,192,164120,1,0,0:0:0:0:
448,192,164163,1,0,0:0:0:0:
320,192,164221,1,0,0:0:0:0:
192,192,164264,1,0,0:0:0:0:
64,192,164264,1,0,0:0:0:0:
448,192,164264,1,0,0:0:0:0:
320,192,164322,1,0,0:0:0:0:
64,192,164379,1,0,0:0:0:0:
192,192,164437,1,0,0:0:0:0:
448,192,164480,1,0,0:0:0:0:
320,192,164480,1,0,0:0:0:0:
64,192,164538,1,0,0:0:0:0:
192,192,164596,1,0,0:0:0:0:
320,192,164639,1,0,0:0:0:0:
192,192,164697,1,0,0:0:0:0:
64,192,164697,1,0,0:0:0:0:
448,192,164697,1,0,0:0:0:0:
320,192,164740,1,0,0:0:0:0:
64,192,164798,1,0,0:0:0:0:
192,192,164841,1,0,0:0:0:0:
64,192,164899,1,0,0:0:0:0:
448,192,164899,1,0,0:0:0:0:
320,192,164899,1,0,0:0:0:0:
448,192,165014,1,0,0:0:0:0:
320,192,165014,1,0,0:0:0:0:
448,192,165115,1,0,0:0:0:0:
320,192,165115,1,0,0:0:0:0:
320,192,165216,1,0,0:0:0:0:
448,192,165216,1,0,0:0:0:0:
192,192,165216,1,0,0:0:0:0:
64,192,165216,1,0,0:0:0:0:
192,192,165317,1,0,0:0:0:0:
320,192,165317,1,0,0:0:0:0:
192,192,165432,1,0,0:0:0:0:
320,192,165432,1,0,0:0:0:0:
320,192,165533,1,0,0:0:0:0:
448,192,165533,1,0,0:0:0:0:
192,192,165533,1,0,0:0:0:0:
64,192,165533,1,0,0:0:0:0:
192,192,165634,1,0,0:0:0:0:
64,192,165634,1,0,0:0:0:0:
192,192,165750,1,0,0:0:0:0:
64,192,165750,1,0,0:0:0:0:
448,192,165850,1,0,0:0:0:0:
320,192,165850,1,0,0:0:0:0:
64,192,165951,1,0,0:0:0:0:
448,192,165951,1,0,0:0:0:0:
320,192,165951,1,0,0:0:0:0:
192,192,165951,1,0,0:0:0:0:
64,192,166052,1,0,0:0:0:0:
320,192,166168,1,0,0:0:0:0:
448,192,166168,1,0,0:0:0:0:
192,192,166168,1,0,0:0:0:0:
192,192,166269,1,0,0:0:0:0:
64,192,166269,1,0,0:0:0:0:
448,192,166326,1,0,0:0:0:0:
320,192,166326,1,0,0:0:0:0:
192,192,166370,1,0,0:0:0:0:
64,192,166370,1,0,0:0:0:0:
448,192,166427,1,0,0:0:0:0:
320,192,166427,1,0,0:0:0:0:
64,192,166471,1,0,0:0:0:0:
192,192,166471,1,0,0:0:0:0:
320,192,166528,1,0,0:0:0:0:
448,192,166528,1,0,0:0:0:0:
64,192,166586,1,0,0:0:0:0:
192,192,166586,1,0,0:0:0:0:
448,192,166629,1,0,0:0:0:0:
320,192,166687,1,0,0:0:0:0:
192,192,166745,1,0,0:0:0:0:
320,192,166788,1,0,0:0:0:0:
448,192,166788,1,0,0:0:0:0:
64,192,166788,1,0,0:0:0:0:
192,192,166846,1,0,0:0:0:0:
320,192,166903,1,0,0:0:0:0:
448,192,166947,1,0,0:0:0:0:
64,192,167004,1,0,0:0:0:0:
192,192,167004,1,0,0:0:0:0:
320,192,167048,1,0,0:0:0:0:
192,192,167105,1,0,0:0:0:0:
64,192,167163,1,0,0:0:0:0:
192,192,167206,1,0,0:0:0:0:
448,192,167206,1,0,0:0:0:0:
320,192,167206,1,0,0:0:0:0:
64,192,167264,1,0,0:0:0:0:
192,192,167322,1,0,0:0:0:0:
320,192,167365,1,0,0:0:0:0:
64,192,167423,1,0,0:0:0:0:
448,192,167423,1,0,0:0:0:0:
192,192,167480,1,0,0:0:0:0:
448,192,167524,1,0,0:0:0:0:
320,192,167581,1,0,0:0:0:0:
448,192,167625,1,0,0:0:0:0:
64,192,167625,1,0,0:0:0:0:
192,192,167625,1,0,0:0:0:0:
320,192,167682,1,0,0:0:0:0:
192,192,167740,1,0,0:0:0:0:
448,192,167783,1,0,0:0:0:0:
320,192,167841,1,0,0:0:0:0:
64,192,167841,1,0,0:0:0:0:
192,192,167899,1,0,0:0:0:0:
320,192,167942,1,0,0:0:0:0:
448,192,168000,1,0,0:0:0:0:
64,192,168057,1,0,0:0:0:0:
192,192,168057,1,0,0:0:0:0:
320,192,168057,1,0,0:0:0:0:
448,192,168100,1,0,0:0:0:0:
192,192,168158,1,0,0:0:0:0:
64,192,168216,1,0,0:0:0:0:
320,192,168259,1,0,0:0:0:0:
448,192,168259,1,0,0:0:0:0:
64,192,168317,1,0,0:0:0:0:
192,192,168360,1,0,0:0:0:0:
320,192,168418,1,0,0:0:0:0:
192,192,168475,1,0,0:0:0:0:
64,192,168475,1,0,0:0:0:0:
448,192,168475,1,0,0:0:0:0:
320,192,168519,1,0,0:0:0:0:
64,192,168576,1,0,0:0:0:0:
192,192,168634,1,0,0:0:0:0:
448,192,168677,1,0,0:0:0:0:
320,192,168677,1,0,0:0:0:0:
64,192,168735,1,0,0:0:0:0:
448,192,168793,1,0,0:0:0:0:
320,192,168836,1,0,0:0:0:0:
448,192,168894,1,0,0:0:0:0:
64,192,168894,1,0,0:0:0:0:
192,192,168894,1,0,0:0:0:0:
320,192,168951,1,0,0:0:0:0:
64,192,168995,1,0,0:0:0:0:
192,192,169052,1,0,0:0:0:0:
320,192,169110,1,0,0:0:0:0:
448,192,169110,1,0,0:0:0:0:
192,192,169153,1,0,0:0:0:0:
448,192,169211,1,0,0:0:0:0:
64,192,169211,1,0,0:0:0:0:
320,192,169254,1,0,0:0:0:0:
448,192,169312,1,0,0:0:0:0:
64,192,169312,1,0,0:0:0:0:
192,192,169312,1,0,0:0:0:0:
320,192,169370,1,0,0:0:0:0:
64,192,169413,1,0,0:0:0:0:
192,192,169471,1,0,0:0:0:0:
448,192,169528,1,0,0:0:0:0:
320,192,169528,1,0,0:0:0:0:
192,192,169572,1,0,0:0:0:0:
64,192,169572,1,0,0:0:0:0:
320,192,169629,1,0,0:0:0:0:
64,192,169687,1,0,0:0:0:0:
192,192,169687,1,0,0:0:0:0:
320,192,169730,1,0,0:0:0:0:
448,192,169730,1,0,0:0:0:0:
64,192,169788,1,0,0:0:0:0:
448,192,169846,1,0,0:0:0:0:
320,192,169846,1,0,0:0:0:0:
64,192,169889,1,0,0:0:0:0:
192,192,169889,1,0,0:0:0:0:
448,192,169947,1,0,0:0:0:0:
320,192,169947,1,0,0:0:0:0:
64,192,169990,1,0,0:0:0:0:
192,192,170048,1,0,0:0:0:0:
320,192,170105,1,0,0:0:0:0:
192,192,170149,1,0,0:0:0:0:
64,192,170149,1,0,0:0:0:0:
448,192,170149,1,0,0:0:0:0:
64,192,170264,1,0,0:0:0:0:
448,192,170264,1,0,0:0:0:0:
320,192,170264,1,0,0:0:0:0:
192,192,170365,1,0,0:0:0:0:
64,192,170365,1,0,0:0:0:0:
448,192,170365,1,0,0:0:0:0:
448,192,170466,1,0,0:0:0:0:
320,192,170466,1,0,0:0:0:0:
192,192,170466,1,0,0:0:0:0:
64,192,170567,1,0,0:0:0:0:
192,192,170567,1,0,0:0:0:0:
320,192,170567,1,0,0:0:0:0:
448,192,170682,1,0,0:0:0:0:
192,192,170682,1,0,0:0:0:0:
64,192,170682,1,0,0:0:0:0:
192,192,170783,1,0,0:0:0:0:
448,192,170783,1,0,0:0:0:0:
320,192,170783,1,0,0:0:0:0:
448,192,170884,1,0,0:0:0:0:
320,192,170884,1,0,0:0:0:0:
64,192,170884,1,0,0:0:0:0:
320,192,171000,1,0,0:0:0:0:
64,192,171000,1,0,0:0:0:0:
192,192,171000,1,0,0:0:0:0:
448,192,171100,1,0,0:0:0:0:
320,192,171100,1,0,0:0:0:0:
192,192,171100,1,0,0:0:0:0:
448,192,171201,1,0,0:0:0:0:
192,192,171201,1,0,0:0:0:0:
64,192,171201,1,0,0:0:0:0:
64,192,171302,1,0,0:0:0:0:
448,192,171302,1,0,0:0:0:0:
320,192,171302,1,0,0:0:0:0:
320,192,171418,1,0,0:0:0:0:
192,192,171418,1,0,0:0:0:0:
64,192,171418,1,0,0:0:0:0:
448,192,171519,1,0,0:0:0:0:
192,192,171519,1,0,0:0:0:0:
64,192,171519,1,0,0:0:0:0:
192,192,171634,1,0,0:0:0:0:
64,192,171634,1,0,0:0:0:0:
320,192,171634,1,0,0:0:0:0:
448,192,171634,1,0,0:0:0:0:
448,192,171735,1,0,0:0:0:0:
320,192,171735,1,0,0:0:0:0:
448,192,171836,1,0,0:0:0:0:
320,192,171836,1,0,0:0:0:0:
448,192,171937,1,0,0:0:0:0:
64,192,171937,1,0,0:0:0:0:
192,192,171937,1,0,0:0:0:0:
320,192,171937,1,0,0:0:0:0:
448,192,171995,1,0,0:0:0:0:
320,192,171995,1,0,0:0:0:0:
192,192,172052,1,0,0:0:0:0:
64,192,172052,1,0,0:0:0:0:
448,192,172096,1,0,0:0:0:0:
320,192,172096,1,0,0:0:0:0:
192,192,172153,1,0,0:0:0:0:
64,192,172153,1,0,0:0:0:0:
320,192,172254,1,0,0:0:0:0:
448,192,172254,1,0,0:0:0:0:
64,192,172254,1,0,0:0:0:0:
192,192,172254,1,0,0:0:0:0:
192,192,172355,1,0,0:0:0:0:
320,192,172355,1,0,0:0:0:0:
320,192,172471,1,0,0:0:0:0:
192,192,172471,1,0,0:0:0:0:
448,192,172572,1,0,0:0:0:0:
64,192,172572,1,0,0:0:0:0:
192,192,172673,1,0,0:0:0:0:
320,192,172673,1,0,0:0:0:0:
64,192,172673,1,0,0:0:0:0:
448,192,172673,1,0,0:0:0:0:
192,192,172788,1,0,0:0:0:0:
64,192,172831,1,0,0:0:0:0:
320,192,172831,1,0,0:0:0:0:
448,192,172889,1,0,0:0:0:0:
192,192,172889,1,0,0:0:0:0:
320,192,172932,1,0,0:0:0:0:
64,192,172990,1,0,0:0:0:0:
192,192,172990,1,0,0:0:0:0:
448,192,173048,1,0,0:0:0:0:
320,192,173048,1,0,0:0:0:0:
64,192,173091,1,0,0:0:0:0:
192,192,173091,1,0,0:0:0:0:
448,192,173149,1,0,0:0:0:0:
320,192,173149,1,0,0:0:0:0:
64,192,173206,1,0,0:0:0:0:
192,192,173206,1,0,0:0:0:0:
448,192,173250,1,0,0:0:0:0:
320,192,173250,1,0,0:0:0:0:
64,192,173307,1,0,0:0:0:0:
192,192,173307,1,0,0:0:0:0:
192,192,173509,1,0,0:0:0:0:
64,192,173509,1,0,0:0:0:0:
192,192,173725,1,0,0:0:0:0:
64,192,173725,1,0,0:0:0:0:
192,192,173927,1,0,0:0:0:0:
64,192,173927,1,0,0:0:0:0:
320,192,174043,1,0,0:0:0:0:
448,192,174043,1,0,0:0:0:0:
192,192,174043,1,0,0:0:0:0:
64,192,174043,1,0,0:0:0:0:
448,192,174360,1,0,0:0:0:0:
320,192,174360,1,0,0:0:0:0:
448,192,174562,1,0,0:0:0:0:
320,192,174562,1,0,0:0:0:0:
448,192,174778,1,0,0:0:0:0:
320,192,174778,1,0,0:0:0:0:
448,192,174980,1,0,0:0:0:0:
64,192,174980,1,0,0:0:0:0:
192,192,174980,1,0,0:0:0:0:
320,192,174980,1,0,0:0:0:0:
320,192,175197,1,0,0:0:0:0:
192,192,175197,1,0,0:0:0:0:
320,192,175399,1,0,0:0:0:0:
192,192,175399,1,0,0:0:0:0:
320,192,175615,1,0,0:0:0:0:
192,192,175615,1,0,0:0:0:0:
320,192,175730,1,0,0:0:0:0:
448,192,175730,1,0,0:0:0:0:
192,192,175730,1,0,0:0:0:0:
64,192,175730,1,0,0:0:0:0:
192,192,176033,1,0,0:0:0:0:
64,192,176033,1,0,0:0:0:0:
192,192,176250,1,0,0:0:0:0:
64,192,176250,1,0,0:0:0:0:
448,192,176350,1,0,0:0:0:0:
320,192,176350,1,0,0:0:0:0:
64,192,176408,1,0,0:0:0:0:
192,192,176408,1,0,0:0:0:0:
448,192,176451,1,0,0:0:0:0:
320,192,176451,1,0,0:0:0:0:
64,192,176509,1,0,0:0:0:0:
192,192,176509,1,0,0:0:0:0:
448,192,176567,1,0,0:0:0:0:
320,192,176567,1,0,0:0:0:0:
64,192,176610,1,0,0:0:0:0:
192,192,176610,1,0,0:0:0:0:
448,192,176668,1,0,0:0:0:0:
320,192,176668,1,0,0:0:0:0:
64,192,176725,1,0,0:0:0:0:
192,192,176769,1,0,0:0:0:0:
320,192,176826,1,0,0:0:0:0:
64,192,176884,1,0,0:0:0:0:
192,192,176884,1,0,0:0:0:0:
448,192,176884,1,0,0:0:0:0:
320,192,176927,1,0,0:0:0:0:
64,192,176985,1,0,0:0:0:0:
192,192,177028,1,0,0:0:0:0:
448,192,177086,1,0,0:0:0:0:
320,192,177086,1,0,0:0:0:0:
192,192,177144,1,0,0:0:0:0:
64,192,177187,1,0,0:0:0:0:
448,192,177245,1,0,0:0:0:0:
64,192,177302,1,0,0:0:0:0:
192,192,177302,1,0,0:0:0:0:
320,192,177302,1,0,0:0:0:0:
448,192,177346,1,0,0:0:0:0:
64,192,177403,1,0,0:0:0:0:
192,192,177461,1,0,0:0:0:0:
320,192,177504,1,0,0:0:0:0:
448,192,177562,1,0,0:0:0:0:
192,192,177605,1,0,0:0:0:0:
64,192,177605,1,0,0:0:0:0:
448,192,177663,1,0,0:0:0:0:
192,192,177721,1,0,0:0:0:0:
320,192,177721,1,0,0:0:0:0:
64,192,177721,1,0,0:0:0:0:
448,192,177764,1,0,0:0:0:0:
320,192,177822,1,0,0:0:0:0:
64,192,177822,1,0,0:0:0:0:
448,192,177879,1,0,0:0:0:0:
192,192,177879,1,0,0:0:0:0:
64,192,177923,1,0,0:0:0:0:
320,192,177923,1,0,0:0:0:0:
192,192,177980,1,0,0:0:0:0:
448,192,178038,1,0,0:0:0:0:
320,192,178038,1,0,0:0:0:0:
64,192,178096,1,0,0:0:0:0:
448,192,178139,1,0,0:0:0:0:
320,192,178139,1,0,0:0:0:0:
192,192,178139,1,0,0:0:0:0:
64,192,178182,1,0,0:0:0:0:
192,192,178240,1,0,0:0:0:0:
448,192,178240,1,0,0:0:0:0:
320,192,178298,1,0,0:0:0:0:
448,192,178341,1,0,0:0:0:0:
64,192,178341,1,0,0:0:0:0:
192,192,178341,1,0,0:0:0:0:
448,192,178557,1,0,0:0:0:0:
320,192,178557,1,0,0:0:0:0:
192,192,178557,1,0,0:0:0:0:
320,192,178673,1,0,0:0:0:0:
448,192,178673,1,0,0:0:0:0:
192,192,178673,1,0,0:0:0:0:
64,192,178673,1,0,0:0:0:0:
64,192,178875,1,0,0:0:0:0:
192,192,178875,1,0,0:0:0:0:
192,192,178975,1,0,0:0:0:0:
64,192,178975,1,0,0:0:0:0:
320,192,178975,1,0,0:0:0:0:
448,192,178975,1,0,0:0:0:0:
320,192,179177,1,0,0:0:0:0:
64,192,179293,1,0,0:0:0:0:
192,192,179293,1,0,0:0:0:0:
320,192,179394,1,0,0:0:0:0:
448,192,179394,1,0,0:0:0:0:
64,192,179394,1,0,0:0:0:0:
192,192,179394,1,0,0:0:0:0:
448,192,179495,1,0,0:0:0:0:
320,192,179495,1,0,0:0:0:0:
192,192,179552,1,0,0:0:0:0:
320,192,179610,1,0,0:0:0:0:
448,192,179610,1,0,0:0:0:0:
64,192,179610,1,0,0:0:0:0:
64,192,179711,1,0,0:0:0:0:
192,192,179711,1,0,0:0:0:0:
448,192,179826,1,0,0:0:0:0:
320,192,179826,1,0,0:0:0:0:
64,192,179870,1,0,0:0:0:0:
192,192,179870,1,0,0:0:0:0:
448,192,179927,1,0,0:0:0:0:
320,192,179927,1,0,0:0:0:0:
64,192,179971,1,0,0:0:0:0:
192,192,179971,1,0,0:0:0:0:
448,192,180028,1,0,0:0:0:0:
320,192,180028,1,0,0:0:0:0:
192,192,180129,1,0,0:0:0:0:
64,192,180129,1,0,0:0:0:0:
448,192,180245,1,0,0:0:0:0:
64,192,180245,1,0,0:0:0:0:
192,192,180245,1,0,0:0:0:0:
448,192,180346,1,0,0:0:0:0:
320,192,180346,1,0,0:0:0:0:
448,192,180447,1,0,0:0:0:0:
320,192,180447,1,0,0:0:0:0:
192,192,180447,1,0,0:0:0:0:
320,192,180663,1,0,0:0:0:0:
448,192,180663,1,0,0:0:0:0:
64,192,180663,1,0,0:0:0:0:
192,192,180663,1,0,0:0:0:0:
192,192,180764,1,0,0:0:0:0:
64,192,180764,1,0,0:0:0:0:
320,192,180865,1,0,0:0:0:0:
448,192,180980,1,0,0:0:0:0:
64,192,180980,1,0,0:0:0:0:
448,192,181081,1,0,0:0:0:0:
64,192,181081,1,0,0:0:0:0:
192,192,181081,1,0,0:0:0:0:
320,192,181081,1,0,0:0:0:0:
64,192,181182,1,0,0:0:0:0:
192,192,181182,1,0,0:0:0:0:
448,192,181240,1,0,0:0:0:0:
320,192,181240,1,0,0:0:0:0:
64,192,181283,1,0,0:0:0:0:
192,192,181283,1,0,0:0:0:0:
448,192,181399,1,0,0:0:0:0:
320,192,181399,1,0,0:0:0:0:
448,192,181500,1,0,0:0:0:0:
64,192,181500,1,0,0:0:0:0:
192,192,181500,1,0,0:0:0:0:
320,192,181500,1,0,0:0:0:0:
64,192,181701,1,0,0:0:0:0:
192,192,181701,1,0,0:0:0:0:
448,192,181701,1,0,0:0:0:0:
192,192,181817,1,0,0:0:0:0:
64,192,181817,1,0,0:0:0:0:
192,192,181918,1,0,0:0:0:0:
64,192,181918,1,0,0:0:0:0:
320,192,181918,1,0,0:0:0:0:
448,192,181918,1,0,0:0:0:0:
448,192,182019,1,0,0:0:0:0:
320,192,182019,1,0,0:0:0:0:
320,192,182134,1,0,0:0:0:0:
64,192,182134,1,0,0:0:0:0:
192,192,182134,1,0,0:0:0:0:
448,192,182336,1,0,0:0:0:0:
64,192,182336,1,0,0:0:0:0:
192,192,182336,1,0,0:0:0:0:
320,192,182336,1,0,0:0:0:0:
448,192,182437,1,0,0:0:0:0:
320,192,182437,1,0,0:0:0:0:
64,192,182495,1,0,0:0:0:0:
192,192,182495,1,0,0:0:0:0:
320,192,182552,1,0,0:0:0:0:
448,192,182552,1,0,0:0:0:0:
448,192,182596,1,0,0:0:0:0:
64,192,182596,1,0,0:0:0:0:
192,192,182596,1,0,0:0:0:0:
192,192,182653,1,0,0:0:0:0:
320,192,182653,1,0,0:0:0:0:
448,192,182754,1,0,0:0:0:0:
64,192,182754,1,0,0:0:0:0:
192,192,182783,1,0,0:0:0:0:
320,192,182812,1,0,0:0:0:0:
448,192,182841,1,0,0:0:0:0:
192,192,182971,1,0,0:0:0:0:
64,192,182971,1,0,0:0:0:0:
448,192,182971,1,0,0:0:0:0:
320,192,182971,1,0,0:0:0:0:
192,192,183389,1,0,0:0:0:0:
448,192,183389,1,0,0:0:0:0:
320,192,183389,1,0,0:0:0:0:
448,192,183490,1,0,0:0:0:0:
320,192,183490,1,0,0:0:0:0:
320,192,183591,1,0,0:0:0:0:
448,192,183591,1,0,0:0:0:0:
192,192,183591,1,0,0:0:0:0:
64,192,183591,1,0,0:0:0:0:
192,192,183706,1,0,0:0:0:0:
64,192,183807,1,0,0:0:0:0:
448,192,183807,1,0,0:0:0:0:
320,192,183807,1,0,0:0:0:0:
192,192,184024,1,0,0:0:0:0:
64,192,184024,1,0,0:0:0:0:
320,192,184024,1,0,0:0:0:0:
448,192,184024,1,0,0:0:0:0:
448,192,184125,1,0,0:0:0:0:
320,192,184125,1,0,0:0:0:0:
192,192,184341,1,0,0:0:0:0:
64,192,184341,1,0,0:0:0:0:
192,192,184442,1,0,0:0:0:0:
64,192,184442,1,0,0:0:0:0:
320,192,184442,1,0,0:0:0:0:
448,192,184442,1,0,0:0:0:0:
448,192,184543,1,0,0:0:0:0:
320,192,184543,1,0,0:0:0:0:
64,192,184600,1,0,0:0:0:0:
192,192,184600,1,0,0:0:0:0:
448,192,184644,1,0,0:0:0:0:
320,192,184644,1,0,0:0:0:0:
64,192,184759,1,0,0:0:0:0:
192,192,184759,1,0,0:0:0:0:
192,192,184860,1,0,0:0:0:0:
64,192,184860,1,0,0:0:0:0:
320,192,184860,1,0,0:0:0:0:
448,192,184860,1,0,0:0:0:0:
192,192,185076,1,0,0:0:0:0:
448,192,185076,1,0,0:0:0:0:
64,192,185076,1,0,0:0:0:0:
64,192,185177,1,0,0:0:0:0:
192,192,185177,1,0,0:0:0:0:
448,192,185177,1,0,0:0:0:0:
64,192,185278,1,0,0:0:0:0:
192,192,185278,1,0,0:0:0:0:
320,192,185278,1,0,0:0:0:0:
448,192,185278,1,0,0:0:0:0:
448,192,185379,1,0,0:0:0:0:
320,192,185379,1,0,0:0:0:0:
64,192,185495,1,0,0:0:0:0:
192,192,185495,1,0,0:0:0:0:
192,192,185697,1,0,0:0:0:0:
64,192,185697,1,0,0:0:0:0:
320,192,185697,1,0,0:0:0:0:
448,192,185697,1,0,0:0:0:0:
448,192,185798,1,0,0:0:0:0:
320,192,185798,1,0,0:0:0:0:
64,192,185855,1,0,0:0:0:0:
192,192,185855,1,0,0:0:0:0:
448,192,185913,1,0,0:0:0:0:
320,192,185913,1,0,0:0:0:0:
320,192,185956,1,0,0:0:0:0:
192,192,185956,1,0,0:0:0:0:
64,192,185956,1,0,0:0:0:0:
64,192,186014,1,0,0:0:0:0:
192,192,186014,1,0,0:0:0:0:
64,192,186115,1,0,0:0:0:0:
448,192,186115,1,0,0:0:0:0:
320,192,186144,1,0,0:0:0:0:
192,192,186173,1,0,0:0:0:0:
64,192,186201,1,0,0:0:0:0:
320,192,186331,1,0,0:0:0:0:
448,192,186331,1,0,0:0:0:0:
64,192,186331,1,0,0:0:0:0:
192,192,186331,1,0,0:0:0:0:
448,192,186432,1,0,0:0:0:0:
448,192,186533,1,0,0:0:0:0:
448,192,186649,1,0,0:0:0:0:
192,192,186750,1,0,0:0:0:0:
320,192,186750,1,0,0:0:0:0:
64,192,186750,1,0,0:0:0:0:
448,192,186807,1,0,0:0:0:0:
320,192,186850,1,0,0:0:0:0:
192,192,186908,1,0,0:0:0:0:
64,192,186966,1,0,0:0:0:0:
448,192,186966,1,0,0:0:0:0:
320,192,186966,1,0,0:0:0:0:
192,192,187009,1,0,0:0:0:0:
448,192,187067,1,0,0:0:0:0:
320,192,187110,1,0,0:0:0:0:
64,192,187168,1,0,0:0:0:0:
192,192,187168,1,0,0:0:0:0:
448,192,187225,1,0,0:0:0:0:
64,192,187269,1,0,0:0:0:0:
192,192,187269,1,0,0:0:0:0:
448,192,187326,1,0,0:0:0:0:
192,192,187384,1,0,0:0:0:0:
320,192,187384,1,0,0:0:0:0:
64,192,187384,1,0,0:0:0:0:
448,192,187427,1,0,0:0:0:0:
64,192,187485,1,0,0:0:0:0:
192,192,187543,1,0,0:0:0:0:
448,192,187586,1,0,0:0:0:0:
320,192,187586,1,0,0:0:0:0:
64,192,187644,1,0,0:0:0:0:
448,192,187701,1,0,0:0:0:0:
320,192,187745,1,0,0:0:0:0:
448,192,187802,1,0,0:0:0:0:
192,192,187802,1,0,0:0:0:0:
64,192,187802,1,0,0:0:0:0:
320,192,187860,1,0,0:0:0:0:
192,192,187903,1,0,0:0:0:0:
64,192,187903,1,0,0:0:0:0:
448,192,187961,1,0,0:0:0:0:
64,192,188004,1,0,0:0:0:0:
192,192,188062,1,0,0:0:0:0:
448,192,188120,1,0,0:0:0:0:
320,192,188120,1,0,0:0:0:0:
192,192,188163,1,0,0:0:0:0:
64,192,188221,1,0,0:0:0:0:
448,192,188278,1,0,0:0:0:0:
64,192,188322,1,0,0:0:0:0:
192,192,188322,1,0,0:0:0:0:
320,192,188322,1,0,0:0:0:0:
448,192,188379,1,0,0:0:0:0:
320,192,188437,1,0,0:0:0:0:
64,192,188437,1,0,0:0:0:0:
192,192,188480,1,0,0:0:0:0:
320,192,188538,1,0,0:0:0:0:
448,192,188596,1,0,0:0:0:0:
64,192,188639,1,0,0:0:0:0:
192,192,188639,1,0,0:0:0:0:
320,192,188639,1,0,0:0:0:0:
448,192,188697,1,0,0:0:0:0:
64,192,188740,1,0,0:0:0:0:
192,192,188798,1,0,0:0:0:0:
320,192,188855,1,0,0:0:0:0:
448,192,188899,1,0,0:0:0:0:
64,192,188956,1,0,0:0:0:0:
192,192,188956,1,0,0:0:0:0:
448,192,189014,1,0,0:0:0:0:
64,192,189057,1,0,0:0:0:0:
192,192,189057,1,0,0:0:0:0:
320,192,189057,1,0,0:0:0:0:
448,192,189115,1,0,0:0:0:0:
192,192,189173,1,0,0:0:0:0:
320,192,189216,1,0,0:0:0:0:
64,192,189274,1,0,0:0:0:0:
448,192,189274,1,0,0:0:0:0:
320,192,189317,1,0,0:0:0:0:
192,192,189375,1,0,0:0:0:0:
64,192,189432,1,0,0:0:0:0:
448,192,189475,1,0,0:0:0:0:
192,192,189475,1,0,0:0:0:0:
320,192,189475,1,0,0:0:0:0:
64,192,189533,1,0,0:0:0:0:
320,192,189591,1,0,0:0:0:0:
448,192,189591,1,0,0:0:0:0:
64,192,189634,1,0,0:0:0:0:
192,192,189692,1,0,0:0:0:0:
320,192,189750,1,0,0:0:0:0:
64,192,189807,1,0,0:0:0:0:
192,192,189807,1,0,0:0:0:0:
448,192,189850,1,0,0:0:0:0:
64,192,189908,1,0,0:0:0:0:
192,192,189908,1,0,0:0:0:0:
320,192,189908,1,0,0:0:0:0:
448,192,189951,1,0,0:0:0:0:
320,192,190009,1,0,0:0:0:0:
192,192,190052,1,0,0:0:0:0:
320,192,190110,1,0,0:0:0:0:
448,192,190110,1,0,0:0:0:0:
64,192,190110,1,0,0:0:0:0:
192,192,190168,1,0,0:0:0:0:
448,192,190211,1,0,0:0:0:0:
320,192,190269,1,0,0:0:0:0:
448,192,190326,1,0,0:0:0:0:
64,192,190326,1,0,0:0:0:0:
192,192,190326,1,0,0:0:0:0:
320,192,190384,1,0,0:0:0:0:
64,192,190427,1,0,0:0:0:0:
192,192,190485,1,0,0:0:0:0:
320,192,190528,1,0,0:0:0:0:
448,192,190586,1,0,0:0:0:0:
64,192,190629,1,0,0:0:0:0:
192,192,190629,1,0,0:0:0:0:
448,192,190687,1,0,0:0:0:0:
64,192,190745,1,0,0:0:0:0:
192,192,190745,1,0,0:0:0:0:
320,192,190745,1,0,0:0:0:0:
448,192,190802,1,0,0:0:0:0:
192,192,190846,1,0,0:0:0:0:
320,192,190903,1,0,0:0:0:0:
64,192,190961,1,0,0:0:0:0:
448,192,190961,1,0,0:0:0:0:
192,192,191004,1,0,0:0:0:0:
320,192,191062,1,0,0:0:0:0:
448,192,191105,1,0,0:0:0:0:
64,192,191163,1,0,0:0:0:0:
192,192,191163,1,0,0:0:0:0:
320,192,191163,1,0,0:0:0:0:
448,192,191221,1,0,0:0:0:0:
64,192,191264,1,0,0:0:0:0:
192,192,191264,1,0,0:0:0:0:
448,192,191322,1,0,0:0:0:0:
320,192,191379,1,0,0:0:0:0:
192,192,191423,1,0,0:0:0:0:
448,192,191480,1,0,0:0:0:0:
320,192,191480,1,0,0:0:0:0:
64,192,191538,1,0,0:0:0:0:
192,192,191581,1,0,0:0:0:0:
320,192,191639,1,0,0:0:0:0:
192,192,191682,1,0,0:0:0:0:
64,192,191682,1,0,0:0:0:0:
448,192,191682,1,0,0:0:0:0:
320,192,191740,1,0,0:0:0:0:
64,192,191798,1,0,0:0:0:0:
192,192,191798,1,0,0:0:0:0:
448,192,191841,1,0,0:0:0:0:
320,192,191899,1,0,0:0:0:0:
192,192,191956,1,0,0:0:0:0:
320,192,192000,1,0,0:0:0:0:
448,192,192000,1,0,0:0:0:0:
64,192,192000,1,0,0:0:0:0:
192,192,192057,1,0,0:0:0:0:
448,192,192100,1,0,0:0:0:0:
320,192,192158,1,0,0:0:0:0:
192,192,192216,1,0,0:0:0:0:
448,192,192259,1,0,0:0:0:0:
192,192,192317,1,0,0:0:0:0:
64,192,192317,1,0,0:0:0:0:
448,192,192375,1,0,0:0:0:0:
64,192,192418,1,0,0:0:0:0:
192,192,192418,1,0,0:0:0:0:
320,192,192418,1,0,0:0:0:0:
448,192,192475,1,0,0:0:0:0:
64,192,192533,1,0,0:0:0:0:
192,192,192576,1,0,0:0:0:0:
320,192,192634,1,0,0:0:0:0:
448,192,192677,1,0,0:0:0:0:
320,192,192735,1,0,0:0:0:0:
192,192,192793,1,0,0:0:0:0:
320,192,192836,1,0,0:0:0:0:
448,192,192836,1,0,0:0:0:0:
64,192,192836,1,0,0:0:0:0:
192,192,192894,1,0,0:0:0:0:
448,192,192951,1,0,0:0:0:0:
320,192,192951,1,0,0:0:0:0:
64,192,192995,1,0,0:0:0:0:
192,192,193052,1,0,0:0:0:0:
320,192,193110,1,0,0:0:0:0:
64,192,193153,1,0,0:0:0:0:
192,192,193153,1,0,0:0:0:0:
448,192,193211,1,0,0:0:0:0:
64,192,193254,1,0,0:0:0:0:
192,192,193254,1,0,0:0:0:0:
448,192,193312,1,0,0:0:0:0:
320,192,193312,1,0,0:0:0:0:
192,192,193370,1,0,0:0:0:0:
64,192,193370,1,0,0:0:0:0:
448,192,193413,1,0,0:0:0:0:
320,192,193413,1,0,0:0:0:0:
192,192,193471,1,0,0:0:0:0:
64,192,193471,1,0,0:0:0:0:
320,192,193528,1,0,0:0:0:0:
448,192,193572,1,0,0:0:0:0:
320,192,193629,1,0,0:0:0:0:
448,192,193687,1,0,0:0:0:0:
64,192,193687,1,0,0:0:0:0:
192,192,193687,1,0,0:0:0:0:
320,192,193730,1,0,0:0:0:0:
64,192,193788,1,0,0:0:0:0:
192,192,193846,1,0,0:0:0:0:
320,192,193903,1,0,0:0:0:0:
448,192,193947,1,0,0:0:0:0:
320,192,193990,1,0,0:0:0:0:
64,192,193990,1,0,0:0:0:0:
192,192,194048,1,0,0:0:0:0:
64,192,194105,1,0,0:0:0:0:
448,192,194105,1,0,0:0:0:0:
320,192,194105,1,0,0:0:0:0:
192,192,194149,1,0,0:0:0:0:
320,192,194206,1,0,0:0:0:0:
448,192,194264,1,0,0:0:0:0:
64,192,194307,1,0,0:0:0:0:
192,192,194307,1,0,0:0:0:0:
448,192,194365,1,0,0:0:0:0:
320,192,194423,1,0,0:0:0:0:
192,192,194480,1,0,0:0:0:0:
320,192,194524,1,0,0:0:0:0:
448,192,194524,1,0,0:0:0:0:
64,192,194524,1,0,0:0:0:0:
192,192,194581,1,0,0:0:0:0:
320,192,194625,1,0,0:0:0:0:
448,192,194625,1,0,0:0:0:0:
64,192,194682,1,0,0:0:0:0:
192,192,194740,1,0,0:0:0:0:
448,192,194783,1,0,0:0:0:0:
64,192,194841,1,0,0:0:0:0:
320,192,194841,1,0,0:0:0:0:
192,192,194899,1,0,0:0:0:0:
320,192,194942,1,0,0:0:0:0:
448,192,195000,1,0,0:0:0:0:
320,192,195057,1,0,0:0:0:0:
64,192,195057,1,0,0:0:0:0:
192,192,195057,1,0,0:0:0:0:
448,192,195100,1,0,0:0:0:0:
192,192,195158,1,0,0:0:0:0:
64,192,195158,1,0,0:0:0:0:
320,192,195201,1,0,0:0:0:0:
192,192,195259,1,0,0:0:0:0:
64,192,195317,1,0,0:0:0:0:
192,192,195360,1,0,0:0:0:0:
448,192,195360,1,0,0:0:0:0:
320,192,195360,1,0,0:0:0:0:
64,192,195418,1,0,0:0:0:0:
448,192,195475,1,0,0:0:0:0:
320,192,195519,1,0,0:0:0:0:
192,192,195576,1,0,0:0:0:0:
64,192,195634,1,0,0:0:0:0:
448,192,195677,1,0,0:0:0:0:
320,192,195677,1,0,0:0:0:0:
64,192,195735,1,0,0:0:0:0:
448,192,195778,1,0,0:0:0:0:
320,192,195778,1,0,0:0:0:0:
192,192,195778,1,0,0:0:0:0:
64,192,195836,1,0,0:0:0:0:
320,192,195894,1,0,0:0:0:0:
192,192,195937,1,0,0:0:0:0:
448,192,195995,1,0,0:0:0:0:
64,192,195995,1,0,0:0:0:0:
320,192,196052,1,0,0:0:0:0:
192,192,196096,1,0,0:0:0:0:
64,192,196153,1,0,0:0:0:0:
448,192,196211,1,0,0:0:0:0:
320,192,196211,1,0,0:0:0:0:
192,192,196211,1,0,0:0:0:0:
64,192,196254,1,0,0:0:0:0:
192,192,196312,1,0,0:0:0:0:
320,192,196355,1,0,0:0:0:0:
448,192,196413,1,0,0:0:0:0:
320,192,196471,1,0,0:0:0:0:
64,192,196514,1,0,0:0:0:0:
192,192,196514,1,0,0:0:0:0:
448,192,196572,1,0,0:0:0:0:
64,192,196629,1,0,0:0:0:0:
192,192,196629,1,0,0:0:0:0:
448,192,196673,1,0,0:0:0:0:
320,192,196673,1,0,0:0:0:0:
64,192,196730,1,0,0:0:0:0:
192,192,196730,1,0,0:0:0:0:
448,192,196788,1,0,0:0:0:0:
64,192,196846,1,0,0:0:0:0:
192,192,196846,1,0,0:0:0:0:
320,192,196846,1,0,0:0:0:0:
448,192,196889,1,0,0:0:0:0:
192,192,196932,1,0,0:0:0:0:
320,192,196990,1,0,0:0:0:0:
192,192,197048,1,0,0:0:0:0:
64,192,197048,1,0,0:0:0:0:
448,192,197048,1,0,0:0:0:0:
320,192,197091,1,0,0:0:0:0:
64,192,197149,1,0,0:0:0:0:
192,192,197206,1,0,0:0:0:0:
320,192,197250,1,0,0:0:0:0:
448,192,197307,1,0,0:0:0:0:
64,192,197350,1,0,0:0:0:0:
192,192,197350,1,0,0:0:0:0:
320,192,197423,1,0,0:0:0:0:
448,192,197466,1,0,0:0:0:0:
64,192,197466,1,0,0:0:0:0:
192,192,197466,1,0,0:0:0:0:
320,192,197509,1,0,0:0:0:0:
64,192,197567,1,0,0:0:0:0:
192,192,197625,1,0,0:0:0:0:
64,192,197668,1,0,0:0:0:0:
448,192,197668,1,0,0:0:0:0:
320,192,197668,1,0,0:0:0:0:
192,192,197725,1,0,0:0:0:0:
448,192,197783,1,0,0:0:0:0:
320,192,197826,1,0,0:0:0:0:
448,192,197884,1,0,0:0:0:0:
64,192,197884,1,0,0:0:0:0:
192,192,197884,1,0,0:0:0:0:
320,192,197927,1,0,0:0:0:0:
64,192,198000,1,0,0:0:0:0:
192,192,198000,1,0,0:0:0:0:
448,192,198043,1,0,0:0:0:0:
64,192,198100,1,0,0:0:0:0:
192,192,198144,1,0,0:0:0:0:
448,192,198201,1,0,0:0:0:0:
320,192,198201,1,0,0:0:0:0:
64,192,198245,1,0,0:0:0:0:
448,192,198302,1,0,0:0:0:0:
320,192,198360,1,0,0:0:0:0:
448,192,198418,1,0,0:0:0:0:
64,192,198418,1,0,0:0:0:0:
192,192,198418,1,0,0:0:0:0:
320,192,198461,1,0,0:0:0:0:
448,192,198519,1,0,0:0:0:0:
192,192,198519,1,0,0:0:0:0:
64,192,198519,1,0,0:0:0:0:
320,192,198576,1,0,0:0:0:0:
64,192,198620,1,0,0:0:0:0:
192,192,198677,1,0,0:0:0:0:
64,192,198721,1,0,0:0:0:0:
448,192,198721,1,0,0:0:0:0:
320,192,198721,1,0,0:0:0:0:
192,192,198778,1,0,0:0:0:0:
448,192,198836,1,0,0:0:0:0:
320,192,198879,1,0,0:0:0:0:
64,192,198937,1,0,0:0:0:0:
192,192,198995,1,0,0:0:0:0:
320,192,199038,1,0,0:0:0:0:
448,192,199038,1,0,0:0:0:0:
192,192,199096,1,0,0:0:0:0:
320,192,199153,1,0,0:0:0:0:
64,192,199153,1,0,0:0:0:0:
448,192,199153,1,0,0:0:0:0:
192,192,199197,1,0,0:0:0:0:
320,192,199254,1,0,0:0:0:0:
448,192,199298,1,0,0:0:0:0:
64,192,199355,1,0,0:0:0:0:
192,192,199355,1,0,0:0:0:0:
448,192,199413,1,0,0:0:0:0:
320,192,199456,1,0,0:0:0:0:
192,192,199514,1,0,0:0:0:0:
448,192,199572,1,0,0:0:0:0:
320,192,199572,1,0,0:0:0:0:
64,192,199572,1,0,0:0:0:0:
192,192,199615,1,0,0:0:0:0:
320,192,199673,1,0,0:0:0:0:
448,192,199673,1,0,0:0:0:0:
64,192,199730,1,0,0:0:0:0:
192,192,199774,1,0,0:0:0:0:
320,192,199831,1,0,0:0:0:0:
64,192,199875,1,0,0:0:0:0:
448,192,199875,1,0,0:0:0:0:
320,192,199932,1,0,0:0:0:0:
64,192,199990,1,0,0:0:0:0:
192,192,199990,1,0,0:0:0:0:
448,192,200033,1,0,0:0:0:0:
320,192,200033,1,0,0:0:0:0:
192,192,200091,1,0,0:0:0:0:
64,192,200091,1,0,0:0:0:0:
448,192,200149,1,0,0:0:0:0:
320,192,200149,1,0,0:0:0:0:
192,192,200192,1,0,0:0:0:0:
64,192,200192,1,0,0:0:0:0:
448,192,200509,1,0,0:0:0:0:
320,192,200509,1,0,0:0:0:0:
64,192,200567,1,0,0:0:0:0:
192,192,200567,1,0,0:0:0:0:
64,192,200610,1,0,0:0:0:0:
192,192,200610,1,0,0:0:0:0:
320,192,200610,1,0,0:0:0:0:
448,192,200610,1,0,0:0:0:0:
64,192,200826,1,0,0:0:0:0:
448,192,201028,1,0,0:0:0:0:
320,192,201028,1,0,0:0:0:0:
448,192,201187,1,0,0:0:0:0:
320,192,201187,1,0,0:0:0:0:
448,192,201346,1,0,0:0:0:0:
320,192,201346,1,0,0:0:0:0:
64,192,201403,1,0,0:0:0:0:
192,192,201403,1,0,0:0:0:0:
320,192,201461,1,0,0:0:0:0:
448,192,201461,1,0,0:0:0:0:
192,192,201663,1,0,0:0:0:0:
64,192,201879,1,0,0:0:0:0:
192,192,201879,1,0,0:0:0:0:
320,192,201879,1,0,0:0:0:0:
448,192,201879,1,0,0:0:0:0:
192,192,201980,1,0,0:0:0:0:
64,192,201980,1,0,0:0:0:0:
64,192,202096,1,0,0:0:0:0:
192,192,202096,1,0,0:0:0:0:
320,192,202197,1,0,0:0:0:0:
448,192,202197,1,0,0:0:0:0:
192,192,202197,1,0,0:0:0:0:
64,192,202197,1,0,0:0:0:0:
320,192,202298,1,0,0:0:0:0:
192,192,202298,1,0,0:0:0:0:
320,192,202399,1,0,0:0:0:0:
192,192,202399,1,0,0:0:0:0:
192,192,202514,1,0,0:0:0:0:
64,192,202514,1,0,0:0:0:0:
320,192,202514,1,0,0:0:0:0:
448,192,202514,1,0,0:0:0:0:
448,192,202615,1,0,0:0:0:0:
320,192,202615,1,0,0:0:0:0:
192,192,202716,1,0,0:0:0:0:
64,192,202716,1,0,0:0:0:0:
320,192,202716,1,0,0:0:0:0:
448,192,202716,1,0,0:0:0:0:
192,192,202817,1,0,0:0:0:0:
64,192,202817,1,0,0:0:0:0:
320,192,202932,1,0,0:0:0:0:
448,192,202932,1,0,0:0:0:0:
64,192,202932,1,0,0:0:0:0:
192,192,202932,1,0,0:0:0:0:
320,192,203033,1,0,0:0:0:0:
192,192,203033,1,0,0:0:0:0:
192,192,203134,1,0,0:0:0:0:
64,192,203134,1,0,0:0:0:0:
448,192,203192,1,0,0:0:0:0:
320,192,203192,1,0,0:0:0:0:
64,192,203250,1,0,0:0:0:0:
192,192,203250,1,0,0:0:0:0:
320,192,203293,1,0,0:0:0:0:
64,192,203350,1,0,0:0:0:0:
448,192,203350,1,0,0:0:0:0:
192,192,203394,1,0,0:0:0:0:
448,192,203451,1,0,0:0:0:0:
320,192,203451,1,0,0:0:0:0:
64,192,203509,1,0,0:0:0:0:
192,192,203552,1,0,0:0:0:0:
448,192,203552,1,0,0:0:0:0:
320,192,203552,1,0,0:0:0:0:
448,192,203769,1,0,0:0:0:0:
320,192,203769,1,0,0:0:0:0:
448,192,203971,1,0,0:0:0:0:
320,192,203971,1,0,0:0:0:0:
448,192,204187,1,0,0:0:0:0:
320,192,204187,1,0,0:0:0:0:
64,192,204245,1,0,0:0:0:0:
192,192,204245,1,0,0:0:0:0:
320,192,204288,1,0,0:0:0:0:
448,192,204288,1,0,0:0:0:0:
64,192,204346,1,0,0:0:0:0:
448,192,204403,1,0,0:0:0:0:
320,192,204403,1,0,0:0:0:0:
192,192,204403,1,0,0:0:0:0:
64,192,204605,1,0,0:0:0:0:
192,192,204605,1,0,0:0:0:0:
192,192,204822,1,0,0:0:0:0:
64,192,204822,1,0,0:0:0:0:
64,192,205024,1,0,0:0:0:0:
192,192,205024,1,0,0:0:0:0:
448,192,205240,1,0,0:0:0:0:
64,192,205240,1,0,0:0:0:0:
192,192,205240,1,0,0:0:0:0:
320,192,205240,1,0,0:0:0:0:
320,192,205442,1,0,0:0:0:0:
192,192,205442,1,0,0:0:0:0:
320,192,205658,1,0,0:0:0:0:
192,192,205658,1,0,0:0:0:0:
320,192,205860,1,0,0:0:0:0:
192,192,205860,1,0,0:0:0:0:
320,192,205975,1,0,0:0:0:0:
448,192,205975,1,0,0:0:0:0:
192,192,205975,1,0,0:0:0:0:
64,192,205975,1,0,0:0:0:0:
448,192,206177,1,0,0:0:0:0:
320,192,206177,1,0,0:0:0:0:
320,192,206293,1,0,0:0:0:0:
448,192,206293,1,0,0:0:0:0:
192,192,206293,1,0,0:0:0:0:
64,192,206293,1,0,0:0:0:0:
64,192,206394,1,0,0:0:0:0:
192,192,206394,1,0,0:0:0:0:
192,192,206495,1,0,0:0:0:0:
64,192,206495,1,0,0:0:0:0:
320,192,206610,1,0,0:0:0:0:
448,192,206610,1,0,0:0:0:0:
64,192,206653,1,0,0:0:0:0:
192,192,206653,1,0,0:0:0:0:
448,192,206711,1,0,0:0:0:0:
320,192,206711,1,0,0:0:0:0:
64,192,206754,1,0,0:0:0:0:
448,192,206812,1,0,0:0:0:0:
192,192,206812,1,0,0:0:0:0:
64,192,206870,1,0,0:0:0:0:
320,192,206870,1,0,0:0:0:0:
448,192,206913,1,0,0:0:0:0:
192,192,206913,1,0,0:0:0:0:
320,192,206971,1,0,0:0:0:0:
192,192,207028,1,0,0:0:0:0:
64,192,207072,1,0,0:0:0:0:
448,192,207129,1,0,0:0:0:0:
320,192,207129,1,0,0:0:0:0:
64,192,207187,1,0,0:0:0:0:
192,192,207230,1,0,0:0:0:0:
320,192,207288,1,0,0:0:0:0:
64,192,207346,1,0,0:0:0:0:
192,192,207346,1,0,0:0:0:0:
448,192,207389,1,0,0:0:0:0:
320,192,207447,1,0,0:0:0:0:
192,192,207490,1,0,0:0:0:0:
448,192,207548,1,0,0:0:0:0:
64,192,207548,1,0,0:0:0:0:
192,192,207605,1,0,0:0:0:0:
320,192,207649,1,0,0:0:0:0:
448,192,207706,1,0,0:0:0:0:
64,192,207764,1,0,0:0:0:0:
192,192,207764,1,0,0:0:0:0:
320,192,207807,1,0,0:0:0:0:
192,192,207865,1,0,0:0:0:0:
64,192,207923,1,0,0:0:0:0:
448,192,207966,1,0,0:0:0:0:
320,192,207966,1,0,0:0:0:0:
64,192,208024,1,0,0:0:0:0:
192,192,208067,1,0,0:0:0:0:
320,192,208125,1,0,0:0:0:0:
64,192,208182,1,0,0:0:0:0:
448,192,208182,1,0,0:0:0:0:
192,192,208225,1,0,0:0:0:0:
448,192,208283,1,0,0:0:0:0:
320,192,208341,1,0,0:0:0:0:
64,192,208384,1,0,0:0:0:0:
192,192,208384,1,0,0:0:0:0:
448,192,208442,1,0,0:0:0:0:
320,192,208500,1,0,0:0:0:0:
64,192,208500,1,0,0:0:0:0:
192,192,208557,1,0,0:0:0:0:
64,192,208600,1,0,0:0:0:0:
448,192,208600,1,0,0:0:0:0:
320,192,208600,1,0,0:0:0:0:
64,192,209336,1,0,0:0:0:0:
192,192,209336,1,0,0:0:0:0:
320,192,209336,1,0,0:0:0:0:
448,192,209336,1,0,0:0:0:0:
320,192,210288,1,0,0:0:0:0:
448,192,210288,1,0,0:0:0:0:
192,192,210288,1,0,0:0:0:0:
64,192,210288,1,0,0:0:0:0:
192,192,211009,1,0,0:0:0:0:
64,192,211009,1,0,0:0:0:0:
320,192,211009,1,0,0:0:0:0:
448,192,211009,1,0,0:0:0:0:
64,192,211543,1,0,0:0:0:0:
192,192,211543,1,0,0:0:0:0:
448,192,211586,1,0,0:0:0:0:
320,192,211586,1,0,0:0:0:0:
64,192,211644,1,0,0:0:0:0:
192,192,211644,1,0,0:0:0:0:
448,192,211701,1,0,0:0:0:0:
64,192,211745,1,0,0:0:0:0:
448,192,211802,1,0,0:0:0:0:
320,192,211802,1,0,0:0:0:0:
64,192,211860,1,0,0:0:0:0:
192,192,211860,1,0,0:0:0:0:
448,192,211903,1,0,0:0:0:0:
320,192,211903,1,0,0:0:0:0:
64,192,211961,1,0,0:0:0:0:
192,192,211961,1,0,0:0:0:0:
320,192,212004,1,0,0:0:0:0:
448,192,212062,1,0,0:0:0:0:
320,192,212120,1,0,0:0:0:0:
448,192,212163,1,0,0:0:0:0:
64,192,212163,1,0,0:0:0:0:
192,192,212163,1,0,0:0:0:0:
320,192,212221,1,0,0:0:0:0:
64,192,212278,1,0,0:0:0:0:
192,192,212322,1,0,0:0:0:0:
448,192,212379,1,0,0:0:0:0:
320,192,212379,1,0,0:0:0:0:
64,192,212437,1,0,0:0:0:0:
448,192,212480,1,0,0:0:0:0:
320,192,212538,1,0,0:0:0:0:
448,192,212596,1,0,0:0:0:0:
64,192,212596,1,0,0:0:0:0:
192,192,212596,1,0,0:0:0:0:
320,192,212653,1,0,0:0:0:0:
192,192,212697,1,0,0:0:0:0:
64,192,212740,1,0,0:0:0:0:
192,192,212798,1,0,0:0:0:0:
448,192,212798,1,0,0:0:0:0:
320,192,212798,1,0,0:0:0:0:
64,192,212855,1,0,0:0:0:0:
192,192,212899,1,0,0:0:0:0:
320,192,212956,1,0,0:0:0:0:
192,192,213014,1,0,0:0:0:0:
64,192,213014,1,0,0:0:0:0:
448,192,213014,1,0,0:0:0:0:
320,192,213057,1,0,0:0:0:0:
64,192,213115,1,0,0:0:0:0:
192,192,213173,1,0,0:0:0:0:
448,192,213230,1,0,0:0:0:0:
64,192,213230,1,0,0:0:0:0:
320,192,213230,1,0,0:0:0:0:
192,192,213274,1,0,0:0:0:0:
320,192,213331,1,0,0:0:0:0:
448,192,213375,1,0,0:0:0:0:
320,192,213432,1,0,0:0:0:0:
64,192,213432,1,0,0:0:0:0:
192,192,213432,1,0,0:0:0:0:
448,192,213490,1,0,0:0:0:0:
320,192,213533,1,0,0:0:0:0:
192,192,213591,1,0,0:0:0:0:
448,192,213649,1,0,0:0:0:0:
64,192,213649,1,0,0:0:0:0:
192,192,213692,1,0,0:0:0:0:
320,192,213750,1,0,0:0:0:0:
448,192,213807,1,0,0:0:0:0:
64,192,213850,1,0,0:0:0:0:
192,192,213850,1,0,0:0:0:0:
320,192,213850,1,0,0:0:0:0:
448,192,213951,1,0,0:0:0:0:
64,192,213951,1,0,0:0:0:0:
192,192,213951,1,0,0:0:0:0:
192,192,214067,1,0,0:0:0:0:
448,192,214067,1,0,0:0:0:0:
320,192,214067,1,0,0:0:0:0:
448,192,214168,1,0,0:0:0:0:
192,192,214168,1,0,0:0:0:0:
64,192,214168,1,0,0:0:0:0:
320,192,214269,1,0,0:0:0:0:
192,192,214269,1,0,0:0:0:0:
64,192,214269,1,0,0:0:0:0:
448,192,214384,1,0,0:0:0:0:
192,192,214384,1,0,0:0:0:0:
64,192,214384,1,0,0:0:0:0:
448,192,214485,1,0,0:0:0:0:
64,192,214485,1,0,0:0:0:0:
192,192,214485,1,0,0:0:0:0:
320,192,214485,1,0,0:0:0:0:
448,192,214586,1,0,0:0:0:0:
320,192,214586,1,0,0:0:0:0:
64,192,214644,1,0,0:0:0:0:
192,192,214644,1,0,0:0:0:0:
448,192,214687,1,0,0:0:0:0:
320,192,214687,1,0,0:0:0:0:
448,192,214802,1,0,0:0:0:0:
64,192,214802,1,0,0:0:0:0:
192,192,214802,1,0,0:0:0:0:
320,192,214802,1,0,0:0:0:0:
192,192,214903,1,0,0:0:0:0:
64,192,214903,1,0,0:0:0:0:
448,192,214961,1,0,0:0:0:0:
320,192,214961,1,0,0:0:0:0:
64,192,215004,1,0,0:0:0:0:
192,192,215004,1,0,0:0:0:0:
448,192,215062,1,0,0:0:0:0:
320,192,215062,1,0,0:0:0:0:
64,192,215105,1,0,0:0:0:0:
192,192,215105,1,0,0:0:0:0:
448,192,215163,1,0,0:0:0:0:
64,192,215221,1,0,0:0:0:0:
192,192,215221,1,0,0:0:0:0:
448,192,215264,1,0,0:0:0:0:
320,192,215264,1,0,0:0:0:0:
192,192,215322,1,0,0:0:0:0:
64,192,215322,1,0,0:0:0:0:
448,192,215538,1,0,0:0:0:0:
320,192,215538,1,0,0:0:0:0:
448,192,215639,1,0,0:0:0:0:
320,192,215639,1,0,0:0:0:0:
192,192,215740,1,0,0:0:0:0:
64,192,215740,1,0,0:0:0:0:
320,192,215740,1,0,0:0:0:0:
448,192,215740,1,0,0:0:0:0:
64,192,215956,1,0,0:0:0:0:
320,192,215956,1,0,0:0:0:0:
192,192,216057,1,0,0:0:0:0:
64,192,216057,1,0,0:0:0:0:
320,192,216173,1,0,0:0:0:0:
448,192,216173,1,0,0:0:0:0:
64,192,216173,1,0,0:0:0:0:
320,192,216375,1,0,0:0:0:0:
192,192,216375,1,0,0:0:0:0:
192,192,216475,1,0,0:0:0:0:
320,192,216475,1,0,0:0:0:0:
320,192,216576,1,0,0:0:0:0:
448,192,216576,1,0,0:0:0:0:
192,192,216576,1,0,0:0:0:0:
64,192,216576,1,0,0:0:0:0:
64,192,216793,1,0,0:0:0:0:
192,192,216793,1,0,0:0:0:0:
448,192,216894,1,0,0:0:0:0:
320,192,216894,1,0,0:0:0:0:
192,192,216995,1,0,0:0:0:0:
320,192,217211,1,0,0:0:0:0:
192,192,217629,1,0,0:0:0:0:
192,192,217846,1,0,0:0:0:0:
64,192,217846,1,0,0:0:0:0:
320,192,217846,1,0,0:0:0:0:
448,192,217846,1,0,0:0:0:0:
192,192,218163,1,0,0:0:0:0:
320,192,218480,1,0,0:0:0:0:
448,192,218682,1,0,0:0:0:0:
320,192,218682,1,0,0:0:0:0:
192,192,218682,1,0,0:0:0:0:
64,192,218682,1,0,0:0:0:0:
64,192,218783,1,0,0:0:0:0:
192,192,218783,1,0,0:0:0:0:
192,192,218899,1,0,0:0:0:0:
64,192,218899,1,0,0:0:0:0:
320,192,219000,1,0,0:0:0:0:
448,192,219000,1,0,0:0:0:0:
192,192,219000,1,0,0:0:0:0:
64,192,219000,1,0,0:0:0:0:
320,192,219100,1,0,0:0:0:0:
192,192,219100,1,0,0:0:0:0:
320,192,219201,1,0,0:0:0:0:
192,192,219201,1,0,0:0:0:0:
448,192,219317,1,0,0:0:0:0:
64,192,219317,1,0,0:0:0:0:
192,192,219317,1,0,0:0:0:0:
320,192,219317,1,0,0:0:0:0:
448,192,219418,1,0,0:0:0:0:
320,192,219418,1,0,0:0:0:0:
64,192,219475,1,0,0:0:0:0:
192,192,219475,1,0,0:0:0:0:
448,192,219519,1,0,0:0:0:0:
320,192,219519,1,0,0:0:0:0:
320,192,219634,1,0,0:0:0:0:
448,192,219634,1,0,0:0:0:0:
192,192,219634,1,0,0:0:0:0:
64,192,219634,1,0,0:0:0:0:
64,192,219937,1,0,0:0:0:0:
192,192,220153,1,0,0:0:0:0:
64,192,220370,1,0,0:0:0:0:
448,192,220370,1,0,0:0:0:0:
320,192,220370,1,0,0:0:0:0:
192,192,220413,1,0,0:0:0:0:
320,192,220471,1,0,0:0:0:0:
448,192,220514,1,0,0:0:0:0:
320,192,220572,1,0,0:0:0:0:
192,192,220572,1,0,0:0:0:0:
64,192,220572,1,0,0:0:0:0:
448,192,220629,1,0,0:0:0:0:
64,192,220687,1,0,0:0:0:0:
192,192,220730,1,0,0:0:0:0:
448,192,220788,1,0,0:0:0:0:
320,192,220788,1,0,0:0:0:0:
192,192,220846,1,0,0:0:0:0:
64,192,220889,1,0,0:0:0:0:
448,192,220947,1,0,0:0:0:0:
64,192,220990,1,0,0:0:0:0:
192,192,220990,1,0,0:0:0:0:
320,192,220990,1,0,0:0:0:0:
448,192,221048,1,0,0:0:0:0:
192,192,221091,1,0,0:0:0:0:
320,192,221149,1,0,0:0:0:0:
192,192,221206,1,0,0:0:0:0:
64,192,221206,1,0,0:0:0:0:
448,192,221206,1,0,0:0:0:0:
320,192,221264,1,0,0:0:0:0:
192,192,221307,1,0,0:0:0:0:
64,192,221365,1,0,0:0:0:0:
192,192,221423,1,0,0:0:0:0:
320,192,221423,1,0,0:0:0:0:
448,192,221423,1,0,0:0:0:0:
64,192,221466,1,0,0:0:0:0:
192,192,221524,1,0,0:0:0:0:
320,192,221567,1,0,0:0:0:0:
64,192,221625,1,0,0:0:0:0:
448,192,221625,1,0,0:0:0:0:
320,192,221682,1,0,0:0:0:0:
192,192,221725,1,0,0:0:0:0:
64,192,221783,1,0,0:0:0:0:
448,192,221841,1,0,0:0:0:0:
320,192,221841,1,0,0:0:0:0:
192,192,221841,1,0,0:0:0:0:
64,192,221884,1,0,0:0:0:0:
320,192,221942,1,0,0:0:0:0:
192,192,222000,1,0,0:0:0:0:
448,192,222043,1,0,0:0:0:0:
64,192,222043,1,0,0:0:0:0:
320,192,222100,1,0,0:0:0:0:
64,192,222144,1,0,0:0:0:0:
192,192,222201,1,0,0:0:0:0:
64,192,222259,1,0,0:0:0:0:
448,192,222259,1,0,0:0:0:0:
320,192,222259,1,0,0:0:0:0:
192,192,222302,1,0,0:0:0:0:
448,192,222360,1,0,0:0:0:0:
320,192,222418,1,0,0:0:0:0:
64,192,222461,1,0,0:0:0:0:
192,192,222461,1,0,0:0:0:0:
448,192,222519,1,0,0:0:0:0:
320,192,222576,1,0,0:0:0:0:
192,192,222620,1,0,0:0:0:0:
448,192,222677,1,0,0:0:0:0:
320,192,222677,1,0,0:0:0:0:
64,192,222677,1,0,0:0:0:0:
192,192,222721,1,0,0:0:0:0:
320,192,222778,1,0,0:0:0:0:
448,192,222836,1,0,0:0:0:0:
320,192,222879,1,0,0:0:0:0:
64,192,222879,1,0,0:0:0:0:
192,192,222879,1,0,0:0:0:0:
448,192,222937,1,0,0:0:0:0:
192,192,222995,1,0,0:0:0:0:
64,192,223038,1,0,0:0:0:0:
192,192,223096,1,0,0:0:0:0:
320,192,223096,1,0,0:0:0:0:
448,192,223096,1,0,0:0:0:0:
64,192,223153,1,0,0:0:0:0:
448,192,223197,1,0,0:0:0:0:
320,192,223254,1,0,0:0:0:0:
448,192,223298,1,0,0:0:0:0:
64,192,223298,1,0,0:0:0:0:
192,192,223298,1,0,0:0:0:0:
320,192,223355,1,0,0:0:0:0:
64,192,223413,1,0,0:0:0:0:
192,192,223456,1,0,0:0:0:0:
64,192,223514,1,0,0:0:0:0:
448,192,223514,1,0,0:0:0:0:
320,192,223514,1,0,0:0:0:0:
192,192,223572,1,0,0:0:0:0:
448,192,223615,1,0,0:0:0:0:
320,192,223673,1,0,0:0:0:0:
448,192,223730,1,0,0:0:0:0:
64,192,223730,1,0,0:0:0:0:
192,192,223730,1,0,0:0:0:0:
320,192,223774,1,0,0:0:0:0:
192,192,223831,1,0,0:0:0:0:
64,192,223875,1,0,0:0:0:0:
192,192,223932,1,0,0:0:0:0:
448,192,223932,1,0,0:0:0:0:
320,192,223932,1,0,0:0:0:0:
64,192,223990,1,0,0:0:0:0:
192,192,224033,1,0,0:0:0:0:
320,192,224091,1,0,0:0:0:0:
64,192,224149,1,0,0:0:0:0:
448,192,224149,1,0,0:0:0:0:
320,192,224192,1,0,0:0:0:0:
192,192,224250,1,0,0:0:0:0:
64,192,224307,1,0,0:0:0:0:
192,192,224350,1,0,0:0:0:0:
448,192,224350,1,0,0:0:0:0:
320,192,224350,1,0,0:0:0:0:
64,192,224408,1,0,0:0:0:0:
320,192,224466,1,0,0:0:0:0:
192,192,224509,1,0,0:0:0:0:
448,192,224567,1,0,0:0:0:0:
64,192,224567,1,0,0:0:0:0:
192,192,224610,1,0,0:0:0:0:
320,192,224668,1,0,0:0:0:0:
448,192,224725,1,0,0:0:0:0:
64,192,224769,1,0,0:0:0:0:
192,192,224769,1,0,0:0:0:0:
320,192,224769,1,0,0:0:0:0:
448,192,224826,1,0,0:0:0:0:
192,192,224884,1,0,0:0:0:0:
64,192,224927,1,0,0:0:0:0:
448,192,224985,1,0,0:0:0:0:
320,192,224985,1,0,0:0:0:0:
192,192,225043,1,0,0:0:0:0:
64,192,225086,1,0,0:0:0:0:
448,192,225144,1,0,0:0:0:0:
64,192,225201,1,0,0:0:0:0:
192,192,225201,1,0,0:0:0:0:
320,192,225201,1,0,0:0:0:0:
448,192,225245,1,0,0:0:0:0:
64,192,225302,1,0,0:0:0:0:
192,192,225360,1,0,0:0:0:0:
64,192,225403,1,0,0:0:0:0:
320,192,225403,1,0,0:0:0:0:
448,192,225403,1,0,0:0:0:0:
448,192,225504,1,0,0:0:0:0:
320,192,225504,1,0,0:0:0:0:
448,192,225620,1,0,0:0:0:0:
320,192,225620,1,0,0:0:0:0:
192,192,225721,1,0,0:0:0:0:
64,192,225721,1,0,0:0:0:0:
320,192,225721,1,0,0:0:0:0:
448,192,225721,1,0,0:0:0:0:
64,192,225822,1,0,0:0:0:0:
192,192,225822,1,0,0:0:0:0:
192,192,225937,1,0,0:0:0:0:
64,192,225937,1,0,0:0:0:0:
320,192,226038,1,0,0:0:0:0:
448,192,226038,1,0,0:0:0:0:
64,192,226038,1,0,0:0:0:0:
192,192,226038,1,0,0:0:0:0:
320,192,226139,1,0,0:0:0:0:
192,192,226139,1,0,0:0:0:0:
448,192,226197,1,0,0:0:0:0:
64,192,226197,1,0,0:0:0:0:
320,192,226240,1,0,0:0:0:0:
192,192,226240,1,0,0:0:0:0:
448,192,226355,1,0,0:0:0:0:
64,192,226355,1,0,0:0:0:0:
320,192,226456,1,0,0:0:0:0:
192,192,226456,1,0,0:0:0:0:
64,192,226456,1,0,0:0:0:0:
448,192,226456,1,0,0:0:0:0:
320,192,226557,1,0,0:0:0:0:
448,192,226673,1,0,0:0:0:0:
64,192,226673,1,0,0:0:0:0:
192,192,226673,1,0,0:0:0:0:
320,192,226716,1,0,0:0:0:0:
64,192,226774,1,0,0:0:0:0:
192,192,226774,1,0,0:0:0:0:
448,192,226817,1,0,0:0:0:0:
320,192,226817,1,0,0:0:0:0:
64,192,226875,1,0,0:0:0:0:
192,192,226875,1,0,0:0:0:0:
320,192,226932,1,0,0:0:0:0:
448,192,226932,1,0,0:0:0:0:
64,192,226975,1,0,0:0:0:0:
192,192,226975,1,0,0:0:0:0:
448,192,227033,1,0,0:0:0:0:
320,192,227033,1,0,0:0:0:0:
64,192,227091,1,0,0:0:0:0:
192,192,227091,1,0,0:0:0:0:
448,192,227134,1,0,0:0:0:0:
320,192,227192,1,0,0:0:0:0:
192,192,227250,1,0,0:0:0:0:
448,192,227307,1,0,0:0:0:0:
320,192,227307,1,0,0:0:0:0:
64,192,227307,1,0,0:0:0:0:
192,192,227350,1,0,0:0:0:0:
448,192,227408,1,0,0:0:0:0:
320,192,227451,1,0,0:0:0:0:
64,192,227509,1,0,0:0:0:0:
192,192,227509,1,0,0:0:0:0:
448,192,227552,1,0,0:0:0:0:
64,192,227610,1,0,0:0:0:0:
192,192,227668,1,0,0:0:0:0:
64,192,227711,1,0,0:0:0:0:
448,192,227711,1,0,0:0:0:0:
320,192,227711,1,0,0:0:0:0:
192,192,227769,1,0,0:0:0:0:
448,192,227826,1,0,0:0:0:0:
320,192,227884,1,0,0:0:0:0:
192,192,227927,1,0,0:0:0:0:
448,192,227927,1,0,0:0:0:0:
64,192,227927,1,0,0:0:0:0:
320,192,227985,1,0,0:0:0:0:
192,192,228028,1,0,0:0:0:0:
64,192,228086,1,0,0:0:0:0:
192,192,228129,1,0,0:0:0:0:
448,192,228129,1,0,0:0:0:0:
320,192,228129,1,0,0:0:0:0:
64,192,228187,1,0,0:0:0:0:
192,192,228245,1,0,0:0:0:0:
320,192,228302,1,0,0:0:0:0:
448,192,228346,1,0,0:0:0:0:
64,192,228346,1,0,0:0:0:0:
192,192,228403,1,0,0:0:0:0:
448,192,228461,1,0,0:0:0:0:
320,192,228504,1,0,0:0:0:0:
448,192,228562,1,0,0:0:0:0:
64,192,228562,1,0,0:0:0:0:
192,192,228562,1,0,0:0:0:0:
320,192,228605,1,0,0:0:0:0:
192,192,228663,1,0,0:0:0:0:
64,192,228721,1,0,0:0:0:0:
448,192,228764,1,0,0:0:0:0:
320,192,228764,1,0,0:0:0:0:
64,192,228822,1,0,0:0:0:0:
192,192,228879,1,0,0:0:0:0:
320,192,228923,1,0,0:0:0:0:
192,192,228980,1,0,0:0:0:0:
448,192,228980,1,0,0:0:0:0:
64,192,228980,1,0,0:0:0:0:
320,192,229038,1,0,0:0:0:0:
192,192,229081,1,0,0:0:0:0:
448,192,229139,1,0,0:0:0:0:
64,192,229182,1,0,0:0:0:0:
320,192,229182,1,0,0:0:0:0:
192,192,229240,1,0,0:0:0:0:
320,192,229298,1,0,0:0:0:0:
448,192,229341,1,0,0:0:0:0:
64,192,229399,1,0,0:0:0:0:
192,192,229399,1,0,0:0:0:0:
320,192,229399,1,0,0:0:0:0:
448,192,229456,1,0,0:0:0:0:
320,192,229500,1,0,0:0:0:0:
192,192,229557,1,0,0:0:0:0:
448,192,229600,1,0,0:0:0:0:
64,192,229600,1,0,0:0:0:0:
320,192,229658,1,0,0:0:0:0:
64,192,229716,1,0,0:0:0:0:
192,192,229759,1,0,0:0:0:0:
64,192,229817,1,0,0:0:0:0:
448,192,229817,1,0,0:0:0:0:
320,192,229817,1,0,0:0:0:0:
192,192,229875,1,0,0:0:0:0:
448,192,229918,1,0,0:0:0:0:
320,192,229975,1,0,0:0:0:0:
192,192,230033,1,0,0:0:0:0:
64,192,230033,1,0,0:0:0:0:
448,192,230076,1,0,0:0:0:0:
320,192,230076,1,0,0:0:0:0:
192,192,230134,1,0,0:0:0:0:
320,192,230177,1,0,0:0:0:0:
448,192,230177,1,0,0:0:0:0:
64,192,230250,1,0,0:0:0:0:
320,192,230293,1,0,0:0:0:0:
448,192,230293,1,0,0:0:0:0:
192,192,230336,1,0,0:0:0:0:
64,192,230336,1,0,0:0:0:0:
320,192,230394,1,0,0:0:0:0:
448,192,230394,1,0,0:0:0:0:
192,192,230451,1,0,0:0:0:0:
64,192,230451,1,0,0:0:0:0:
448,192,230495,1,0,0:0:0:0:
320,192,230552,1,0,0:0:0:0:
192,192,230552,1,0,0:0:0:0:
64,192,230552,1,0,0:0:0:0:
64,192,230668,1,0,0:0:0:0:
448,192,230668,1,0,0:0:0:0:
320,192,230668,1,0,0:0:0:0:
64,192,230769,1,0,0:0:0:0:
192,192,230769,1,0,0:0:0:0:
192,192,230870,1,0,0:0:0:0:
320,192,230870,1,0,0:0:0:0:
448,192,230870,1,0,0:0:0:0:
448,192,230971,1,0,0:0:0:0:
320,192,230971,1,0,0:0:0:0:
64,192,230971,1,0,0:0:0:0:
192,192,231086,1,0,0:0:0:0:
448,192,231086,1,0,0:0:0:0:
64,192,231086,1,0,0:0:0:0:
64,192,231187,1,0,0:0:0:0:
320,192,231187,1,0,0:0:0:0:
448,192,231187,1,0,0:0:0:0:
320,192,231288,1,0,0:0:0:0:
192,192,231288,1,0,0:0:0:0:
64,192,231288,1,0,0:0:0:0:
192,192,231403,1,0,0:0:0:0:
320,192,231403,1,0,0:0:0:0:
448,192,231403,1,0,0:0:0:0:
192,192,231504,1,0,0:0:0:0:
64,192,231504,1,0,0:0:0:0:
448,192,231504,1,0,0:0:0:0:
320,192,231605,1,0,0:0:0:0:
64,192,231605,1,0,0:0:0:0:
448,192,231605,1,0,0:0:0:0:
320,192,231706,1,0,0:0:0:0:
192,192,231706,1,0,0:0:0:0:
64,192,231706,1,0,0:0:0:0:
192,192,231822,1,0,0:0:0:0:
320,192,231822,1,0,0:0:0:0:
448,192,231822,1,0,0:0:0:0:
320,192,231923,1,0,0:0:0:0:
64,192,231923,1,0,0:0:0:0:
448,192,231923,1,0,0:0:0:0:
192,192,232024,1,0,0:0:0:0:
64,192,232024,1,0,0:0:0:0:
448,192,232024,1,0,0:0:0:0:
320,192,232125,1,0,0:0:0:0:
448,192,232125,1,0,0:0:0:0:
64,192,232125,1,0,0:0:0:0:
192,192,232125,1,0,0:0:0:0:
192,192,232240,1,0,0:0:0:0:
64,192,232240,1,0,0:0:0:0:
64,192,232341,1,0,0:0:0:0:
192,192,232341,1,0,0:0:0:0:
320,192,232442,1,0,0:0:0:0:
448,192,232442,1,0,0:0:0:0:
64,192,232442,1,0,0:0:0:0:
192,192,232442,1,0,0:0:0:0:
320,192,232557,1,0,0:0:0:0:
448,192,232557,1,0,0:0:0:0:
192,192,232600,1,0,0:0:0:0:
64,192,232600,1,0,0:0:0:0:
320,192,232658,1,0,0:0:0:0:
448,192,232658,1,0,0:0:0:0:
320,192,232759,1,0,0:0:0:0:
448,192,232759,1,0,0:0:0:0:
192,192,232759,1,0,0:0:0:0:
64,192,232759,1,0,0:0:0:0:
192,192,232860,1,0,0:0:0:0:
320,192,232860,1,0,0:0:0:0:
320,192,232975,1,0,0:0:0:0:
192,192,232975,1,0,0:0:0:0:
192,192,233076,1,0,0:0:0:0:
320,192,233076,1,0,0:0:0:0:
192,192,233177,1,0,0:0:0:0:
64,192,233177,1,0,0:0:0:0:
320,192,233177,1,0,0:0:0:0:
448,192,233177,1,0,0:0:0:0:
64,192,233278,1,0,0:0:0:0:
448,192,233278,1,0,0:0:0:0:
64,192,233394,1,0,0:0:0:0:
448,192,233394,1,0,0:0:0:0:
64,192,233495,1,0,0:0:0:0:
448,192,233495,1,0,0:0:0:0:
192,192,233552,1,0,0:0:0:0:
320,192,233552,1,0,0:0:0:0:
64,192,233596,1,0,0:0:0:0:
448,192,233596,1,0,0:0:0:0:
320,192,233653,1,0,0:0:0:0:
192,192,233711,1,0,0:0:0:0:
64,192,233711,1,0,0:0:0:0:
320,192,233754,1,0,0:0:0:0:
448,192,233754,1,0,0:0:0:0:
192,192,233812,1,0,0:0:0:0:
64,192,233812,1,0,0:0:0:0:
64,192,243966,5,0,0:0:0:0:
192,192,244427,1,0,0:0:0:0:
320,192,244889,1,0,0:0:0:0:
448,192,245350,1,0,0:0:0:0:
64,192,245812,1,0,0:0:0:0:
448,192,246274,1,0,0:0:0:0:
320,192,246735,1,0,0:0:0:0:
192,192,247197,1,0,0:0:0:0:
64,192,247658,1,0,0:0:0:0:
64,192,248120,1,0,0:0:0:0:
192,192,248581,1,0,0:0:0:0:
320,192,249043,1,0,0:0:0:0:
448,192,249504,1,0,0:0:0:0:
192,192,249966,1,0,0:0:0:0:
64,192,250427,1,0,0:0:0:0:
64,192,251350,1,0,0:0:0:0:
192,192,251812,1,0,0:0:0:0:
320,192,252274,1,0,0:0:0:0:
448,192,252735,1,0,0:0:0:0:
64,192,253197,1,0,0:0:0:0:
448,192,253658,1,0,0:0:0:0:
320,192,254120,1,0,0:0:0:0:
192,192,254581,1,0,0:0:0:0:
64,192,255043,1,0,0:0:0:0:
64,192,255504,1,0,0:0:0:0:
192,192,255966,1,0,0:0:0:0:
320,192,256427,1,0,0:0:0:0:
448,192,256889,1,0,0:0:0:0:
192,192,257350,1,0,0:0:0:0:
320,192,257812,1,0,0:0:0:0:
320,192,258735,1,0,0:0:0:0:
64,192,258735,1,0,0:0:0:0:
192,192,259197,1,0,0:0:0:0:
448,192,259658,1,0,0:0:0:0:
320,192,259658,1,0,0:0:0:0:
448,192,260120,1,0,0:0:0:0:
192,192,260581,1,0,0:0:0:0:
64,192,260581,1,0,0:0:0:0:
448,192,261043,1,0,0:0:0:0:
192,192,261504,1,0,0:0:0:0:
320,192,261504,1,0,0:0:0:0:
192,192,261966,1,0,0:0:0:0:
192,192,262427,1,0,0:0:0:0:
64,192,262427,1,0,0:0:0:0:
64,192,262889,1,0,0:0:0:0:
320,192,263350,1,0,0:0:0:0:
192,192,263350,1,0,0:0:0:0:
320,192,263812,1,0,0:0:0:0:
64,192,264274,1,0,0:0:0:0:
448,192,264274,1,0,0:0:0:0:
192,192,264735,1,0,0:0:0:0:
320,192,265197,1,0,0:0:0:0:
64,192,265197,1,0,0:0:0:0:
320,192,266120,1,0,0:0:0:0:
64,192,266120,1,0,0:0:0:0:
192,192,266581,1,0,0:0:0:0:
320,192,267043,1,0,0:0:0:0:
448,192,267043,1,0,0:0:0:0:
448,192,267504,1,0,0:0:0:0:
64,192,267966,1,0,0:0:0:0:
192,192,267966,1,0,0:0:0:0:
448,192,268427,1,0,0:0:0:0:
192,192,268889,1,0,0:0:0:0:
320,192,268889,1,0,0:0:0:0:
192,192,269350,1,0,0:0:0:0:
192,192,269812,1,0,0:0:0:0:
64,192,269812,1,0,0:0:0:0:
64,192,270274,1,0,0:0:0:0:
192,192,270735,1,0,0:0:0:0:
320,192,270735,1,0,0:0:0:0:
320,192,271197,1,0,0:0:0:0:
448,192,271658,1,0,0:0:0:0:
64,192,271658,1,0,0:0:0:0:
192,192,272120,1,0,0:0:0:0:
320,192,272581,1,0,0:0:0:0:
64,192,272581,1,0,0:0:0:0:
64,192,273043,1,0,0:0:0:0:
448,192,273100,1,0,0:0:0:0:
64,192,273158,1,0,0:0:0:0:
448,192,273216,1,0,0:0:0:0:
192,192,273274,1,0,0:0:0:0:
320,192,273331,1,0,0:0:0:0:
192,192,273389,1,0,0:0:0:0:
320,192,273447,1,0,0:0:0:0:
448,192,273504,1,0,0:0:0:0:
64,192,273504,1,0,0:0:0:0:
192,192,273620,1,0,0:0:0:0:
320,192,273677,1,0,0:0:0:0:
192,192,273735,1,0,0:0:0:0:
448,192,273850,1,0,0:0:0:0:
64,192,273966,1,0,0:0:0:0:
320,192,274081,1,0,0:0:0:0:
320,192,274197,1,0,0:0:0:0:
320,192,274312,128,0,274543:0:0:0:0:
64,192,274543,1,0,0:0:0:0:
192,192,274658,1,0,0:0:0:0:
64,192,274774,1,0,0:0:0:0:
320,192,274889,1,0,0:0:0:0:
192,192,275004,1,0,0:0:0:0:
448,192,275120,1,0,0:0:0:0:
448,192,275350,1,0,0:0:0:0:
192,192,275466,1,0,0:0:0:0:
320,192,275524,1,0,0:0:0:0:
192,192,275581,1,0,0:0:0:0:
448,192,275697,1,0,0:0:0:0:
64,192,275812,1,0,0:0:0:0:
320,192,275927,1,0,0:0:0:0:
320,192,276043,1,0,0:0:0:0:
320,192,276158,128,0,276389:0:0:0:0:
64,192,276389,1,0,0:0:0:0:
192,192,276504,1,0,0:0:0:0:
320,192,276620,1,0,0:0:0:0:
448,192,276735,1,0,0:0:0:0:
320,192,276850,1,0,0:0:0:0:
448,192,276908,1,0,0:0:0:0:
64,192,276966,128,0,277081:0:0:0:0:
320,192,276966,1,0,0:0:0:0:
448,192,277081,128,0,277197:0:0:0:0:
192,192,277081,1,0,0:0:0:0:
320,192,277197,1,0,0:0:0:0:
64,192,277197,1,0,0:0:0:0:
192,192,277312,1,0,0:0:0:0:
320,192,277370,1,0,0:0:0:0:
192,192,277427,1,0,0:0:0:0:
448,192,277543,1,0,0:0:0:0:
64,192,277658,1,0,0:0:0:0:
320,192,277774,1,0,0:0:0:0:
320,192,277889,1,0,0:0:0:0:
320,192,278004,128,0,278235:0:0:0:0:
64,192,278235,1,0,0:0:0:0:
192,192,278350,1,0,0:0:0:0:
64,192,278466,1,0,0:0:0:0:
320,192,278581,1,0,0:0:0:0:
192,192,278697,1,0,0:0:0:0:
448,192,278812,1,0,0:0:0:0:
448,192,279043,1,0,0:0:0:0:
192,192,279158,1,0,0:0:0:0:
320,192,279216,1,0,0:0:0:0:
192,192,279274,1,0,0:0:0:0:
448,192,279389,1,0,0:0:0:0:
64,192,279504,1,0,0:0:0:0:
320,192,279620,1,0,0:0:0:0:
320,192,279735,1,0,0:0:0:0:
320,192,279850,128,0,280081:0:0:0:0:
448,192,280081,1,0,0:0:0:0:
192,192,280197,1,0,0:0:0:0:
448,192,280312,1,0,0:0:0:0:
192,192,280427,1,0,0:0:0:0:
64,192,280427,1,0,0:0:0:0:
320,192,280543,1,0,0:0:0:0:
192,192,280600,1,0,0:0:0:0:
448,192,280658,1,0,0:0:0:0:
320,192,280658,1,0,0:0:0:0:
320,192,280774,1,0,0:0:0:0:
192,192,280774,1,0,0:0:0:0:
320,192,280889,1,0,0:0:0:0:
448,192,280889,1,0,0:0:0:0:
64,192,280889,1,0,0:0:0:0:
192,192,281004,1,0,0:0:0:0:
320,192,281062,1,0,0:0:0:0:
64,192,281120,1,0,0:0:0:0:
192,192,281120,1,0,0:0:0:0:
448,192,281235,1,0,0:0:0:0:
192,192,281350,1,0,0:0:0:0:
64,192,281350,1,0,0:0:0:0:
320,192,281466,1,0,0:0:0:0:
64,192,281581,1,0,0:0:0:0:
320,192,281581,1,0,0:0:0:0:
320,192,281697,128,0,281927:0:0:0:0:
448,192,281812,1,0,0:0:0:0:
64,192,281927,1,0,0:0:0:0:
448,192,282043,1,0,0:0:0:0:
192,192,282043,1,0,0:0:0:0:
64,192,282158,1,0,0:0:0:0:
448,192,282274,1,0,0:0:0:0:
320,192,282274,1,0,0:0:0:0:
192,192,282389,1,0,0:0:0:0:
64,192,282504,1,0,0:0:0:0:
448,192,282504,1,0,0:0:0:0:
192,192,282620,1,0,0:0:0:0:
320,192,282735,1,0,0:0:0:0:
64,192,282735,1,0,0:0:0:0:
448,192,282735,1,0,0:0:0:0:
192,192,282850,1,0,0:0:0:0:
320,192,282908,1,0,0:0:0:0:
64,192,282966,1,0,0:0:0:0:
192,192,282966,1,0,0:0:0:0:
448,192,283081,1,0,0:0:0:0:
192,192,283197,1,0,0:0:0:0:
64,192,283197,1,0,0:0:0:0:
320,192,283312,1,0,0:0:0:0:
64,192,283427,1,0,0:0:0:0:
320,192,283427,1,0,0:0:0:0:
320,192,283543,128,0,283774:0:0:0:0:
448,192,283658,1,0,0:0:0:0:
64,192,283774,1,0,0:0:0:0:
448,192,283889,1,0,0:0:0:0:
192,192,283889,1,0,0:0:0:0:
320,192,284004,1,0,0:0:0:0:
192,192,284120,1,0,0:0:0:0:
64,192,284120,1,0,0:0:0:0:
448,192,284120,1,0,0:0:0:0:
192,192,284235,1,0,0:0:0:0:
64,192,284235,1,0,0:0:0:0:
320,192,284235,1,0,0:0:0:0:
448,192,284293,1,0,0:0:0:0:
64,192,284350,128,0,284466:0:0:0:0:
320,192,284350,1,0,0:0:0:0:
448,192,284466,128,0,284581:0:0:0:0:
192,192,284466,1,0,0:0:0:0:
320,192,284581,1,0,0:0:0:0:
64,192,284581,1,0,0:0:0:0:
192,192,285504,1,0,0:0:0:0:
64,192,285504,1,0,0:0:0:0:
448,192,285966,1,0,0:0:0:0:
320,192,285966,1,0,0:0:0:0:
64,192,286427,1,0,0:0:0:0:
192,192,286427,1,0,0:0:0:0:
64,192,286658,1,0,0:0:0:0:
192,192,286658,1,0,0:0:0:0:
448,192,286889,1,0,0:0:0:0:
320,192,286889,1,0,0:0:0:0:
448,192,287120,1,0,0:0:0:0:
320,192,287120,1,0,0:0:0:0:
192,192,287350,1,0,0:0:0:0:
64,192,287350,1,0,0:0:0:0:
192,192,287466,1,0,0:0:0:0:
64,192,287466,1,0,0:0:0:0:
320,192,287581,1,0,0:0:0:0:
192,192,287581,1,0,0:0:0:0:
192,192,287697,1,0,0:0:0:0:
320,192,287697,1,0,0:0:0:0:
448,192,287812,1,0,0:0:0:0:
320,192,287812,1,0,0:0:0:0:
448,192,287927,1,0,0:0:0:0:
320,192,287927,1,0,0:0:0:0:
448,192,288043,1,0,0:0:0:0:
64,192,288043,1,0,0:0:0:0:
64,192,288158,1,0,0:0:0:0:
448,192,288158,1,0,0:0:0:0:
192,192,288274,128,0,288504:0:0:0:0:
320,192,288504,128,0,288735:0:0:0:0:
448,192,288735,128,0,288966:0:0:0:0:
64,192,288966,1,0,0:0:0:0:
320,192,289024,1,0,0:0:0:0:
64,192,289081,1,0,0:0:0:0:
320,192,289139,1,0,0:0:0:0:
192,192,289197,128,0,290120:0:0:0:0:
448,192,290120,1,0,0:0:0:0:
64,192,290120,1,0,0:0:0:0:
320,192,290177,1,0,0:0:0:0:
192,192,290235,1,0,0:0:0:0:
64,192,290235,1,0,0:0:0:0:
320,192,290293,1,0,0:0:0:0:
448,192,290350,1,0,0:0:0:0:
192,192,290350,1,0,0:0:0:0:
64,192,290408,1,0,0:0:0:0:
192,192,290466,1,0,0:0:0:0:
320,192,290466,1,0,0:0:0:0:
448,192,290524,1,0,0:0:0:0:
64,192,290581,1,0,0:0:0:0:
320,192,290581,1,0,0:0:0:0:
448,192,290639,1,0,0:0:0:0:
64,192,290697,1,0,0:0:0:0:
192,192,290697,1,0,0:0:0:0:
320,192,290754,1,0,0:0:0:0:
448,192,290812,1,0,0:0:0:0:
192,192,290812,1,0,0:0:0:0:
64,192,290870,1,0,0:0:0:0:
448,192,290927,1,0,0:0:0:0:
320,192,290927,1,0,0:0:0:0:
192,192,290985,1,0,0:0:0:0:
320,192,291043,1,0,0:0:0:0:
64,192,291043,1,0,0:0:0:0:
192,192,291100,1,0,0:0:0:0:
448,192,291158,1,0,0:0:0:0:
64,192,291158,1,0,0:0:0:0:
320,192,291216,1,0,0:0:0:0:
448,192,291274,1,0,0:0:0:0:
192,192,291274,1,0,0:0:0:0:
64,192,291331,1,0,0:0:0:0:
448,192,291389,1,0,0:0:0:0:
320,192,291389,1,0,0:0:0:0:
64,192,291447,1,0,0:0:0:0:
320,192,291504,1,0,0:0:0:0:
192,192,291504,1,0,0:0:0:0:
448,192,291562,1,0,0:0:0:0:
64,192,291620,1,0,0:0:0:0:
192,192,291620,1,0,0:0:0:0:
320,192,291677,1,0,0:0:0:0:
64,192,291735,1,0,0:0:0:0:
192,192,291735,1,0,0:0:0:0:
448,192,291793,1,0,0:0:0:0:
320,192,291793,1,0,0:0:0:0:
64,192,291850,1,0,0:0:0:0:
192,192,291879,1,0,0:0:0:0:
320,192,291908,1,0,0:0:0:0:
448,192,291937,1,0,0:0:0:0:
192,192,291966,1,0,0:0:0:0:
64,192,291966,1,0,0:0:0:0:
320,192,292024,1,0,0:0:0:0:
448,192,292081,1,0,0:0:0:0:
64,192,292081,1,0,0:0:0:0:
192,192,292139,1,0,0:0:0:0:
320,192,292197,1,0,0:0:0:0:
448,192,292197,1,0,0:0:0:0:
64,192,292254,1,0,0:0:0:0:
448,192,292312,1,0,0:0:0:0:
192,192,292312,1,0,0:0:0:0:
64,192,292370,1,0,0:0:0:0:
320,192,292427,1,0,0:0:0:0:
192,192,292427,1,0,0:0:0:0:
448,192,292485,1,0,0:0:0:0:
320,192,292543,1,0,0:0:0:0:
64,192,292543,1,0,0:0:0:0:
192,192,292600,1,0,0:0:0:0:
448,192,292658,1,0,0:0:0:0:
64,192,292658,1,0,0:0:0:0:
320,192,292716,1,0,0:0:0:0:
448,192,292774,1,0,0:0:0:0:
192,192,292774,1,0,0:0:0:0:
64,192,292831,1,0,0:0:0:0:
320,192,292889,1,0,0:0:0:0:
192,192,292889,1,0,0:0:0:0:
448,192,292947,1,0,0:0:0:0:
192,192,293004,1,0,0:0:0:0:
64,192,293004,1,0,0:0:0:0:
320,192,293062,1,0,0:0:0:0:
448,192,293120,1,0,0:0:0:0:
192,192,293120,1,0,0:0:0:0:
64,192,293177,1,0,0:0:0:0:
448,192,293235,1,0,0:0:0:0:
320,192,293235,1,0,0:0:0:0:
192,192,293293,1,0,0:0:0:0:
320,192,293350,1,0,0:0:0:0:
64,192,293350,1,0,0:0:0:0:
192,192,293408,1,0,0:0:0:0:
448,192,293466,1,0,0:0:0:0:
320,192,293495,1,0,0:0:0:0:
192,192,293524,1,0,0:0:0:0:
64,192,293552,1,0,0:0:0:0:
448,192,293581,1,0,0:0:0:0:
320,192,293581,1,0,0:0:0:0:
64,192,293639,1,0,0:0:0:0:
192,192,293639,1,0,0:0:0:0:
448,192,293697,1,0,0:0:0:0:
320,192,293725,1,0,0:0:0:0:
192,192,293754,1,0,0:0:0:0:
64,192,293783,1,0,0:0:0:0:
320,192,293812,1,0,0:0:0:0:
448,192,293812,1,0,0:0:0:0:
192,192,293870,1,0,0:0:0:0:
448,192,293927,1,0,0:0:0:0:
64,192,293927,1,0,0:0:0:0:
192,192,293985,1,0,0:0:0:0:
320,192,294043,1,0,0:0:0:0:
64,192,294043,1,0,0:0:0:0:
448,192,294100,1,0,0:0:0:0:
320,192,294158,1,0,0:0:0:0:
192,192,294158,1,0,0:0:0:0:
64,192,294216,1,0,0:0:0:0:
448,192,294274,1,0,0:0:0:0:
192,192,294274,1,0,0:0:0:0:
64,192,294331,1,0,0:0:0:0:
448,192,294389,1,0,0:0:0:0:
320,192,294389,1,0,0:0:0:0:
192,192,294447,1,0,0:0:0:0:
64,192,294504,1,0,0:0:0:0:
320,192,294504,1,0,0:0:0:0:
448,192,294562,1,0,0:0:0:0:
64,192,294620,1,0,0:0:0:0:
192,192,294620,1,0,0:0:0:0:
320,192,294677,1,0,0:0:0:0:
192,192,294735,1,0,0:0:0:0:
448,192,294735,1,0,0:0:0:0:
320,192,294793,1,0,0:0:0:0:
64,192,294850,1,0,0:0:0:0:
448,192,294850,1,0,0:0:0:0:
192,192,294908,1,0,0:0:0:0:
320,192,294966,1,0,0:0:0:0:
64,192,294966,1,0,0:0:0:0:
448,192,295024,1,0,0:0:0:0:
192,192,295081,1,0,0:0:0:0:
64,192,295081,1,0,0:0:0:0:
448,192,295139,1,0,0:0:0:0:
192,192,295197,1,0,0:0:0:0:
320,192,295197,1,0,0:0:0:0:
64,192,295254,1,0,0:0:0:0:
192,192,295312,1,0,0:0:0:0:
448,192,295312,1,0,0:0:0:0:
64,192,295370,1,0,0:0:0:0:
448,192,295427,1,0,0:0:0:0:
320,192,295427,1,0,0:0:0:0:
192,192,295485,1,0,0:0:0:0:
64,192,295485,1,0,0:0:0:0:
448,192,295543,1,0,0:0:0:0:
320,192,295572,1,0,0:0:0:0:
192,192,295600,1,0,0:0:0:0:
64,192,295629,1,0,0:0:0:0:
448,192,295658,1,0,0:0:0:0:
320,192,295658,1,0,0:0:0:0:
192,192,295716,1,0,0:0:0:0:
64,192,295774,1,0,0:0:0:0:
448,192,295774,1,0,0:0:0:0:
320,192,295831,1,0,0:0:0:0:
64,192,295889,1,0,0:0:0:0:
192,192,295889,1,0,0:0:0:0:
448,192,295947,1,0,0:0:0:0:
320,192,296004,1,0,0:0:0:0:
64,192,296004,1,0,0:0:0:0:
448,192,296062,1,0,0:0:0:0:
192,192,296120,1,0,0:0:0:0:
320,192,296120,1,0,0:0:0:0:
64,192,296177,1,0,0:0:0:0:
192,192,296235,1,0,0:0:0:0:
448,192,296235,1,0,0:0:0:0:
320,192,296293,1,0,0:0:0:0:
64,192,296350,1,0,0:0:0:0:
448,192,296350,1,0,0:0:0:0:
192,192,296408,1,0,0:0:0:0:
64,192,296466,1,0,0:0:0:0:
320,192,296466,1,0,0:0:0:0:
448,192,296524,1,0,0:0:0:0:
320,192,296581,1,0,0:0:0:0:
192,192,296581,1,0,0:0:0:0:
448,192,296639,1,0,0:0:0:0:
64,192,296697,1,0,0:0:0:0:
192,192,296725,1,0,0:0:0:0:
320,192,296754,1,0,0:0:0:0:
448,192,296783,1,0,0:0:0:0:
192,192,296812,1,0,0:0:0:0:
64,192,296812,1,0,0:0:0:0:
448,192,296927,1,0,0:0:0:0:
320,192,296956,1,0,0:0:0:0:
192,192,296985,1,0,0:0:0:0:
64,192,297014,1,0,0:0:0:0:
448,192,297043,1,0,0:0:0:0:
320,192,297043,1,0,0:0:0:0:
64,192,297100,1,0,0:0:0:0:
192,192,297100,1,0,0:0:0:0:
448,192,297158,1,0,0:0:0:0:
320,192,297158,1,0,0:0:0:0:
64,192,297216,1,0,0:0:0:0:
192,192,297216,1,0,0:0:0:0:
448,192,297274,1,0,0:0:0:0:
320,192,297302,1,0,0:0:0:0:
192,192,297331,1,0,0:0:0:0:
64,192,297360,1,0,0:0:0:0:
448,192,297389,1,0,0:0:0:0:
320,192,297418,1,0,0:0:0:0:
192,192,297447,1,0,0:0:0:0:
64,192,297475,1,0,0:0:0:0:
448,192,297504,1,0,0:0:0:0:
320,192,297504,1,0,0:0:0:0:
192,192,297562,1,0,0:0:0:0:
448,192,297620,1,0,0:0:0:0:
64,192,297620,1,0,0:0:0:0:
320,192,297677,1,0,0:0:0:0:
192,192,297735,1,0,0:0:0:0:
448,192,297735,1,0,0:0:0:0:
64,192,297793,1,0,0:0:0:0:
320,192,297850,1,0,0:0:0:0:
192,192,297850,1,0,0:0:0:0:
448,192,297908,1,0,0:0:0:0:
320,192,297966,1,0,0:0:0:0:
64,192,297966,1,0,0:0:0:0:
448,192,298024,1,0,0:0:0:0:
192,192,298081,1,0,0:0:0:0:
64,192,298081,1,0,0:0:0:0:
320,192,298139,1,0,0:0:0:0:
192,192,298197,1,0,0:0:0:0:
448,192,298197,1,0,0:0:0:0:
64,192,298254,1,0,0:0:0:0:
320,192,298312,1,0,0:0:0:0:
448,192,298312,1,0,0:0:0:0:
192,192,298370,1,0,0:0:0:0:
64,192,298427,1,0,0:0:0:0:
320,192,298427,1,0,0:0:0:0:
192,192,298485,1,0,0:0:0:0:
448,192,298543,1,0,0:0:0:0:
64,192,298543,1,0,0:0:0:0:
320,192,298600,1,0,0:0:0:0:
448,192,298658,1,0,0:0:0:0:
192,192,298658,1,0,0:0:0:0:
64,192,298716,1,0,0:0:0:0:
448,192,298774,1,0,0:0:0:0:
320,192,298774,1,0,0:0:0:0:
64,192,298831,1,0,0:0:0:0:
320,192,298889,1,0,0:0:0:0:
192,192,298889,1,0,0:0:0:0:
448,192,298947,1,0,0:0:0:0:
64,192,299004,1,0,0:0:0:0:
320,192,299004,1,0,0:0:0:0:
448,192,299062,1,0,0:0:0:0:
192,192,299120,1,0,0:0:0:0:
64,192,299120,1,0,0:0:0:0:
320,192,299177,1,0,0:0:0:0:
448,192,299177,1,0,0:0:0:0:
64,192,299235,1,0,0:0:0:0:
192,192,299264,1,0,0:0:0:0:
320,192,299293,1,0,0:0:0:0:
448,192,299322,1,0,0:0:0:0:
64,192,299350,1,0,0:0:0:0:
192,192,299350,1,0,0:0:0:0:
320,192,299408,1,0,0:0:0:0:
64,192,299466,1,0,0:0:0:0:
448,192,299466,1,0,0:0:0:0:
192,192,299524,1,0,0:0:0:0:
448,192,299581,1,0,0:0:0:0:
320,192,299581,1,0,0:0:0:0:
64,192,299639,1,0,0:0:0:0:
192,192,299697,1,0,0:0:0:0:
448,192,299697,1,0,0:0:0:0:
64,192,299754,1,0,0:0:0:0:
192,192,299812,1,0,0:0:0:0:
320,192,299812,1,0,0:0:0:0:
448,192,299870,1,0,0:0:0:0:
64,192,299927,1,0,0:0:0:0:
320,192,299927,1,0,0:0:0:0:
192,192,299985,1,0,0:0:0:0:
448,192,300043,1,0,0:0:0:0:
64,192,300043,1,0,0:0:0:0:
320,192,300100,1,0,0:0:0:0:
192,192,300158,1,0,0:0:0:0:
448,192,300158,1,0,0:0:0:0:
64,192,300216,1,0,0:0:0:0:
320,192,300274,1,0,0:0:0:0:
192,192,300274,1,0,0:0:0:0:
448,192,300331,1,0,0:0:0:0:
64,192,300389,1,0,0:0:0:0:
192,192,300389,1,0,0:0:0:0:
320,192,300447,1,0,0:0:0:0:
192,192,300504,1,0,0:0:0:0:
448,192,300504,1,0,0:0:0:0:
64,192,300562,1,0,0:0:0:0:
320,192,300620,1,0,0:0:0:0:
448,192,300620,1,0,0:0:0:0:
192,192,300677,1,0,0:0:0:0:
320,192,300735,1,0,0:0:0:0:
64,192,300735,1,0,0:0:0:0:
192,192,300793,1,0,0:0:0:0:
448,192,300850,1,0,0:0:0:0:
320,192,300879,1,0,0:0:0:0:
192,192,300908,1,0,0:0:0:0:
64,192,300937,1,0,0:0:0:0:
320,192,300966,1,0,0:0:0:0:
448,192,300966,1,0,0:0:0:0:
192,192,301024,1,0,0:0:0:0:
64,192,301024,1,0,0:0:0:0:
448,192,301081,1,0,0:0:0:0:
320,192,301110,1,0,0:0:0:0:
192,192,301139,1,0,0:0:0:0:
64,192,301168,1,0,0:0:0:0:
448,192,301197,1,0,0:0:0:0:
320,192,301197,1,0,0:0:0:0:
192,192,301254,1,0,0:0:0:0:
448,192,301312,1,0,0:0:0:0:
64,192,301312,1,0,0:0:0:0:
192,192,301370,1,0,0:0:0:0:
320,192,301427,1,0,0:0:0:0:
64,192,301427,1,0,0:0:0:0:
448,192,301485,1,0,0:0:0:0:
192,192,301543,1,0,0:0:0:0:
320,192,301543,1,0,0:0:0:0:
64,192,301600,1,0,0:0:0:0:
448,192,301658,1,0,0:0:0:0:
192,192,301658,1,0,0:0:0:0:
64,192,301716,1,0,0:0:0:0:
448,192,301774,1,0,0:0:0:0:
320,192,301774,1,0,0:0:0:0:
192,192,301831,1,0,0:0:0:0:
320,192,301889,1,0,0:0:0:0:
64,192,301889,1,0,0:0:0:0:
448,192,301947,1,0,0:0:0:0:
192,192,302004,1,0,0:0:0:0:
64,192,302004,1,0,0:0:0:0:
320,192,302062,1,0,0:0:0:0:
192,192,302120,1,0,0:0:0:0:
448,192,302120,1,0,0:0:0:0:
320,192,302177,1,0,0:0:0:0:
448,192,302235,1,0,0:0:0:0:
64,192,302235,1,0,0:0:0:0:
192,192,302293,1,0,0:0:0:0:
320,192,302350,1,0,0:0:0:0:
64,192,302350,1,0,0:0:0:0:
448,192,302408,1,0,0:0:0:0:
192,192,302466,1,0,0:0:0:0:
64,192,302466,1,0,0:0:0:0:
448,192,302524,1,0,0:0:0:0:
192,192,302581,1,0,0:0:0:0:
320,192,302581,1,0,0:0:0:0:
64,192,302639,1,0,0:0:0:0:
448,192,302697,1,0,0:0:0:0:
192,192,302697,1,0,0:0:0:0:
64,192,302754,1,0,0:0:0:0:
320,192,302812,1,0,0:0:0:0:
448,192,302812,1,0,0:0:0:0:
64,192,302870,1,0,0:0:0:0:
192,192,302870,1,0,0:0:0:0:
448,192,302927,1,0,0:0:0:0:
320,192,302956,1,0,0:0:0:0:
192,192,302985,1,0,0:0:0:0:
64,192,303014,1,0,0:0:0:0:
320,192,303043,1,0,0:0:0:0:
448,192,303043,1,0,0:0:0:0:
192,192,303100,1,0,0:0:0:0:
64,192,303158,1,0,0:0:0:0:
448,192,303158,1,0,0:0:0:0:
320,192,303216,1,0,0:0:0:0:
64,192,303274,1,0,0:0:0:0:
192,192,303274,1,0,0:0:0:0:
448,192,303331,1,0,0:0:0:0:
64,192,303389,1,0,0:0:0:0:
320,192,303389,1,0,0:0:0:0:
448,192,303447,1,0,0:0:0:0:
320,192,303504,1,0,0:0:0:0:
192,192,303504,1,0,0:0:0:0:
64,192,303562,1,0,0:0:0:0:
192,192,303620,1,0,0:0:0:0:
448,192,303620,1,0,0:0:0:0:
320,192,303677,1,0,0:0:0:0:
448,192,303735,1,0,0:0:0:0:
64,192,303735,1,0,0:0:0:0:
192,192,303793,1,0,0:0:0:0:
64,192,303850,1,0,0:0:0:0:
320,192,303850,1,0,0:0:0:0:
448,192,303908,1,0,0:0:0:0:
64,192,303966,1,0,0:0:0:0:
192,192,303966,1,0,0:0:0:0:
320,192,304024,1,0,0:0:0:0:
448,192,304024,1,0,0:0:0:0:
192,192,304081,1,0,0:0:0:0:
64,192,304081,1,0,0:0:0:0:
448,192,304139,1,0,0:0:0:0:
320,192,304139,1,0,0:0:0:0:
64,192,304197,1,0,0:0:0:0:
192,192,304254,1,0,0:0:0:0:
320,192,304312,1,0,0:0:0:0:
448,192,304370,1,0,0:0:0:0:
64,192,304427,1,0,0:0:0:0:
320,192,304427,1,0,0:0:0:0:
192,192,304485,1,0,0:0:0:0:
448,192,304485,1,0,0:0:0:0:
64,192,304543,1,0,0:0:0:0:
320,192,304543,1,0,0:0:0:0:
448,192,304600,1,0,0:0:0:0:
192,192,304600,1,0,0:0:0:0:
64,192,304658,1,0,0:0:0:0:
320,192,304687,1,0,0:0:0:0:
192,192,304716,1,0,0:0:0:0:
448,192,304745,1,0,0:0:0:0:
64,192,304774,1,0,0:0:0:0:
320,192,304802,1,0,0:0:0:0:
192,192,304831,1,0,0:0:0:0:
448,192,304860,1,0,0:0:0:0:
320,192,304889,1,0,0:0:0:0:
64,192,304889,1,0,0:0:0:0:
192,192,304947,1,0,0:0:0:0:
320,192,305004,1,0,0:0:0:0:
448,192,305004,1,0,0:0:0:0:
64,192,305062,1,0,0:0:0:0:
192,192,305062,1,0,0:0:0:0:
448,192,305120,1,0,0:0:0:0:
320,192,305120,1,0,0:0:0:0:
64,192,305177,1,0,0:0:0:0:
320,192,305235,1,0,0:0:0:0:
192,192,305235,1,0,0:0:0:0:
448,192,305293,1,0,0:0:0:0:
320,192,305350,1,0,0:0:0:0:
64,192,305350,1,0,0:0:0:0:
192,192,305408,1,0,0:0:0:0:
448,192,305466,1,0,0:0:0:0:
64,192,305466,1,0,0:0:0:0:
320,192,305524,1,0,0:0:0:0:
192,192,305581,1,0,0:0:0:0:
64,192,305581,1,0,0:0:0:0:
448,192,305639,1,0,0:0:0:0:
192,192,305697,1,0,0:0:0:0:
320,192,305697,1,0,0:0:0:0:
64,192,305754,1,0,0:0:0:0:
320,192,305812,1,0,0:0:0:0:
192,192,305870,1,0,0:0:0:0:
320,192,305927,1,0,0:0:0:0:
448,192,305927,1,0,0:0:0:0:
64,192,305985,1,0,0:0:0:0:
448,192,306043,1,0,0:0:0:0:
192,192,306043,1,0,0:0:0:0:
320,192,306100,1,0,0:0:0:0:
192,192,306158,1,0,0:0:0:0:
64,192,306158,1,0,0:0:0:0:
320,192,306216,1,0,0:0:0:0:
448,192,306274,1,0,0:0:0:0:
192,192,306274,1,0,0:0:0:0:
64,192,306331,1,0,0:0:0:0:
320,192,306389,1,0,0:0:0:0:
192,192,306389,1,0,0:0:0:0:
448,192,306447,1,0,0:0:0:0:
192,192,306504,1,0,0:0:0:0:
64,192,306504,1,0,0:0:0:0:
448,192,306562,1,0,0:0:0:0:
320,192,306562,1,0,0:0:0:0:
64,192,306620,1,0,0:0:0:0:
192,192,306649,1,0,0:0:0:0:
320,192,306677,1,0,0:0:0:0:
448,192,306706,1,0,0:0:0:0:
64,192,306735,1,0,0:0:0:0:
320,192,306793,1,0,0:0:0:0:
448,192,306850,1,0,0:0:0:0:
192,192,306850,1,0,0:0:0:0:
320,192,306908,1,0,0:0:0:0:
64,192,306908,1,0,0:0:0:0:
448,192,306966,1,0,0:0:0:0:
192,192,306966,1,0,0:0:0:0:
64,192,307024,1,0,0:0:0:0:
448,192,307081,1,0,0:0:0:0:
320,192,307081,1,0,0:0:0:0:
192,192,307139,1,0,0:0:0:0:
448,192,307197,1,0,0:0:0:0:
64,192,307197,1,0,0:0:0:0:
192,192,307254,1,0,0:0:0:0:
64,192,307312,1,0,0:0:0:0:
320,192,307312,1,0,0:0:0:0:
448,192,307370,1,0,0:0:0:0:
320,192,307427,1,0,0:0:0:0:
192,192,307427,1,0,0:0:0:0:
64,192,307485,1,0,0:0:0:0:
448,192,307543,1,0,0:0:0:0:
320,192,307543,1,0,0:0:0:0:
192,192,307600,1,0,0:0:0:0:
64,192,307658,1,0,0:0:0:0:
448,192,307658,1,0,0:0:0:0:
320,192,307716,1,0,0:0:0:0:
64,192,307774,1,0,0:0:0:0:
192,192,307774,1,0,0:0:0:0:
320,192,307831,1,0,0:0:0:0:
448,192,307889,1,0,0:0:0:0:
192,192,307889,1,0,0:0:0:0:
64,192,307947,1,0,0:0:0:0:
320,192,308004,1,0,0:0:0:0:
192,192,308004,1,0,0:0:0:0:
448,192,308062,1,0,0:0:0:0:
192,192,308120,1,0,0:0:0:0:
64,192,308120,1,0,0:0:0:0:
448,192,308177,1,0,0:0:0:0:
64,192,308235,1,0,0:0:0:0:
192,192,308264,1,0,0:0:0:0:
320,192,308293,1,0,0:0:0:0:
448,192,308322,1,0,0:0:0:0:
192,192,308350,1,0,0:0:0:0:
64,192,308350,1,0,0:0:0:0:
448,192,308408,1,0,0:0:0:0:
320,192,308408,1,0,0:0:0:0:
64,192,308466,1,0,0:0:0:0:
192,192,308495,1,0,0:0:0:0:
320,192,308524,1,0,0:0:0:0:
448,192,308552,1,0,0:0:0:0:
192,192,308581,1,0,0:0:0:0:
64,192,308581,1,0,0:0:0:0:
320,192,308639,1,0,0:0:0:0:
64,192,308697,1,0,0:0:0:0:
192,192,308697,1,0,0:0:0:0:
448,192,308754,1,0,0:0:0:0:
320,192,308754,1,0,0:0:0:0:
64,192,308812,1,0,0:0:0:0:
192,192,308812,1,0,0:0:0:0:
448,192,308870,1,0,0:0:0:0:
192,192,308927,1,0,0:0:0:0:
320,192,308927,1,0,0:0:0:0:
64,192,308985,1,0,0:0:0:0:
448,192,309043,1,0,0:0:0:0:
192,192,309043,1,0,0:0:0:0:
320,192,309100,1,0,0:0:0:0:
64,192,309158,1,0,0:0:0:0:
448,192,309158,1,0,0:0:0:0:
192,192,309216,1,0,0:0:0:0:
320,192,309274,1,0,0:0:0:0:
448,192,309274,1,0,0:0:0:0:
64,192,309331,1,0,0:0:0:0:
320,192,309389,1,0,0:0:0:0:
192,192,309389,1,0,0:0:0:0:
448,192,309447,1,0,0:0:0:0:
192,192,309504,1,0,0:0:0:0:
320,192,309562,1,0,0:0:0:0:
64,192,309620,1,0,0:0:0:0:
192,192,309620,1,0,0:0:0:0:
448,192,309677,1,0,0:0:0:0:
64,192,309735,1,0,0:0:0:0:
320,192,309735,1,0,0:0:0:0:
192,192,309793,1,0,0:0:0:0:
320,192,309850,1,0,0:0:0:0:
448,192,309850,1,0,0:0:0:0:
192,192,309908,1,0,0:0:0:0:
64,192,309966,1,0,0:0:0:0:
320,192,309966,1,0,0:0:0:0:
448,192,310024,1,0,0:0:0:0:
192,192,310081,1,0,0:0:0:0:
320,192,310081,1,0,0:0:0:0:
64,192,310139,1,0,0:0:0:0:
448,192,310197,1,0,0:0:0:0:
320,192,310197,1,0,0:0:0:0:
64,192,310254,1,0,0:0:0:0:
192,192,310254,1,0,0:0:0:0:
448,192,310312,1,0,0:0:0:0:
320,192,310341,1,0,0:0:0:0:
192,192,310370,1,0,0:0:0:0:
64,192,310399,1,0,0:0:0:0:
448,192,310427,1,0,0:0:0:0:
192,192,310485,1,0,0:0:0:0:
448,192,310543,1,0,0:0:0:0:
320,192,310543,1,0,0:0:0:0:
192,192,310600,1,0,0:0:0:0:
64,192,310658,1,0,0:0:0:0:
192,192,310716,1,0,0:0:0:0:
448,192,310716,1,0,0:0:0:0:
64,192,310774,1,0,0:0:0:0:
320,192,310831,1,0,0:0:0:0:
192,192,310889,1,0,0:0:0:0:
64,192,310889,1,0,0:0:0:0:
448,192,310947,1,0,0:0:0:0:
320,192,311004,1,0,0:0:0:0:
448,192,311062,1,0,0:0:0:0:
64,192,311062,1,0,0:0:0:0:
192,192,311120,1,0,0:0:0:0:
320,192,311177,1,0,0:0:0:0:
64,192,311235,1,0,0:0:0:0:
448,192,311235,1,0,0:0:0:0:
320,192,311293,1,0,0:0:0:0:
64,192,311350,1,0,0:0:0:0:
192,192,311350,1,0,0:0:0:0:
448,192,311408,1,0,0:0:0:0:
320,192,311408,1,0,0:0:0:0:
64,192,311466,1,0,0:0:0:0:
192,192,311495,1,0,0:0:0:0:
320,192,311524,1,0,0:0:0:0:
448,192,311552,1,0,0:0:0:0:
64,192,311581,1,0,0:0:0:0:
192,192,311610,1,0,0:0:0:0:
448,192,311639,1,0,0:0:0:0:
320,192,311668,1,0,0:0:0:0:
192,192,311697,1,0,0:0:0:0:
64,192,311725,1,0,0:0:0:0:
448,192,311754,1,0,0:0:0:0:
320,192,311783,1,0,0:0:0:0:
64,192,311812,1,0,0:0:0:0:
192,192,311812,1,0,0:0:0:0:
320,192,311870,1,0,0:0:0:0:
448,192,311870,1,0,0:0:0:0:
64,192,311927,1,0,0:0:0:0:
192,192,311927,1,0,0:0:0:0:
448,192,311985,1,0,0:0:0:0:
320,192,311985,1,0,0:0:0:0:
192,192,312043,1,0,0:0:0:0:
64,192,312072,1,0,0:0:0:0:
320,192,312100,1,0,0:0:0:0:
448,192,312129,1,0,0:0:0:0:
192,192,312158,1,0,0:0:0:0:
64,192,312187,1,0,0:0:0:0:
448,192,312216,1,0,0:0:0:0:
320,192,312245,1,0,0:0:0:0:
192,192,312274,1,0,0:0:0:0:
64,192,312274,1,0,0:0:0:0:
320,192,312331,1,0,0:0:0:0:
448,192,312389,1,0,0:0:0:0:
64,192,312389,1,0,0:0:0:0:
192,192,312447,1,0,0:0:0:0:
320,192,312447,1,0,0:0:0:0:
448,192,312504,1,0,0:0:0:0:
64,192,312504,1,0,0:0:0:0:
320,192,312562,1,0,0:0:0:0:
192,192,312562,1,0,0:0:0:0:
64,192,312620,1,0,0:0:0:0:
320,192,312677,1,0,0:0:0:0:
192,192,312735,1,0,0:0:0:0:
448,192,312735,1,0,0:0:0:0:
64,192,312793,1,0,0:0:0:0:
320,192,312850,1,0,0:0:0:0:
448,192,312850,1,0,0:0:0:0:
192,192,312908,1,0,0:0:0:0:
448,192,312966,1,0,0:0:0:0:
64,192,312966,1,0,0:0:0:0:
320,192,313024,1,0,0:0:0:0:
192,192,313081,1,0,0:0:0:0:
64,192,313081,1,0,0:0:0:0:
448,192,313139,1,0,0:0:0:0:
320,192,313197,1,0,0:0:0:0:
192,192,313254,1,0,0:0:0:0:
320,192,313312,1,0,0:0:0:0:
448,192,313312,1,0,0:0:0:0:
64,192,313370,1,0,0:0:0:0:
448,192,313427,1,0,0:0:0:0:
192,192,313427,1,0,0:0:0:0:
320,192,313485,1,0,0:0:0:0:
64,192,313543,1,0,0:0:0:0:
192,192,313543,1,0,0:0:0:0:
320,192,313600,1,0,0:0:0:0:
448,192,313658,1,0,0:0:0:0:
192,192,313658,1,0,0:0:0:0:
64,192,313716,1,0,0:0:0:0:
192,192,313774,1,0,0:0:0:0:
320,192,313774,1,0,0:0:0:0:
448,192,313831,1,0,0:0:0:0:
192,192,313889,1,0,0:0:0:0:
64,192,313889,1,0,0:0:0:0:
448,192,313947,1,0,0:0:0:0:
320,192,313947,1,0,0:0:0:0:
64,192,314004,1,0,0:0:0:0:
192,192,314033,1,0,0:0:0:0:
320,192,314062,1,0,0:0:0:0:
448,192,314091,1,0,0:0:0:0:
64,192,314120,1,0,0:0:0:0:
320,192,314177,1,0,0:0:0:0:
192,192,314235,1,0,0:0:0:0:
448,192,314235,1,0,0:0:0:0:
64,192,314293,1,0,0:0:0:0:
320,192,314293,1,0,0:0:0:0:
448,192,314350,1,0,0:0:0:0:
192,192,314350,1,0,0:0:0:0:
64,192,314408,1,0,0:0:0:0:
320,192,314466,1,0,0:0:0:0:
448,192,314466,1,0,0:0:0:0:
192,192,314524,1,0,0:0:0:0:
448,192,314581,1,0,0:0:0:0:
64,192,314581,1,0,0:0:0:0:
192,192,314639,1,0,0:0:0:0:
320,192,314697,1,0,0:0:0:0:
64,192,314697,1,0,0:0:0:0:
448,192,314754,1,0,0:0:0:0:
320,192,314812,1,0,0:0:0:0:
192,192,314812,1,0,0:0:0:0:
64,192,314870,1,0,0:0:0:0:
448,192,314927,1,0,0:0:0:0:
320,192,314927,1,0,0:0:0:0:
192,192,314985,1,0,0:0:0:0:
448,192,315043,1,0,0:0:0:0:
64,192,315043,1,0,0:0:0:0:
320,192,315100,1,0,0:0:0:0:
64,192,315158,1,0,0:0:0:0:
192,192,315158,1,0,0:0:0:0:
320,192,315216,1,0,0:0:0:0:
192,192,315274,1,0,0:0:0:0:
448,192,315274,1,0,0:0:0:0:
64,192,315331,1,0,0:0:0:0:
320,192,315389,1,0,0:0:0:0:
192,192,315389,1,0,0:0:0:0:
448,192,315447,1,0,0:0:0:0:
64,192,315504,1,0,0:0:0:0:
192,192,315504,1,0,0:0:0:0:
448,192,315562,1,0,0:0:0:0:
64,192,315620,1,0,0:0:0:0:
192,192,315649,1,0,0:0:0:0:
320,192,315677,1,0,0:0:0:0:
448,192,315706,1,0,0:0:0:0:
192,192,315735,1,0,0:0:0:0:
64,192,315735,1,0,0:0:0:0:
448,192,315793,1,0,0:0:0:0:
320,192,315793,1,0,0:0:0:0:
64,192,315850,1,0,0:0:0:0:
192,192,315879,1,0,0:0:0:0:
320,192,315908,1,0,0:0:0:0:
448,192,315937,1,0,0:0:0:0:
192,192,315966,1,0,0:0:0:0:
64,192,315966,1,0,0:0:0:0:
320,192,316024,1,0,0:0:0:0:
64,192,316081,1,0,0:0:0:0:
192,192,316081,1,0,0:0:0:0:
320,192,316139,1,0,0:0:0:0:
448,192,316139,1,0,0:0:0:0:
192,192,316197,1,0,0:0:0:0:
64,192,316197,1,0,0:0:0:0:
448,192,316254,1,0,0:0:0:0:
192,192,316312,1,0,0:0:0:0:
320,192,316312,1,0,0:0:0:0:
64,192,316370,1,0,0:0:0:0:
192,192,316427,1,0,0:0:0:0:
448,192,316427,1,0,0:0:0:0:
320,192,316485,1,0,0:0:0:0:
448,192,316543,1,0,0:0:0:0:
64,192,316543,1,0,0:0:0:0:
192,192,316600,1,0,0:0:0:0:
448,192,316658,1,0,0:0:0:0:
320,192,316658,1,0,0:0:0:0:
64,192,316716,1,0,0:0:0:0:
320,192,316774,1,0,0:0:0:0:
192,192,316774,1,0,0:0:0:0:
448,192,316831,1,0,0:0:0:0:
192,192,316889,1,0,0:0:0:0:
320,192,316947,1,0,0:0:0:0:
64,192,317004,1,0,0:0:0:0:
192,192,317004,1,0,0:0:0:0:
448,192,317062,1,0,0:0:0:0:
320,192,317120,1,0,0:0:0:0:
64,192,317120,1,0,0:0:0:0:
192,192,317177,1,0,0:0:0:0:
320,192,317235,1,0,0:0:0:0:
448,192,317235,1,0,0:0:0:0:
192,192,317293,1,0,0:0:0:0:
320,192,317350,1,0,0:0:0:0:
64,192,317350,1,0,0:0:0:0:
448,192,317408,1,0,0:0:0:0:
192,192,317466,1,0,0:0:0:0:
320,192,317466,1,0,0:0:0:0:
64,192,317524,1,0,0:0:0:0:
320,192,317581,1,0,0:0:0:0:
448,192,317581,1,0,0:0:0:0:
64,192,317639,1,0,0:0:0:0:
192,192,317639,1,0,0:0:0:0:
448,192,317697,1,0,0:0:0:0:
320,192,317725,1,0,0:0:0:0:
192,192,317754,1,0,0:0:0:0:
64,192,317783,1,0,0:0:0:0:
320,192,317812,1,0,0:0:0:0:
448,192,317812,1,0,0:0:0:0:
64,192,317870,1,0,0:0:0:0:
192,192,317870,1,0,0:0:0:0:
448,192,317927,1,0,0:0:0:0:
320,192,317927,1,0,0:0:0:0:
64,192,317985,1,0,0:0:0:0:
192,192,317985,1,0,0:0:0:0:
448,192,318043,1,0,0:0:0:0:
320,192,318043,1,0,0:0:0:0:
192,192,318100,1,0,0:0:0:0:
448,192,318158,1,0,0:0:0:0:
64,192,318158,1,0,0:0:0:0:
320,192,318216,1,0,0:0:0:0:
192,192,318274,1,0,0:0:0:0:
64,192,318274,1,0,0:0:0:0:
448,192,318331,1,0,0:0:0:0:
192,192,318389,1,0,0:0:0:0:
320,192,318389,1,0,0:0:0:0:
448,192,318447,1,0,0:0:0:0:
64,192,318504,1,0,0:0:0:0:
192,192,318533,1,0,0:0:0:0:
320,192,318562,1,0,0:0:0:0:
448,192,318591,1,0,0:0:0:0:
64,192,318620,1,0,0:0:0:0:
192,192,318649,1,0,0:0:0:0:
448,192,318677,1,0,0:0:0:0:
320,192,318706,1,0,0:0:0:0:
192,192,318735,1,0,0:0:0:0:
64,192,318764,1,0,0:0:0:0:
320,192,318793,1,0,0:0:0:0:
448,192,318822,1,0,0:0:0:0:
64,192,318850,1,0,0:0:0:0:
192,192,318879,1,0,0:0:0:0:
320,192,318908,1,0,0:0:0:0:
448,192,318937,1,0,0:0:0:0:
64,192,318966,1,0,0:0:0:0:
192,192,318995,1,0,0:0:0:0:
448,192,319024,1,0,0:0:0:0:
320,192,319052,1,0,0:0:0:0:
192,192,319081,1,0,0:0:0:0:
64,192,319110,1,0,0:0:0:0:
448,192,319139,1,0,0:0:0:0:
320,192,319168,1,0,0:0:0:0:
192,192,319197,128,0,319658:0:0:0:0:
320,192,319427,128,0,319485:0:0:0:0:
448,192,319543,128,0,319600:0:0:0:0:
320,192,319658,1,0,0:0:0:0:
64,192,319658,1,0,0:0:0:0:
448,192,319716,1,0,0:0:0:0:
320,192,319774,1,0,0:0:0:0:
192,192,319889,1,0,0:0:0:0:
64,192,320004,1,0,0:0:0:0:
320,192,320004,1,0,0:0:0:0:
448,192,320062,1,0,0:0:0:0:
192,192,320120,1,0,0:0:0:0:
320,192,320177,1,0,0:0:0:0:
64,192,320235,1,0,0:0:0:0:
448,192,320350,1,0,0:0:0:0:
192,192,320408,1,0,0:0:0:0:
448,192,320466,1,0,0:0:0:0:
192,192,320524,1,0,0:0:0:0:
64,192,320581,1,0,0:0:0:0:
320,192,320639,1,0,0:0:0:0:
192,192,320697,1,0,0:0:0:0:
64,192,320812,1,0,0:0:0:0:
448,192,320812,1,0,0:0:0:0:
320,192,320927,1,0,0:0:0:0:
64,192,320985,1,0,0:0:0:0:
192,192,321043,1,0,0:0:0:0:
64,192,321100,1,0,0:0:0:0:
320,192,321100,1,0,0:0:0:0:
448,192,321158,1,0,0:0:0:0:
64,192,321274,1,0,0:0:0:0:
192,192,321274,1,0,0:0:0:0:
320,192,321331,1,0,0:0:0:0:
64,192,321389,1,0,0:0:0:0:
192,192,321389,1,0,0:0:0:0:
320,192,321447,1,0,0:0:0:0:
448,192,321504,1,0,0:0:0:0:
64,192,321504,1,0,0:0:0:0:
320,192,321562,1,0,0:0:0:0:
192,192,321620,1,0,0:0:0:0:
320,192,321735,1,0,0:0:0:0:
64,192,321850,1,0,0:0:0:0:
192,192,321850,1,0,0:0:0:0:
320,192,321908,1,0,0:0:0:0:
448,192,321966,1,0,0:0:0:0:
64,192,321966,1,0,0:0:0:0:
320,192,322024,1,0,0:0:0:0:
192,192,322081,1,0,0:0:0:0:
448,192,322197,1,0,0:0:0:0:
64,192,322254,1,0,0:0:0:0:
448,192,322312,1,0,0:0:0:0:
64,192,322370,1,0,0:0:0:0:
448,192,322427,1,0,0:0:0:0:
320,192,322427,1,0,0:0:0:0:
192,192,322485,1,0,0:0:0:0:
64,192,322543,1,0,0:0:0:0:
64,192,322658,1,0,0:0:0:0:
320,192,322658,1,0,0:0:0:0:
192,192,322716,1,0,0:0:0:0:
320,192,322774,1,0,0:0:0:0:
64,192,322831,1,0,0:0:0:0:
448,192,322889,1,0,0:0:0:0:
192,192,322889,1,0,0:0:0:0:
320,192,322947,1,0,0:0:0:0:
64,192,323004,1,0,0:0:0:0:
320,192,323120,1,0,0:0:0:0:
448,192,323120,1,0,0:0:0:0:
192,192,323177,1,0,0:0:0:0:
320,192,323235,1,0,0:0:0:0:
448,192,323235,1,0,0:0:0:0:
192,192,323293,1,0,0:0:0:0:
64,192,323350,1,0,0:0:0:0:
448,192,323350,1,0,0:0:0:0:
192,192,323408,1,0,0:0:0:0:
320,192,323466,1,0,0:0:0:0:
64,192,323581,1,0,0:0:0:0:
192,192,323697,1,0,0:0:0:0:
320,192,323697,1,0,0:0:0:0:
448,192,323754,1,0,0:0:0:0:
64,192,323812,1,0,0:0:0:0:
192,192,323812,1,0,0:0:0:0:
320,192,323870,1,0,0:0:0:0:
64,192,323927,1,0,0:0:0:0:
448,192,324043,1,0,0:0:0:0:
192,192,324100,1,0,0:0:0:0:
448,192,324158,1,0,0:0:0:0:
192,192,324216,1,0,0:0:0:0:
448,192,324274,1,0,0:0:0:0:
64,192,324274,1,0,0:0:0:0:
320,192,324331,1,0,0:0:0:0:
192,192,324389,1,0,0:0:0:0:
64,192,324504,1,0,0:0:0:0:
448,192,324504,1,0,0:0:0:0:
320,192,324620,1,0,0:0:0:0:
64,192,324677,1,0,0:0:0:0:
448,192,324735,1,0,0:0:0:0:
192,192,324735,1,0,0:0:0:0:
320,192,324793,1,0,0:0:0:0:
448,192,324850,1,0,0:0:0:0:
64,192,324966,1,0,0:0:0:0:
192,192,324966,1,0,0:0:0:0:
320,192,325024,1,0,0:0:0:0:
64,192,325081,1,0,0:0:0:0:
192,192,325081,1,0,0:0:0:0:
320,192,325139,1,0,0:0:0:0:
448,192,325197,1,0,0:0:0:0:
64,192,325197,1,0,0:0:0:0:
320,192,325254,1,0,0:0:0:0:
192,192,325312,1,0,0:0:0:0:
320,192,325427,1,0,0:0:0:0:
64,192,325543,1,0,0:0:0:0:
192,192,325543,1,0,0:0:0:0:
320,192,325600,1,0,0:0:0:0:
448,192,325658,1,0,0:0:0:0:
64,192,325658,1,0,0:0:0:0:
320,192,325716,1,0,0:0:0:0:
192,192,325774,1,0,0:0:0:0:
448,192,325889,1,0,0:0:0:0:
64,192,325947,1,0,0:0:0:0:
448,192,326004,1,0,0:0:0:0:
64,192,326062,1,0,0:0:0:0:
448,192,326120,1,0,0:0:0:0:
320,192,326120,1,0,0:0:0:0:
192,192,326177,1,0,0:0:0:0:
64,192,326235,1,0,0:0:0:0:
448,192,326350,1,0,0:0:0:0:
320,192,326350,1,0,0:0:0:0:
192,192,326408,1,0,0:0:0:0:
320,192,326466,1,0,0:0:0:0:
448,192,326466,1,0,0:0:0:0:
64,192,326524,1,0,0:0:0:0:
320,192,326581,1,0,0:0:0:0:
192,192,326581,1,0,0:0:0:0:
64,192,326639,1,0,0:0:0:0:
192,192,326697,1,0,0:0:0:0:
320,192,326697,1,0,0:0:0:0:
448,192,326812,1,0,0:0:0:0:
64,192,326812,1,0,0:0:0:0:
320,192,326870,1,0,0:0:0:0:
448,192,326927,1,0,0:0:0:0:
64,192,326927,1,0,0:0:0:0:
320,192,326985,1,0,0:0:0:0:
192,192,327043,1,0,0:0:0:0:
448,192,327043,1,0,0:0:0:0:
64,192,327100,1,0,0:0:0:0:
192,192,327158,1,0,0:0:0:0:
320,192,327274,1,0,0:0:0:0:
192,192,327389,1,0,0:0:0:0:
448,192,327389,1,0,0:0:0:0:
64,192,327447,1,0,0:0:0:0:
320,192,327504,1,0,0:0:0:0:
192,192,327562,1,0,0:0:0:0:
448,192,327620,1,0,0:0:0:0:
64,192,327735,1,0,0:0:0:0:
320,192,327793,1,0,0:0:0:0:
64,192,327850,1,0,0:0:0:0:
320,192,327908,1,0,0:0:0:0:
448,192,327966,1,0,0:0:0:0:
192,192,328024,1,0,0:0:0:0:
320,192,328081,1,0,0:0:0:0:
64,192,328197,1,0,0:0:0:0:
448,192,328197,1,0,0:0:0:0:
192,192,328312,1,0,0:0:0:0:
448,192,328370,1,0,0:0:0:0:
320,192,328427,1,0,0:0:0:0:
192,192,328485,1,0,0:0:0:0:
448,192,328485,1,0,0:0:0:0:
64,192,328543,1,0,0:0:0:0:
320,192,328658,1,0,0:0:0:0:
448,192,328658,1,0,0:0:0:0:
192,192,328716,1,0,0:0:0:0:
448,192,328774,1,0,0:0:0:0:
320,192,328774,1,0,0:0:0:0:
192,192,328831,1,0,0:0:0:0:
448,192,328889,1,0,0:0:0:0:
64,192,328889,1,0,0:0:0:0:
192,192,328947,1,0,0:0:0:0:
320,192,329004,1,0,0:0:0:0:
192,192,329120,1,0,0:0:0:0:
320,192,329235,1,0,0:0:0:0:
448,192,329235,1,0,0:0:0:0:
192,192,329293,1,0,0:0:0:0:
64,192,329350,1,0,0:0:0:0:
448,192,329350,1,0,0:0:0:0:
192,192,329408,1,0,0:0:0:0:
320,192,329466,1,0,0:0:0:0:
64,192,329581,1,0,0:0:0:0:
448,192,329639,1,0,0:0:0:0:
64,192,329697,1,0,0:0:0:0:
448,192,329754,1,0,0:0:0:0:
192,192,329812,1,0,0:0:0:0:
64,192,329812,1,0,0:0:0:0:
320,192,329870,1,0,0:0:0:0:
448,192,329927,1,0,0:0:0:0:
192,192,330043,1,0,0:0:0:0:
448,192,330043,1,0,0:0:0:0:
320,192,330100,1,0,0:0:0:0:
192,192,330158,1,0,0:0:0:0:
448,192,330216,1,0,0:0:0:0:
320,192,330274,1,0,0:0:0:0:
64,192,330274,1,0,0:0:0:0:
192,192,330331,1,0,0:0:0:0:
448,192,330389,1,0,0:0:0:0:
64,192,330504,1,0,0:0:0:0:
192,192,330504,1,0,0:0:0:0:
320,192,330562,1,0,0:0:0:0:
192,192,330620,1,0,0:0:0:0:
64,192,330620,1,0,0:0:0:0:
320,192,330677,1,0,0:0:0:0:
448,192,330735,1,0,0:0:0:0:
64,192,330735,1,0,0:0:0:0:
320,192,330793,1,0,0:0:0:0:
192,192,330850,1,0,0:0:0:0:
448,192,330966,1,0,0:0:0:0:
320,192,331081,1,0,0:0:0:0:
192,192,331081,1,0,0:0:0:0:
64,192,331139,1,0,0:0:0:0:
448,192,331197,1,0,0:0:0:0:
320,192,331197,1,0,0:0:0:0:
192,192,331254,1,0,0:0:0:0:
448,192,331312,1,0,0:0:0:0:
64,192,331427,1,0,0:0:0:0:
320,192,331485,1,0,0:0:0:0:
64,192,331543,1,0,0:0:0:0:
320,192,331600,1,0,0:0:0:0:
448,192,331658,1,0,0:0:0:0:
64,192,331658,1,0,0:0:0:0:
192,192,331716,1,0,0:0:0:0:
320,192,331774,1,0,0:0:0:0:
64,192,331889,1,0,0:0:0:0:
448,192,331889,1,0,0:0:0:0:
192,192,332004,1,0,0:0:0:0:
448,192,332062,1,0,0:0:0:0:
64,192,332120,1,0,0:0:0:0:
320,192,332120,1,0,0:0:0:0:
192,192,332177,1,0,0:0:0:0:
64,192,332235,1,0,0:0:0:0:
448,192,332350,1,0,0:0:0:0:
320,192,332350,1,0,0:0:0:0:
192,192,332408,1,0,0:0:0:0:
448,192,332466,1,0,0:0:0:0:
320,192,332466,1,0,0:0:0:0:
192,192,332524,1,0,0:0:0:0:
448,192,332581,1,0,0:0:0:0:
64,192,332581,1,0,0:0:0:0:
192,192,332639,1,0,0:0:0:0:
320,192,332697,1,0,0:0:0:0:
192,192,332812,1,0,0:0:0:0:
320,192,332927,1,0,0:0:0:0:
448,192,332927,1,0,0:0:0:0:
192,192,332985,1,0,0:0:0:0:
448,192,333043,1,0,0:0:0:0:
64,192,333043,1,0,0:0:0:0:
192,192,333100,1,0,0:0:0:0:
320,192,333158,1,0,0:0:0:0:
64,192,333274,1,0,0:0:0:0:
448,192,333331,1,0,0:0:0:0:
64,192,333389,1,0,0:0:0:0:
448,192,333447,1,0,0:0:0:0:
192,192,333504,1,0,0:0:0:0:
64,192,333504,1,0,0:0:0:0:
320,192,333562,1,0,0:0:0:0:
448,192,333620,1,0,0:0:0:0:
192,192,333735,1,0,0:0:0:0:
64,192,333735,1,0,0:0:0:0:
320,192,333793,1,0,0:0:0:0:
192,192,333850,1,0,0:0:0:0:
64,192,333850,1,0,0:0:0:0:
448,192,333908,1,0,0:0:0:0:
320,192,333966,1,0,0:0:0:0:
192,192,333966,1,0,0:0:0:0:
64,192,334024,1,0,0:0:0:0:
192,192,334081,1,0,0:0:0:0:
320,192,334081,1,0,0:0:0:0:
448,192,334197,1,0,0:0:0:0:
320,192,334197,1,0,0:0:0:0:
192,192,334254,1,0,0:0:0:0:
448,192,334312,1,0,0:0:0:0:
320,192,334312,1,0,0:0:0:0:
192,192,334370,1,0,0:0:0:0:
448,192,334427,1,0,0:0:0:0:
64,192,334427,1,0,0:0:0:0:
320,192,334658,1,0,0:0:0:0:
448,192,334889,1,0,0:0:0:0:
64,192,334889,1,0,0:0:0:0:
192,192,335120,1,0,0:0:0:0:
64,192,335350,1,0,0:0:0:0:
448,192,335350,1,0,0:0:0:0:
320,192,335581,1,0,0:0:0:0:
448,192,335812,1,0,0:0:0:0:
64,192,335812,1,0,0:0:0:0:
192,192,336043,1,0,0:0:0:0:
448,192,336274,1,0,0:0:0:0:
64,192,336274,1,0,0:0:0:0:
320,192,336504,1,0,0:0:0:0:
448,192,336735,1,0,0:0:0:0:
64,192,336735,1,0,0:0:0:0:
192,192,336966,1,0,0:0:0:0:
64,192,337197,1,0,0:0:0:0:
448,192,337197,1,0,0:0:0:0:
448,192,337427,1,0,0:0:0:0:
320,192,337456,1,0,0:0:0:0:
192,192,337485,1,0,0:0:0:0:
64,192,337514,1,0,0:0:0:0:
320,192,337543,1,0,0:0:0:0:
192,192,337600,1,0,0:0:0:0:
320,192,337658,1,0,0:0:0:0:
448,192,337658,1,0,0:0:0:0:
64,192,337716,1,0,0:0:0:0:
192,192,337716,1,0,0:0:0:0:
448,192,337774,1,0,0:0:0:0:
320,192,337774,1,0,0:0:0:0:
64,192,337831,1,0,0:0:0:0:
192,192,337831,1,0,0:0:0:0:
448,192,337860,1,0,0:0:0:0:
320,192,337889,1,0,0:0:0:0:
192,192,337918,1,0,0:0:0:0:
64,192,337947,1,0,0:0:0:0:
448,192,337975,1,0,0:0:0:0:
320,192,338004,1,0,0:0:0:0:
192,192,338033,1,0,0:0:0:0:
64,192,338062,1,0,0:0:0:0:
448,192,338091,1,0,0:0:0:0:
192,192,338120,1,0,0:0:0:0:
320,192,338120,1,0,0:0:0:0:
448,192,338350,1,0,0:0:0:0:
192,192,338581,1,0,0:0:0:0:
320,192,338581,1,0,0:0:0:0:
64,192,338812,1,0,0:0:0:0:
320,192,339043,1,0,0:0:0:0:
192,192,339043,1,0,0:0:0:0:
448,192,339274,1,0,0:0:0:0:
192,192,339504,1,0,0:0:0:0:
320,192,339504,1,0,0:0:0:0:
64,192,339735,1,0,0:0:0:0:
320,192,339966,1,0,0:0:0:0:
192,192,339966,1,0,0:0:0:0:
448,192,340197,1,0,0:0:0:0:
192,192,340427,1,0,0:0:0:0:
320,192,340427,1,0,0:0:0:0:
64,192,340658,1,0,0:0:0:0:
320,192,340889,1,0,0:0:0:0:
192,192,340889,1,0,0:0:0:0:
448,192,341120,128,0,341235:0:0:0:0:
64,192,341235,128,0,341350:0:0:0:0:
192,192,341350,1,0,0:0:0:0:
320,192,341466,1,0,0:0:0:0:
448,192,341581,1,0,0:0:0:0:
64,192,341581,1,0,0:0:0:0:
320,192,341639,1,0,0:0:0:0:
192,192,341639,1,0,0:0:0:0:
64,192,341697,1,0,0:0:0:0:
448,192,341697,1,0,0:0:0:0:
320,192,341754,1,0,0:0:0:0:
192,192,341754,1,0,0:0:0:0:
64,192,341812,1,0,0:0:0:0:
448,192,341812,1,0,0:0:0:0:
320,192,342043,1,0,0:0:0:0:
192,192,342043,1,0,0:0:0:0:
64,192,342274,1,0,0:0:0:0:
448,192,342274,1,0,0:0:0:0:
320,192,342504,1,0,0:0:0:0:
192,192,342504,1,0,0:0:0:0:
64,192,342735,1,0,0:0:0:0:
448,192,342735,1,0,0:0:0:0:
320,192,342966,1,0,0:0:0:0:
192,192,342966,1,0,0:0:0:0:
64,192,343197,1,0,0:0:0:0:
448,192,343197,1,0,0:0:0:0:
192,192,343427,1,0,0:0:0:0:
320,192,343427,1,0,0:0:0:0:
448,192,343658,1,0,0:0:0:0:
64,192,343658,1,0,0:0:0:0:
320,192,343716,1,0,0:0:0:0:
192,192,343716,1,0,0:0:0:0:
448,192,343774,1,0,0:0:0:0:
64,192,343774,1,0,0:0:0:0:
320,192,343889,1,0,0:0:0:0:
192,192,343889,1,0,0:0:0:0:
64,192,344120,1,0,0:0:0:0:
448,192,344120,1,0,0:0:0:0:
320,192,344235,1,0,0:0:0:0:
64,192,344350,1,0,0:0:0:0:
192,192,344350,1,0,0:0:0:0:
320,192,344466,1,0,0:0:0:0:
448,192,344581,1,0,0:0:0:0:
64,192,344581,1,0,0:0:0:0:
64,192,344812,1,0,0:0:0:0:
192,192,344841,1,0,0:0:0:0:
320,192,344870,1,0,0:0:0:0:
448,192,344899,1,0,0:0:0:0:
192,192,344927,1,0,0:0:0:0:
64,192,344927,1,0,0:0:0:0:
448,192,344985,1,0,0:0:0:0:
320,192,344985,1,0,0:0:0:0:
64,192,345043,1,0,0:0:0:0:
448,192,345100,128,0,345216:0:0:0:0:
192,192,345216,128,0,345274:0:0:0:0:
320,192,345274,128,0,345331:0:0:0:0:
64,192,345331,128,0,345475:0:0:0:0:
448,192,345504,1,0,0:0:0:0:
320,192,345504,1,0,0:0:0:0:
192,192,345620,1,0,0:0:0:0:
448,192,345735,1,0,0:0:0:0:
64,192,345735,1,0,0:0:0:0:
192,192,345850,1,0,0:0:0:0:
320,192,345966,1,0,0:0:0:0:
448,192,345966,1,0,0:0:0:0:
64,192,346081,1,0,0:0:0:0:
192,192,346197,1,0,0:0:0:0:
320,192,346197,1,0,0:0:0:0:
64,192,346312,1,0,0:0:0:0:
448,192,346427,1,0,0:0:0:0:
320,192,346427,1,0,0:0:0:0:
192,192,346543,1,0,0:0:0:0:
448,192,346658,1,0,0:0:0:0:
64,192,346658,1,0,0:0:0:0:
192,192,346774,1,0,0:0:0:0:
448,192,346889,1,0,0:0:0:0:
320,192,346889,1,0,0:0:0:0:
64,192,347004,1,0,0:0:0:0:
320,192,347120,1,0,0:0:0:0:
192,192,347120,1,0,0:0:0:0:
320,192,347235,1,0,0:0:0:0:
192,192,347235,1,0,0:0:0:0:
192,192,347350,1,0,0:0:0:0:
64,192,347350,1,0,0:0:0:0:
448,192,347466,1,0,0:0:0:0:
320,192,347495,1,0,0:0:0:0:
192,192,347524,1,0,0:0:0:0:
64,192,347552,1,0,0:0:0:0:
448,192,347581,1,0,0:0:0:0:
320,192,347581,1,0,0:0:0:0:
64,192,347697,1,0,0:0:0:0:
192,192,347725,1,0,0:0:0:0:
320,192,347754,1,0,0:0:0:0:
448,192,347783,1,0,0:0:0:0:
64,192,347812,1,0,0:0:0:0:
192,192,347812,1,0,0:0:0:0:
448,192,347927,1,0,0:0:0:0:
320,192,347927,1,0,0:0:0:0:
64,192,348043,1,0,0:0:0:0:
192,192,348072,1,0,0:0:0:0:
320,192,348100,1,0,0:0:0:0:
448,192,348129,1,0,0:0:0:0:
64,192,348158,1,0,0:0:0:0:
192,192,348187,1,0,0:0:0:0:
320,192,348216,1,0,0:0:0:0:
448,192,348245,1,0,0:0:0:0:
64,192,348274,1,0,0:0:0:0:
192,192,348274,1,0,0:0:0:0:
320,192,348504,128,0,348620:0:0:0:0:
64,192,348620,128,0,348735:0:0:0:0:
448,192,348735,1,0,0:0:0:0:
192,192,348735,1,0,0:0:0:0:
448,192,348850,1,0,0:0:0:0:
64,192,348850,1,0,0:0:0:0:
64,192,348966,1,0,0:0:0:0:
192,192,348966,1,0,0:0:0:0:
448,192,349024,1,0,0:0:0:0:
320,192,349024,1,0,0:0:0:0:
64,192,349081,1,0,0:0:0:0:
192,192,349081,1,0,0:0:0:0:
448,192,349139,1,0,0:0:0:0:
320,192,349139,1,0,0:0:0:0:
320,192,349197,1,0,0:0:0:0:
448,192,349197,1,0,0:0:0:0:
192,192,349197,1,0,0:0:0:0:
64,192,349197,1,0,0:0:0:0:
192,192,349658,1,0,0:0:0:0:
448,192,350120,1,0,0:0:0:0:
320,192,350120,1,0,0:0:0:0:
448,192,350581,1,0,0:0:0:0:
192,192,351043,1,0,0:0:0:0:
64,192,351043,1,0,0:0:0:0:
448,192,351504,1,0,0:0:0:0:
192,192,351966,1,0,0:0:0:0:
320,192,351966,1,0,0:0:0:0:
192,192,352427,1,0,0:0:0:0:
64,192,352889,1,0,0:0:0:0:
192,192,352889,1,0,0:0:0:0:
64,192,353350,1,0,0:0:0:0:
192,192,353812,1,0,0:0:0:0:
320,192,353812,1,0,0:0:0:0:
320,192,354274,1,0,0:0:0:0:
64,192,354735,1,0,0:0:0:0:
448,192,354735,1,0,0:0:0:0:
192,192,355197,1,0,0:0:0:0:
64,192,355658,1,0,0:0:0:0:
320,192,355658,1,0,0:0:0:0:
64,192,356581,1,0,0:0:0:0:
320,192,356581,1,0,0:0:0:0:
192,192,357043,1,0,0:0:0:0:
320,192,357504,1,0,0:0:0:0:
448,192,357504,1,0,0:0:0:0:
448,192,357966,1,0,0:0:0:0:
192,192,358427,1,0,0:0:0:0:
64,192,358427,1,0,0:0:0:0:
448,192,358889,1,0,0:0:0:0:
192,192,359350,1,0,0:0:0:0:
320,192,359350,1,0,0:0:0:0:
192,192,359812,1,0,0:0:0:0:
192,192,360274,1,0,0:0:0:0:
64,192,360274,1,0,0:0:0:0:
64,192,360735,1,0,0:0:0:0:
192,192,361197,1,0,0:0:0:0:
320,192,361197,1,0,0:0:0:0:
320,192,361658,1,0,0:0:0:0:
448,192,362120,1,0,0:0:0:0:
64,192,362120,1,0,0:0:0:0:
192,192,362581,1,0,0:0:0:0:
320,192,363043,128,0,363966:0:0:0:0:
64,192,363043,1,0,0:0:0:0:
192,192,363966,1,0,0:0:0:0:
64,192,378274,5,0,0:0:0:0:
448,192,378331,1,0,0:0:0:0:
64,192,378389,1,0,0:0:0:0:
448,192,378447,1,0,0:0:0:0:
192,192,378504,1,0,0:0:0:0:
320,192,378562,1,0,0:0:0:0:
192,192,378620,1,0,0:0:0:0:
320,192,378677,1,0,0:0:0:0:
448,192,378735,1,0,0:0:0:0:
64,192,378735,1,0,0:0:0:0:
192,192,378850,1,0,0:0:0:0:
320,192,378908,1,0,0:0:0:0:
192,192,378966,1,0,0:0:0:0:
448,192,379081,1,0,0:0:0:0:
64,192,379197,1,0,0:0:0:0:
320,192,379312,1,0,0:0:0:0:
320,192,379427,1,0,0:0:0:0:
320,192,379543,128,0,379774:0:0:0:0:
64,192,379774,1,0,0:0:0:0:
192,192,379889,1,0,0:0:0:0:
64,192,380004,1,0,0:0:0:0:
320,192,380120,1,0,0:0:0:0:
192,192,380235,1,0,0:0:0:0:
448,192,380350,1,0,0:0:0:0:
448,192,380581,1,0,0:0:0:0:
192,192,380697,1,0,0:0:0:0:
320,192,380754,1,0,0:0:0:0:
192,192,380812,1,0,0:0:0:0:
448,192,380927,1,0,0:0:0:0:
64,192,381043,1,0,0:0:0:0:
320,192,381158,1,0,0:0:0:0:
320,192,381274,1,0,0:0:0:0:
320,192,381389,128,0,381620:0:0:0:0:
64,192,381620,1,0,0:0:0:0:
192,192,381735,1,0,0:0:0:0:
320,192,381850,1,0,0:0:0:0:
448,192,381966,1,0,0:0:0:0:
320,192,382081,1,0,0:0:0:0:
448,192,382139,1,0,0:0:0:0:
64,192,382197,128,0,382312:0:0:0:0:
320,192,382197,1,0,0:0:0:0:
192,192,382312,1,0,0:0:0:0:
448,192,382312,128,0,382427:0:0:0:0:
64,192,382427,1,0,0:0:0:0:
320,192,382427,1,0,0:0:0:0:
192,192,382543,1,0,0:0:0:0:
320,192,382600,1,0,0:0:0:0:
192,192,382658,1,0,0:0:0:0:
448,192,382774,1,0,0:0:0:0:
64,192,382889,1,0,0:0:0:0:
320,192,383004,1,0,0:0:0:0:
320,192,383120,1,0,0:0:0:0:
320,192,383235,128,0,383466:0:0:0:0:
64,192,383466,1,0,0:0:0:0:
192,192,383581,1,0,0:0:0:0:
64,192,383697,1,0,0:0:0:0:
320,192,383812,1,0,0:0:0:0:
192,192,383927,1,0,0:0:0:0:
448,192,384043,1,0,0:0:0:0:
448,192,384274,1,0,0:0:0:0:
192,192,384389,1,0,0:0:0:0:
320,192,384447,1,0,0:0:0:0:
192,192,384504,1,0,0:0:0:0:
448,192,384620,1,0,0:0:0:0:
64,192,384735,1,0,0:0:0:0:
320,192,384850,1,0,0:0:0:0:
320,192,384966,1,0,0:0:0:0:
320,192,385081,128,0,385312:0:0:0:0:
448,192,385312,1,0,0:0:0:0:
192,192,385427,1,0,0:0:0:0:
448,192,385543,1,0,0:0:0:0:
64,192,385658,1,0,0:0:0:0:
192,192,385658,1,0,0:0:0:0:
320,192,385774,1,0,0:0:0:0:
192,192,385831,1,0,0:0:0:0:
448,192,385889,1,0,0:0:0:0:
320,192,385889,1,0,0:0:0:0:
192,192,386004,1,0,0:0:0:0:
320,192,386004,1,0,0:0:0:0:
64,192,386120,1,0,0:0:0:0:
448,192,386120,1,0,0:0:0:0:
320,192,386120,1,0,0:0:0:0:
192,192,386235,1,0,0:0:0:0:
320,192,386293,1,0,0:0:0:0:
64,192,386350,1,0,0:0:0:0:
192,192,386350,1,0,0:0:0:0:
448,192,386466,1,0,0:0:0:0:
64,192,386581,1,0,0:0:0:0:
192,192,386581,1,0,0:0:0:0:
320,192,386697,1,0,0:0:0:0:
64,192,386812,1,0,0:0:0:0:
320,192,386812,1,0,0:0:0:0:
320,192,386927,128,0,387158:0:0:0:0:
448,192,387043,1,0,0:0:0:0:
64,192,387158,1,0,0:0:0:0:
448,192,387274,1,0,0:0:0:0:
192,192,387274,1,0,0:0:0:0:
64,192,387389,1,0,0:0:0:0:
448,192,387504,1,0,0:0:0:0:
320,192,387504,1,0,0:0:0:0:
192,192,387620,1,0,0:0:0:0:
448,192,387735,1,0,0:0:0:0:
64,192,387735,1,0,0:0:0:0:
192,192,387850,1,0,0:0:0:0:
448,192,387966,1,0,0:0:0:0:
64,192,387966,1,0,0:0:0:0:
320,192,387966,1,0,0:0:0:0:
192,192,388081,1,0,0:0:0:0:
320,192,388139,1,0,0:0:0:0:
192,192,388197,1,0,0:0:0:0:
64,192,388197,1,0,0:0:0:0:
448,192,388312,1,0,0:0:0:0:
192,192,388427,1,0,0:0:0:0:
64,192,388427,1,0,0:0:0:0:
320,192,388543,1,0,0:0:0:0:
320,192,388658,1,0,0:0:0:0:
64,192,388658,1,0,0:0:0:0:
320,192,388774,128,0,389004:0:0:0:0:
448,192,388889,1,0,0:0:0:0:
64,192,389004,1,0,0:0:0:0:
192,192,389120,1,0,0:0:0:0:
448,192,389120,1,0,0:0:0:0:
320,192,389235,1,0,0:0:0:0:
64,192,389350,1,0,0:0:0:0:
192,192,389350,1,0,0:0:0:0:
448,192,389350,1,0,0:0:0:0:
320,192,389466,1,0,0:0:0:0:
64,192,389466,1,0,0:0:0:0:
192,192,389466,1,0,0:0:0:0:
448,192,389524,1,0,0:0:0:0:
64,192,389581,128,0,389697:0:0:0:0:
320,192,389581,1,0,0:0:0:0:
192,192,389697,1,0,0:0:0:0:
448,192,389697,128,0,389812:0:0:0:0:
320,192,389812,1,0,0:0:0:0:
64,192,389812,1,0,0:0:0:0:
64,192,390735,1,0,0:0:0:0:
192,192,390735,1,0,0:0:0:0:
448,192,391197,1,0,0:0:0:0:
320,192,391197,1,0,0:0:0:0:
64,192,391658,1,0,0:0:0:0:
192,192,391658,1,0,0:0:0:0:
64,192,391889,1,0,0:0:0:0:
192,192,391889,1,0,0:0:0:0:
448,192,392120,1,0,0:0:0:0:
320,192,392120,1,0,0:0:0:0:
448,192,392350,1,0,0:0:0:0:
320,192,392350,1,0,0:0:0:0:
192,192,392581,1,0,0:0:0:0:
64,192,392581,1,0,0:0:0:0:
192,192,392697,1,0,0:0:0:0:
64,192,392697,1,0,0:0:0:0:
320,192,392812,1,0,0:0:0:0:
192,192,392812,1,0,0:0:0:0:
320,192,392927,1,0,0:0:0:0:
192,192,392927,1,0,0:0:0:0:
448,192,393043,1,0,0:0:0:0:
320,192,393043,1,0,0:0:0:0:
448,192,393158,1,0,0:0:0:0:
320,192,393158,1,0,0:0:0:0:
448,192,393274,1,0,0:0:0:0:
64,192,393274,1,0,0:0:0:0:
448,192,393389,1,0,0:0:0:0:
64,192,393389,1,0,0:0:0:0:
320,192,393504,1,0,0:0:0:0:
64,192,393504,1,0,0:0:0:0:
192,192,393504,1,0,0:0:0:0:
448,192,393620,1,0,0:0:0:0:
320,192,393735,1,0,0:0:0:0:
64,192,393735,1,0,0:0:0:0:
192,192,393735,1,0,0:0:0:0:
448,192,393850,1,0,0:0:0:0:
64,192,393966,1,0,0:0:0:0:
192,192,393966,1,0,0:0:0:0:
320,192,393966,1,0,0:0:0:0:
448,192,394081,1,0,0:0:0:0:
320,192,394197,1,0,0:0:0:0:
192,192,394197,1,0,0:0:0:0:
64,192,394197,1,0,0:0:0:0:
448,192,394312,1,0,0:0:0:0:
448,192,394427,1,0,0:0:0:0:
320,192,394427,1,0,0:0:0:0:
192,192,394427,1,0,0:0:0:0:
64,192,394543,1,0,0:0:0:0:
192,192,394658,1,0,0:0:0:0:
320,192,394658,1,0,0:0:0:0:
448,192,394658,1,0,0:0:0:0:
64,192,394774,1,0,0:0:0:0:
448,192,394889,1,0,0:0:0:0:
320,192,394889,1,0,0:0:0:0:
192,192,394889,1,0,0:0:0:0:
64,192,395004,1,0,0:0:0:0:
192,192,395120,1,0,0:0:0:0:
320,192,395120,1,0,0:0:0:0:
448,192,395120,1,0,0:0:0:0:
64,192,395235,1,0,0:0:0:0:
320,192,395235,1,0,0:0:0:0:
192,192,395235,1,0,0:0:0:0:
448,192,395350,1,0,0:0:0:0:
320,192,395350,1,0,0:0:0:0:
64,192,395350,1,0,0:0:0:0:
192,192,395466,1,0,0:0:0:0:
448,192,395581,1,0,0:0:0:0:
320,192,395581,1,0,0:0:0:0:
64,192,395581,1,0,0:0:0:0:
192,192,395697,1,0,0:0:0:0:
448,192,395812,1,0,0:0:0:0:
320,192,395812,1,0,0:0:0:0:
64,192,395812,1,0,0:0:0:0:
192,192,395927,1,0,0:0:0:0:
448,192,396043,1,0,0:0:0:0:
320,192,396043,1,0,0:0:0:0:
64,192,396043,1,0,0:0:0:0:
192,192,396158,1,0,0:0:0:0:
448,192,396274,1,0,0:0:0:0:
192,192,396274,1,0,0:0:0:0:
64,192,396274,1,0,0:0:0:0:
320,192,396389,1,0,0:0:0:0:
64,192,396504,1,0,0:0:0:0:
192,192,396504,1,0,0:0:0:0:
448,192,396504,1,0,0:0:0:0:
320,192,396620,1,0,0:0:0:0:
64,192,396735,1,0,0:0:0:0:
192,192,396735,1,0,0:0:0:0:
448,192,396735,1,0,0:0:0:0:
320,192,396793,1,0,0:0:0:0:
192,192,396850,1,0,0:0:0:0:
64,192,396966,1,0,0:0:0:0:
320,192,396966,1,0,0:0:0:0:
448,192,396966,1,0,0:0:0:0:
448,192,397081,1,0,0:0:0:0:
320,192,397081,1,0,0:0:0:0:
320,192,397197,1,0,0:0:0:0:
192,192,397197,1,0,0:0:0:0:
64,192,397197,1,0,0:0:0:0:
448,192,397312,1,0,0:0:0:0:
320,192,397427,1,0,0:0:0:0:
192,192,397427,1,0,0:0:0:0:
64,192,397427,1,0,0:0:0:0:
448,192,397543,1,0,0:0:0:0:
64,192,397658,1,0,0:0:0:0:
192,192,397658,1,0,0:0:0:0:
320,192,397658,1,0,0:0:0:0:
448,192,397774,1,0,0:0:0:0:
64,192,397889,1,0,0:0:0:0:
192,192,397889,1,0,0:0:0:0:
320,192,397889,1,0,0:0:0:0:
448,192,398004,1,0,0:0:0:0:
448,192,398120,1,0,0:0:0:0:
320,192,398120,1,0,0:0:0:0:
192,192,398120,1,0,0:0:0:0:
64,192,398235,1,0,0:0:0:0:
448,192,398350,1,0,0:0:0:0:
320,192,398350,1,0,0:0:0:0:
192,192,398350,1,0,0:0:0:0:
64,192,398466,1,0,0:0:0:0:
448,192,398581,1,0,0:0:0:0:
320,192,398581,1,0,0:0:0:0:
192,192,398581,1,0,0:0:0:0:
64,192,398697,1,0,0:0:0:0:
448,192,398812,1,0,0:0:0:0:
320,192,398812,1,0,0:0:0:0:
192,192,398812,1,0,0:0:0:0:
320,192,398927,1,0,0:0:0:0:
192,192,398927,1,0,0:0:0:0:
64,192,398927,1,0,0:0:0:0:
320,192,399043,1,0,0:0:0:0:
448,192,399043,1,0,0:0:0:0:
64,192,399043,1,0,0:0:0:0:
192,192,399158,1,0,0:0:0:0:
320,192,399274,1,0,0:0:0:0:
448,192,399274,1,0,0:0:0:0:
64,192,399274,1,0,0:0:0:0:
192,192,399389,1,0,0:0:0:0:
448,192,399504,1,0,0:0:0:0:
64,192,399504,1,0,0:0:0:0:
320,192,399504,1,0,0:0:0:0:
192,192,399620,1,0,0:0:0:0:
448,192,399735,1,0,0:0:0:0:
64,192,399735,1,0,0:0:0:0:
320,192,399735,1,0,0:0:0:0:
192,192,399850,1,0,0:0:0:0:
448,192,399966,1,0,0:0:0:0:
192,192,399966,1,0,0:0:0:0:
64,192,399966,1,0,0:0:0:0:
320,192,400081,1,0,0:0:0:0:
448,192,400197,1,0,0:0:0:0:
64,192,400197,1,0,0:0:0:0:
192,192,400197,1,0,0:0:0:0:
320,192,400312,1,0,0:0:0:0:
448,192,400427,1,0,0:0:0:0:
64,192,400427,1,0,0:0:0:0:
192,192,400427,1,0,0:0:0:0:
320,192,400543,1,0,0:0:0:0:
192,192,400600,1,0,0:0:0:0:
448,192,400658,1,0,0:0:0:0:
64,192,400658,1,0,0:0:0:0:
320,192,400658,1,0,0:0:0:0:
448,192,400774,1,0,0:0:0:0:
320,192,400774,1,0,0:0:0:0:
192,192,400774,1,0,0:0:0:0:
320,192,400889,1,0,0:0:0:0:
448,192,400889,1,0,0:0:0:0:
64,192,400889,1,0,0:0:0:0:
192,192,400889,1,0,0:0:0:0:
64,192,401004,1,0,0:0:0:0:
192,192,401004,1,0,0:0:0:0:
64,192,401120,1,0,0:0:0:0:
192,192,401120,1,0,0:0:0:0:
64,192,401235,1,0,0:0:0:0:
192,192,401235,1,0,0:0:0:0:
448,192,401350,1,0,0:0:0:0:
320,192,401350,1,0,0:0:0:0:
448,192,401466,1,0,0:0:0:0:
320,192,401466,1,0,0:0:0:0:
448,192,401581,1,0,0:0:0:0:
320,192,401581,1,0,0:0:0:0:
448,192,401697,1,0,0:0:0:0:
320,192,401697,1,0,0:0:0:0:
320,192,401812,1,0,0:0:0:0:
448,192,401812,1,0,0:0:0:0:
64,192,401812,1,0,0:0:0:0:
192,192,401812,1,0,0:0:0:0:
320,192,401927,1,0,0:0:0:0:
64,192,401927,1,0,0:0:0:0:
320,192,402043,1,0,0:0:0:0:
64,192,402043,1,0,0:0:0:0:
320,192,402158,1,0,0:0:0:0:
64,192,402158,1,0,0:0:0:0:
448,192,402274,1,0,0:0:0:0:
192,192,402274,1,0,0:0:0:0:
448,192,402389,1,0,0:0:0:0:
192,192,402389,1,0,0:0:0:0:
448,192,402504,1,0,0:0:0:0:
192,192,402504,1,0,0:0:0:0:
448,192,402620,1,0,0:0:0:0:
192,192,402620,1,0,0:0:0:0:
320,192,402735,1,0,0:0:0:0:
448,192,402735,1,0,0:0:0:0:
64,192,402735,1,0,0:0:0:0:
192,192,402735,1,0,0:0:0:0:
448,192,402850,1,0,0:0:0:0:
64,192,402850,1,0,0:0:0:0:
448,192,402966,1,0,0:0:0:0:
64,192,402966,1,0,0:0:0:0:
448,192,403081,1,0,0:0:0:0:
64,192,403081,1,0,0:0:0:0:
320,192,403197,1,0,0:0:0:0:
192,192,403197,1,0,0:0:0:0:
320,192,403312,1,0,0:0:0:0:
192,192,403312,1,0,0:0:0:0:
320,192,403427,1,0,0:0:0:0:
192,192,403427,1,0,0:0:0:0:
320,192,403543,1,0,0:0:0:0:
192,192,403543,1,0,0:0:0:0:
192,192,403658,1,0,0:0:0:0:
64,192,403658,1,0,0:0:0:0:
448,192,403658,1,0,0:0:0:0:
320,192,403658,1,0,0:0:0:0:
448,192,403774,1,0,0:0:0:0:
320,192,403774,1,0,0:0:0:0:
448,192,403889,1,0,0:0:0:0:
320,192,403889,1,0,0:0:0:0:
448,192,404004,1,0,0:0:0:0:
320,192,404004,1,0,0:0:0:0:
64,192,404120,1,0,0:0:0:0:
192,192,404120,1,0,0:0:0:0:
64,192,404235,1,0,0:0:0:0:
192,192,404235,1,0,0:0:0:0:
64,192,404350,1,0,0:0:0:0:
192,192,404350,1,0,0:0:0:0:
64,192,404466,1,0,0:0:0:0:
192,192,404466,1,0,0:0:0:0:
64,192,404581,1,0,0:0:0:0:
448,192,404581,1,0,0:0:0:0:
192,192,404639,1,0,0:0:0:0:
320,192,404697,1,0,0:0:0:0:
448,192,404754,1,0,0:0:0:0:
64,192,404812,1,0,0:0:0:0:
192,192,404870,1,0,0:0:0:0:
320,192,404927,1,0,0:0:0:0:
192,192,404985,1,0,0:0:0:0:
448,192,405043,1,0,0:0:0:0:
64,192,405043,1,0,0:0:0:0:
320,192,405100,1,0,0:0:0:0:
192,192,405158,1,0,0:0:0:0:
64,192,405216,1,0,0:0:0:0:
448,192,405274,1,0,0:0:0:0:
320,192,405331,1,0,0:0:0:0:
192,192,405389,1,0,0:0:0:0:
320,192,405447,1,0,0:0:0:0:
64,192,405504,1,0,0:0:0:0:
448,192,405504,1,0,0:0:0:0:
192,192,405562,1,0,0:0:0:0:
320,192,405620,1,0,0:0:0:0:
448,192,405677,1,0,0:0:0:0:
64,192,405735,1,0,0:0:0:0:
448,192,405793,1,0,0:0:0:0:
320,192,405850,1,0,0:0:0:0:
192,192,405908,1,0,0:0:0:0:
448,192,405966,1,0,0:0:0:0:
64,192,405966,1,0,0:0:0:0:
320,192,406024,1,0,0:0:0:0:
192,192,406081,1,0,0:0:0:0:
64,192,406139,1,0,0:0:0:0:
448,192,406197,1,0,0:0:0:0:
64,192,406254,1,0,0:0:0:0:
192,192,406312,1,0,0:0:0:0:
320,192,406370,1,0,0:0:0:0:
64,192,406427,128,0,406658:0:0:0:0:
448,192,406427,1,0,0:0:0:0:
192,192,406658,128,0,406889:0:0:0:0:
448,192,406889,128,0,407120:0:0:0:0:
64,192,407120,1,0,0:0:0:0:
320,192,407177,1,0,0:0:0:0:
64,192,407235,1,0,0:0:0:0:
320,192,407293,1,0,0:0:0:0:
192,192,407350,128,0,407812:0:0:0:0:
64,192,407812,1,0,0:0:0:0:
448,192,407812,1,0,0:0:0:0:
192,192,408043,1,0,0:0:0:0:
320,192,408043,1,0,0:0:0:0:
448,192,408274,1,0,0:0:0:0:
64,192,408274,1,0,0:0:0:0:
320,192,408331,1,0,0:0:0:0:
192,192,408389,1,0,0:0:0:0:
64,192,408389,1,0,0:0:0:0:
320,192,408447,1,0,0:0:0:0:
448,192,408504,1,0,0:0:0:0:
192,192,408504,1,0,0:0:0:0:
64,192,408562,1,0,0:0:0:0:
320,192,408620,1,0,0:0:0:0:
192,192,408620,1,0,0:0:0:0:
448,192,408677,1,0,0:0:0:0:
64,192,408735,1,0,0:0:0:0:
320,192,408735,1,0,0:0:0:0:
448,192,408793,1,0,0:0:0:0:
64,192,408850,1,0,0:0:0:0:
192,192,408850,1,0,0:0:0:0:
320,192,408908,1,0,0:0:0:0:
448,192,408966,1,0,0:0:0:0:
192,192,408966,1,0,0:0:0:0:
64,192,409024,1,0,0:0:0:0:
320,192,409081,1,0,0:0:0:0:
448,192,409081,1,0,0:0:0:0:
192,192,409139,1,0,0:0:0:0:
320,192,409197,1,0,0:0:0:0:
64,192,409197,1,0,0:0:0:0:
192,192,409254,1,0,0:0:0:0:
448,192,409312,1,0,0:0:0:0:
64,192,409312,1,0,0:0:0:0:
320,192,409370,1,0,0:0:0:0:
448,192,409427,1,0,0:0:0:0:
192,192,409427,1,0,0:0:0:0:
64,192,409485,1,0,0:0:0:0:
448,192,409543,1,0,0:0:0:0:
320,192,409543,1,0,0:0:0:0:
64,192,409600,1,0,0:0:0:0:
320,192,409658,1,0,0:0:0:0:
192,192,409658,1,0,0:0:0:0:
448,192,409716,1,0,0:0:0:0:
64,192,409774,1,0,0:0:0:0:
192,192,409774,1,0,0:0:0:0:
320,192,409831,1,0,0:0:0:0:
192,192,409889,1,0,0:0:0:0:
64,192,409889,1,0,0:0:0:0:
320,192,409947,1,0,0:0:0:0:
448,192,409947,1,0,0:0:0:0:
64,192,410004,1,0,0:0:0:0:
192,192,410033,1,0,0:0:0:0:
320,192,410062,1,0,0:0:0:0:
448,192,410091,1,0,0:0:0:0:
192,192,410120,1,0,0:0:0:0:
64,192,410120,1,0,0:0:0:0:
320,192,410177,1,0,0:0:0:0:
448,192,410235,1,0,0:0:0:0:
64,192,410235,1,0,0:0:0:0:
192,192,410293,1,0,0:0:0:0:
448,192,410350,1,0,0:0:0:0:
320,192,410350,1,0,0:0:0:0:
64,192,410408,1,0,0:0:0:0:
192,192,410466,1,0,0:0:0:0:
448,192,410466,1,0,0:0:0:0:
64,192,410524,1,0,0:0:0:0:
320,192,410581,1,0,0:0:0:0:
192,192,410581,1,0,0:0:0:0:
448,192,410639,1,0,0:0:0:0:
320,192,410697,1,0,0:0:0:0:
64,192,410697,1,0,0:0:0:0:
192,192,410754,1,0,0:0:0:0:
64,192,410812,1,0,0:0:0:0:
448,192,410812,1,0,0:0:0:0:
320,192,410870,1,0,0:0:0:0:
448,192,410927,1,0,0:0:0:0:
192,192,410927,1,0,0:0:0:0:
64,192,410985,1,0,0:0:0:0:
320,192,411043,1,0,0:0:0:0:
192,192,411043,1,0,0:0:0:0:
448,192,411100,1,0,0:0:0:0:
192,192,411158,1,0,0:0:0:0:
64,192,411158,1,0,0:0:0:0:
320,192,411216,1,0,0:0:0:0:
448,192,411274,1,0,0:0:0:0:
192,192,411274,1,0,0:0:0:0:
64,192,411331,1,0,0:0:0:0:
320,192,411389,1,0,0:0:0:0:
448,192,411389,1,0,0:0:0:0:
192,192,411447,1,0,0:0:0:0:
64,192,411504,1,0,0:0:0:0:
320,192,411504,1,0,0:0:0:0:
192,192,411562,1,0,0:0:0:0:
448,192,411620,1,0,0:0:0:0:
320,192,411649,1,0,0:0:0:0:
192,192,411677,1,0,0:0:0:0:
64,192,411706,1,0,0:0:0:0:
320,192,411735,1,0,0:0:0:0:
448,192,411735,1,0,0:0:0:0:
192,192,411793,1,0,0:0:0:0:
64,192,411793,1,0,0:0:0:0:
448,192,411850,1,0,0:0:0:0:
320,192,411879,1,0,0:0:0:0:
192,192,411908,1,0,0:0:0:0:
64,192,411937,1,0,0:0:0:0:
448,192,411966,1,0,0:0:0:0:
320,192,411966,1,0,0:0:0:0:
192,192,412024,1,0,0:0:0:0:
448,192,412081,1,0,0:0:0:0:
64,192,412081,1,0,0:0:0:0:
192,192,412139,1,0,0:0:0:0:
320,192,412197,1,0,0:0:0:0:
64,192,412197,1,0,0:0:0:0:
448,192,412254,1,0,0:0:0:0:
320,192,412312,1,0,0:0:0:0:
192,192,412312,1,0,0:0:0:0:
64,192,412370,1,0,0:0:0:0:
192,192,412427,1,0,0:0:0:0:
448,192,412427,1,0,0:0:0:0:
64,192,412485,1,0,0:0:0:0:
320,192,412543,1,0,0:0:0:0:
448,192,412543,1,0,0:0:0:0:
192,192,412600,1,0,0:0:0:0:
64,192,412658,1,0,0:0:0:0:
320,192,412658,1,0,0:0:0:0:
448,192,412716,1,0,0:0:0:0:
192,192,412774,1,0,0:0:0:0:
64,192,412774,1,0,0:0:0:0:
320,192,412831,1,0,0:0:0:0:
448,192,412889,1,0,0:0:0:0:
192,192,412889,1,0,0:0:0:0:
320,192,412947,1,0,0:0:0:0:
448,192,413004,1,0,0:0:0:0:
64,192,413004,1,0,0:0:0:0:
192,192,413062,1,0,0:0:0:0:
64,192,413120,1,0,0:0:0:0:
320,192,413120,1,0,0:0:0:0:
448,192,413177,1,0,0:0:0:0:
64,192,413235,1,0,0:0:0:0:
192,192,413235,1,0,0:0:0:0:
448,192,413293,1,0,0:0:0:0:
320,192,413350,1,0,0:0:0:0:
192,192,413350,1,0,0:0:0:0:
64,192,413408,1,0,0:0:0:0:
448,192,413466,1,0,0:0:0:0:
192,192,413466,1,0,0:0:0:0:
64,192,413524,1,0,0:0:0:0:
448,192,413581,1,0,0:0:0:0:
320,192,413581,1,0,0:0:0:0:
192,192,413639,1,0,0:0:0:0:
64,192,413639,1,0,0:0:0:0:
448,192,413697,1,0,0:0:0:0:
320,192,413725,1,0,0:0:0:0:
192,192,413754,1,0,0:0:0:0:
64,192,413783,1,0,0:0:0:0:
448,192,413812,1,0,0:0:0:0:
320,192,413812,1,0,0:0:0:0:
192,192,413870,1,0,0:0:0:0:
448,192,413927,1,0,0:0:0:0:
64,192,413927,1,0,0:0:0:0:
320,192,413985,1,0,0:0:0:0:
192,192,414043,1,0,0:0:0:0:
64,192,414043,1,0,0:0:0:0:
448,192,414100,1,0,0:0:0:0:
320,192,414158,1,0,0:0:0:0:
64,192,414158,1,0,0:0:0:0:
448,192,414216,1,0,0:0:0:0:
192,192,414274,1,0,0:0:0:0:
320,192,414274,1,0,0:0:0:0:
64,192,414331,1,0,0:0:0:0:
192,192,414389,1,0,0:0:0:0:
448,192,414389,1,0,0:0:0:0:
320,192,414447,1,0,0:0:0:0:
64,192,414504,1,0,0:0:0:0:
448,192,414504,1,0,0:0:0:0:
192,192,414562,1,0,0:0:0:0:
64,192,414620,1,0,0:0:0:0:
320,192,414620,1,0,0:0:0:0:
448,192,414677,1,0,0:0:0:0:
320,192,414735,1,0,0:0:0:0:
192,192,414735,1,0,0:0:0:0:
448,192,414793,1,0,0:0:0:0:
64,192,414850,1,0,0:0:0:0:
192,192,414879,1,0,0:0:0:0:
320,192,414908,1,0,0:0:0:0:
448,192,414937,1,0,0:0:0:0:
64,192,414966,1,0,0:0:0:0:
192,192,414966,1,0,0:0:0:0:
448,192,415081,1,0,0:0:0:0:
320,192,415110,1,0,0:0:0:0:
192,192,415139,1,0,0:0:0:0:
64,192,415168,1,0,0:0:0:0:
320,192,415197,1,0,0:0:0:0:
448,192,415197,1,0,0:0:0:0:
192,192,415254,1,0,0:0:0:0:
64,192,415254,1,0,0:0:0:0:
448,192,415312,1,0,0:0:0:0:
320,192,415312,1,0,0:0:0:0:
192,192,415370,1,0,0:0:0:0:
64,192,415370,1,0,0:0:0:0:
448,192,415427,1,0,0:0:0:0:
320,192,415456,1,0,0:0:0:0:
192,192,415485,1,0,0:0:0:0:
64,192,415514,1,0,0:0:0:0:
448,192,415543,1,0,0:0:0:0:
320,192,415572,1,0,0:0:0:0:
192,192,415600,1,0,0:0:0:0:
64,192,415629,1,0,0:0:0:0:
320,192,415658,1,0,0:0:0:0:
448,192,415658,1,0,0:0:0:0:
192,192,415716,1,0,0:0:0:0:
64,192,415774,1,0,0:0:0:0:
448,192,415774,1,0,0:0:0:0:
320,192,415831,1,0,0:0:0:0:
192,192,415889,1,0,0:0:0:0:
448,192,415889,1,0,0:0:0:0:
64,192,415947,1,0,0:0:0:0:
320,192,416004,1,0,0:0:0:0:
192,192,416004,1,0,0:0:0:0:
448,192,416062,1,0,0:0:0:0:
64,192,416120,1,0,0:0:0:0:
320,192,416120,1,0,0:0:0:0:
448,192,416177,1,0,0:0:0:0:
192,192,416235,1,0,0:0:0:0:
64,192,416235,1,0,0:0:0:0:
320,192,416293,1,0,0:0:0:0:
448,192,416350,1,0,0:0:0:0:
192,192,416350,1,0,0:0:0:0:
64,192,416408,1,0,0:0:0:0:
320,192,416466,1,0,0:0:0:0:
448,192,416466,1,0,0:0:0:0:
192,192,416524,1,0,0:0:0:0:
320,192,416581,1,0,0:0:0:0:
64,192,416581,1,0,0:0:0:0:
192,192,416639,1,0,0:0:0:0:
448,192,416697,1,0,0:0:0:0:
64,192,416697,1,0,0:0:0:0:
320,192,416754,1,0,0:0:0:0:
448,192,416812,1,0,0:0:0:0:
192,192,416812,1,0,0:0:0:0:
64,192,416870,1,0,0:0:0:0:
448,192,416927,1,0,0:0:0:0:
320,192,416927,1,0,0:0:0:0:
64,192,416985,1,0,0:0:0:0:
320,192,417043,1,0,0:0:0:0:
192,192,417043,1,0,0:0:0:0:
448,192,417100,1,0,0:0:0:0:
64,192,417158,1,0,0:0:0:0:
320,192,417158,1,0,0:0:0:0:
448,192,417216,1,0,0:0:0:0:
192,192,417274,1,0,0:0:0:0:
64,192,417274,1,0,0:0:0:0:
448,192,417331,1,0,0:0:0:0:
320,192,417331,1,0,0:0:0:0:
64,192,417389,1,0,0:0:0:0:
192,192,417418,1,0,0:0:0:0:
320,192,417447,1,0,0:0:0:0:
448,192,417475,1,0,0:0:0:0:
64,192,417504,1,0,0:0:0:0:
192,192,417504,1,0,0:0:0:0:
320,192,417562,1,0,0:0:0:0:
448,192,417620,1,0,0:0:0:0:
64,192,417620,1,0,0:0:0:0:
192,192,417677,1,0,0:0:0:0:
320,192,417735,1,0,0:0:0:0:
448,192,417735,1,0,0:0:0:0:
64,192,417793,1,0,0:0:0:0:
448,192,417850,1,0,0:0:0:0:
192,192,417850,1,0,0:0:0:0:
64,192,417908,1,0,0:0:0:0:
320,192,417966,1,0,0:0:0:0:
192,192,417966,1,0,0:0:0:0:
448,192,418024,1,0,0:0:0:0:
64,192,418081,1,0,0:0:0:0:
320,192,418081,1,0,0:0:0:0:
192,192,418139,1,0,0:0:0:0:
448,192,418197,1,0,0:0:0:0:
64,192,418197,1,0,0:0:0:0:
320,192,418254,1,0,0:0:0:0:
192,192,418312,1,0,0:0:0:0:
448,192,418312,1,0,0:0:0:0:
64,192,418370,1,0,0:0:0:0:
192,192,418427,1,0,0:0:0:0:
320,192,418427,1,0,0:0:0:0:
448,192,418485,1,0,0:0:0:0:
64,192,418543,1,0,0:0:0:0:
192,192,418543,1,0,0:0:0:0:
320,192,418600,1,0,0:0:0:0:
192,192,418658,1,0,0:0:0:0:
448,192,418658,1,0,0:0:0:0:
64,192,418716,1,0,0:0:0:0:
448,192,418774,1,0,0:0:0:0:
320,192,418774,1,0,0:0:0:0:
192,192,418831,1,0,0:0:0:0:
320,192,418889,1,0,0:0:0:0:
64,192,418889,1,0,0:0:0:0:
192,192,418947,1,0,0:0:0:0:
448,192,419004,1,0,0:0:0:0:
320,192,419033,1,0,0:0:0:0:
192,192,419062,1,0,0:0:0:0:
64,192,419091,1,0,0:0:0:0:
320,192,419120,1,0,0:0:0:0:
448,192,419120,1,0,0:0:0:0:
192,192,419177,1,0,0:0:0:0:
64,192,419177,1,0,0:0:0:0:
448,192,419235,1,0,0:0:0:0:
320,192,419264,1,0,0:0:0:0:
192,192,419293,1,0,0:0:0:0:
64,192,419322,1,0,0:0:0:0:
320,192,419350,1,0,0:0:0:0:
448,192,419350,1,0,0:0:0:0:
192,192,419408,1,0,0:0:0:0:
64,192,419466,1,0,0:0:0:0:
448,192,419466,1,0,0:0:0:0:
192,192,419524,1,0,0:0:0:0:
320,192,419581,1,0,0:0:0:0:
64,192,419581,1,0,0:0:0:0:
448,192,419639,1,0,0:0:0:0:
320,192,419697,1,0,0:0:0:0:
192,192,419697,1,0,0:0:0:0:
64,192,419754,1,0,0:0:0:0:
448,192,419812,1,0,0:0:0:0:
192,192,419812,1,0,0:0:0:0:
64,192,419870,1,0,0:0:0:0:
320,192,419927,1,0,0:0:0:0:
448,192,419927,1,0,0:0:0:0:
192,192,419985,1,0,0:0:0:0:
320,192,420043,1,0,0:0:0:0:
64,192,420043,1,0,0:0:0:0:
448,192,420100,1,0,0:0:0:0:
64,192,420158,1,0,0:0:0:0:
192,192,420158,1,0,0:0:0:0:
320,192,420216,1,0,0:0:0:0:
192,192,420274,1,0,0:0:0:0:
448,192,420274,1,0,0:0:0:0:
320,192,420331,1,0,0:0:0:0:
448,192,420389,1,0,0:0:0:0:
64,192,420389,1,0,0:0:0:0:
192,192,420447,1,0,0:0:0:0:
320,192,420504,1,0,0:0:0:0:
64,192,420504,1,0,0:0:0:0:
448,192,420562,1,0,0:0:0:0:
64,192,420620,1,0,0:0:0:0:
192,192,420620,1,0,0:0:0:0:
448,192,420677,1,0,0:0:0:0:
320,192,420735,1,0,0:0:0:0:
192,192,420735,1,0,0:0:0:0:
64,192,420793,1,0,0:0:0:0:
192,192,420850,1,0,0:0:0:0:
448,192,420850,1,0,0:0:0:0:
64,192,420908,1,0,0:0:0:0:
320,192,420966,1,0,0:0:0:0:
448,192,420966,1,0,0:0:0:0:
192,192,421024,1,0,0:0:0:0:
64,192,421024,1,0,0:0:0:0:
448,192,421081,1,0,0:0:0:0:
320,192,421110,1,0,0:0:0:0:
192,192,421139,1,0,0:0:0:0:
64,192,421168,1,0,0:0:0:0:
448,192,421197,1,0,0:0:0:0:
320,192,421197,1,0,0:0:0:0:
192,192,421254,1,0,0:0:0:0:
64,192,421312,1,0,0:0:0:0:
448,192,421312,1,0,0:0:0:0:
320,192,421370,1,0,0:0:0:0:
64,192,421427,1,0,0:0:0:0:
192,192,421427,1,0,0:0:0:0:
448,192,421485,1,0,0:0:0:0:
320,192,421543,1,0,0:0:0:0:
64,192,421543,1,0,0:0:0:0:
448,192,421600,1,0,0:0:0:0:
192,192,421658,1,0,0:0:0:0:
320,192,421658,1,0,0:0:0:0:
64,192,421716,1,0,0:0:0:0:
448,192,421774,1,0,0:0:0:0:
192,192,421774,1,0,0:0:0:0:
320,192,421831,1,0,0:0:0:0:
64,192,421889,1,0,0:0:0:0:
448,192,421889,1,0,0:0:0:0:
192,192,421947,1,0,0:0:0:0:
64,192,422004,1,0,0:0:0:0:
320,192,422004,1,0,0:0:0:0:
448,192,422062,1,0,0:0:0:0:
64,192,422120,1,0,0:0:0:0:
192,192,422120,1,0,0:0:0:0:
448,192,422177,1,0,0:0:0:0:
320,192,422177,1,0,0:0:0:0:
192,192,422235,1,0,0:0:0:0:
64,192,422235,1,0,0:0:0:0:
320,192,422293,1,0,0:0:0:0:
448,192,422293,1,0,0:0:0:0:
64,192,422350,1,0,0:0:0:0:
192,192,422408,1,0,0:0:0:0:
320,192,422466,1,0,0:0:0:0:
448,192,422524,1,0,0:0:0:0:
320,192,422581,1,0,0:0:0:0:
64,192,422581,1,0,0:0:0:0:
448,192,422639,1,0,0:0:0:0:
192,192,422639,1,0,0:0:0:0:
320,192,422697,1,0,0:0:0:0:
64,192,422697,1,0,0:0:0:0:
192,192,422754,1,0,0:0:0:0:
448,192,422754,1,0,0:0:0:0:
64,192,422812,1,0,0:0:0:0:
320,192,422841,1,0,0:0:0:0:
192,192,422870,1,0,0:0:0:0:
448,192,422899,1,0,0:0:0:0:
64,192,422927,1,0,0:0:0:0:
320,192,422956,1,0,0:0:0:0:
192,192,422985,1,0,0:0:0:0:
448,192,423014,1,0,0:0:0:0:
64,192,423043,1,0,0:0:0:0:
320,192,423043,1,0,0:0:0:0:
192,192,423100,1,0,0:0:0:0:
448,192,423158,1,0,0:0:0:0:
320,192,423158,1,0,0:0:0:0:
64,192,423216,1,0,0:0:0:0:
192,192,423216,1,0,0:0:0:0:
448,192,423274,1,0,0:0:0:0:
320,192,423274,1,0,0:0:0:0:
64,192,423331,1,0,0:0:0:0:
320,192,423389,1,0,0:0:0:0:
192,192,423389,1,0,0:0:0:0:
448,192,423447,1,0,0:0:0:0:
320,192,423504,1,0,0:0:0:0:
64,192,423504,1,0,0:0:0:0:
192,192,423562,1,0,0:0:0:0:
448,192,423620,1,0,0:0:0:0:
64,192,423620,1,0,0:0:0:0:
320,192,423677,1,0,0:0:0:0:
64,192,423735,1,0,0:0:0:0:
192,192,423735,1,0,0:0:0:0:
448,192,423793,1,0,0:0:0:0:
192,192,423850,1,0,0:0:0:0:
320,192,423850,1,0,0:0:0:0:
64,192,423908,1,0,0:0:0:0:
320,192,423966,1,0,0:0:0:0:
192,192,424024,1,0,0:0:0:0:
448,192,424081,1,0,0:0:0:0:
320,192,424081,1,0,0:0:0:0:
64,192,424139,1,0,0:0:0:0:
448,192,424197,1,0,0:0:0:0:
192,192,424197,1,0,0:0:0:0:
320,192,424254,1,0,0:0:0:0:
64,192,424312,1,0,0:0:0:0:
192,192,424312,1,0,0:0:0:0:
320,192,424370,1,0,0:0:0:0:
448,192,424427,1,0,0:0:0:0:
192,192,424427,1,0,0:0:0:0:
64,192,424485,1,0,0:0:0:0:
192,192,424543,1,0,0:0:0:0:
320,192,424543,1,0,0:0:0:0:
448,192,424600,1,0,0:0:0:0:
192,192,424658,1,0,0:0:0:0:
64,192,424658,1,0,0:0:0:0:
448,192,424716,1,0,0:0:0:0:
320,192,424716,1,0,0:0:0:0:
64,192,424774,1,0,0:0:0:0:
192,192,424802,1,0,0:0:0:0:
320,192,424831,1,0,0:0:0:0:
448,192,424860,1,0,0:0:0:0:
64,192,424889,1,0,0:0:0:0:
320,192,424947,1,0,0:0:0:0:
192,192,425004,1,0,0:0:0:0:
448,192,425004,1,0,0:0:0:0:
320,192,425062,1,0,0:0:0:0:
64,192,425062,1,0,0:0:0:0:
192,192,425120,1,0,0:0:0:0:
448,192,425120,1,0,0:0:0:0:
64,192,425177,1,0,0:0:0:0:
448,192,425235,1,0,0:0:0:0:
320,192,425235,1,0,0:0:0:0:
192,192,425293,1,0,0:0:0:0:
448,192,425350,1,0,0:0:0:0:
64,192,425350,1,0,0:0:0:0:
192,192,425408,1,0,0:0:0:0:
64,192,425466,1,0,0:0:0:0:
320,192,425466,1,0,0:0:0:0:
448,192,425524,1,0,0:0:0:0:
192,192,425581,1,0,0:0:0:0:
320,192,425581,1,0,0:0:0:0:
64,192,425639,1,0,0:0:0:0:
448,192,425697,1,0,0:0:0:0:
320,192,425697,1,0,0:0:0:0:
192,192,425754,1,0,0:0:0:0:
64,192,425812,1,0,0:0:0:0:
448,192,425812,1,0,0:0:0:0:
320,192,425870,1,0,0:0:0:0:
64,192,425927,1,0,0:0:0:0:
192,192,425927,1,0,0:0:0:0:
320,192,425985,1,0,0:0:0:0:
192,192,426043,1,0,0:0:0:0:
448,192,426043,1,0,0:0:0:0:
64,192,426100,1,0,0:0:0:0:
192,192,426158,1,0,0:0:0:0:
320,192,426158,1,0,0:0:0:0:
448,192,426216,1,0,0:0:0:0:
64,192,426274,1,0,0:0:0:0:
192,192,426274,1,0,0:0:0:0:
448,192,426331,1,0,0:0:0:0:
64,192,426389,1,0,0:0:0:0:
192,192,426418,1,0,0:0:0:0:
320,192,426447,1,0,0:0:0:0:
448,192,426475,1,0,0:0:0:0:
192,192,426504,1,0,0:0:0:0:
64,192,426504,1,0,0:0:0:0:
448,192,426562,1,0,0:0:0:0:
320,192,426562,1,0,0:0:0:0:
64,192,426620,1,0,0:0:0:0:
192,192,426649,1,0,0:0:0:0:
320,192,426677,1,0,0:0:0:0:
448,192,426706,1,0,0:0:0:0:
192,192,426735,1,0,0:0:0:0:
64,192,426735,1,0,0:0:0:0:
320,192,426793,1,0,0:0:0:0:
64,192,426850,1,0,0:0:0:0:
192,192,426850,1,0,0:0:0:0:
448,192,426908,1,0,0:0:0:0:
320,192,426908,1,0,0:0:0:0:
64,192,426966,1,0,0:0:0:0:
192,192,426966,1,0,0:0:0:0:
448,192,427024,1,0,0:0:0:0:
192,192,427081,1,0,0:0:0:0:
320,192,427081,1,0,0:0:0:0:
64,192,427139,1,0,0:0:0:0:
192,192,427197,1,0,0:0:0:0:
448,192,427197,1,0,0:0:0:0:
320,192,427254,1,0,0:0:0:0:
64,192,427312,1,0,0:0:0:0:
448,192,427312,1,0,0:0:0:0:
192,192,427370,1,0,0:0:0:0:
320,192,427427,1,0,0:0:0:0:
448,192,427427,1,0,0:0:0:0:
64,192,427485,1,0,0:0:0:0:
192,192,427543,1,0,0:0:0:0:
320,192,427543,1,0,0:0:0:0:
448,192,427600,1,0,0:0:0:0:
192,192,427658,1,0,0:0:0:0:
320,192,427716,1,0,0:0:0:0:
64,192,427774,1,0,0:0:0:0:
192,192,427774,1,0,0:0:0:0:
448,192,427831,1,0,0:0:0:0:
320,192,427889,1,0,0:0:0:0:
64,192,427889,1,0,0:0:0:0:
192,192,427947,1,0,0:0:0:0:
320,192,428004,1,0,0:0:0:0:
448,192,428004,1,0,0:0:0:0:
192,192,428062,1,0,0:0:0:0:
64,192,428120,1,0,0:0:0:0:
320,192,428120,1,0,0:0:0:0:
448,192,428177,1,0,0:0:0:0:
320,192,428235,1,0,0:0:0:0:
192,192,428235,1,0,0:0:0:0:
64,192,428293,1,0,0:0:0:0:
320,192,428350,1,0,0:0:0:0:
448,192,428350,1,0,0:0:0:0:
192,192,428408,1,0,0:0:0:0:
64,192,428408,1,0,0:0:0:0:
448,192,428466,1,0,0:0:0:0:
320,192,428495,1,0,0:0:0:0:
192,192,428524,1,0,0:0:0:0:
64,192,428552,1,0,0:0:0:0:
448,192,428581,1,0,0:0:0:0:
192,192,428639,1,0,0:0:0:0:
320,192,428697,1,0,0:0:0:0:
448,192,428697,1,0,0:0:0:0:
192,192,428754,1,0,0:0:0:0:
64,192,428812,1,0,0:0:0:0:
448,192,428870,1,0,0:0:0:0:
192,192,428870,1,0,0:0:0:0:
64,192,428927,1,0,0:0:0:0:
320,192,428985,1,0,0:0:0:0:
64,192,429043,1,0,0:0:0:0:
192,192,429043,1,0,0:0:0:0:
448,192,429100,1,0,0:0:0:0:
320,192,429158,1,0,0:0:0:0:
64,192,429216,1,0,0:0:0:0:
448,192,429216,1,0,0:0:0:0:
192,192,429274,1,0,0:0:0:0:
320,192,429331,1,0,0:0:0:0:
64,192,429389,1,0,0:0:0:0:
448,192,429389,1,0,0:0:0:0:
320,192,429447,1,0,0:0:0:0:
64,192,429504,1,0,0:0:0:0:
192,192,429504,1,0,0:0:0:0:
320,192,429562,1,0,0:0:0:0:
448,192,429562,1,0,0:0:0:0:
64,192,429620,1,0,0:0:0:0:
192,192,429649,1,0,0:0:0:0:
320,192,429677,1,0,0:0:0:0:
448,192,429706,1,0,0:0:0:0:
64,192,429735,1,0,0:0:0:0:
192,192,429764,1,0,0:0:0:0:
448,192,429793,1,0,0:0:0:0:
320,192,429822,1,0,0:0:0:0:
192,192,429850,1,0,0:0:0:0:
64,192,429879,1,0,0:0:0:0:
448,192,429908,1,0,0:0:0:0:
320,192,429937,1,0,0:0:0:0:
192,192,429966,1,0,0:0:0:0:
64,192,429966,1,0,0:0:0:0:
320,192,430024,1,0,0:0:0:0:
448,192,430024,1,0,0:0:0:0:
64,192,430081,1,0,0:0:0:0:
192,192,430081,1,0,0:0:0:0:
320,192,430139,1,0,0:0:0:0:
448,192,430139,1,0,0:0:0:0:
192,192,430197,1,0,0:0:0:0:
64,192,430225,1,0,0:0:0:0:
320,192,430254,1,0,0:0:0:0:
448,192,430283,1,0,0:0:0:0:
192,192,430312,1,0,0:0:0:0:
64,192,430341,1,0,0:0:0:0:
448,192,430370,1,0,0:0:0:0:
320,192,430399,1,0,0:0:0:0:
192,192,430427,1,0,0:0:0:0:
64,192,430427,1,0,0:0:0:0:
320,192,430485,1,0,0:0:0:0:
64,192,430543,1,0,0:0:0:0:
448,192,430543,1,0,0:0:0:0:
192,192,430600,1,0,0:0:0:0:
320,192,430600,1,0,0:0:0:0:
448,192,430658,1,0,0:0:0:0:
64,192,430658,1,0,0:0:0:0:
320,192,430716,1,0,0:0:0:0:
192,192,430716,1,0,0:0:0:0:
64,192,430774,1,0,0:0:0:0:
320,192,430831,1,0,0:0:0:0:
448,192,430889,1,0,0:0:0:0:
192,192,430889,1,0,0:0:0:0:
64,192,430947,1,0,0:0:0:0:
320,192,431004,1,0,0:0:0:0:
448,192,431004,1,0,0:0:0:0:
192,192,431062,1,0,0:0:0:0:
448,192,431120,1,0,0:0:0:0:
64,192,431120,1,0,0:0:0:0:
320,192,431177,1,0,0:0:0:0:
64,192,431235,1,0,0:0:0:0:
192,192,431235,1,0,0:0:0:0:
448,192,431293,1,0,0:0:0:0:
320,192,431350,1,0,0:0:0:0:
192,192,431408,1,0,0:0:0:0:
448,192,431466,1,0,0:0:0:0:
320,192,431466,1,0,0:0:0:0:
64,192,431524,1,0,0:0:0:0:
192,192,431581,1,0,0:0:0:0:
448,192,431581,1,0,0:0:0:0:
320,192,431639,1,0,0:0:0:0:
64,192,431697,1,0,0:0:0:0:
192,192,431697,1,0,0:0:0:0:
320,192,431754,1,0,0:0:0:0:
448,192,431812,1,0,0:0:0:0:
192,192,431812,1,0,0:0:0:0:
64,192,431870,1,0,0:0:0:0:
192,192,431927,1,0,0:0:0:0:
320,192,431927,1,0,0:0:0:0:
448,192,431985,1,0,0:0:0:0:
192,192,432043,1,0,0:0:0:0:
64,192,432043,1,0,0:0:0:0:
448,192,432100,1,0,0:0:0:0:
320,192,432100,1,0,0:0:0:0:
64,192,432158,1,0,0:0:0:0:
192,192,432187,1,0,0:0:0:0:
320,192,432216,1,0,0:0:0:0:
448,192,432245,1,0,0:0:0:0:
64,192,432274,1,0,0:0:0:0:
320,192,432331,1,0,0:0:0:0:
448,192,432389,1,0,0:0:0:0:
192,192,432389,1,0,0:0:0:0:
320,192,432447,1,0,0:0:0:0:
64,192,432447,1,0,0:0:0:0:
192,192,432504,1,0,0:0:0:0:
448,192,432504,1,0,0:0:0:0:
64,192,432562,1,0,0:0:0:0:
448,192,432620,1,0,0:0:0:0:
320,192,432620,1,0,0:0:0:0:
192,192,432677,1,0,0:0:0:0:
448,192,432735,1,0,0:0:0:0:
64,192,432735,1,0,0:0:0:0:
192,192,432793,1,0,0:0:0:0:
320,192,432850,1,0,0:0:0:0:
64,192,432850,1,0,0:0:0:0:
448,192,432908,1,0,0:0:0:0:
320,192,432966,1,0,0:0:0:0:
192,192,432966,1,0,0:0:0:0:
64,192,433024,1,0,0:0:0:0:
448,192,433081,1,0,0:0:0:0:
320,192,433081,1,0,0:0:0:0:
192,192,433139,1,0,0:0:0:0:
448,192,433197,1,0,0:0:0:0:
64,192,433197,1,0,0:0:0:0:
320,192,433254,1,0,0:0:0:0:
192,192,433312,1,0,0:0:0:0:
64,192,433312,1,0,0:0:0:0:
320,192,433370,1,0,0:0:0:0:
192,192,433427,1,0,0:0:0:0:
448,192,433427,1,0,0:0:0:0:
64,192,433485,1,0,0:0:0:0:
320,192,433543,1,0,0:0:0:0:
192,192,433543,1,0,0:0:0:0:
448,192,433600,1,0,0:0:0:0:
192,192,433658,1,0,0:0:0:0:
64,192,433658,1,0,0:0:0:0:
448,192,433716,1,0,0:0:0:0:
64,192,433774,1,0,0:0:0:0:
192,192,433802,1,0,0:0:0:0:
320,192,433831,1,0,0:0:0:0:
448,192,433860,1,0,0:0:0:0:
192,192,433889,1,0,0:0:0:0:
64,192,433889,1,0,0:0:0:0:
448,192,433947,1,0,0:0:0:0:
320,192,433947,1,0,0:0:0:0:
64,192,434004,1,0,0:0:0:0:
192,192,434033,1,0,0:0:0:0:
320,192,434062,1,0,0:0:0:0:
448,192,434091,1,0,0:0:0:0:
64,192,434120,1,0,0:0:0:0:
192,192,434120,1,0,0:0:0:0:
320,192,434177,1,0,0:0:0:0:
64,192,434235,1,0,0:0:0:0:
192,192,434235,1,0,0:0:0:0:
320,192,434293,1,0,0:0:0:0:
448,192,434293,1,0,0:0:0:0:
192,192,434350,1,0,0:0:0:0:
64,192,434350,1,0,0:0:0:0:
448,192,434408,1,0,0:0:0:0:
192,192,434466,1,0,0:0:0:0:
320,192,434466,1,0,0:0:0:0:
64,192,434524,1,0,0:0:0:0:
192,192,434581,1,0,0:0:0:0:
448,192,434581,1,0,0:0:0:0:
320,192,434639,1,0,0:0:0:0:
448,192,434697,1,0,0:0:0:0:
64,192,434697,1,0,0:0:0:0:
192,192,434754,1,0,0:0:0:0:
448,192,434812,1,0,0:0:0:0:
320,192,434812,1,0,0:0:0:0:
64,192,434870,1,0,0:0:0:0:
192,192,434927,1,0,0:0:0:0:
320,192,434927,1,0,0:0:0:0:
448,192,434985,1,0,0:0:0:0:
192,192,435043,1,0,0:0:0:0:
320,192,435100,1,0,0:0:0:0:
192,192,435158,1,0,0:0:0:0:
64,192,435158,1,0,0:0:0:0:
448,192,435216,1,0,0:0:0:0:
320,192,435274,1,0,0:0:0:0:
64,192,435274,1,0,0:0:0:0:
192,192,435331,1,0,0:0:0:0:
320,192,435389,1,0,0:0:0:0:
448,192,435389,1,0,0:0:0:0:
192,192,435447,1,0,0:0:0:0:
320,192,435504,1,0,0:0:0:0:
64,192,435504,1,0,0:0:0:0:
448,192,435562,1,0,0:0:0:0:
192,192,435620,1,0,0:0:0:0:
320,192,435620,1,0,0:0:0:0:
64,192,435677,1,0,0:0:0:0:
320,192,435735,1,0,0:0:0:0:
448,192,435735,1,0,0:0:0:0:
64,192,435793,1,0,0:0:0:0:
192,192,435793,1,0,0:0:0:0:
448,192,435850,1,0,0:0:0:0:
320,192,435879,1,0,0:0:0:0:
192,192,435908,1,0,0:0:0:0:
64,192,435937,1,0,0:0:0:0:
320,192,435966,1,0,0:0:0:0:
448,192,435966,1,0,0:0:0:0:
192,192,436024,1,0,0:0:0:0:
64,192,436024,1,0,0:0:0:0:
448,192,436081,1,0,0:0:0:0:
320,192,436081,1,0,0:0:0:0:
64,192,436139,1,0,0:0:0:0:
192,192,436139,1,0,0:0:0:0:
448,192,436197,1,0,0:0:0:0:
320,192,436197,1,0,0:0:0:0:
192,192,436254,1,0,0:0:0:0:
448,192,436312,1,0,0:0:0:0:
64,192,436312,1,0,0:0:0:0:
320,192,436370,1,0,0:0:0:0:
64,192,436427,1,0,0:0:0:0:
192,192,436427,1,0,0:0:0:0:
448,192,436485,1,0,0:0:0:0:
320,192,436543,1,0,0:0:0:0:
192,192,436543,1,0,0:0:0:0:
448,192,436600,1,0,0:0:0:0:
64,192,436658,1,0,0:0:0:0:
192,192,436687,1,0,0:0:0:0:
320,192,436716,1,0,0:0:0:0:
448,192,436745,1,0,0:0:0:0:
64,192,436774,1,0,0:0:0:0:
192,192,436802,1,0,0:0:0:0:
320,192,436831,1,0,0:0:0:0:
448,192,436860,1,0,0:0:0:0:
64,192,436889,1,0,0:0:0:0:
192,192,436889,1,0,0:0:0:0:
448,192,437350,1,0,0:0:0:0:
64,192,437350,1,0,0:0:0:0:
64,192,437581,1,0,0:0:0:0:
448,192,437581,1,0,0:0:0:0:
64,192,437812,1,0,0:0:0:0:
448,192,437812,1,0,0:0:0:0:
320,192,437812,1,0,0:0:0:0:
192,192,437812,1,0,0:0:0:0:
192,192,437927,1,0,0:0:0:0:
320,192,437985,1,0,0:0:0:0:
192,192,438043,1,0,0:0:0:0:
448,192,438158,1,0,0:0:0:0:
64,192,438274,1,0,0:0:0:0:
320,192,438389,1,0,0:0:0:0:
320,192,438504,1,0,0:0:0:0:
320,192,438620,128,0,438850:0:0:0:0:
64,192,438850,1,0,0:0:0:0:
192,192,438966,1,0,0:0:0:0:
64,192,439081,1,0,0:0:0:0:
320,192,439197,1,0,0:0:0:0:
192,192,439312,1,0,0:0:0:0:
448,192,439427,1,0,0:0:0:0:
448,192,439658,1,0,0:0:0:0:
192,192,439774,1,0,0:0:0:0:
320,192,439831,1,0,0:0:0:0:
192,192,439889,1,0,0:0:0:0:
448,192,440004,1,0,0:0:0:0:
64,192,440120,1,0,0:0:0:0:
320,192,440235,1,0,0:0:0:0:
320,192,440350,1,0,0:0:0:0:
320,192,440466,128,0,440697:0:0:0:0:
64,192,440697,1,0,0:0:0:0:
192,192,440812,1,0,0:0:0:0:
320,192,440927,1,0,0:0:0:0:
448,192,441043,1,0,0:0:0:0:
320,192,441158,1,0,0:0:0:0:
448,192,441216,1,0,0:0:0:0:
320,192,441274,1,0,0:0:0:0:
192,192,441389,1,0,0:0:0:0:
64,192,441504,1,0,0:0:0:0:
448,192,441504,1,0,0:0:0:0:
192,192,441620,1,0,0:0:0:0:
320,192,441677,1,0,0:0:0:0:
192,192,441735,1,0,0:0:0:0:
448,192,441850,1,0,0:0:0:0:
64,192,441966,1,0,0:0:0:0:
320,192,442081,1,0,0:0:0:0:
320,192,442197,1,0,0:0:0:0:
320,192,442312,128,0,442543:0:0:0:0:
64,192,442543,1,0,0:0:0:0:
192,192,442658,1,0,0:0:0:0:
64,192,442774,1,0,0:0:0:0:
320,192,442889,1,0,0:0:0:0:
192,192,443004,1,0,0:0:0:0:
448,192,443120,1,0,0:0:0:0:
448,192,443350,1,0,0:0:0:0:
192,192,443466,1,0,0:0:0:0:
320,192,443524,1,0,0:0:0:0:
192,192,443581,1,0,0:0:0:0:
448,192,443697,1,0,0:0:0:0:
64,192,443812,1,0,0:0:0:0:
320,192,443927,1,0,0:0:0:0:
320,192,444043,1,0,0:0:0:0:
320,192,444158,128,0,444389:0:0:0:0:
64,192,444389,1,0,0:0:0:0:
192,192,444504,1,0,0:0:0:0:
320,192,444620,1,0,0:0:0:0:
448,192,444735,1,0,0:0:0:0:
320,192,444850,1,0,0:0:0:0:
448,192,444908,1,0,0:0:0:0:
320,192,444966,1,0,0:0:0:0:
192,192,445081,1,0,0:0:0:0:
448,192,445197,1,0,0:0:0:0:
64,192,445197,1,0,0:0:0:0:
192,192,445312,1,0,0:0:0:0:
320,192,445370,1,0,0:0:0:0:
64,192,445427,1,0,0:0:0:0:
192,192,445427,1,0,0:0:0:0:
448,192,445543,1,0,0:0:0:0:
448,192,445658,1,0,0:0:0:0:
64,192,445658,1,0,0:0:0:0:
320,192,445774,1,0,0:0:0:0:
64,192,445889,1,0,0:0:0:0:
320,192,445889,1,0,0:0:0:0:
320,192,446004,128,0,446235:0:0:0:0:
448,192,446120,1,0,0:0:0:0:
64,192,446235,1,0,0:0:0:0:
448,192,446350,1,0,0:0:0:0:
192,192,446350,1,0,0:0:0:0:
64,192,446466,1,0,0:0:0:0:
448,192,446581,1,0,0:0:0:0:
320,192,446581,1,0,0:0:0:0:
192,192,446697,1,0,0:0:0:0:
64,192,446812,1,0,0:0:0:0:
448,192,446812,1,0,0:0:0:0:
448,192,446927,1,0,0:0:0:0:
64,192,447043,1,0,0:0:0:0:
448,192,447043,1,0,0:0:0:0:
192,192,447158,1,0,0:0:0:0:
320,192,447216,1,0,0:0:0:0:
64,192,447274,1,0,0:0:0:0:
192,192,447274,1,0,0:0:0:0:
448,192,447389,1,0,0:0:0:0:
448,192,447504,1,0,0:0:0:0:
64,192,447504,1,0,0:0:0:0:
320,192,447620,1,0,0:0:0:0:
64,192,447735,1,0,0:0:0:0:
320,192,447735,1,0,0:0:0:0:
320,192,447850,128,0,448081:0:0:0:0:
448,192,447966,1,0,0:0:0:0:
64,192,448081,1,0,0:0:0:0:
448,192,448197,1,0,0:0:0:0:
192,192,448197,1,0,0:0:0:0:
320,192,448312,1,0,0:0:0:0:
192,192,448427,1,0,0:0:0:0:
448,192,448427,1,0,0:0:0:0:
320,192,448485,1,0,0:0:0:0:
64,192,448485,1,0,0:0:0:0:
192,192,448543,1,0,0:0:0:0:
448,192,448543,1,0,0:0:0:0:
320,192,448600,1,0,0:0:0:0:
64,192,448658,1,0,0:0:0:0:
320,192,448774,1,0,0:0:0:0:
64,192,448889,1,0,0:0:0:0:
448,192,448889,1,0,0:0:0:0:
192,192,449004,1,0,0:0:0:0:
320,192,449062,1,0,0:0:0:0:
64,192,449120,1,0,0:0:0:0:
192,192,449120,1,0,0:0:0:0:
448,192,449235,1,0,0:0:0:0:
448,192,449350,1,0,0:0:0:0:
64,192,449350,1,0,0:0:0:0:
320,192,449466,1,0,0:0:0:0:
64,192,449581,1,0,0:0:0:0:
320,192,449581,1,0,0:0:0:0:
320,192,449697,128,0,449927:0:0:0:0:
448,192,449812,1,0,0:0:0:0:
64,192,449927,1,0,0:0:0:0:
448,192,450043,1,0,0:0:0:0:
192,192,450043,1,0,0:0:0:0:
64,192,450158,1,0,0:0:0:0:
448,192,450274,1,0,0:0:0:0:
320,192,450274,1,0,0:0:0:0:
192,192,450389,1,0,0:0:0:0:
448,192,450504,1,0,0:0:0:0:
64,192,450504,1,0,0:0:0:0:
448,192,450620,1,0,0:0:0:0:
192,192,450735,1,0,0:0:0:0:
64,192,450735,1,0,0:0:0:0:
448,192,450735,1,0,0:0:0:0:
320,192,450735,1,0,0:0:0:0:
192,192,451658,1,0,0:0:0:0:
64,192,451658,1,0,0:0:0:0:
448,192,451716,1,0,0:0:0:0:
320,192,451716,1,0,0:0:0:0:
192,192,451774,1,0,0:0:0:0:
64,192,451774,1,0,0:0:0:0:
448,192,451831,1,0,0:0:0:0:
320,192,451831,1,0,0:0:0:0:
64,192,451889,1,0,0:0:0:0:
192,192,451918,1,0,0:0:0:0:
320,192,451947,1,0,0:0:0:0:
448,192,451975,1,0,0:0:0:0:
192,192,452004,1,0,0:0:0:0:
320,192,452062,1,0,0:0:0:0:
64,192,452120,1,0,0:0:0:0:
192,192,452149,1,0,0:0:0:0:
320,192,452177,1,0,0:0:0:0:
448,192,452206,1,0,0:0:0:0:
64,192,452235,1,0,0:0:0:0:
192,192,452264,1,0,0:0:0:0:
320,192,452293,1,0,0:0:0:0:
448,192,452322,1,0,0:0:0:0:
64,192,452350,1,0,0:0:0:0:
192,192,452379,1,0,0:0:0:0:
448,192,452408,1,0,0:0:0:0:
320,192,452437,1,0,0:0:0:0:
64,192,452466,1,0,0:0:0:0:
448,192,452495,1,0,0:0:0:0:
192,192,452495,1,0,0:0:0:0:
320,192,452552,1,0,0:0:0:0:
448,192,452581,1,0,0:0:0:0:
320,192,452581,1,0,0:0:0:0:
192,192,452581,1,0,0:0:0:0:
64,192,452581,1,0,0:0:0:0:
