osu file format v14

[General]
AudioFilename: Kakeduki no Yoru ni.mp3
AudioLeadIn: 2007
PreviewTime: 58794
Countdown: 0
SampleSet: None
StackLeniency: 0.7
Mode: 1
LetterboxInBreaks: 0
WidescreenStoryboard: 1

[Editor]
DistanceSpacing: 1
BeatDivisor: 4
GridSize: 32
TimelineZoom: 2

[Metadata]
Title:TJBC works [thzz]
TitleUnicode:TJBC works [thzz]
Artist:Various Artists
ArtistUnicode:Various Artists
Creator:thzz
Version:#4(Anime/Game) marina - Kakeduki no Yoru ni
Source:九十九の奏~欠け月の夜想曲~
Tags:Osu!Taiko Japanese Beatmap Contest Skyfish visual novel Tsukumo no Kanade Yasoukyoku
BeatmapID:1463260
BeatmapSetID:691436

[Difficulty]
HPDrainRate:5
CircleSize:5
OverallDifficulty:5
ApproachRate:6
SliderMultiplier:1.3999999666214
SliderTickRate:1

[Events]
//Background and Video events
//Break Periods
//Storyboard Layer 0 (Background)
//Storyboard Layer 1 (Fail)
//Storyboard Layer 2 (Pass)
//Storyboard Layer 3 (Foreground)
//Storyboard Sound Samples

[TimingPoints]
461,416.666666666667,4,1,0,50,1,0
461,-142.857142857143,4,1,0,50,0,0
7127,-125,4,1,0,50,0,0
13794,-147.058823529412,4,1,0,50,0,0
14211,-135.135135135135,4,1,0,50,0,0
14627,-128.205128205128,4,1,0,52,0,0
14836,-119.047619047619,4,1,0,54,0,0
15044,-111.111111111111,4,1,0,56,0,0
15252,-105.263157894737,4,1,0,58,0,0
15461,-100,4,1,0,60,0,0
55461,-95.2380952380952,4,1,0,60,0,0
57127,-90.9090909090909,4,1,0,60,0,0
58794,-83.3333333333333,4,1,0,70,0,1
87127,-76.9230769230769,4,1,0,70,0,1
88784,-100,4,1,0,60,0,0
92125,-76.9230769230769,4,1,0,70,0,1
95044,-83.3333333333333,4,1,0,70,0,0
95461,-83.3333333333333,4,1,0,70,0,1
95877,-83.3333333333333,4,1,0,70,0,0

[HitObjects]
256,192,461,5,0,0:0:0:0:
256,192,1294,1,8,0:0:0:0:
256,192,1502,1,8,0:0:0:0:
256,192,1711,1,0,0:0:0:0:
256,192,1919,1,0,0:0:0:0:
256,192,2127,1,8,0:0:0:0:
256,192,2961,1,8,0:0:0:0:
256,192,3794,1,0,0:0:0:0:
256,192,4627,1,8,0:0:0:0:
256,192,4836,1,8,0:0:0:0:
256,192,5044,1,0,0:0:0:0:
256,192,5252,1,8,0:0:0:0:
256,192,5461,1,8,0:0:0:0:
256,192,6294,1,0,0:0:0:0:
256,192,7127,1,8,0:0:0:0:
256,192,7544,1,0,0:0:0:0:
256,192,7961,1,8,0:0:0:0:
256,192,8377,1,8,0:0:0:0:
256,192,8794,1,0,0:0:0:0:
256,192,9211,1,0,0:0:0:0:
256,192,9627,1,8,0:0:0:0:
256,192,10461,1,0,0:0:0:0:
256,192,10877,1,8,0:0:0:0:
256,192,11294,1,8,0:0:0:0:
256,192,11711,1,0,0:0:0:0:
256,192,12127,1,8,0:0:0:0:
256,192,12961,1,8,0:0:0:0:
256,192,13794,5,0,0:0:0:0:
256,192,14211,1,0,0:0:0:0:
256,192,14627,1,0,0:0:0:0:
256,192,14836,1,0,0:0:0:0:
256,192,15044,1,0,0:0:0:0:
256,192,15252,1,0,0:0:0:0:
256,192,15461,5,0,0:0:0:0:
256,192,15877,1,0,0:0:0:0:
256,192,16086,1,8,0:0:0:0:
256,192,16294,1,0,0:0:0:0:
256,192,16398,1,8,0:0:0:0:
256,192,16502,1,0,0:0:0:0:
256,192,16711,1,8,0:0:0:0:
256,192,17127,1,0,0:0:0:0:
256,192,17232,1,0,0:0:0:0:
256,192,17336,1,8,0:0:0:0:
256,192,17544,1,8,0:0:0:0:
256,192,17752,1,0,0:0:0:0:
256,192,17961,1,0,0:0:0:0:
256,192,18065,1,8,0:0:0:0:
256,192,18377,1,0,0:0:0:0:
256,192,18586,1,8,0:0:0:0:
256,192,18794,1,0,0:0:0:0:
256,192,19211,1,8,0:0:0:0:
256,192,19419,1,0,0:0:0:0:
256,192,19627,1,8,0:0:0:0:
256,192,19731,1,0,0:0:0:0:
256,192,19836,1,0,0:0:0:0:
256,192,20044,1,8,0:0:0:0:
256,192,20252,1,8,0:0:0:0:
256,192,20461,1,0,0:0:0:0:
256,192,20565,1,0,0:0:0:0:
256,192,20669,1,8,0:0:0:0:
256,192,20877,1,0,0:0:0:0:
256,192,21086,1,8,0:0:0:0:
256,192,21294,1,0,0:0:0:0:
256,192,21398,1,8,0:0:0:0:
256,192,21502,1,0,0:0:0:0:
256,192,21711,1,8,0:0:0:0:
256,192,21815,1,8,0:0:0:0:
256,192,21919,1,8,0:0:0:0:
256,192,22127,1,0,0:0:0:0:
256,192,22544,1,0,0:0:0:0:
256,192,22752,1,8,0:0:0:0:
256,192,22961,1,0,0:0:0:0:
256,192,23065,1,8,0:0:0:0:
256,192,23377,1,8,0:0:0:0:
256,192,23586,1,8,0:0:0:0:
256,192,23794,1,0,0:0:0:0:
256,192,23898,1,0,0:0:0:0:
256,192,24002,1,8,0:0:0:0:
256,192,24211,1,0,0:0:0:0:
256,192,24419,1,0,0:0:0:0:
256,192,24627,1,8,0:0:0:0:
256,192,24732,1,8,0:0:0:0:
256,192,24836,1,0,0:0:0:0:
256,192,25044,1,8,0:0:0:0:
256,192,25252,1,8,0:0:0:0:
256,192,25461,1,0,0:0:0:0:
256,192,25877,1,0,0:0:0:0:
256,192,26086,1,8,0:0:0:0:
256,192,26294,1,0,0:0:0:0:
256,192,26398,1,8,0:0:0:0:
256,192,26711,1,8,0:0:0:0:
256,192,26919,1,0,0:0:0:0:
256,192,27127,1,0,0:0:0:0:
256,192,27232,1,8,0:0:0:0:
256,192,27544,1,0,0:0:0:0:
256,192,27752,1,8,0:0:0:0:
256,192,27857,1,0,0:0:0:0:
256,192,27961,1,0,0:0:0:0:
256,192,28065,1,8,0:0:0:0:
256,192,28169,1,0,0:0:0:0:
256,192,28377,1,8,0:0:0:0:
256,192,28481,1,0,0:0:0:0:
256,192,28586,1,8,0:0:0:0:
256,192,28690,1,8,0:0:0:0:
256,192,28794,5,0,0:0:0:0:
256,192,29211,1,0,0:0:0:0:
256,192,29419,1,8,0:0:0:0:
256,192,29627,1,0,0:0:0:0:
256,192,29732,1,8,0:0:0:0:
256,192,29836,1,8,0:0:0:0:
256,192,30044,1,8,0:0:0:0:
256,192,30252,1,0,0:0:0:0:
256,192,30461,1,0,0:0:0:0:
256,192,30565,1,8,0:0:0:0:
256,192,30669,1,0,0:0:0:0:
256,192,30877,1,0,0:0:0:0:
256,192,31086,1,8,0:0:0:0:
256,192,31294,1,0,0:0:0:0:
256,192,31398,1,8,0:0:0:0:
256,192,31711,1,8,0:0:0:0:
256,192,31919,1,8,0:0:0:0:
256,192,32127,1,0,0:0:0:0:
256,192,32544,1,8,0:0:0:0:
256,192,32752,1,0,0:0:0:0:
256,192,32961,1,0,0:0:0:0:
256,192,33065,1,0,0:0:0:0:
256,192,33169,1,8,0:0:0:0:
256,192,33377,1,8,0:0:0:0:
256,192,33586,1,0,0:0:0:0:
256,192,33794,1,0,0:0:0:0:
256,192,33898,1,8,0:0:0:0:
256,192,34002,1,0,0:0:0:0:
256,192,34211,1,8,0:0:0:0:
256,192,34419,1,8,0:0:0:0:
256,192,34523,1,0,0:0:0:0:
256,192,34627,1,0,0:0:0:0:
256,192,34732,1,8,0:0:0:0:
256,192,34836,1,0,0:0:0:0:
256,192,35044,1,8,0:0:0:0:
256,192,35148,1,8,0:0:0:0:
256,192,35252,1,8,0:0:0:0:
256,192,35461,1,0,0:0:0:0:
256,192,35877,1,0,0:0:0:0:
256,192,36086,1,8,0:0:0:0:
256,192,36294,1,0,0:0:0:0:
256,192,36398,1,8,0:0:0:0:
256,192,36711,1,8,0:0:0:0:
256,192,36919,1,8,0:0:0:0:
256,192,37127,1,0,0:0:0:0:
256,192,37232,1,0,0:0:0:0:
256,192,37336,1,8,0:0:0:0:
256,192,37544,1,0,0:0:0:0:
256,192,37752,1,0,0:0:0:0:
256,192,37961,1,8,0:0:0:0:
256,192,38065,1,0,0:0:0:0:
256,192,38169,1,0,0:0:0:0:
256,192,38377,1,8,0:0:0:0:
256,192,38586,1,8,0:0:0:0:
256,192,38794,1,0,0:0:0:0:
256,192,39211,1,0,0:0:0:0:
256,192,39419,1,8,0:0:0:0:
256,192,39627,1,0,0:0:0:0:
256,192,39732,1,8,0:0:0:0:
256,192,40044,1,8,0:0:0:0:
256,192,40252,1,8,0:0:0:0:
256,192,40461,1,0,0:0:0:0:
256,192,40565,1,8,0:0:0:0:
256,192,40669,1,0,0:0:0:0:
256,192,40877,1,8,0:0:0:0:
256,192,41086,1,8,0:0:0:0:
256,192,41190,1,8,0:0:0:0:
256,192,41294,1,0,0:0:0:0:
256,192,41398,1,8,0:0:0:0:
256,192,41502,1,0,0:0:0:0:
256,192,41607,1,0,0:0:0:0:
256,192,41711,1,8,0:0:0:0:
256,192,41815,1,0,0:0:0:0:
256,192,41919,1,8,0:0:0:0:
256,192,42023,1,8,0:0:0:0:
256,192,42127,5,0,0:0:0:0:
256,192,42544,1,0,0:0:0:0:
256,192,42752,1,8,0:0:0:0:
256,192,42961,1,0,0:0:0:0:
256,192,43065,1,0,0:0:0:0:
256,192,43169,1,0,0:0:0:0:
256,192,43377,1,8,0:0:0:0:
256,192,43586,1,8,0:0:0:0:
256,192,43794,1,0,0:0:0:0:
256,192,43898,1,8,0:0:0:0:
256,192,44211,1,0,0:0:0:0:
256,192,44419,1,8,0:0:0:0:
256,192,44523,1,0,0:0:0:0:
256,192,44627,1,0,0:0:0:0:
256,192,44732,1,0,0:0:0:0:
256,192,44836,1,8,0:0:0:0:
256,192,45044,1,8,0:0:0:0:
256,192,45252,1,0,0:0:0:0:
256,192,45461,1,0,0:0:0:0:
256,192,45877,1,0,0:0:0:0:
256,192,46086,1,8,0:0:0:0:
256,192,46294,1,0,0:0:0:0:
256,192,46398,1,8,0:0:0:0:
256,192,46502,1,0,0:0:0:0:
256,192,46711,1,8,0:0:0:0:
256,192,46919,1,8,0:0:0:0:
256,192,47127,1,0,0:0:0:0:
256,192,47231,1,8,0:0:0:0:
256,192,47544,1,8,0:0:0:0:
256,192,47752,1,0,0:0:0:0:
256,192,47856,1,0,0:0:0:0:
256,192,47961,1,8,0:0:0:0:
256,192,48065,1,0,0:0:0:0:
256,192,48169,1,0,0:0:0:0:
256,192,48377,1,8,0:0:0:0:
256,192,48586,1,8,0:0:0:0:
256,192,48794,1,0,0:0:0:0:
256,192,49211,1,8,0:0:0:0:
256,192,49315,1,0,0:0:0:0:
256,192,49419,1,0,0:0:0:0:
256,192,49627,1,0,0:0:0:0:
256,192,49732,1,8,0:0:0:0:
256,192,49836,1,0,0:0:0:0:
256,192,50044,1,8,0:0:0:0:
256,192,50252,1,8,0:0:0:0:
256,192,50461,1,0,0:0:0:0:
256,192,50565,1,8,0:0:0:0:
256,192,50877,1,0,0:0:0:0:
256,192,51086,1,8,0:0:0:0:
256,192,51190,1,8,0:0:0:0:
256,192,51294,1,0,0:0:0:0:
256,192,51398,1,8,0:0:0:0:
256,192,51502,1,0,0:0:0:0:
256,192,51711,1,8,0:0:0:0:
256,192,51919,1,8,0:0:0:0:
256,192,52127,1,0,0:0:0:0:
256,192,52544,1,0,0:0:0:0:
256,192,52752,1,0,0:0:0:0:
256,192,52961,1,8,0:0:0:0:
256,192,53065,1,8,0:0:0:0:
256,192,53169,1,8,0:0:0:0:
256,192,53377,1,0,0:0:0:0:
256,192,53586,1,8,0:0:0:0:
256,192,53794,1,0,0:0:0:0:
256,192,53898,1,8,0:0:0:0:
256,192,54002,1,0,0:0:0:0:
256,192,54211,1,0,0:0:0:0:
256,192,54419,1,8,0:0:0:0:
256,192,54523,1,8,0:0:0:0:
256,192,54627,1,0,0:0:0:0:
256,192,54732,1,8,0:0:0:0:
256,192,54836,1,0,0:0:0:0:
256,192,55044,1,8,0:0:0:0:
256,192,55461,1,0,0:0:0:0:
256,192,55565,1,0,0:0:0:0:
256,192,55669,1,0,0:0:0:0:
256,192,55773,1,0,0:0:0:0:
256,192,55877,1,8,0:0:0:0:
256,192,55982,1,8,0:0:0:0:
256,192,56086,1,0,0:0:0:0:
256,192,56190,1,0,0:0:0:0:
256,192,56294,1,8,0:0:0:0:
256,192,56398,1,0,0:0:0:0:
256,192,56502,1,0,0:0:0:0:
256,192,56606,1,0,0:0:0:0:
256,192,56711,1,8,0:0:0:0:
256,192,56815,1,8,0:0:0:0:
256,192,56919,1,0,0:0:0:0:
256,192,57127,1,8,0:0:0:0:
256,192,57231,1,8,0:0:0:0:
256,192,57336,1,0,0:0:0:0:
256,192,57440,1,8,0:0:0:0:
256,192,57544,1,0,0:0:0:0:
256,192,57648,1,8,0:0:0:0:
256,192,57752,1,0,0:0:0:0:
256,192,57856,1,0,0:0:0:0:
256,192,57961,1,8,0:0:0:0:
256,192,58030,1,8,0:0:0:0:
256,192,58099,1,8,0:0:0:0:
256,192,58169,1,0,0:0:0:0:
256,192,58273,1,0,0:0:0:0:
256,192,58377,1,8,0:0:0:0:
256,192,58482,1,8,0:0:0:0:
256,192,58586,1,8,0:0:0:0:
256,192,58794,5,4,0:0:0:0:
256,192,59107,1,0,0:0:0:0:
256,192,59211,1,8,0:0:0:0:
256,192,59419,1,0,0:0:0:0:
256,192,59627,1,8,0:0:0:0:
256,192,59732,1,8,0:0:0:0:
256,192,59836,1,0,0:0:0:0:
256,192,59940,1,8,0:0:0:0:
256,192,60148,1,8,0:0:0:0:
256,192,60252,1,0,0:0:0:0:
256,192,60461,1,0,0:0:0:0:
256,192,60565,1,0,0:0:0:0:
256,192,60669,1,8,0:0:0:0:
256,192,60773,1,0,0:0:0:0:
256,192,60877,1,8,0:0:0:0:
256,192,61086,1,0,0:0:0:0:
256,192,61294,1,8,0:0:0:0:
256,192,61398,1,8,0:0:0:0:
256,192,61502,1,0,0:0:0:0:
256,192,61607,1,8,0:0:0:0:
256,192,61919,1,8,0:0:0:0:
256,192,62023,1,8,0:0:0:0:
256,192,62127,1,0,0:0:0:0:
256,192,62336,1,0,0:0:0:0:
256,192,62440,1,0,0:0:0:0:
256,192,62544,1,8,0:0:0:0:
256,192,62752,1,0,0:0:0:0:
256,192,62961,1,8,0:0:0:0:
256,192,63065,1,0,0:0:0:0:
256,192,63169,1,0,0:0:0:0:
256,192,63273,1,8,0:0:0:0:
256,192,63377,1,0,0:0:0:0:
256,192,63586,1,8,0:0:0:0:
256,192,63794,1,0,0:0:0:0:
256,192,63898,1,8,0:0:0:0:
256,192,64002,1,0,0:0:0:0:
256,192,64211,1,0,0:0:0:0:
256,192,64419,1,8,0:0:0:0:
256,192,64523,1,8,0:0:0:0:
256,192,64627,1,0,0:0:0:0:
256,192,64732,1,8,0:0:0:0:
256,192,64836,1,0,0:0:0:0:
256,192,64940,1,0,0:0:0:0:
256,192,65044,1,8,0:0:0:0:
256,192,65148,1,0,0:0:0:0:
256,192,65252,1,8,0:0:0:0:
256,192,65357,1,8,0:0:0:0:
256,192,65461,1,0,0:0:0:0:
256,192,65773,1,0,0:0:0:0:
256,192,65877,1,8,0:0:0:0:
256,192,66086,1,0,0:0:0:0:
256,192,66294,1,8,0:0:0:0:
256,192,66398,1,8,0:0:0:0:
256,192,66502,1,0,0:0:0:0:
256,192,66607,1,8,0:0:0:0:
256,192,66815,1,8,0:0:0:0:
256,192,66919,1,0,0:0:0:0:
256,192,67127,1,0,0:0:0:0:
256,192,67232,1,8,0:0:0:0:
256,192,67336,1,8,0:0:0:0:
256,192,67440,1,0,0:0:0:0:
256,192,67648,1,0,0:0:0:0:
256,192,67752,1,0,0:0:0:0:
256,192,67961,1,8,0:0:0:0:
256,192,68169,1,0,0:0:0:0:
256,192,68273,1,8,0:0:0:0:
256,192,68586,1,0,0:0:0:0:
256,192,68794,1,8,0:0:0:0:
256,192,69002,1,8,0:0:0:0:
256,192,69107,1,0,0:0:0:0:
256,192,69211,1,0,0:0:0:0:
256,192,69315,1,8,0:0:0:0:
256,192,69419,1,0,0:0:0:0:
256,192,69627,1,0,0:0:0:0:
256,192,69732,1,8,0:0:0:0:
256,192,69940,1,8,0:0:0:0:
256,192,70044,1,0,0:0:0:0:
256,192,70148,1,8,0:0:0:0:
256,192,70252,1,0,0:0:0:0:
256,192,70461,1,8,0:0:0:0:
256,192,70773,1,8,0:0:0:0:
256,192,70877,1,0,0:0:0:0:
256,192,71086,1,0,0:0:0:0:
256,192,71190,1,0,0:0:0:0:
256,192,71294,1,8,0:0:0:0:
256,192,71398,1,0,0:0:0:0:
256,192,71502,1,0,0:0:0:0:
256,192,71606,1,8,0:0:0:0:
256,192,71711,1,0,0:0:0:0:
256,192,71815,1,8,0:0:0:0:
256,192,71919,1,8,0:0:0:0:
256,192,72127,5,4,0:0:0:0:
256,192,72440,1,0,0:0:0:0:
256,192,72544,1,8,0:0:0:0:
256,192,72752,1,0,0:0:0:0:
256,192,72961,1,8,0:0:0:0:
256,192,73065,1,0,0:0:0:0:
256,192,73169,1,0,0:0:0:0:
256,192,73273,1,8,0:0:0:0:
256,192,73482,1,8,0:0:0:0:
256,192,73586,1,0,0:0:0:0:
256,192,73794,1,0,0:0:0:0:
256,192,73898,1,0,0:0:0:0:
256,192,74002,1,8,0:0:0:0:
256,192,74107,1,0,0:0:0:0:
256,192,74211,1,8,0:0:0:0:
256,192,74419,1,0,0:0:0:0:
256,192,74627,1,0,0:0:0:0:
256,192,74731,1,8,0:0:0:0:
256,192,74836,1,0,0:0:0:0:
256,192,74940,1,8,0:0:0:0:
256,192,75252,1,8,0:0:0:0:
256,192,75356,1,8,0:0:0:0:
256,192,75461,1,0,0:0:0:0:
256,192,75669,1,0,0:0:0:0:
256,192,75773,1,8,0:0:0:0:
256,192,75877,1,0,0:0:0:0:
256,192,76086,1,0,0:0:0:0:
256,192,76294,1,8,0:0:0:0:
256,192,76398,1,8,0:0:0:0:
256,192,76502,1,0,0:0:0:0:
256,192,76607,1,8,0:0:0:0:
256,192,76711,1,0,0:0:0:0:
256,192,76919,1,8,0:0:0:0:
256,192,77127,1,0,0:0:0:0:
256,192,77232,1,8,0:0:0:0:
256,192,77440,1,0,0:0:0:0:
256,192,77544,1,0,0:0:0:0:
256,192,77752,1,8,0:0:0:0:
256,192,77857,1,8,0:0:0:0:
256,192,77961,1,0,0:0:0:0:
256,192,78065,1,8,0:0:0:0:
256,192,78169,1,0,0:0:0:0:
256,192,78273,1,0,0:0:0:0:
256,192,78377,1,8,0:0:0:0:
256,192,78482,1,0,0:0:0:0:
256,192,78586,1,8,0:0:0:0:
256,192,78690,1,8,0:0:0:0:
256,192,78794,1,0,0:0:0:0:
256,192,79107,1,0,0:0:0:0:
256,192,79211,1,8,0:0:0:0:
256,192,79419,1,0,0:0:0:0:
256,192,79627,1,8,0:0:0:0:
256,192,79732,1,8,0:0:0:0:
256,192,79836,1,0,0:0:0:0:
256,192,79940,1,8,0:0:0:0:
256,192,80148,1,0,0:0:0:0:
256,192,80252,1,8,0:0:0:0:
256,192,80461,1,0,0:0:0:0:
256,192,80565,1,0,0:0:0:0:
256,192,80669,1,8,0:0:0:0:
256,192,80773,1,0,0:0:0:0:
256,192,80981,1,8,0:0:0:0:
256,192,81086,1,0,0:0:0:0:
256,192,81294,1,8,0:0:0:0:
256,192,81502,1,8,0:0:0:0:
256,192,81606,1,0,0:0:0:0:
256,192,81919,1,0,0:0:0:0:
256,192,82127,1,8,0:0:0:0:
256,192,82336,1,8,0:0:0:0:
256,192,82440,1,0,0:0:0:0:
256,192,82544,1,0,0:0:0:0:
256,192,82648,1,8,0:0:0:0:
256,192,82752,1,0,0:0:0:0:
256,192,82961,1,0,0:0:0:0:
256,192,83065,1,8,0:0:0:0:
256,192,83169,1,8,0:0:0:0:
256,192,83273,1,0,0:0:0:0:
256,192,83481,1,8,0:0:0:0:
256,192,83586,1,8,0:0:0:0:
256,192,83794,1,0,0:0:0:0:
256,192,84107,1,8,0:0:0:0:
256,192,84211,1,0,0:0:0:0:
256,192,84419,1,8,0:0:0:0:
256,192,84627,1,0,0:0:0:0:
256,192,84732,1,0,0:0:0:0:
256,192,84940,1,8,0:0:0:0:
256,192,85044,1,0,0:0:0:0:
256,192,85148,1,0,0:0:0:0:
256,192,85252,1,8,0:0:0:0:
256,192,85461,1,0,0:0:0:0:
256,192,85565,1,0,0:0:0:0:
256,192,85669,1,8,0:0:0:0:
256,192,85773,1,0,0:0:0:0:
256,192,85877,1,8,0:0:0:0:
256,192,85982,1,8,0:0:0:0:
256,192,86086,1,0,0:0:0:0:
256,192,86190,1,8,0:0:0:0:
256,192,86294,1,0,0:0:0:0:
256,192,86398,1,8,0:0:0:0:
256,192,86502,1,0,0:0:0:0:
256,192,86606,1,0,0:0:0:0:
256,192,86711,1,8,0:0:0:0:
256,192,86815,1,0,0:0:0:0:
256,192,86919,1,0,0:0:0:0:
256,192,87127,1,12,0:0:0:0:
256,192,87336,12,0,88377,0:0:0:0:
256,192,88794,5,4,0:0:0:0:
256,192,89106,1,0,0:0:0:0:
256,192,89211,1,8,0:0:0:0:
256,192,89419,1,0,0:0:0:0:
256,192,89627,1,8,0:0:0:0:
256,192,89940,1,8,0:0:0:0:
256,192,90148,1,0,0:0:0:0:
256,192,90252,1,8,0:0:0:0:
256,192,90461,1,8,0:0:0:0:
256,192,90565,1,0,0:0:0:0:
256,192,90669,1,0,0:0:0:0:
256,192,90773,1,8,0:0:0:0:
256,192,90982,1,0,0:0:0:0:
256,192,91086,1,0,0:0:0:0:
256,192,91294,1,8,0:0:0:0:
256,192,91607,1,0,0:0:0:0:
256,192,91711,1,8,0:0:0:0:
256,192,91815,1,8,0:0:0:0:
256,192,91919,1,0,0:0:0:0:
256,192,92127,1,4,0:0:0:0:
256,192,92440,1,12,0:0:0:0:
256,192,92752,1,12,0:0:0:0:
256,192,93065,1,4,0:0:0:0:
256,160,93377,1,12,0:0:0:0:
256,192,93586,12,0,94836,0:0:0:0:
256,192,95044,5,8,0:0:0:0:
256,192,95148,1,0,0:0:0:0:
256,192,95252,1,8,0:0:0:0:
256,192,95357,1,8,0:0:0:0:
256,192,95461,1,0,0:0:0:0:
