osu file format v14

[General]
AudioFilename: masterpiece.mp3
AudioLeadIn: 0
PreviewTime: -1
Countdown: 0
SampleSet: None
StackLeniency: 0.2
Mode: 0
LetterboxInBreaks: 0
WidescreenStoryboard: 1

[Editor]
DistanceSpacing: 0.8
BeatDivisor: 2
GridSize: 32
TimelineZoom: 1.1

[Metadata]
Title:TAG4 Beginner Compilation
TitleUnicode:TAG4 Beginner Compilation
Artist:Various Artists
ArtistUnicode:Various Artists
Creator:dragonworm
Version:Hommarju feat. Latte - Masterpiece
Source:
Tags:tag 4 tag4 tag team nekokan cant defeat airman ga taosenai reflec beat anime groovin bemani
BeatmapID:1668398
BeatmapSetID:792438

[Difficulty]
HPDrainRate:5
CircleSize:5
OverallDifficulty:7
ApproachRate:8.8
SliderMultiplier:1.4
SliderTickRate:1

[Events]
//Background and Video events
0,0,"BG.png",0,0
//Break Periods
2,41478,144816
//Storyboard Layer 0 (Background)
//Storyboard Layer 1 (Fail)
//Storyboard Layer 2 (Pass)
//Storyboard Layer 3 (Foreground)
//Storyboard Sound Samples

[TimingPoints]
12112,333.333333333333,4,1,0,100,1,0
145445,-100,4,1,0,100,0,1
156111,-100,4,1,0,100,0,0

[HitObjects]
32,352,12111,5,0,0:0:0:0:
96,352,12278,1,0,0:0:0:0:
160,352,12445,1,0,0:0:0:0:
224,352,12611,1,0,0:0:0:0:
288,352,12778,2,2,L|288:272,3,70
32,32,13445,5,0,0:0:0:0:
96,32,13611,1,0,0:0:0:0:
160,32,13778,1,0,0:0:0:0:
224,32,13945,1,0,0:0:0:0:
288,32,14111,1,0,0:0:0:0:
352,32,14278,1,0,0:0:0:0:
416,32,14445,1,0,0:0:0:0:
480,32,14611,1,0,0:0:0:0:
32,352,14778,6,2,L|32:272,1,70
32,224,15111,2,2,L|112:224,1,70
112,282,15445,2,2,L|112:352,1,70
176,352,15778,2,2,L|256:352,1,70
480,32,16111,5,0,0:0:0:0:
448,32,16195,1,0,0:0:0:0:
416,32,16278,1,0,0:0:0:0:
384,32,16361,1,0,0:0:0:0:
352,32,16445,1,0,0:0:0:0:
320,32,16528,1,0,0:0:0:0:
288,32,16612,1,0,0:0:0:0:
256,32,16695,1,0,0:0:0:0:
224,32,16778,2,2,L|176:32,7,35
32,224,17445,5,0,0:0:0:0:
96,224,17612,1,0,0:0:0:0:
96,288,17778,1,0,0:0:0:0:
32,288,17945,1,0,0:0:0:0:
32,224,18112,1,0,0:0:0:0:
96,224,18278,1,0,0:0:0:0:
96,288,18445,1,0,0:0:0:0:
32,288,18612,1,0,0:0:0:0:
160,224,18778,5,0,0:0:0:0:
224,224,18945,1,0,0:0:0:0:
224,288,19112,1,0,0:0:0:0:
160,288,19278,1,0,0:0:0:0:
160,224,19445,1,0,0:0:0:0:
224,224,19612,1,0,0:0:0:0:
224,288,19778,1,0,0:0:0:0:
160,288,19945,1,0,0:0:0:0:
288,224,20112,6,0,L|432:224,1,140
432,160,20612,2,0,L|288:160,1,140
224,160,21112,5,0,0:0:0:0:
192,160,21195,1,0,0:0:0:0:
160,160,21278,1,0,0:0:0:0:
128,160,21361,1,0,0:0:0:0:
256,192,21445,12,2,22612,0:0:0:0:
256,192,22778,5,0,0:0:0:0:
192,288,23111,5,0,0:0:0:0:
128,192,23278,1,0,0:0:0:0:
192,96,23445,1,0,0:0:0:0:
256,192,23611,1,0,0:0:0:0:
320,288,23778,5,0,0:0:0:0:
384,192,23944,1,0,0:0:0:0:
320,96,24111,1,0,0:0:0:0:
256,192,24278,1,0,0:0:0:0:
256,192,24445,5,0,0:0:0:0:
256,192,24611,1,0,0:0:0:0:
224,32,24778,5,0,0:0:0:0:
224,352,24945,1,0,0:0:0:0:
288,32,25111,5,0,0:0:0:0:
288,352,25278,1,0,0:0:0:0:
224,160,25445,5,0,0:0:0:0:
288,160,25611,1,0,0:0:0:0:
288,224,25778,1,0,0:0:0:0:
224,224,25945,1,0,0:0:0:0:
160,96,26111,5,0,0:0:0:0:
352,96,26278,1,0,0:0:0:0:
352,288,26445,1,0,0:0:0:0:
160,288,26611,1,0,0:0:0:0:
224,160,26778,5,0,0:0:0:0:
288,160,26945,1,0,0:0:0:0:
288,224,27111,1,0,0:0:0:0:
224,224,27278,1,0,0:0:0:0:
256,192,27445,5,0,0:0:0:0:
256,192,27611,1,0,0:0:0:0:
256,192,27778,1,0,0:0:0:0:
256,192,27945,1,0,0:0:0:0:
256,192,28111,5,0,0:0:0:0:
192,288,28445,5,0,0:0:0:0:
128,192,28612,1,0,0:0:0:0:
192,96,28779,1,0,0:0:0:0:
256,192,28945,1,0,0:0:0:0:
320,288,29112,5,0,0:0:0:0:
384,192,29278,1,0,0:0:0:0:
320,96,29445,1,0,0:0:0:0:
256,192,29612,1,0,0:0:0:0:
256,192,29779,5,0,0:0:0:0:
256,192,29945,1,0,0:0:0:0:
224,32,30112,5,0,0:0:0:0:
224,352,30279,1,0,0:0:0:0:
288,32,30445,5,0,0:0:0:0:
288,352,30612,1,0,0:0:0:0:
224,160,30778,5,0,0:0:0:0:
288,160,30944,1,0,0:0:0:0:
288,224,31111,1,0,0:0:0:0:
224,224,31278,1,0,0:0:0:0:
160,96,31444,5,0,0:0:0:0:
352,96,31611,1,0,0:0:0:0:
352,288,31778,1,0,0:0:0:0:
160,288,31944,1,0,0:0:0:0:
224,160,32111,5,0,0:0:0:0:
288,160,32278,1,0,0:0:0:0:
288,224,32444,1,0,0:0:0:0:
224,224,32611,1,0,0:0:0:0:
256,192,32778,5,0,0:0:0:0:
256,192,32944,1,0,0:0:0:0:
256,192,33111,1,0,0:0:0:0:
256,192,33278,1,0,0:0:0:0:
256,192,33445,12,0,35945,0:0:0:0:
32,192,36111,6,2,L|224:192,2,140
32,128,36945,1,0,0:0:0:0:
128,128,37278,2,0,L|352:128,1,210
480,352,38111,5,0,0:0:0:0:
480,288,38278,1,0,0:0:0:0:
480,192,38611,2,0,B|480:32|480:32|416:32,1,210
320,32,39445,5,0,0:0:0:0:
256,32,39611,1,0,0:0:0:0:
192,32,39945,5,0,0:0:0:0:
128,32,40278,5,0,0:0:0:0:
64,32,40611,5,0,0:0:0:0:
32,96,40945,5,0,0:0:0:0:
32,160,41111,1,0,0:0:0:0:
32,224,41278,1,0,0:0:0:0:
