osu file format v14

[General]
AudioFilename: audio.mp3
AudioLeadIn: 0
PreviewTime:61063
Countdown: 0
SampleSet: Soft
StackLeniency: 0.7
Mode: 0
LetterboxInBreaks: 0
WidescreenStoryboard: 1

[Editor]
DistanceSpacing: 1.3
BeatDivisor: 4
GridSize: 32
TimelineZoom: 1.3

[Metadata]
Title:Super * Affection (TV Size)
TitleUnicode:すーぱー☆あふぇくしょん (TV Size)
Artist:Various Artists
ArtistUnicode:Various Artists
Creator:Sotarks
Version:Shunao's Hard
Source:Fate/Grand Carnival
Tags:Rie Takahashi Minami Tanaka Rumi Okubo Aoi Yuki Nao Toyama Ayane Sakura Saori Hayami Ayako Kawasumi Kana Ueda Tange Mai Kadowaki 高橋李依 田中美海 大久保瑠美 悠木碧 東山奈央 佐倉綾音 早見沙織 川澄綾子 植田佳奈 丹下桜 門脇舞以 game japanese pop anime delight works fgo fate grand order female vocals vocalist jpop j-pop TYPE-MOON akitoshi corinn -laura- shunao shogunmoon kujinn reform マシュ・キリエライト Mash Kyrielight ニトクリス Nitocris エリザベート・バートリー Elizabeth Bathory 酒呑童子 Shuten-douji 茨木童子 Ibaraki-douji 女王メイヴ Queen Medb アタランテ Atalanta 謎のヒロインX Mysterious Heroine X イシュタル Ishtar ネロ・クラウディウス Nero Claudius シトナイ Sitonai
BeatmapID:3364402
BeatmapSetID:1645707

[Difficulty]
HPDrainRate:5
CircleSize:3.7
OverallDifficulty:6
ApproachRate:8
SliderMultiplier:1.42
SliderTickRate:1

[Events]
//Background and Video events
0,0,"bg.jpg",0,0
Video,0,"video.mp4"
//Break Periods
//Storyboard Layer 0 (Background)
//Storyboard Layer 1 (Fail)
//Storyboard Layer 2 (Pass)
//Storyboard Layer 3 (Foreground)
//Storyboard Layer 4 (Overlay)
//Storyboard Sound Samples

[TimingPoints]
167,326.086956521739,4,2,22,72,1,0
167,-125,4,2,22,72,0,0
2775,-100,4,2,22,82,0,0
17368,-100,4,2,22,5,0,0
17449,-100,4,2,22,82,0,0
17531,-100,4,2,22,5,0,0
17612,-100,4,2,22,82,0,0
17694,-100,4,2,22,5,0,0
17775,-100,4,2,22,42,0,0
18427,-142.857142857143,4,2,22,52,0,0
26743,-111.111111111111,4,2,22,52,0,0
27069,-142.857142857143,4,2,22,72,0,0
27558,-100,4,2,22,72,0,0
28862,-111.111111111111,4,2,22,72,0,0
39297,-125,4,2,22,62,0,0
48916,-125,4,2,22,72,0,0
49732,-111.111111111111,4,2,22,72,0,0
54949,-100,4,2,22,72,0,0
58862,-100,4,2,22,42,0,0
59188,-100,4,2,22,52,0,0
59514,-100,4,2,22,62,0,0
59840,-100,4,2,22,72,0,0
60166,-100,4,2,22,82,0,0
60656,-100,4,2,22,62,0,0
61145,-100,4,2,22,72,0,0
61471,-83.3333333333333,4,2,22,82,0,1
61797,-83.3333333333333,4,2,22,92,0,1
61878,-83.3333333333333,4,2,22,82,0,1
67014,-83.3333333333333,4,2,22,92,0,1
67095,-83.3333333333333,4,2,22,82,0,1
72232,-83.3333333333333,4,2,22,92,0,1
72313,-83.3333333333333,4,2,22,82,0,1
77449,-83.3333333333333,4,2,22,92,0,1
77530,-83.3333333333333,4,2,22,82,0,1
82340,-100,4,2,22,82,0,1
86987,-100,4,2,22,5,0,1
87069,-100,4,2,22,72,0,1
87150,-100,4,2,22,5,0,1
87232,-100,4,2,22,72,0,1
87313,-100,4,2,22,5,0,1
87395,-100,4,2,22,72,0,0
88210,-100,4,2,22,5,0,0

[Colours]
Combo1 : 185,135,192
Combo2 : 217,234,147
Combo3 : 239,227,146
Combo4 : 150,190,214
Combo5 : 214,139,141

[HitObjects]
85,78,1308,5,0,1:2:0:0:
85,78,1389,1,0,1:2:0:0:
85,78,1471,6,0,P|125:77|160:70,1,56.8,2|2,1:2|1:2,0:0:0:0:
295,35,1960,1,2,1:2:0:0:
430,117,2286,2,0,P|437:80|437:66,2,28.4,0|0|12,3:2|3:2|0:2,0:0:0:0:
312,277,2775,6,0,P|243:275|191:341,1,142,2|12,1:2|0:2,0:2:0:0:
15,367,3427,2,0,P|7:312|7:278,1,71,2|0,1:2|0:2,0:0:0:0:
76,236,3753,1,10,0:2:0:0:
76,236,3916,6,0,P|86:176|97:87,1,142,2|2,0:2|0:2,0:2:0:0:
168,36,4406,2,0,P|221:23|251:23,1,71,10|2,0:2|0:2,0:0:0:0:
328,33,4732,1,2,1:2:0:0:
491,118,5058,2,0,P|481:167|479:204,1,71,10|2,0:2|0:2,0:0:0:0:
465,279,5384,6,0,P|402:265|338:323,1,142,2|10,1:2|0:2,0:2:0:0:
170,371,6036,2,0,P|160:327|157:283,1,71,2|0,1:2|0:2,0:0:0:0:
225,238,6362,2,0,P|235:194|238:150,1,71,10|0,0:2|0:2,0:2:0:0:
220,77,6688,6,0,P|196:81|168:82,3,35.5,2|0|0|0,1:2|0:2|0:2|0:2,0:2:0:0:
141,64,7014,2,0,P|117:60|89:59,3,35.5,8|0|2|0,0:2|0:2|0:2|0:2,0:2:0:0:
62,74,7340,2,0,P|48:112|59:150,1,71,2|0,1:2|0:2,0:2:0:0:
126,197,7666,1,10,0:2:0:0:
222,179,7830,1,2,0:2:0:0:
222,179,7911,1,0,0:2:0:0:
222,179,7993,6,0,P|280:172|339:237,1,142,2|12,1:2|0:2,0:2:0:0:
456,366,8645,1,2,1:2:0:0:
456,366,8808,2,0,P|465:321|478:281,1,71,2|10,0:2|0:2,0:0:0:0:
380,304,9134,6,0,P|370:269|352:152,1,142,2|2,0:2|0:2,0:2:0:0:
435,123,9623,2,0,P|444:78|446:43,1,71,10|2,0:2|0:2,0:2:0:0:
366,5,9949,1,2,1:2:0:0:
201,87,10275,2,0,L|117:76,1,71,10|0,0:2|0:2,0:0:0:0:
52,126,10601,6,0,P|7:173|19:263,1,142,2|10,1:2|0:2,0:2:0:0:
140,376,11253,2,0,L|154:302,1,71,2|0,1:2|0:2,0:0:0:0:
235,263,11580,2,0,L|221:189,1,71,10|0,0:2|0:2,0:2:0:0:
283,125,11906,5,2,1:2:0:0:
283,125,12069,2,0,L|292:75,2,35.5,2|0|8,1:2|1:2|1:2,0:0:0:0:
192,105,12395,2,0,L|183:55,2,35.5,2|0|10,1:2|1:2|1:2,0:0:0:0:
128,172,12721,2,0,L|79:161,2,35.5,2|0|10,1:2|1:2|0:2,0:0:0:0:
173,252,13047,1,2,1:2:0:0:
173,252,13128,1,0,1:2:0:0:
173,252,13210,6,0,P|183:288|188:338,1,71,6|0,1:2|0:0,0:2:0:0:
271,370,13536,1,8,0:2:0:0:
271,370,13699,2,0,P|311:360|352:367,1,71,2|0,0:2|1:2,0:0:0:0:
431,352,14025,2,0,P|473:358|515:351,1,71,0|10,0:2|0:2,0:0:0:0:
490,263,14351,6,0,P|470:203|458:103,1,142,2|0,0:2|0:2,0:0:0:0:
485,37,14840,2,0,P|448:31|401:47,1,71,10|2,0:2|0:2,0:0:0:0:
330,74,15166,2,0,L|345:167,1,71,2|0,1:2|0:2,0:2:0:0:
340,236,15493,1,10,0:2:0:0:
258,279,15656,1,0,0:2:0:0:
171,247,15819,6,0,P|132:237|86:240,1,71,12|0,0:2|1:2,0:0:0:0:
12,211,16145,2,0,P|1:172|-3:125,1,71,8|0,0:2|1:2,0:0:0:0:
40,60,16471,2,0,P|62:62|91:46,3,35.5,12|0|0|0,0:2|1:2|1:2|1:2,0:0:0:0:
118,42,16797,2,0,P|140:40|169:56,3,35.5,8|0|0|0,0:2|1:2|1:2|1:2,0:0:0:0:
194,64,17123,6,0,L|189:154,1,71,4|10,1:3|0:2,0:0:0:0:
252,202,17449,1,10,0:2:0:0:
340,176,17612,1,10,0:2:0:0:
340,176,18427,6,0,L|346:243,1,49.6999984832764,0|0,1:2|0:0,0:2:0:0:
354,309,18753,2,0,P|398:320|465:292,1,99.3999969665528,0|0,0:2|1:2,0:0:0:0:
492,232,19243,2,0,L|497:166,1,49.6999984832764,0|0,1:2|0:2,0:2:0:0:
498,98,19569,6,0,P|465:72|399:76,1,99.3999969665528,0|0,1:2|1:2,0:2:0:0:
329,97,20058,2,0,L|210:85,1,99.3999969665528,0|0,0:0|1:2,0:0:0:0:
169,27,20547,2,0,L|110:32,1,49.6999984832764,0|0,1:2|3:2,0:0:0:0:
57,88,20873,6,0,P|29:140|52:186,1,99.3999969665528,0|0,3:2|0:0,3:2:0:0:
107,228,21362,2,0,L|98:284,1,49.6999984832764,0|0,0:2|0:0,0:0:0:0:
33,329,21688,2,0,L|40:378,1,49.6999984832764,0|0,1:2|1:2,0:0:0:0:
125,373,22014,1,0,0:2:0:0:
125,373,22177,6,0,P|178:356|231:354,1,99.3999969665528,0|0,1:2|0:2,0:2:0:0:
303,371,22666,2,0,L|310:311,1,49.6999984832764,0|0,0:0|0:2,0:0:0:0:
266,253,22993,1,0,1:2:0:0:
266,253,23156,2,0,L|258:140,1,99.3999969665528,0|0,1:2|3:2,0:0:0:0:
249,69,23645,6,0,P|273:57|304:52,1,49.6999984832764,4|0,1:2|0:0,0:0:0:0:
376,28,23971,2,0,P|431:45|475:31,1,99.3999969665528,0|0,0:2|1:2,0:0:0:0:
502,111,24460,2,0,P|490:148|485:178,1,49.6999984832764,0|0,1:2|0:2,0:2:0:0:
464,239,24786,6,0,L|361:232,1,99.3999969665528,0|0,1:2|1:2,0:2:0:0:
296,181,25275,2,0,P|321:229|310:285,1,99.3999969665528,0|0,0:0|1:2,0:0:0:0:
268,342,25764,2,0,L|204:339,1,49.6999984832764,0|0,1:2|3:2,0:0:0:0:
146,294,26090,6,0,L|36:301,1,99.3999969665528,0|0,3:2|0:0,0:0:0:0:
24,223,26580,1,0,0:2:0:0:
24,223,26743,2,0,L|-23:213,2,31.9499990249634,0|0|0,1:2|1:2|1:2,0:0:0:0:
28,138,27069,1,6,1:3:0:0:
86,76,27232,1,6,1:3:0:0:
169,87,27395,1,2,1:3:0:0:
343,253,27721,5,6,1:3:0:0:
425,295,27884,1,6,1:3:0:0:
502,244,28047,1,14,0:2:0:0:
434,72,28373,2,0,L|439:31,2,35.5,0|0|8,1:2|1:2|0:2,0:0:0:0:
353,117,28699,1,0,1:2:0:0:
353,117,28781,1,0,1:2:0:0:
353,117,28862,6,0,P|307:108|268:108,1,63.8999980499268,6|0,1:2|0:2,0:2:0:0:
229,50,29188,2,0,P|177:63|102:66,1,127.799996099854,10|2,0:2|1:2,0:2:0:0:
40,120,29677,2,0,P|6:113|-13:112,2,31.9499990249634,2|0|10,0:2|0:2|0:2,0:0:0:0:
83,190,30003,6,0,P|90:243|91:271,1,63.8999980499268,2|0,0:2|1:2,0:0:0:0:
50,326,30330,1,2,0:2:0:0:
50,326,30493,2,0,P|90:337|171:278,1,127.799996099854,10|0,0:2|1:2,0:2:0:0:
205,226,30982,1,2,0:2:0:0:
205,226,31145,2,0,P|253:218|294:220,1,63.8999980499268,10|2,0:2|0:2,0:0:0:0:
346,245,31471,6,0,L|351:319,1,63.8999980499268,0|0,1:2|0:0,0:2:0:0:
430,329,31797,2,0,L|435:254,1,63.8999980499268,10|0,0:2|0:2,0:0:0:0:
489,202,32123,1,2,1:2:0:0:
489,202,32286,2,0,L|484:138,1,63.8999980499268,2|10,0:2|0:2,0:2:0:0:
423,82,32612,6,0,L|429:10,2,63.8999980499268,2|0|0,0:2|1:2|0:2,0:0:0:0:
346,107,33101,1,10,0:2:0:0:
346,107,33264,2,0,P|279:99|219:154,1,127.799996099854,2|0,0:2|0:2,0:0:0:0:
189,203,33753,1,8,0:2:0:0:
91,337,34080,6,0,P|80:298|78:268,1,63.8999980499268,2|2,1:2|0:2,0:0:0:0:
22,213,34406,2,0,P|33:174|35:144,1,63.8999980499268,8|0,0:2|0:2,0:0:0:0:
98,97,34732,2,0,P|87:58|85:28,1,63.8999980499268,2|2,1:2|0:2,0:0:0:0:
166,19,35058,2,0,P|175:49|179:81,1,63.8999980499268,8|0,0:2|0:2,0:2:0:0:
195,162,35384,6,0,P|239:207|320:190,1,127.799996099854,2|10,1:2|0:2,0:0:0:0:
377,173,35873,2,0,L|356:28,1,127.799996099854,2|2,0:2|0:2,0:2:0:0:
437,20,36362,2,0,L|447:97,1,63.8999980499268,8|2,0:2|0:2,0:0:0:0:
501,144,36688,2,0,L|491:221,1,63.8999980499268,0|2,1:2|0:2,0:0:0:0:
469,286,37014,6,0,P|411:264|336:292,1,127.799996099854,10|2,0:2|1:2,0:2:0:0:
293,341,37503,1,10,0:2:0:0:
293,341,37585,1,10,0:2:0:0:
293,341,37666,2,0,P|241:327|211:327,1,63.8999980499268,10|10,0:2|0:2,0:0:0:0:
151,329,37993,5,10,0:2:0:0:
151,329,38156,1,2,1:2:0:0:
97,261,38319,1,2,1:2:0:0:
97,261,38482,1,6,1:2:0:0:
177,117,38808,1,0,1:2:0:0:
177,117,38971,2,0,P|167:76|164:45,1,63.8999980499268,8|4,0:2|0:3,0:0:0:0:
258,23,39297,6,0,P|305:43|373:32,1,113.6,0|0,1:2|0:2,0:2:0:0:
447,11,39786,1,0,1:2:0:0:
447,11,39949,2,0,P|438:66|435:138,1,113.6,0|0,1:2|3:2,0:2:0:0:
357,159,40438,6,0,P|366:214|369:286,1,113.6,0|0,0:2|0:2,0:2:0:0:
229,369,41090,1,0,1:2:0:0:
229,369,41253,2,0,P|170:371|111:325,1,113.6,0|0,1:2|3:2,0:0:0:0:
48,190,41906,6,0,P|44:150|39:120,1,56.8,0|0,1:2|0:2,0:2:0:0:
41,48,42232,1,0,0:2:0:0:
41,48,42395,2,0,P|95:25|158:38,1,113.6,0|0,1:2|0:0,0:0:0:0:
220,77,42884,2,0,L|284:72,1,56.8,0|0,3:2|0:0,0:0:0:0:
349,28,43210,6,0,L|413:34,1,56.8,0|0,1:2|0:2,0:0:0:0:
476,79,43536,1,0,0:2:0:0:
476,79,43699,2,0,P|493:134|464:193,1,113.6,0|0,1:2|0:0,0:0:0:0:
409,240,44188,1,0,3:2:0:0:
248,296,44514,6,0,P|311:313|351:359,1,113.6,0|0,1:2|0:2,0:2:0:0:
425,371,45003,1,0,1:2:0:0:
425,371,45166,2,0,P|433:328|441:298,1,56.8,0|0,1:2|0:2,0:2:0:0:
503,261,45493,1,0,3:2:0:0:
503,261,45656,6,0,P|495:218|474:133,1,113.6,0|0,0:2|0:2,0:2:0:0:
364,24,46308,1,0,1:2:0:0:
364,24,46471,2,0,P|348:74|336:143,1,113.6,0|0,1:2|3:2,0:0:0:0:
200,235,47123,5,0,1:2:0:0:
200,235,47286,2,0,P|142:219|109:174,1,113.6,0|0,0:2|1:2,0:0:0:0:
91,95,47775,2,0,P|81:142|60:218,1,113.6,0|0,3:2|3:2,3:2:0:0:
131,361,48427,5,6,1:2:0:0:
209,327,48590,1,2,1:2:0:0:
372,374,48916,1,6,1:2:0:0:
508,268,49243,1,0,1:2:0:0:
508,268,49324,1,0,1:2:0:0:
508,268,49406,2,0,P|499:227|497:199,1,56.8,8|0,0:2|1:2,0:0:0:0:
468,120,49732,6,0,P|427:113|383:110,1,63.8999980499268,4|0,1:2|0:2,0:2:0:0:
318,69,50058,2,0,P|277:76|233:79,1,63.8999980499268,8|2,0:2|0:2,0:2:0:0:
160,61,50384,1,2,1:2:0:0:
160,61,50547,2,0,P|148:33|143:7,2,31.9499990249634,2|0|10,0:2|0:2|0:2,0:0:0:0:
91,128,50873,6,0,P|80:168|77:204,1,63.8999980499268,2|2,0:2|1:2,0:0:0:0:
55,283,51199,2,0,L|15:275,2,31.9499990249634,0|0|8,0:2|0:0|0:2,0:0:0:0:
146,255,51525,2,0,L|186:247,2,31.9499990249634,2|0|0,0:2|0:0|1:2,0:0:0:0:
127,348,51851,1,2,0:2:0:0:
127,348,51933,1,0,0:2:0:0:
127,348,52014,2,0,P|179:364|213:366,1,63.8999980499268,8|0,0:2|0:2,0:2:0:0:
283,353,52340,6,0,L|277:308,3,31.9499990249634,2|0|0|0,1:2|0:0|0:2|0:0,0:2:0:0:
317,292,52666,2,0,L|321:260,3,31.9499990249634,10|0|2|0,0:2|0:0|0:2|0:0,0:0:0:0:
286,226,52993,2,0,L|280:181,3,31.9499990249634,0|0|2|0,1:2|0:0|0:2|0:2,0:0:0:0:
320,165,53319,2,0,L|324:133,3,31.9499990249634,10|0|0|0,0:2|0:0|0:2|0:0,0:2:0:0:
330,85,53645,5,2,1:2:0:0:
244,41,53808,2,0,P|183:26|117:69,1,127.799996099854,2|2,0:2|0:2,0:2:0:0:
54,116,54297,2,0,L|61:200,1,63.8999980499268,2|0,1:2|0:2,0:0:0:0:
111,259,54623,2,0,L|104:343,1,63.8999980499268,10|0,0:2|0:2,0:2:0:0:
198,375,54949,5,10,0:2:0:0:
198,375,55112,2,0,P|244:368|276:368,1,71,8|8,0:2|0:2,0:0:0:0:
350,326,55438,2,0,L|394:329,2,35.5,8|8|10,0:2|0:2|0:2,0:0:0:0:
283,262,55764,1,6,1:2:0:0:
308,79,56090,6,0,P|372:60|438:111,1,142,6|2,1:2|1:2,0:2:0:0:
481,176,56580,1,2,0:2:0:0:
481,176,56743,2,0,L|471:247,1,71,8|2,0:2|1:2,0:0:0:0:
444,334,57069,1,10,0:2:0:0:
357,365,57232,1,8,0:2:0:0:
197,271,57558,5,10,0:2:0:0:
127,210,57721,2,0,L|89:213,2,35.5,2|2|10,1:2|1:2|0:2,0:0:0:0:
199,153,58047,2,0,L|237:156,2,35.5,2|2|10,1:2|1:2|0:2,0:0:0:0:
118,108,58373,2,0,L|80:111,2,35.5,2|2|10,1:2|1:2|0:2,0:0:0:0:
175,36,58699,1,2,1:2:0:0:
175,36,58781,1,0,1:2:0:0:
175,36,58862,6,0,L|229:39,3,35.5,10|8|10|8,0:2|0:2|0:2|0:2,0:0:0:0:
250,61,59188,2,0,L|307:58,3,35.5,10|8|10|8,0:2|0:2|0:2|0:2,0:0:0:0:
325,34,59514,2,0,L|379:38,3,35.5,8|8|8|8,0:2|0:2|0:2|0:2,0:0:0:0:
393,69,59840,2,0,L|450:66,3,35.5,8|8|8|8,0:2|0:2|0:2|0:2,0:0:0:0:
470,87,60166,5,2,1:2:0:0:
497,175,60330,1,2,1:2:0:0:
474,264,60493,1,2,1:2:0:0:
121,373,61145,2,0,L|23:360,1,71,10|2,0:2|0:2,0:0:0:0:
4,272,61471,6,0,P|53:198|142:216,1,170.399994799805,2|12,1:2|0:2,0:2:0:0:
317,275,62123,2,0,L|419:268,1,85.1999973999024,2|0,1:2|0:2,0:0:0:0:
469,192,62449,1,10,0:2:0:0:
469,192,62612,6,0,P|474:137|352:78,1,170.399994799805,2|2,0:2|0:2,0:2:0:0:
290,54,63101,2,0,P|243:51|191:35,1,85.1999973999024,10|2,0:2|0:2,0:0:0:0:
105,25,63427,2,0,P|114:76|112:125,1,85.1999973999024,2|2,1:2|0:2,0:2:0:0:
55,194,63753,1,10,0:2:0:0:
55,194,63916,1,2,0:2:0:0:
9,286,64080,6,0,P|17:335|19:375,1,85.1999973999024,2|0,1:2|0:2,0:0:0:0:
120,376,64406,2,0,P|128:327|130:287,1,85.1999973999024,10|0,0:2|0:2,0:2:0:0:
201,218,64732,2,0,P|262:207|339:283,1,170.399994799805,2|10,1:2|0:2,0:2:0:0:
395,358,65221,1,0,0:2:0:0:
483,307,65384,6,0,L|475:261,3,42.5999986999512,2|0|0|0,1:2|0:2|0:2|0:2,0:0:0:0:
445,223,65710,2,0,L|453:177,3,42.5999986999512,8|0|2|0,0:2|0:2|0:2|0:2,0:0:0:0:
493,150,66036,2,0,L|485:104,3,42.5999986999512,2|0|0|0,1:2|0:2|0:2|0:2,0:0:0:0:
467,60,66362,1,10,0:2:0:0:
379,29,66525,1,2,1:2:0:0:
379,29,66607,1,0,1:2:0:0:
379,29,66688,6,0,L|294:24,1,85.1999973999024,2|0,1:2|1:2,0:2:0:0:
201,66,67014,2,0,P|213:138|224:239,1,170.399994799805,12|2,0:2|1:2,0:2:0:0:
322,210,67503,2,0,P|312:268|309:317,1,85.1999973999024,2|10,0:2|0:2,0:0:0:0:
224,352,67830,6,0,P|131:371|66:296,1,170.399994799805,2|2,0:2|0:2,0:2:0:0:
47,229,68319,2,0,P|41:182|26:131,1,85.1999973999024,10|2,0:2|0:2,0:0:0:0:
133,145,68645,2,0,P|139:98|154:47,1,85.1999973999024,2|0,1:2|0:2,0:2:0:0:
238,12,68971,1,10,0:2:0:0:
371,167,69297,6,0,P|437:177|505:105,1,170.399994799805,2|10,1:2|0:2,0:2:0:0:
419,50,69786,1,0,0:2:0:0:
322,19,69949,2,0,P|260:12|215:11,1,85.1999973999024,2|0,1:2|0:2,0:2:0:0:
168,86,70275,2,0,P|180:142|184:187,1,85.1999973999024,10|0,0:2|0:2,0:2:0:0:
258,238,70601,6,0,P|271:186|285:152,2,85.1999973999024,10|10|8,1:2|1:2|1:2,0:0:0:0:
256,340,71090,1,10,1:2:0:0:
256,340,71253,2,0,L|308:344,2,42.5999986999512,10|0|10,1:2|1:2|1:2,0:0:0:0:
158,371,71580,1,10,1:2:0:0:
72,335,71743,1,10,1:2:0:0:
72,335,71824,1,8,1:2:0:0:
72,335,71906,6,0,P|62:283|68:243,1,85.1999973999024,2|0,1:2|1:2,0:2:0:0:
156,204,72232,2,0,P|71:223|14:151,1,170.399994799805,12|2,0:2|1:2,0:2:0:0:
167,29,72884,1,10,0:2:0:0:
167,29,73047,6,0,P|244:23|347:22,1,170.399994799805,2|2,0:2|0:2,0:2:0:0:
433,57,73536,2,0,P|419:112|412:157,1,85.1999973999024,10|2,0:2|0:2,0:0:0:0:
366,230,73862,2,0,P|380:285|387:330,1,85.1999973999024,2|0,1:2|0:2,0:0:0:0:
472,375,74188,1,10,0:2:0:0:
472,375,74351,1,2,0:2:0:0:
490,274,74514,6,0,P|442:264|382:256,1,85.1999973999024,2|0,1:2|0:2,0:2:0:0:
318,310,74840,2,0,P|270:320|210:328,1,85.1999973999024,10|0,0:2|0:2,0:2:0:0:
140,368,75166,2,0,P|72:364|37:258,1,170.399994799805,2|10,1:2|0:2,0:2:0:0:
51,179,75656,1,0,0:2:0:0:
132,117,75819,6,0,L|188:124,3,42.5999986999512,2|0|0|0,1:2|0:2|0:2|0:2,0:0:0:0:
210,159,76145,2,0,L|266:152,3,42.5999986999512,8|0|2|0,0:2|0:2|0:2|0:2,0:0:0:0:
296,127,76471,2,0,L|352:134,3,42.5999986999512,2|0|0|0,1:2|0:2|0:2|0:2,0:0:0:0:
384,110,76797,1,10,0:2:0:0:
450,201,76960,1,2,1:2:0:0:
450,201,77042,1,0,1:2:0:0:
450,201,77123,6,0,P|457:251|442:295,1,85.1999973999024,2|0,1:2|1:2,0:2:0:0:
379,359,77449,2,0,P|320:347|201:338,1,170.399994799805,12|2,0:2|1:2,0:2:0:0:
125,280,77938,2,0,P|186:258|226:255,1,85.1999973999024,2|10,0:2|0:2,0:0:0:0:
302,222,78264,2,0,P|336:174|273:85,1,170.399994799805,2|2,0:2|0:2,0:2:0:0:
191,47,78753,2,0,L|87:35,1,85.1999973999024,10|2,0:2|0:2,0:0:0:0:
5,18,79080,2,0,P|17:65|18:114,1,85.1999973999024,2|0,1:2|0:2,0:0:0:0:
7,203,79406,1,10,0:2:0:0:
171,323,79732,6,0,L|268:331,2,85.1999973999024,2|2|10,1:2|0:2|0:2,0:0:0:0:
126,231,80221,1,0,0:2:0:0:
126,231,80384,2,0,P|121:187|145:141,1,85.1999973999024,2|0,1:2|0:2,0:2:0:0:
234,121,80710,2,0,L|322:115,1,85.1999973999024,10|0,0:2|0:2,0:2:0:0:
398,50,81036,6,0,L|494:57,2,85.1999973999024,2|2|8,1:2|1:2|1:2,0:0:0:0:
309,23,81525,1,2,1:2:0:0:
309,23,81607,1,0,1:2:0:0:
309,23,81688,2,0,L|259:18,3,42.5999986999512,10|0|2|0,1:2|0:0|1:2|1:2,0:0:0:0:
215,26,82014,2,0,P|203:70|197:131,1,85.1999973999024,8|2,1:2|1:2,0:0:0:0:
127,189,82340,6,0,P|139:233|145:285,1,71,6|0,1:2|0:0,0:2:0:0:
167,351,82666,1,8,0:2:0:0:
167,351,82829,2,0,P|207:356|247:350,1,71,2|0,0:2|1:2,0:0:0:0:
328,333,83156,2,0,P|368:328|408:334,1,71,0|10,0:2|0:2,0:0:0:0:
487,352,83482,6,0,P|503:283|469:213,1,142,2|0,0:2|0:2,0:0:0:0:
392,181,83970,2,0,L|310:188,1,71,10|2,0:2|0:2,0:0:0:0:
235,220,84296,2,0,L|150:214,1,71,2|0,1:2|0:2,0:2:0:0:
83,168,84623,1,10,0:2:0:0:
38,87,84786,1,0,0:2:0:0:
107,25,84949,6,0,L|192:18,1,71,6|8,1:2|0:2,0:0:0:0:
260,60,85275,2,0,L|311:55,2,35.5,10|0|10,0:2|0:0|0:2,0:0:0:0:
228,149,85601,1,12,1:2:0:0:
228,149,85683,1,0,1:2:0:0:
228,149,85764,2,0,P|236:189|238:234,1,71,0|0,1:2|1:2,0:2:0:0:
252,318,86090,1,0,1:2:0:0:
252,318,86172,1,0,1:2:0:0:
252,318,86253,6,0,L|300:313,3,35.5,8|8|8|8,1:2|1:2|1:2|1:2,0:0:0:0:
331,298,86580,2,0,L|381:304,3,35.5,8|8|8|8,1:2|1:2|1:2|1:2,0:0:0:0:
411,292,86906,1,2,1:2:0:0:
492,249,87069,1,2,1:2:0:0:
475,158,87232,1,2,1:2:0:0:
383,144,87395,1,6,1:2:0:0:
