osu file format v14

[General]
AudioFilename: audio.mp3
AudioLeadIn: 0
PreviewTime: 61063
Countdown: 0
SampleSet: Soft
StackLeniency: 0.7
Mode: 0
LetterboxInBreaks: 0
WidescreenStoryboard: 0

[Editor]
DistanceSpacing: 1.2
BeatDivisor: 4
GridSize: 4
TimelineZoom: 1.8

[Metadata]
Title:Super * Affection (TV Size)
TitleUnicode:すーぱー☆あふぇくしょん (TV Size)
Artist:Various Artists
ArtistUnicode:Various Artists
Creator:Sotarks
Version:Noble Phantasm
Source:Fate/Grand Carnival
Tags:Rie Takahashi Minami Tanaka Rumi Okubo Aoi Yuki Nao Toyama Ayane Sakura Saori Hayami Ayako Kawasumi Kana Ueda Tange Mai Kadowaki 高橋李依 田中美海 大久保瑠美 悠木碧 東山奈央 佐倉綾音 早見沙織 川澄綾子 植田佳奈 丹下桜 門脇舞以 game japanese pop anime delight works fgo fate grand order female vocals vocalist jpop j-pop TYPE-MOON akitoshi corinn -laura- shunao shogunmoon kujinn reform マシュ・キリエライト Mash Kyrielight ニトクリス Nitocris エリザベート・バートリー Elizabeth Bathory 酒呑童子 Shuten-douji 茨木童子 Ibaraki-douji 女王メイヴ Queen Medb アタランテ Atalanta 謎のヒロインX Mysterious Heroine X イシュタル Ishtar ネロ・クラウディウス Nero Claudius シトナイ Sitonai
BeatmapID:3359236
BeatmapSetID:1645707

[Difficulty]
HPDrainRate:6
CircleSize:4.2
OverallDifficulty:9
ApproachRate:9.2
SliderMultiplier:1.72
SliderTickRate:1

[Events]
//Background and Video events
Video,0,"video.mp4"
0,0,"bg.jpg",0,0
//Break Periods
//Storyboard Layer 0 (Background)
//Storyboard Layer 1 (Fail)
//Storyboard Layer 2 (Pass)
//Storyboard Layer 3 (Foreground)
//Storyboard Layer 4 (Overlay)
//Storyboard Sound Samples

[TimingPoints]
167,326.086956521739,4,2,22,72,1,0
1471,-108.695652173913,4,2,22,72,0,0
2775,-98.0392156862745,4,2,22,82,0,0
17286,-98.0392156862745,4,2,22,82,0,0
17368,-98.0392156862745,4,2,22,5,0,0
17449,-98.0392156862745,4,2,22,82,0,0
17531,-98.0392156862745,4,2,22,5,0,0
17612,-98.0392156862745,4,2,22,82,0,0
17694,-98.0392156862745,4,2,22,5,0,0
17775,-98.0392156862745,4,2,22,42,0,0
18427,-121.951219512195,4,2,22,52,0,0
27069,-121.951219512195,4,2,22,72,0,0
27395,-108.695652173913,4,2,22,72,0,0
28047,-98.0392156862744,4,2,22,72,0,0
28862,-98.0392156862744,4,2,22,72,0,0
38482,-81.9672131147541,4,2,22,72,0,0
39297,-121.951219512195,4,2,22,62,0,0
48916,-81.967213114754,4,2,22,72,0,0
49732,-98.0392156862745,4,2,22,72,0,0
58862,-98.0392156862745,4,2,22,42,0,0
59188,-98.0392156862745,4,2,22,52,0,0
59514,-98.0392156862745,4,2,22,62,0,0
59840,-98.0392156862745,4,2,22,72,0,0
60166,-98.0392156862745,4,2,22,82,0,0
60656,-98.0392156862745,4,2,22,62,0,0
61145,-98.0392156862745,4,2,22,72,0,0
61471,-89.2857142857143,4,2,22,82,0,1
61797,-89.2857142857143,4,2,22,92,0,1
61878,-89.2857142857143,4,2,22,82,0,1
67014,-89.2857142857143,4,2,22,92,0,1
67095,-89.2857142857143,4,2,22,82,0,1
72232,-89.2857142857143,4,2,22,92,0,1
72313,-89.2857142857143,4,2,22,82,0,1
77449,-89.2857142857143,4,2,22,92,0,1
77530,-89.2857142857143,4,2,22,82,0,1
86906,-65.7894736842105,4,2,22,82,0,1
86987,-65.7894736842105,4,2,22,5,0,1
87069,-81.9672131147541,4,2,22,72,0,1
87150,-65.7894736842105,4,2,22,5,0,1
87232,-108.695652173913,4,2,22,72,0,1
87313,-65.7894736842105,4,2,22,5,0,1
87395,-192.307692307692,4,2,22,72,0,0
87884,-192.307692307692,4,2,22,5,0,0

[Colours]
Combo1 : 185,135,192
Combo2 : 217,234,147
Combo3 : 239,227,146
Combo4 : 150,190,214
Combo5 : 214,139,141

[HitObjects]
135,148,1308,5,0,1:2:0:0:
135,148,1389,1,0,1:2:0:0:
135,148,1471,1,2,1:2:0:0:
206,50,1634,2,0,P|152:37|106:26,1,79.1199973439942,2|0,1:2|0:2,0:2:0:0:
249,155,1960,2,0,P|336:175|407:107,1,158.239994687988,2|0,1:2|3:2,0:2:0:0:
390,140,2368,1,0,3:2:0:0:
390,140,2449,1,12,0:2:0:0:
125,255,2775,6,0,P|112:304|101:355,1,87.7200005354004,2|0,1:2|0:2,0:2:0:0:
251,282,3101,2,0,P|293:270|335:257,1,87.7200005354004,12|0,0:2|0:2,0:2:0:0:
210,176,3427,1,2,1:2:0:0:
349,349,3590,1,0,0:2:0:0:
443,157,3753,1,10,0:2:0:0:
330,231,3916,6,0,P|371:244|414:255,1,87.7200005354004,2|0,0:2|1:2,0:2:0:0:
321,97,4243,1,2,0:2:0:0:
321,97,4324,1,0,0:2:0:0:
321,97,4406,1,10,0:2:0:0:
434,238,4569,1,2,0:2:0:0:
216,296,4732,2,0,P|225:253|237:210,1,87.7200005354004,2|0,1:2|0:2,0:2:0:0:
148,54,5058,1,10,0:2:0:0:
24,138,5221,1,2,0:2:0:0:
141,239,5384,6,0,P|125:156|106:53,2,175.440001070801,2|10|2,1:2|0:2|1:2,0:2:0:0:
38,361,6199,1,0,0:2:0:0:
186,313,6362,2,0,P|227:326|270:337,1,87.7200005354004,10|0,0:2|0:2,0:2:0:0:
111,229,6688,6,0,L|60:244,3,43.8600002677002,2|0|0|0,1:2|0:2|0:2|0:2,0:2:0:0:
203,157,7014,2,0,L|245:169,3,43.8600002677002,8|0|2|0,0:2|0:2|0:2|0:2,0:2:0:0:
356,240,7340,2,0,L|340:185,1,43.8600002677002,2|0,1:2|0:2,0:2:0:0:
436,133,7503,2,0,L|448:90,1,43.8600002677002,0|0,0:2|0:2,0:2:0:0:
346,22,7666,1,10,0:2:0:0:
346,22,7748,1,0,0:2:0:0:
346,22,7830,1,2,0:2:0:0:
346,22,7911,1,0,0:2:0:0:
346,22,7993,6,0,P|304:35|261:46,1,87.7200005354004,2|0,1:2|0:2,0:2:0:0:
225,53,8237,1,0,0:2:0:0:
225,53,8319,2,0,P|236:95|245:138,1,87.7200005354004,12|0,0:2|0:2,0:2:0:0:
68,245,8645,1,2,1:2:0:0:
153,120,8808,1,2,0:2:0:0:
275,234,8971,1,10,0:2:0:0:
178,312,9134,6,0,P|135:301|93:288,1,87.7200005354004,2|0,0:2|1:2,0:2:0:0:
275,234,9460,1,2,0:2:0:0:
275,234,9541,1,0,0:2:0:0:
275,234,9623,2,0,P|286:276|295:319,1,87.7200005354004,10|2,0:2|0:2,0:2:0:0:
426,384,9949,2,0,P|460:329|422:203,1,175.440001070801,2|10,1:2|0:2,0:2:0:0:
335,145,10438,5,2,0:2:0:0:
335,145,10520,1,2,0:2:0:0:
335,145,10601,2,0,P|377:134|419:121,1,87.7200005354004,2|0,1:2|0:2,0:2:0:0:
228,26,10927,2,0,P|217:68|208:111,1,87.7200005354004,10|0,0:2|0:2,0:2:0:0:
302,262,11253,1,2,1:2:0:0:
176,135,11416,1,0,0:2:0:0:
114,300,11580,2,0,P|156:289|198:276,1,87.7200005354004,10|0,0:2|0:2,0:2:0:0:
343,118,11906,5,2,1:2:0:0:
228,26,12069,1,2,1:2:0:0:
206,31,12150,1,0,1:2:0:0:
185,37,12232,1,8,1:2:0:0:
58,83,12395,1,2,1:2:0:0:
42,68,12477,1,0,1:2:0:0:
27,52,12558,1,10,1:2:0:0:
146,146,12721,1,2,1:2:0:0:
140,171,12802,1,0,1:2:0:0:
135,197,12884,1,10,0:2:0:0:
130,223,12965,1,0,1:2:0:0:
125,249,13047,1,2,1:2:0:0:
119,274,13128,1,0,1:2:0:0:
114,300,13210,6,0,P|201:333|271:253,1,175.440001070801,6|8,1:2|0:2,0:2:0:0:
357,109,13699,1,2,0:2:0:0:
226,164,13862,1,0,1:2:0:0:
402,244,14025,1,0,0:2:0:0:
219,82,14188,1,10,0:2:0:0:
403,0,14351,1,2,0:2:0:0:
403,0,14433,1,0,0:2:0:0:
403,0,14514,5,0,1:2:0:0:
288,202,14677,1,0,0:2:0:0:
119,86,14840,1,10,0:2:0:0:
238,0,15003,1,2,0:2:0:0:
176,209,15166,2,0,P|111:196|60:183,1,87.7200005354004,2|0,1:2|0:2,0:2:0:0:
366,102,15493,2,0,P|431:115|482:128,1,87.7200005354004,10|0,0:2|0:2,0:2:0:0:
254,334,15819,5,12,0:2:0:0:
290,187,15982,1,0,1:2:0:0:
394,298,16145,1,8,0:2:0:0:
176,209,16308,1,0,1:2:0:0:
366,102,16471,5,12,0:2:0:0:
361,144,16552,1,0,1:2:0:0:
332,177,16634,1,0,1:2:0:0:
290,187,16715,1,0,1:2:0:0:
250,170,16797,1,8,0:2:0:0:
222,136,16878,1,0,1:2:0:0:
217,93,16960,1,0,1:2:0:0:
236,55,17041,1,0,1:2:0:0:
273,33,17123,1,4,1:3:0:0:
128,128,17286,6,0,L|71:141,1,43.8600002677002,10|0,0:2|0:2,0:2:0:0:
298,103,17449,2,0,L|355:90,1,43.8600002677002,10|0,0:2|0:2,0:2:0:0:
232,224,17612,2,0,L|239:267,1,43.8600002677002,10|0,0:2|0:2,0:2:0:0:
251,350,17775,1,0,3:2:0:0:
252,358,17856,1,0,3:2:0:0:
253,367,17938,1,0,3:2:0:0:
255,375,18019,1,0,3:2:0:0:
256,384,18101,1,0,3:2:0:0:
163,316,18264,1,0,3:2:0:0:
58,369,18427,6,0,P|61:304|85:226,1,141.0400021521,0|0,1:2|0:2,0:2:0:0:
149,51,19080,1,0,1:2:0:0:
149,51,19243,2,0,P|98:59|53:71,1,70.5200010760498,0|0,1:2|0:2,0:2:0:0:
236,107,19569,2,0,P|254:58|266:13,1,70.5200010760498,0|0,1:2|0:2,0:2:0:0:
150,143,19895,2,0,P|186:209|263:210,1,141.0400021521,0|0,1:2|0:2,0:2:0:0:
330,149,20384,1,0,1:2:0:0:
406,198,20547,1,0,1:2:0:0:
482,129,20710,2,0,L|491:93,1,35.2600005380249,0|0,3:2|3:2,3:2:0:0:
406,198,20873,2,0,L|414:232,1,35.2600005380249,0|0,3:2|3:2,3:2:0:0:
485,308,21036,6,0,P|427:327|341:339,1,141.0400021521,0|0,1:2|0:2,0:2:0:0:
152,254,21688,1,0,1:2:0:0:
152,254,21851,2,0,P|138:286|127:320,1,70.5200010760498,0|0,1:2|0:2,0:2:0:0:
238,213,22177,2,0,P|207:167|125:159,2,141.0400021521,0|0|0,1:2|0:2|0:2,0:2:0:0:
332,241,22993,1,0,1:2:0:0:
399,172,23156,1,0,1:2:0:0:
320,119,23319,1,0,3:2:0:0:
320,119,23400,1,0,3:2:0:0:
320,119,23482,1,0,3:2:0:0:
320,119,23563,1,0,3:2:0:0:
320,119,23645,5,4,1:2:0:0:
122,318,23971,1,0,0:2:0:0:
405,342,24297,1,0,1:2:0:0:
405,342,24460,2,0,P|439:334|474:329,1,70.5200010760498,0|0,1:2|0:2,0:2:0:0:
313,281,24786,6,0,P|302:314|289:347,1,70.5200010760498,0|0,1:2|0:2,0:2:0:0:
400,243,25112,2,0,P|386:170|356:82,1,141.0400021521,0|0,1:2|0:2,0:2:0:0:
285,33,25601,1,0,1:2:0:0:
220,110,25764,1,0,1:2:0:0:
106,63,25927,1,0,3:2:0:0:
106,63,26009,1,0,3:2:0:0:
106,63,26090,1,0,3:2:0:0:
106,63,26172,1,0,3:2:0:0:
106,63,26253,6,0,P|89:155|76:206,1,141.0400021521,0|0,1:2|0:2,0:2:0:0:
141,290,26743,1,0,1:2:0:0:
141,290,26824,1,0,1:2:0:0:
141,290,26906,1,0,1:2:0:0:
277,179,27069,5,6,1:3:0:0:
0,279,27232,1,6,1:3:0:0:
282,384,27395,1,2,1:3:0:0:
282,384,27721,5,6,1:3:0:0:
208,102,27884,1,6,1:3:0:0:
370,258,28047,2,0,B|339:265|309:270|309:270|278:303|278:303|232:310|193:320,1,175.440001070801,14|0,0:2|1:2,0:2:0:0:
176,320,28455,1,0,1:2:0:0:
134,306,28536,1,8,0:2:0:0:
105,275,28618,1,0,1:2:0:0:
95,232,28699,1,0,1:2:0:0:
106,191,28781,1,0,1:2:0:0:
137,160,28862,6,0,P|187:166|238:179,1,87.7200005354004,6|0,1:2|0:2,0:2:0:0:
5,226,29188,2,0,P|20:139|75:68,1,175.440001070801,10|2,0:2|1:2,0:2:0:0:
186,26,29677,1,2,0:2:0:0:
186,26,29759,1,0,0:2:0:0:
186,26,29840,1,10,0:2:0:0:
314,142,30003,1,2,0:2:0:0:
127,230,30166,5,0,1:2:0:0:
199,122,30330,1,2,0:2:0:0:
327,264,30493,2,0,P|317:337|309:369,1,87.7200005354004,10|0,0:2|0:2,0:2:0:0:
127,230,30819,2,0,P|195:202|226:193,1,87.7200005354004,0|2,1:2|0:2,0:2:0:0:
208,198,31063,1,0,0:2:0:0:
208,198,31145,1,10,0:2:0:0:
375,95,31308,1,2,0:2:0:0:
249,25,31471,6,0,P|275:120|305:216,1,175.440001070801,0|10,1:2|0:2,0:2:0:0:
457,264,31960,1,0,0:2:0:0:
457,264,32041,1,0,0:2:0:0:
457,264,32123,1,2,1:2:0:0:
328,184,32286,2,0,L|320:233,1,43.8600002677002,2|0,0:2|0:2,0:2:0:0:
302,327,32449,1,10,0:2:0:0:
484,167,32612,1,2,0:2:0:0:
484,167,32694,1,0,0:2:0:0:
484,167,32775,6,0,P|443:149|402:135,1,87.7200005354004,0|0,1:2|0:2,0:2:0:0:
203,220,33101,1,10,0:2:0:0:
365,127,33264,1,2,0:2:0:0:
215,39,33427,1,0,1:2:0:0:
331,227,33590,1,0,0:2:0:0:
331,227,33672,1,0,0:2:0:0:
331,227,33753,2,0,L|382:214,1,43.8600002677002,8|0,0:2|0:2,0:2:0:0:
225,146,33916,2,0,L|210:196,1,43.8600002677002,0|0,0:2|0:2,0:2:0:0:
174,300,34080,5,2,1:2:0:0:
112,115,34243,1,2,0:2:0:0:
180,315,34406,1,8,0:2:0:0:
43,218,34569,1,0,0:2:0:0:
225,146,34732,1,2,1:2:0:0:
99,326,34895,1,2,0:2:0:0:
99,326,34976,1,0,0:2:0:0:
99,326,35058,2,0,P|90:282|85:239,1,87.7200005354004,8|0,0:2|0:2,0:2:0:0:
269,314,35384,5,2,1:2:0:0:
118,222,35547,1,2,0:2:0:0:
310,147,35710,1,10,0:2:0:0:
169,48,35873,2,0,P|174:91|182:134,1,87.7200005354004,2|0,0:2|1:2,0:2:0:0:
366,231,36199,1,2,0:2:0:0:
366,231,36281,1,0,0:2:0:0:
366,231,36362,1,8,0:2:0:0:
270,71,36525,1,2,0:2:0:0:
228,233,36688,5,0,1:2:0:0:
426,150,36851,1,2,0:2:0:0:
426,150,36933,1,0,0:2:0:0:
426,150,37014,2,0,P|421:193|413:236,1,87.7200005354004,10|0,0:2|0:2,0:2:0:0:
278,147,37340,1,2,1:2:0:0:
396,323,37503,1,10,0:2:0:0:
374,318,37584,1,10,0:2:0:0:
353,313,37666,1,10,0:2:0:0:
186,243,37830,1,10,0:2:0:0:
207,238,37911,1,10,0:2:0:0:
228,233,37993,5,10,0:2:0:0:
329,84,38156,1,2,1:2:0:0:
223,359,38319,1,2,1:2:0:0:
115,167,38482,6,0,B|151:181|194:186|194:186|226:224|226:224|270:230|315:244,1,209.839991354859,6|0,1:2|1:2,0:2:0:0:
302,240,38889,1,0,1:2:0:0:
302,240,38971,1,8,0:2:0:0:
268,147,39134,1,4,0:3:0:0:
398,67,39297,6,0,P|351:109|258:111,1,141.0400021521,0|0,1:2|0:2,0:2:0:0:
185,45,39786,1,0,1:2:0:0:
185,45,39949,2,0,P|174:91|167:126,1,70.5200010760498,0|0,1:2|0:2,0:2:0:0:
72,180,40275,1,0,3:2:0:0:
72,180,40438,6,0,P|61:134|54:99,1,70.5200010760498,0|0,0:2|1:2,0:2:0:0:
150,255,40764,2,0,P|100:277|1:298,1,141.0400021521,0|0,0:2|1:2,0:2:0:0:
139,361,41253,1,0,1:2:0:0:
227,306,41416,1,0,0:2:0:0:
314,345,41580,2,0,P|359:352|400:362,1,70.5200010760498,0|0,3:2|0:2,0:2:0:0:
358,253,41906,6,0,P|366:218|373:184,2,70.5200010760498,0|0|0,1:2|0:2|0:2,0:2:0:0:
272,180,42395,1,0,1:2:0:0:
272,180,42558,2,0,P|258:111|252:26,1,141.0400021521,0|0,1:2|3:2,0:2:0:0:
81,292,43210,5,0,1:2:0:0:
140,230,43373,1,0,0:2:0:0:
101,160,43536,1,0,0:2:0:0:
211,254,43699,1,0,1:2:0:0:
211,254,43862,2,0,P|272:268|365:230,1,141.0400021521,0|0,1:2|3:2,0:2:0:0:
114,32,44514,6,0,P|65:80|73:162,1,141.0400021521,0|0,1:2|0:2,0:2:0:0:
140,230,45003,1,0,1:2:0:0:
229,156,45166,2,0,P|166:137|151:132,2,70.5200010760498,0|0|0,1:2|0:2|3:2,0:2:0:0:
332,191,45656,6,0,B|317:136|310:101,1,70.5200010760498,0|0,0:2|1:2,0:2:0:0:
252,238,45982,2,0,P|232:318|228:383,1,141.0400021521,0|0,0:2|1:2,0:2:0:0:
333,308,46471,1,0,1:2:0:0:
409,360,46634,1,0,0:2:0:0:
468,282,46797,2,0,B|453:227|446:192,1,70.5200010760498,0|0,3:2|0:2,0:2:0:0:
287,86,47123,5,0,1:2:0:0:
390,140,47286,1,0,0:2:0:0:
432,32,47449,1,0,0:2:0:0:
265,174,47612,1,0,1:2:0:0:
375,254,47775,2,0,L|358:201,1,35.2600005380249,0|0,3:2|3:2,3:2:0:0:
326,328,47938,2,0,L|380:339,1,35.2600005380249,0|0,3:2|3:2,3:2:0:0:
279,255,48101,1,0,3:2:0:0:
244,261,48182,1,0,3:2:0:0:
209,267,48264,1,0,3:2:0:0:
174,274,48345,1,0,3:2:0:0:
140,280,48427,5,6,1:2:0:0:
248,98,48590,1,2,1:2:0:0:
56,283,48916,6,0,B|92:297|135:302|135:302|167:340|167:340|211:346|256:360,1,209.839991354859,6|0,1:2|1:2,0:2:0:0:
273,366,49324,1,0,1:2:0:0:
324,361,49405,1,8,0:2:0:0:
364,329,49487,1,0,1:2:0:0:
377,279,49568,1,0,1:2:0:0:
360,230,49650,1,0,1:2:0:0:
318,200,49732,6,0,P|252:210|221:218,1,87.7200005354004,4|0,1:2|0:2,0:2:0:0:
45,134,50058,2,0,P|69:71|77:40,1,87.7200005354004,8|2,0:2|0:2,0:2:0:0:
238,117,50384,1,2,1:2:0:0:
114,260,50547,1,2,0:2:0:0:
114,260,50628,1,0,0:2:0:0:
114,260,50710,2,0,P|71:250|27:245,1,87.7200005354004,10|2,0:2|0:2,0:2:0:0:
142,155,51036,5,2,1:2:0:0:
226,318,51199,1,0,0:2:0:0:
318,200,51362,1,8,0:2:0:0:
114,260,51525,1,2,0:2:0:0:
337,195,51688,1,0,1:2:0:0:
217,73,51851,1,2,0:2:0:0:
217,73,51933,1,0,0:2:0:0:
217,73,52014,2,0,L|230:127,1,43.8600002677002,8|0,0:2|0:2,0:2:0:0:
337,195,52177,2,0,L|347:152,1,43.8600002677002,0|0,0:2|0:2,0:2:0:0:
407,20,52340,6,0,P|341:30|310:38,1,87.7200005354004,2|0,1:2|0:2,0:2:0:0:
479,138,52666,1,10,0:2:0:0:
319,225,52830,1,2,0:2:0:0:
185,99,52993,1,0,1:2:0:0:
81,201,53156,1,2,0:2:0:0:
81,201,53237,1,0,0:2:0:0:
81,201,53319,2,0,P|89:256|98:298,1,87.7200005354004,10|0,0:2|0:2,0:2:0:0:
229,384,53645,5,2,1:2:0:0:
229,384,53808,2,0,P|237:340|243:297,1,87.7200005354004,2|8,0:2|0:2,0:2:0:0:
326,142,54134,1,2,0:2:0:0:
180,212,54297,1,2,1:2:0:0:
333,305,54460,1,0,0:2:0:0:
333,305,54541,1,0,0:2:0:0:
333,305,54623,2,0,L|398:291,1,43.8600002677002,10|0,0:2|0:2,0:2:0:0:
466,213,54786,2,0,L|401:199,1,43.8600002677002,0|0,0:2|0:2,0:2:0:0:
326,142,54949,5,10,0:2:0:0:
411,376,55112,1,8,0:2:0:0:
198,237,55275,1,8,0:2:0:0:
417,87,55438,1,8,0:2:0:0:
417,87,55520,1,8,0:2:0:0:
417,87,55601,1,10,0:2:0:0:
229,1,55764,2,0,P|246:61|260:116,1,87.7200005354004,6|0,1:2|0:2,0:2:0:0:
29,255,56090,6,0,P|49:163|79:65,1,175.440001070801,6|2,1:2|1:2,0:2:0:0:
264,198,56580,1,2,0:2:0:0:
139,315,56743,1,8,0:2:0:0:
139,315,56824,1,0,1:2:0:0:
139,315,56906,1,2,1:2:0:0:
368,203,57069,1,10,0:2:0:0:
161,93,57232,1,8,0:2:0:0:
161,93,57395,1,0,0:2:0:0:
237,18,57558,5,10,0:2:0:0:
215,169,57721,1,2,1:2:0:0:
212,190,57802,1,2,1:2:0:0:
209,212,57884,1,10,0:2:0:0:
324,124,58047,1,2,1:2:0:0:
327,150,58128,1,2,1:2:0:0:
331,176,58210,1,10,0:2:0:0:
135,89,58373,1,2,1:2:0:0:
131,122,58454,1,2,1:2:0:0:
125,156,58536,1,10,0:2:0:0:
381,41,58699,2,0,L|395:97,1,43.8600002677002,2|0,1:2|1:2,0:2:0:0:
421,203,58862,5,10,0:2:0:0:
423,223,58944,1,8,0:2:0:0:
418,243,59025,1,10,0:2:0:0:
406,260,59107,1,8,0:2:0:0:
385,272,59188,1,10,0:2:0:0:
354,273,59270,1,8,0:2:0:0:
325,260,59351,1,10,0:2:0:0:
306,234,59433,1,8,0:2:0:0:
301,198,59514,1,8,0:2:0:0:
289,165,59596,1,8,0:2:0:0:
261,138,59677,1,8,0:2:0:0:
222,127,59759,1,8,0:2:0:0:
179,134,59840,1,8,0:2:0:0:
141,166,59922,1,8,0:2:0:0:
131,214,60003,1,8,0:2:0:0:
147,267,60085,1,8,0:2:0:0:
197,294,60166,5,2,1:2:0:0:
325,260,60330,1,2,1:2:0:0:
453,226,60493,2,0,P|459:170|456:132,1,87.7200005354004,2|0,1:2|0:2,0:2:0:0:
296,81,60819,6,0,L|311:127,1,43.8600002677002,0|0,3:2|3:2,0:2:0:0:
400,70,60982,2,0,L|415:24,1,43.8600002677002,0|0,3:2|3:2,0:2:0:0:
229,137,61145,1,10,0:2:0:0:
426,250,61308,1,2,0:2:0:0:
304,354,61471,6,0,P|313:313|326:251,1,96.3200011757813,2|0,1:2|1:2,0:2:0:0:
227,290,61715,1,0,1:2:0:0:
227,290,61797,2,0,B|258:297|299:303|299:303|333:337|333:337|372:342|435:354,1,192.640002351563,12|2,0:2|1:2,0:2:0:0:
254,185,62286,1,0,0:2:0:0:
442,70,62449,1,10,0:2:0:0:
388,243,62612,6,0,P|379:202|366:140,1,96.3200011757813,2|0,0:2|1:2,0:2:0:0:
277,29,62938,1,2,0:2:0:0:
277,29,63020,1,0,0:2:0:0:
277,29,63101,1,10,0:2:0:0:
158,129,63264,1,2,0:2:0:0:
47,29,63427,2,0,P|92:14|138:0,1,96.3200011757813,2|2,1:2|0:2,0:2:0:0:
45,204,63753,2,0,L|-10:185,1,48.1600005878906,10|0,0:2|0:2,0:2:0:0:
158,129,63916,2,0,L|169:186,1,48.1600005878906,2|0,0:2|0:2,0:2:0:0:
107,308,64080,5,2,1:2:0:0:
285,203,64243,1,0,0:2:0:0:
285,203,64324,1,0,0:2:0:0:
285,203,64406,2,0,P|294:250|305:297,1,96.3200011757813,10|0,0:2|0:2,0:2:0:0:
158,129,64732,2,0,P|168:82|178:34,1,96.3200011757813,2|0,1:2|0:2,0:2:0:0:
387,61,65058,2,0,P|340:75|295:90,1,96.3200011757813,10|0,0:2|0:2,0:2:0:0:
125,223,65384,5,2,1:2:0:0:
163,251,65465,1,0,0:2:0:0:
210,257,65547,1,0,0:2:0:0:
254,239,65628,1,0,0:2:0:0:
284,202,65710,1,8,0:2:0:0:
324,176,65791,1,0,0:2:0:0:
371,174,65873,1,2,0:2:0:0:
413,196,65954,1,0,0:2:0:0:
438,237,66036,1,2,1:2:0:0:
437,285,66117,1,0,0:2:0:0:
413,326,66199,1,0,0:2:0:0:
371,348,66280,1,0,0:2:0:0:
323,345,66362,2,0,P|319:322|313:294,1,48.1600005878906,10|0,0:2|0:2,0:2:0:0:
200,172,66525,2,0,P|204:148|209:124,1,48.1600005878906,2|0,1:2|1:2,0:2:0:0:
286,6,66688,6,0,P|295:53|306:100,1,96.3200011757813,2|0,1:2|1:2,0:2:0:0:
387,27,66933,1,0,1:2:0:0:
387,27,67014,2,0,B|356:36|316:46|316:46|285:83|285:83|247:91|185:108,1,192.640002351563,12|2,0:2|1:2,0:2:0:0:
77,32,67503,1,2,0:2:0:0:
279,179,67666,1,10,0:2:0:0:
86,284,67830,6,0,P|96:237|106:189,1,96.3200011757813,2|0,0:2|1:2,0:2:0:0:
106,189,68074,1,0,0:2:0:0:
106,189,68156,1,2,0:2:0:0:
303,340,68319,1,10,0:2:0:0:
397,131,68482,1,2,0:2:0:0:
212,63,68645,2,0,P|221:110|232:157,1,96.3200011757813,2|0,1:2|0:2,0:2:0:0:
241,198,68889,1,0,0:2:0:0:
241,198,68971,2,0,P|286:182|332:168,1,96.3200011757813,10|0,0:2|0:2,0:2:0:0:
58,124,69297,6,0,L|46:182,3,48.1600005878906,2|0|0|0,1:2|0:2|0:2|0:2,0:2:0:0:
148,266,69623,2,0,L|138:218,3,48.1600005878906,10|0|0|0,0:2|0:2|0:2|0:2,0:2:0:0:
16,322,69949,2,0,L|66:338,3,48.1600005878906,2|0|0|0,1:2|0:2|0:2|0:2,0:2:0:0:
217,370,70275,2,0,L|171:384,3,48.1600005878906,10|0|0|0,0:2|0:2|0:2|0:2,0:2:0:0:
246,261,70601,5,10,1:2:0:0:
292,253,70683,1,0,1:2:0:0:
336,273,70764,1,10,1:2:0:0:
379,292,70846,1,0,1:2:0:0:
426,285,70927,1,8,1:2:0:0:
461,253,71008,1,0,1:2:0:0:
478,208,71090,1,10,1:2:0:0:
472,161,71171,1,0,1:2:0:0:
445,121,71253,1,10,1:2:0:0:
403,99,71334,1,0,1:2:0:0:
355,99,71416,1,10,1:2:0:0:
313,120,71497,1,0,1:2:0:0:
285,159,71580,2,0,P|292:192|298:217,1,48.1600005878906,10|8,1:2|1:2,0:2:0:0:
152,355,71743,2,0,P|157:331|161:307,1,48.1600005878906,10|8,1:2|1:2,0:2:0:0:
78,131,71906,6,0,P|124:145|169:160,1,96.3200011757813,2|0,1:2|1:2,0:2:0:0:
145,68,72150,1,0,1:2:0:0:
145,68,72232,2,0,B|129:111|113:138|113:138|130:184|130:184|114:216|98:269,1,192.640002351563,12|2,0:2|1:2,0:2:0:0:
292,360,72721,1,0,0:2:0:0:
133,256,72884,1,10,0:2:0:0:
342,160,73047,6,0,P|296:144|250:130,1,96.3200011757813,2|0,0:2|1:2,0:2:0:0:
260,251,73373,1,2,0:2:0:0:
260,251,73455,1,0,0:2:0:0:
260,251,73536,1,10,0:2:0:0:
336,53,73699,1,2,0:2:0:0:
249,277,73862,1,2,1:2:0:0:
417,139,74025,1,0,0:2:0:0:
417,139,74107,1,0,0:2:0:0:
417,139,74188,2,0,L|427:188,1,48.1600005878906,10|0,0:2|0:2,0:2:0:0:
352,271,74351,2,0,L|342:318,1,48.1600005878906,2|0,0:2|0:2,0:2:0:0:
474,372,74514,6,0,P|463:325|453:277,1,96.3200011757813,2|0,1:2|0:2,0:2:0:0:
336,53,74840,2,0,P|326:100|315:147,1,96.3200011757813,10|0,0:2|0:2,0:2:0:0:
159,293,75166,2,0,P|207:282|276:268,1,96.3200011757813,2|0,1:2|0:2,0:2:0:0:
410,167,75493,2,0,P|362:156|293:142,1,96.3200011757813,10|0,0:2|0:2,0:2:0:0:
229,12,75819,5,2,1:2:0:0:
201,50,75900,1,0,0:2:0:0:
190,97,75982,1,0,0:2:0:0:
199,144,76063,1,0,0:2:0:0:
225,184,76145,1,8,0:2:0:0:
251,224,76226,1,0,0:2:0:0:
253,272,76308,1,2,0:2:0:0:
232,314,76389,1,0,0:2:0:0:
193,341,76471,1,2,1:2:0:0:
145,345,76552,1,0,0:2:0:0:
102,325,76634,1,0,0:2:0:0:
74,287,76715,1,0,0:2:0:0:
69,240,76797,2,0,P|79:185|82:174,1,48.1600005878906,10|0,0:2|0:2,0:2:0:0:
155,64,76960,2,0,P|159:87|163:111,1,48.1600005878906,2|0,1:2|1:2,0:2:0:0:
253,272,77123,6,0,P|299:261|347:251,1,96.3200011757813,2|0,1:2|1:2,0:2:0:0:
412,302,77368,1,0,1:2:0:0:
412,302,77449,2,0,B|380:296|341:291|341:291|307:257|307:257|267:250|235:244,1,192.640002351563,12|2,0:2|1:2,0:2:0:0:
406,136,77938,1,2,0:2:0:0:
147,242,78101,1,10,0:2:0:0:
287,54,78264,6,0,P|297:101|307:147,1,96.3200011757813,2|0,0:2|1:2,0:2:0:0:
307,147,78509,1,0,0:2:0:0:
307,147,78590,1,2,0:2:0:0:
147,242,78753,1,10,0:2:0:0:
84,80,78916,1,2,0:2:0:0:
211,119,79080,1,2,1:2:0:0:
65,235,79243,1,0,0:2:0:0:
65,235,79324,1,0,0:2:0:0:
65,235,79406,2,0,P|95:242|122:249,1,48.1600005878906,10|0,0:2|0:2,0:2:0:0:
236,275,79569,1,0,0:2:0:0:
236,275,79650,1,0,0:2:0:0:
236,275,79732,5,2,1:2:0:0:
131,158,79895,1,2,0:2:0:0:
307,64,80058,2,0,P|299:93|294:113,3,48.1600005878906,10|0|0|0,0:2|0:2|0:2|0:2,0:2:0:0:
293,210,80384,2,0,P|316:204|339:197,3,48.1600005878906,2|0|0|0,1:2|0:2|0:2|0:2,0:2:0:0:
423,139,80710,2,0,P|406:121|388:104,3,48.1600005878906,10|0|0|0,0:2|0:2|0:2|0:2,0:2:0:0:
331,43,81036,5,2,1:2:0:0:
225,148,81199,1,2,1:2:0:0:
248,142,81280,1,0,1:2:0:0:
271,136,81362,1,8,1:2:0:0:
407,237,81525,1,2,1:2:0:0:
376,228,81606,1,0,1:2:0:0:
345,220,81688,1,10,1:2:0:0:
185,334,81851,1,2,1:2:0:0:
223,322,81932,1,0,1:2:0:0:
261,312,82014,1,8,1:2:0:0:
398,370,82177,1,2,1:2:0:0:
209,212,82340,6,0,B|105:196|127:279|16:252,1,192.640002351563,6|8,1:2|0:2,0:2:0:0:
185,112,82830,1,2,0:2:0:0:
59,45,82993,1,0,1:2:0:0:
212,233,83156,1,0,0:2:0:0:
212,233,83237,1,0,0:2:0:0:
212,233,83319,1,10,0:2:0:0:
62,145,83482,1,2,0:2:0:0:
244,30,83645,5,0,1:2:0:0:
303,150,83808,1,0,0:2:0:0:
303,150,83889,1,0,0:2:0:0:
303,150,83971,1,10,0:2:0:0:
185,112,84134,1,2,0:2:0:0:
372,29,84297,2,0,P|394:92|401:135,1,96.3200011757813,2|0,1:2|0:2,0:2:0:0:
121,198,84623,2,0,P|99:135|92:92,1,96.3200011757813,10|0,0:2|0:2,0:2:0:0:
93,106,84949,5,6,1:2:0:0:
223,258,85112,1,8,0:2:0:0:
223,258,85194,1,8,0:2:0:0:
223,258,85275,1,10,0:2:0:0:
361,160,85438,1,10,0:2:0:0:
195,74,85601,2,0,L|220:136,1,48.1600005878906,12|0,1:2|1:2,0:2:0:0:
339,181,85764,2,0,L|320:136,1,48.1600005878906,0|0,1:2|1:2,0:2:0:0:
320,52,85927,2,0,L|275:70,1,48.1600005878906,0|0,1:2|1:2,0:2:0:0:
216,202,86090,2,0,L|260:183,1,48.1600005878906,0|0,1:2|1:2,0:2:0:0:
195,74,86253,5,8,1:2:0:0:
147,79,86334,1,8,1:2:0:0:
105,102,86416,1,8,1:2:0:0:
74,139,86497,1,8,1:2:0:0:
58,184,86579,1,8,1:2:0:0:
59,232,86660,1,8,1:2:0:0:
78,276,86742,1,8,1:2:0:0:
112,310,86823,1,8,1:2:0:0:
159,334,86906,6,0,P|182:277|178:253,1,65.3599992021484,2|0,1:2|0:2,0:2:0:0:
303,263,87069,6,0,P|282:212|259:192,1,52.4599978387147,2|0,1:2|0:2,0:2:0:0:
358,125,87232,6,0,P|313:105|292:105,1,39.5599986719971,2|0,1:2|0:2,0:2:0:0:
351,15,87395,6,0,B|291:-15|246:35|266:52|223:97|149:67,1,223.599998635254,6|0,1:2|0:2,0:2:0:0:
