osu file format v14

[General]
AudioFilename: audio.mp3
AudioLeadIn: 0
PreviewTime:61063
Countdown: 0
SampleSet: Soft
StackLeniency: 0.7
Mode: 0
LetterboxInBreaks: 0
WidescreenStoryboard: 1

[Editor]
DistanceSpacing: 0.3
BeatDivisor: 4
GridSize: 32
TimelineZoom: 1.8

[Metadata]
Title:Super * Affection (TV Size)
TitleUnicode:すーぱー☆あふぇくしょん (TV Size)
Artist:Various Artists
ArtistUnicode:Various Artists
Creator:Sotarks
Version:Kujinn's Insane
Source:Fate/Grand Carnival
Tags:Rie Takahashi Minami Tanaka Rumi Okubo Aoi Yuki Nao Toyama Ayane Sakura Saori Hayami Ayako Kawasumi Kana Ueda Tange Mai Kadowaki 高橋李依 田中美海 大久保瑠美 悠木碧 東山奈央 佐倉綾音 早見沙織 川澄綾子 植田佳奈 丹下桜 門脇舞以 game japanese pop anime delight works fgo fate grand order female vocals vocalist jpop j-pop TYPE-MOON akitoshi corinn -laura- shunao shogunmoon kujinn reform マシュ・キリエライト Mash Kyrielight ニトクリス Nitocris エリザベート・バートリー Elizabeth Bathory 酒呑童子 Shuten-douji 茨木童子 Ibaraki-douji 女王メイヴ Queen Medb アタランテ Atalanta 謎のヒロインX Mysterious Heroine X イシュタル Ishtar ネロ・クラウディウス Nero Claudius シトナイ Sitonai
BeatmapID:3366810
BeatmapSetID:1645707

[Difficulty]
HPDrainRate:5
CircleSize:4
OverallDifficulty:8
ApproachRate:9
SliderMultiplier:1.62
SliderTickRate:1

[Events]
//Background and Video events
0,0,"bg.jpg",0,0
Video,0,"video.mp4"
//Break Periods
//Storyboard Layer 0 (Background)
//Storyboard Layer 1 (Fail)
//Storyboard Layer 2 (Pass)
//Storyboard Layer 3 (Foreground)
//Storyboard Layer 4 (Overlay)
//Storyboard Sound Samples

[TimingPoints]
167,326.086956521739,4,2,22,72,1,0
1471,-108.695652173913,4,2,22,72,0,0
2123,-138.888888888889,4,2,22,72,0,0
2775,-98.0392156862745,4,2,22,82,0,0
17286,-98.0392156862745,4,2,22,82,0,0
17368,-98.0392156862745,4,2,22,5,0,0
17449,-98.0392156862745,4,2,22,82,0,0
17531,-98.0392156862745,4,2,22,5,0,0
17612,-98.0392156862745,4,2,22,82,0,0
17694,-98.0392156862745,4,2,22,5,0,0
17775,-98.0392156862745,4,2,22,42,0,0
18427,-138.888888888889,4,2,22,52,0,0
27069,-121.951219512195,4,2,22,72,0,0
27395,-108.695652173913,4,2,22,72,0,0
28047,-98.0392156862744,4,2,22,72,0,0
28862,-98.0392156862744,4,2,22,72,0,0
38482,-81.9672131147541,4,2,22,72,0,0
39297,-121.951219512195,4,2,22,62,0,0
48916,-81.967213114754,4,2,22,72,0,0
49732,-98.0392156862745,4,2,22,72,0,0
58862,-98.0392156862745,4,2,22,42,0,0
59188,-98.0392156862745,4,2,22,52,0,0
59514,-98.0392156862745,4,2,22,62,0,0
59840,-98.0392156862745,4,2,22,72,0,0
60166,-98.0392156862745,4,2,22,82,0,0
60656,-98.0392156862745,4,2,22,62,0,0
61145,-98.0392156862745,4,2,22,72,0,0
61471,-192.307692307692,4,2,22,82,0,1
61797,-89.2857142857143,4,2,22,92,0,1
61878,-89.2857142857143,4,2,22,82,0,1
67014,-89.2857142857143,4,2,22,92,0,1
67095,-89.2857142857143,4,2,22,82,0,1
72232,-89.2857142857143,4,2,22,92,0,1
72313,-89.2857142857143,4,2,22,82,0,1
77449,-89.2857142857143,4,2,22,92,0,1
77530,-89.2857142857143,4,2,22,82,0,1
86906,-65.7894736842105,4,2,22,82,0,1
86987,-65.7894736842105,4,2,22,5,0,1
87069,-81.9672131147541,4,2,22,72,0,1
87150,-65.7894736842105,4,2,22,5,0,1
87232,-108.695652173913,4,2,22,72,0,1
87313,-65.7894736842105,4,2,22,5,0,1
87395,-192.307692307692,4,2,22,72,0,0
87884,-192.307692307692,4,2,22,5,0,0
88210,-192.307692307692,4,2,22,5,0,0

[Colours]
Combo1 : 185,135,192
Combo2 : 217,234,147
Combo3 : 239,227,146
Combo4 : 150,190,214
Combo5 : 214,139,141

[HitObjects]
307,219,1308,5,0,1:2:0:0:
311,226,1389,1,0,1:2:0:0:
314,233,1471,1,2,1:2:0:0:
361,171,1634,2,0,P|395:178|415:231,1,74.5199974984132,2|0,1:2|0:2,0:2:0:0:
409,217,1960,1,2,1:2:0:0:
282,159,2123,6,0,P|274:101|253:24,1,116.640002847656,0|12,0:0|0:2,0:0:0:0:
68,313,2775,6,0,P|91:356|167:340,1,123.930000756409,2|0,1:2|0:0,0:2:0:0:
158,350,3101,2,0,P|204:362|250:379,1,82.6200005042725,12|0,0:2|0:2,0:2:0:0:
342,289,3427,2,0,P|296:277|250:260,1,82.6200005042725,2|0,1:2|0:2,0:0:0:0:
343,372,3753,1,10,0:2:0:0:
342,205,3916,6,0,P|279:224|177:252,1,165.240001008545,2|2,0:2|0:2,0:2:0:0:
63,78,4406,5,10,0:2:0:0:
139,118,4569,1,2,0:2:0:0:
79,182,4732,2,0,P|123:169|173:159,1,82.6200005042725,2|0,1:2|0:2,0:2:0:0:
245,192,5058,1,10,0:2:0:0:
247,199,5221,1,2,0:2:0:0:
91,276,5384,6,0,P|128:252|194:314,1,123.930000756409,2|0,1:2|0:0,0:2:0:0:
189,295,5710,2,0,P|210:334|259:335,1,82.6200005042725,10|0,0:2|0:0,0:0:0:0:
375,380,6036,6,0,P|363:319|351:267,1,82.6200005042725,2|0,1:2|0:2,0:0:0:0:
506,162,6362,2,0,P|497:202|489:242,1,82.6200005042725,10|0,0:2|0:2,0:2:0:0:
363,143,6688,5,2,1:2:0:0:
361,130,6770,1,0,0:2:0:0:
358,117,6851,1,0,0:2:0:0:
355,104,6933,1,0,0:2:0:0:
354,91,7014,2,0,L|366:39,3,41.3100002521362,8|0|2|0,0:2|0:2|0:2|0:2,0:2:0:0:
272,152,7340,2,0,L|282:193,3,41.3100002521362,2|0|0|0,1:2|0:2|0:2|0:2,0:2:0:0:
370,242,7666,1,10,0:2:0:0:
290,348,7830,1,2,0:2:0:0:
290,348,7911,1,0,0:2:0:0:
290,348,7993,1,2,1:2:0:0:
290,348,8319,6,0,P|245:365|173:279,1,165.240001008545,12|2,0:2|1:2,0:2:0:0:
238,227,8808,1,2,0:2:0:0:
169,164,8971,1,10,0:2:0:0:
193,21,9134,6,0,P|267:41|368:62,1,165.240001008545,2|2,0:2|0:2,0:2:0:0:
392,135,9623,1,10,0:2:0:0:
460,84,9786,1,2,0:2:0:0:
491,172,9949,2,0,P|477:220|464:266,1,82.6200005042725,2|0,1:2|0:0,0:2:0:0:
300,349,10275,6,0,P|316:302|400:318,1,123.930000756409,10|2,0:2|0:2,0:0:0:0:
399,293,10601,6,0,P|353:277|309:253,1,82.6200005042725,2|0,1:2|0:2,0:2:0:0:
191,342,10927,2,0,P|145:357|101:381,1,82.6200005042725,10|0,0:2|0:2,0:2:0:0:
171,186,11253,2,0,P|203:192|228:253,1,82.6200005042725,2|0,1:2|0:2,0:0:0:0:
48,257,11580,2,0,P|35:199|18:150,1,82.6200005042725,10|0,0:2|0:2,0:2:0:0:
75,29,11906,5,2,1:2:0:0:
159,111,12069,1,2,1:2:0:0:
169,104,12150,1,0,1:2:0:0:
180,97,12232,1,8,1:2:0:0:
271,39,12395,2,0,L|285:-12,2,41.3100002521362,2|0|10,1:2|1:2|1:2,0:0:0:0:
334,132,12721,2,0,L|348:183,2,41.3100002521362,2|0|10,1:2|1:2|0:2,0:0:0:0:
426,66,13047,1,2,1:2:0:0:
280,216,13210,6,0,P|298:267|304:306,1,82.6200005042725,6|0,1:2|0:0,0:2:0:0:
448,384,13536,2,0,P|456:343|470:305,1,82.6200005042725,8|2,0:2|0:2,0:0:0:0:
388,140,13862,5,0,1:2:0:0:
462,174,14025,1,0,0:2:0:0:
431,243,14188,1,10,0:2:0:0:
359,214,14351,1,2,0:2:0:0:
249,34,14514,5,0,1:2:0:0:
282,122,14677,1,0,0:2:0:0:
107,245,14840,5,10,0:2:0:0:
140,157,15003,1,2,0:2:0:0:
195,340,15166,6,0,P|143:361|103:383,1,82.6200005042725,2|0,1:2|0:2,0:2:0:0:
293,239,15493,2,0,P|329:257|368:272,1,82.6200005042725,10|0,0:2|0:2,0:2:0:0:
146,68,15819,5,12,0:2:0:0:
197,219,15982,1,0,1:2:0:0:
75,164,16145,5,8,0:2:0:0:
246,95,16308,1,0,1:2:0:0:
54,20,16471,6,0,L|42:72,1,41.3100002521362,12|0,0:2|1:2,0:0:0:0:
151,80,16634,2,0,L|163:132,1,41.3100002521362,0|0,1:2|1:2,0:0:0:0:
48,198,16797,1,8,0:2:0:0:
46,210,16878,1,0,1:2:0:0:
44,222,16960,1,0,1:2:0:0:
42,234,17041,1,0,1:2:0:0:
40,246,17123,1,4,1:3:0:0:
156,350,17286,5,10,0:2:0:0:
248,323,17449,1,10,0:2:0:0:
339,300,17612,1,10,0:2:0:0:
476,295,17775,6,0,L|487:241,3,41.3100002521362,0|0|0|0,3:2|3:2|3:2|3:2,0:0:0:0:
422,204,18101,2,0,L|404:114,1,82.6200005042725,0|0,3:2|3:2,0:0:0:0:
502,12,18427,6,0,P|444:28|374:42,1,116.640002847656,0|0,1:2|0:2,0:2:0:0:
388,39,18916,1,0,0:0:0:0:
277,114,19080,2,0,P|243:121|204:134,2,58.3200014238282,0|0|0,1:2|1:2|0:2,0:0:0:0:
447,206,19569,6,0,P|412:193|372:182,1,58.3200014238282,0|0,1:2|0:2,0:2:0:0:
313,42,19895,1,0,1:2:0:0:
313,42,20058,2,0,P|263:31|180:17,1,116.640002847656,0|0,0:0|1:2,0:0:0:0:
112,58,20547,1,0,1:2:0:0:
179,133,20710,1,0,3:2:0:0:
179,133,20791,1,0,3:2:0:0:
179,133,20873,1,0,3:2:0:0:
110,208,21036,6,0,P|123:255|143:332,1,116.640002847656,0|0,1:2|0:2,0:2:0:0:
226,366,21525,1,0,0:0:0:0:
226,366,21607,1,0,0:0:0:0:
226,366,21688,1,0,1:2:0:0:
356,262,21851,2,0,P|321:277|284:284,1,58.3200014238282,0|0,1:2|0:2,0:2:0:0:
385,344,22177,6,0,P|437:332|488:390,1,116.640002847656,0|0,1:2|0:2,0:2:0:0:
482,369,22666,1,0,0:0:0:0:
441,255,22830,2,0,P|450:200|474:129,1,116.640002847656,0|0,0:2|1:2,0:0:0:0:
427,56,23319,1,0,3:2:0:0:
430,45,23482,1,0,3:2:0:0:
355,117,23645,6,0,P|321:128|282:134,1,58.3200014238282,4|0,1:2|0:0,0:0:0:0:
205,268,23971,2,0,P|239:257|278:251,1,58.3200014238282,0|0,0:2|0:0,0:0:0:0:
156,180,24297,1,0,1:2:0:0:
204,93,24460,2,0,P|195:54|184:20,1,58.3200014238282,0|0,1:2|0:2,0:2:0:0:
335,159,24786,6,0,P|324:206|321:240,1,58.3200014238282,0|0,1:2|0:2,0:2:0:0:
419,358,25112,1,0,1:2:0:0:
427,352,25275,2,0,P|408:318|330:320,1,116.640002847656,0|0,0:0|1:2,0:0:0:0:
268,363,25764,5,0,1:2:0:0:
196,335,25927,1,0,3:2:0:0:
120,307,26090,1,0,3:2:0:0:
6,372,26253,6,0,P|42:354|67:343,1,58.3200014238282,0|0,1:2|0:0,0:2:0:0:
203,271,26580,1,0,0:2:0:0:
77,226,26743,2,0,L|70:195,3,19.4400004746094,0|0|0|0,1:2|0:0|0:0|1:2,0:0:0:0:
162,72,27069,5,6,1:3:0:0:
282,157,27232,1,6,1:3:0:0:
444,24,27395,2,0,P|392:39|410:124,1,149.039994996826,2|6,1:3|1:3,0:0:0:0:
401,119,27884,1,6,1:3:0:0:
455,213,28047,6,0,P|519:228|497:316,1,165.240001008545,14|0,0:2|1:2,0:2:0:0:
488,343,28455,1,0,1:2:0:0:
485,335,28536,2,0,P|437:323|378:312,1,82.6200005042725,8|0,0:2|1:2,0:0:0:0:
216,349,28862,6,0,P|236:291|253:246,1,82.6200005042725,6|0,1:2|0:2,0:2:0:0:
92,136,29188,2,0,P|106:174|119:213,1,82.6200005042725,10|0,0:2|0:0,0:2:0:0:
287,85,29514,1,2,1:2:0:0:
191,30,29677,1,2,0:2:0:0:
183,26,29759,1,0,0:2:0:0:
175,22,29840,1,10,0:2:0:0:
214,211,30003,6,0,P|267:195|309:184,1,82.6200005042725,2|0,0:2|1:2,0:0:0:0:
412,239,30330,1,2,0:2:0:0:
303,74,30493,2,0,P|342:84|382:97,1,82.6200005042725,10|0,0:2|0:2,0:2:0:0:
293,187,30819,1,0,1:2:0:0:
475,124,30982,5,2,0:2:0:0:
454,213,31145,1,10,0:2:0:0:
433,302,31308,1,2,0:2:0:0:
311,364,31471,6,0,P|271:367|233:310,1,82.6200005042725,0|0,1:2|0:0,0:2:0:0:
141,268,31797,2,0,P|101:265|63:322,1,82.6200005042725,10|0,0:2|0:2,0:0:0:0:
157,370,32042,1,0,0:2:0:0:
152,362,32123,2,0,P|166:302|178:258,1,82.6200005042725,2|2,1:2|0:2,0:0:0:0:
284,205,32449,1,10,0:2:0:0:
140,102,32612,5,2,0:2:0:0:
149,99,32694,1,0,0:2:0:0:
157,96,32775,2,0,P|167:150|173:187,1,82.6200005042725,0|0,1:2|0:2,0:2:0:0:
263,73,33101,1,10,0:2:0:0:
66,114,33264,2,0,P|69:61|179:21,1,165.240001008545,2|0,0:2|0:2,0:0:0:0:
233,207,33753,2,0,P|167:227|121:245,1,82.6200005042725,8|0,0:2|0:2,0:2:0:0:
335,74,34080,5,2,1:2:0:0:
416,122,34243,2,0,P|462:111|516:108,1,82.6200005042725,2|8,0:2|0:2,0:0:0:0:
497,107,34569,1,0,0:2:0:0:
399,265,34732,5,2,1:2:0:0:
334,196,34895,2,0,P|286:193|234:181,1,82.6200005042725,2|8,0:2|0:2,0:0:0:0:
251,187,35221,1,0,0:2:0:0:
89,338,35384,5,2,1:2:0:0:
63,239,35547,1,2,0:2:0:0:
165,217,35710,1,10,0:2:0:0:
189,331,35873,2,0,P|148:323|107:322,1,82.6200005042725,2|0,0:2|1:2,0:2:0:0:
288,218,36199,6,0,P|300:266|306:315,1,82.6200005042725,2|8,0:2|0:2,0:0:0:0:
416,369,36525,2,0,P|422:328|432:288,1,82.6200005042725,2|0,0:2|1:2,0:0:0:0:
487,228,36851,1,2,0:2:0:0:
418,50,37014,6,0,P|375:77|405:168,1,123.930000756409,10|0,0:2|0:0,0:2:0:0:
394,162,37340,1,2,1:2:0:0:
488,87,37503,1,10,0:2:0:0:
492,80,37585,1,10,0:2:0:0:
498,73,37666,2,0,P|452:61|396:42,1,82.6200005042725,10|10,0:2|0:2,0:0:0:0:
344,81,37911,1,10,0:2:0:0:
334,77,37993,5,10,0:2:0:0:
392,252,38156,1,2,1:2:0:0:
224,384,38319,5,2,1:2:0:0:
282,204,38482,1,6,1:2:0:0:
287,196,38808,5,0,1:2:0:0:
206,181,38971,1,8,0:2:0:0:
122,166,39134,1,4,0:3:0:0:
44,202,39297,6,0,P|26:131|7:57,1,132.840002026978,0|0,1:2|0:2,0:2:0:0:
11,73,39786,1,0,1:2:0:0:
112,18,39949,2,0,P|143:29|190:43,1,66.4200010134888,0|0,1:2|0:2,0:2:0:0:
217,113,40275,1,0,3:2:0:0:
305,70,40438,6,0,P|316:29|325:-14,1,66.4200010134888,0|0,0:2|1:2,0:2:0:0:
412,88,40764,2,0,P|401:129|392:172,1,66.4200010134888,0|0,0:2|0:0,0:2:0:0:
303,228,41090,6,0,P|292:187|283:144,1,66.4200010134888,0|0,1:2|1:2,0:0:0:0:
196,246,41416,1,0,0:2:0:0:
196,246,41580,2,0,P|207:287|216:330,1,66.4200010134888,0|0,3:2|0:2,0:2:0:0:
483,374,41906,5,0,1:2:0:0:
505,289,42069,1,0,0:2:0:0:
424,268,42232,1,0,0:2:0:0:
396,354,42395,5,0,1:2:0:0:
396,354,42558,2,0,P|344:364|247:386,1,132.840002026978,0|0,1:2|3:2,0:2:0:0:
33,298,43210,5,0,1:2:0:0:
11,213,43373,1,0,0:2:0:0:
92,192,43536,1,0,0:2:0:0:
120,278,43699,5,0,1:2:0:0:
120,278,43862,2,0,P|172:288|269:310,1,132.840002026978,0|0,1:2|3:2,0:2:0:0:
501,19,44514,6,0,P|484:71|471:167,1,132.840002026978,0|0,1:2|0:2,0:2:0:0:
409,208,45003,1,0,1:2:0:0:
409,208,45166,2,0,P|449:236|485:230,2,66.4200010134888,0|0|0,1:2|0:2|3:2,0:2:0:0:
326,141,45656,6,0,P|293:146|270:169,1,66.4200010134888,0|0,0:2|1:2,0:2:0:0:
202,225,45982,2,0,P|216:262|230:308,1,66.4200010134888,0|0,0:2|0:0,0:2:0:0:
124,384,46308,6,0,P|91:378|68:355,1,66.4200010134888,0|0,1:2|1:2,0:0:0:0:
1,315,46634,1,0,0:2:0:0:
1,315,46797,2,0,P|15:278|29:232,1,66.4200010134888,0|0,3:2|0:2,0:2:0:0:
74,78,47123,5,0,1:2:0:0:
74,78,47286,2,0,P|62:46|51:15,1,66.4200010134888,0|0,0:2|0:2,0:0:0:0:
111,170,47612,1,0,1:2:0:0:
245,96,47775,1,0,3:2:0:0:
238,110,47857,1,0,3:2:0:0:
233,125,47938,1,0,3:2:0:0:
228,138,48020,1,0,3:2:0:0:
223,149,48101,2,0,L|240:203,3,33.2100005067444,0|0|0|0,3:2|3:2|3:2|3:2,0:0:0:0:
144,279,48427,5,6,1:2:0:0:
371,150,48590,1,2,1:2:0:0:
371,150,48916,6,0,B|311:131|284:207|320:185|285:285|200:241,1,197.639991857483,6|0,1:2|1:2,0:2:0:0:
149,252,49324,1,0,1:2:0:0:
153,244,49406,2,0,P|97:243|61:302,1,98.8199959287416,8|0,0:2|1:2,0:0:0:0:
280,358,49732,6,0,P|350:370|386:388,1,82.6200005042725,4|0,1:2|0:2,0:2:0:0:
474,281,50058,2,0,P|404:269|368:251,1,82.6200005042725,8|2,0:2|0:2,0:2:0:0:
287,173,50384,5,2,1:2:0:0:
393,69,50547,1,2,0:2:0:0:
272,42,50710,5,10,0:2:0:0:
384,144,50873,1,2,0:2:0:0:
220,259,51036,5,2,1:2:0:0:
220,259,51199,2,0,P|238:313|249:361,1,82.6200005042725,0|8,0:2|0:2,0:0:0:0:
111,142,51525,2,0,P|93:196|82:244,1,82.6200005042725,2|0,0:2|1:2,0:0:0:0:
207,66,51851,1,2,0:2:0:0:
207,66,51933,1,0,0:2:0:0:
207,66,52014,1,8,0:2:0:0:
36,121,52177,1,0,0:2:0:0:
36,121,52259,1,0,0:2:0:0:
36,121,52340,6,0,P|98:140|205:201,1,165.240001008545,2|10,1:2|0:2,0:2:0:0:
321,235,52830,2,0,P|271:254|225:281,1,82.6200005042725,2|0,0:2|1:2,0:0:0:0:
409,308,53156,1,2,0:2:0:0:
392,188,53319,6,0,P|418:99|451:8,1,165.240001008545,10|2,0:2|1:2,0:2:0:0:
249,7,53808,2,0,P|287:47|337:36,1,82.6200005042725,2|8,0:2|0:2,0:2:0:0:
450,27,54134,1,2,0:2:0:0:
321,151,54297,6,0,P|272:169|224:192,1,82.6200005042725,2|0,1:2|0:2,0:0:0:0:
64,26,54623,2,0,P|101:42|140:56,1,82.6200005042725,10|0,0:2|0:2,0:2:0:0:
142,216,54949,5,10,0:2:0:0:
231,60,55112,1,8,0:2:0:0:
114,120,55275,1,8,0:2:0:0:
271,227,55438,1,8,0:2:0:0:
279,229,55520,1,8,0:2:0:0:
288,231,55601,5,10,0:2:0:0:
405,23,55764,1,6,1:2:0:0:
405,23,56090,6,0,P|420:87|452:219,1,165.240001008545,6|2,1:2|1:2,0:2:0:0:
386,243,56580,1,2,0:2:0:0:
466,325,56743,6,0,L|516:341,2,41.3100002521362,8|0|2,0:2|1:2|1:2,0:0:0:0:
388,384,57069,1,10,0:2:0:0:
306,309,57232,1,8,0:2:0:0:
227,368,57395,1,0,0:2:0:0:
113,345,57558,6,0,L|92:250,1,82.6200005042725,10|2,0:2|1:2,0:0:0:0:
152,207,57802,1,2,1:2:0:0:
145,198,57884,2,0,L|166:103,1,82.6200005042725,10|2,0:2|1:2,0:0:0:0:
159,108,58128,1,2,1:2:0:0:
155,99,58210,1,10,0:2:0:0:
262,37,58373,2,0,L|254:-13,2,41.3100002521362,2|2|10,1:2|1:2|0:2,0:0:0:0:
387,140,58699,1,2,1:2:0:0:
387,140,58781,1,0,1:2:0:0:
387,140,58862,6,0,L|432:127,1,41.3100002521362,10|8,0:2|0:2,0:0:0:0:
512,201,59025,2,0,L|467:214,1,41.3100002521362,10|8,0:2|0:2,0:0:0:0:
384,277,59188,2,0,L|423:288,1,41.3100002521362,10|8,0:2|0:2,0:0:0:0:
498,384,59351,2,0,L|458:372,1,41.3100002521362,10|8,0:2|0:2,0:0:0:0:
305,365,59514,6,0,L|318:308,3,41.3100002521362,8|8|8|8,0:2|0:2|0:2|0:2,0:0:0:0:
234,310,59840,2,0,L|247:253,3,41.3100002521362,8|8|8|8,0:2|0:2|0:2|0:2,0:0:0:0:
185,161,60166,5,2,1:2:0:0:
160,264,60329,1,2,1:2:0:0:
133,367,60493,1,2,1:2:0:0:
448,32,61145,5,10,0:2:0:0:
457,35,61308,1,2,0:2:0:0:
377,136,61471,6,0,P|406:159|433:159,1,63.1799996143799,2|0,1:2|1:2,0:2:0:0:
502,149,61797,6,0,P|436:176|354:241,1,136.080001661133,12|0,0:2|0:0,0:2:0:0:
319,268,62123,6,0,P|272:253|214:223,1,90.7200011074219,2|0,1:2|0:2,0:0:0:0:
156,274,62449,1,10,0:2:0:0:
199,157,62612,6,0,P|229:254|254:359,1,181.440002214844,2|2,0:2|0:2,0:2:0:0:
248,331,63101,1,10,0:2:0:0:
356,159,63264,1,2,0:2:0:0:
356,159,63346,1,0,0:0:0:0:
356,159,63427,2,0,P|306:142|263:116,1,90.7200011074219,2|2,1:2|0:2,0:2:0:0:
110,172,63753,1,10,0:2:0:0:
157,55,63916,1,2,0:2:0:0:
211,172,64080,6,0,P|252:221|341:199,1,136.080001661133,2|0,1:2|0:2,0:0:0:0:
319,217,64406,2,0,P|340:267|353:328,1,90.7200011074219,10|0,0:2|0:2,0:2:0:0:
444,188,64732,5,2,1:2:0:0:
332,117,64895,1,0,0:2:0:0:
500,31,65058,5,10,0:2:0:0:
423,95,65221,1,0,0:2:0:0:
197,19,65384,5,2,1:2:0:0:
201,31,65465,1,0,0:2:0:0:
208,45,65547,1,0,0:2:0:0:
214,58,65628,1,0,0:2:0:0:
221,72,65710,2,0,L|202:140,3,45.3600005537109,8|0|2|0,0:2|0:2|0:2|0:2,0:0:0:0:
140,169,66036,2,0,L|159:237,3,45.3600005537109,2|0|0|0,1:2|0:2|0:2|0:2,0:0:0:0:
220,265,66362,1,10,0:2:0:0:
128,327,66525,5,2,1:2:0:0:
128,327,66607,1,0,1:2:0:0:
128,327,66688,2,0,P|167:375|259:357,1,136.080001661133,2|0,1:2|1:2,0:2:0:0:
260,376,67014,6,0,P|248:317|235:261,1,90.7200011074219,12|0,0:2|0:0,0:2:0:0:
377,105,67340,5,2,1:2:0:0:
418,205,67503,1,2,0:2:0:0:
319,172,67666,1,10,0:2:0:0:
450,128,67830,6,0,P|463:78|478:29,1,90.7200011074219,2|0,0:2|1:2,0:2:0:0:
474,40,68156,1,2,0:2:0:0:
317,180,68319,6,0,P|329:223|341:267,1,90.7200011074219,10|2,0:2|0:2,0:0:0:0:
298,335,68563,1,0,0:0:0:0:
304,343,68645,2,0,P|265:376|209:359,1,90.7200011074219,2|0,1:2|0:2,0:2:0:0:
101,261,68971,2,0,P|152:276|204:302,1,90.7200011074219,10|0,0:2|0:2,0:2:0:0:
161,67,69297,6,0,P|145:113|132:168,1,90.7200011074219,2|0,1:2|0:2,0:2:0:0:
0,225,69623,2,0,P|16:179|29:124,1,90.7200011074219,10|0,0:2|0:2,0:2:0:0:
0,51,69949,6,0,P|16:97|29:152,1,90.7200011074219,2|0,1:2|0:2,0:2:0:0:
160,240,70275,2,0,P|144:194|131:139,1,90.7200011074219,10|0,0:2|0:2,0:2:0:0:
118,357,70601,5,10,1:2:0:0:
245,248,70764,1,10,1:2:0:0:
122,154,70927,1,8,1:2:0:0:
239,63,71090,1,10,1:2:0:0:
135,34,71253,5,10,1:2:0:0:
132,24,71335,1,0,1:2:0:0:
129,14,71416,1,10,1:2:0:0:
176,281,71580,1,10,1:2:0:0:
173,291,71661,1,8,1:2:0:0:
170,301,71743,1,10,1:2:0:0:
321,375,71906,6,0,P|354:328|435:341,1,136.080001661133,2|0,1:2|1:2,0:2:0:0:
430,342,72232,2,0,P|477:365|523:344,1,90.7200011074219,12|0,0:2|0:0,0:2:0:0:
484,154,72558,2,0,P|470:213|458:262,1,90.7200011074219,2|0,1:2|0:2,0:0:0:0:
462,242,72884,1,10,0:2:0:0:
343,208,73047,6,0,P|360:270|387:386,1,181.440002214844,2|2,0:2|0:2,0:2:0:0:
393,145,73536,1,10,0:2:0:0:
273,239,73699,1,2,0:2:0:0:
398,317,73862,2,0,P|446:327|499:348,1,90.7200011074219,2|0,1:2|0:2,0:0:0:0:
288,144,74188,2,0,P|240:134|187:113,1,90.7200011074219,10|2,0:2|0:2,0:2:0:0:
14,229,74514,6,0,P|63:244|118:176,1,136.080001661133,2|0,1:2|0:0,0:2:0:0:
117,189,74840,2,0,P|102:134|84:83,1,90.7200011074219,10|0,0:2|0:2,0:2:0:0:
208,272,75166,2,0,P|193:315|182:358,1,90.7200011074219,2|0,1:2|0:2,0:2:0:0:
344,156,75493,2,0,P|313:193|254:186,1,90.7200011074219,10|0,0:2|0:2,0:2:0:0:
305,27,75819,5,2,1:2:0:0:
317,32,75900,1,0,0:2:0:0:
329,37,75982,1,0,0:2:0:0:
341,41,76063,1,0,0:2:0:0:
354,44,76145,2,0,P|382:42|417:37,3,45.3600005537109,8|0|2|0,0:2|0:2|0:2|0:2,0:0:0:0:
459,120,76471,2,0,P|431:122|396:127,3,45.3600005537109,2|0|0|0,1:2|0:2|0:2|0:2,0:0:0:0:
339,176,76797,1,10,0:2:0:0:
433,243,76960,1,2,1:2:0:0:
433,243,77041,1,0,1:2:0:0:
433,243,77123,6,0,P|474:278|445:351,1,136.080001661133,2|0,1:2|1:2,0:2:0:0:
450,347,77449,2,0,P|394:332|340:318,1,90.7200011074219,12|0,0:2|0:0,0:2:0:0:
176,372,77775,5,2,1:2:0:0:
262,284,77938,1,2,0:2:0:0:
176,207,78101,1,10,0:2:0:0:
69,352,78264,6,0,P|54:293|32:232,1,90.7200011074219,2|0,0:2|1:2,0:2:0:0:
44,264,78590,1,2,0:2:0:0:
156,50,78753,5,10,0:2:0:0:
49,126,78916,1,2,0:2:0:0:
154,238,79080,2,0,P|169:179|191:118,1,90.7200011074219,2|0,1:2|0:2,0:0:0:0:
28,19,79406,2,0,P|58:65|138:47,1,136.080001661133,10|0,0:2|0:2,0:2:0:0:
130,55,79732,6,0,P|181:73|241:85,1,90.7200011074219,2|2,1:2|0:2,0:0:0:0:
356,227,80058,2,0,P|406:209|466:197,1,90.7200011074219,10|0,0:2|0:2,0:2:0:0:
283,363,80384,6,0,P|268:287|248:208,1,136.080001661133,2|0,1:2|0:2,0:2:0:0:
254,230,80710,2,0,P|267:181|285:116,1,90.7200011074219,10|0,0:2|0:2,0:2:0:0:
254,230,81036,5,2,1:2:0:0:
298,64,81199,2,0,L|284:-2,2,45.3600005537109,2|0|8,1:2|1:2|1:2,0:0:0:0:
397,202,81525,1,2,1:2:0:0:
390,218,81607,1,0,1:2:0:0:
383,235,81688,1,10,1:2:0:0:
179,136,81851,2,0,L|165:70,2,45.3600005537109,2|0|8,1:2|1:2|1:2,0:0:0:0:
104,216,82177,1,2,1:2:0:0:
258,220,82340,6,0,P|310:241|369:259,1,90.7200011074219,6|0,1:2|0:0,0:2:0:0:
193,349,82666,2,0,P|151:331|108:317,1,90.7200011074219,8|2,0:2|0:2,0:0:0:0:
134,112,82993,5,0,1:2:0:0:
164,222,83156,1,0,0:2:0:0:
45,181,83319,1,10,0:2:0:0:
13,65,83482,1,2,0:2:0:0:
231,47,83645,5,0,1:2:0:0:
201,157,83808,1,0,0:2:0:0:
320,116,83971,1,10,0:2:0:0:
352,0,84134,1,2,0:2:0:0:
119,26,84297,6,0,P|133:82|142:132,1,90.7200011074219,2|0,1:2|0:2,0:2:0:0:
267,331,84623,2,0,P|253:275|244:225,1,90.7200011074219,10|0,0:2|0:2,0:2:0:0:
319,163,84949,5,6,1:2:0:0:
172,256,85112,1,8,0:2:0:0:
162,253,85194,1,8,0:2:0:0:
150,248,85275,1,10,0:2:0:0:
344,329,85438,1,10,0:2:0:0:
207,144,85601,6,0,P|212:116|217:82,3,45.3600005537109,12|0|0|0,1:2|1:2|1:2|1:2,0:2:0:0:
263,217,85927,2,0,P|268:245|273:279,3,45.3600005537109,0|0|0|0,1:2|1:2|1:2|1:2,0:2:0:0:
178,237,86253,6,0,P|151:246|119:259,3,45.3600005537109,8|8|8|8,1:2|1:2|1:2|1:2,0:0:0:0:
302,144,86580,2,0,P|328:153|360:166,3,45.3600005537109,8|8|8|8,1:2|1:2|1:2|1:2,0:0:0:0:
423,100,86906,5,2,1:2:0:0:
364,253,87069,1,2,1:2:0:0:
225,199,87232,1,2,1:2:0:0:
279,53,87395,1,6,1:2:0:0:
