osu file format v14

[General]
AudioFilename: audio.mp3
AudioLeadIn: 0
PreviewTime:61063
Countdown: 0
SampleSet: Soft
StackLeniency: 0.7
Mode: 0
LetterboxInBreaks: 0
WidescreenStoryboard: 1

[Editor]
Bookmarks:57558,60493
DistanceSpacing: 1
BeatDivisor: 4
GridSize: 16
TimelineZoom: 1

[Metadata]
Title:Super * Affection (TV Size)
TitleUnicode:すーぱー☆あふぇくしょん (TV Size)
Artist:Various Artists
ArtistUnicode:Various Artists
Creator:Sotarks
Version:Akitoshi's Normal
Source:Fate/Grand Carnival
Tags:Rie Takahashi Minami Tanaka Rumi Okubo Aoi Yuki Nao Toyama Ayane Sakura Saori Hayami Ayako Kawasumi Kana Ueda Tange Mai Kadowaki 高橋李依 田中美海 大久保瑠美 悠木碧 東山奈央 佐倉綾音 早見沙織 川澄綾子 植田佳奈 丹下桜 門脇舞以 game japanese pop anime delight works fgo fate grand order female vocals vocalist jpop j-pop TYPE-MOON akitoshi corinn -laura- shunao shogunmoon kujinn reform マシュ・キリエライト Mash Kyrielight ニトクリス Nitocris エリザベート・バートリー Elizabeth Bathory 酒呑童子 Shuten-douji 茨木童子 Ibaraki-douji 女王メイヴ Queen Medb アタランテ Atalanta 謎のヒロインX Mysterious Heroine X イシュタル Ishtar ネロ・クラウディウス Nero Claudius シトナイ Sitonai
BeatmapID:3359235
BeatmapSetID:1645707

[Difficulty]
HPDrainRate:4
CircleSize:3.2
OverallDifficulty:4
ApproachRate:5.5
SliderMultiplier:0.999999999999999
SliderTickRate:1

[Events]
//Background and Video events
0,0,"bg.jpg",0,0
Video,0,"video.mp4"
//Break Periods
//Storyboard Layer 0 (Background)
//Storyboard Layer 1 (Fail)
//Storyboard Layer 2 (Pass)
//Storyboard Layer 3 (Foreground)
//Storyboard Layer 4 (Overlay)
//Storyboard Sound Samples

[TimingPoints]
167,326.086956521739,4,2,22,72,1,0
2775,-100,4,2,22,82,0,0
17368,-100,4,2,22,5,0,0
17449,-100,4,2,22,82,0,0
17531,-100,4,2,22,5,0,0
17612,-100,4,2,22,82,0,0
17694,-100,4,2,22,5,0,0
17775,-100,4,2,22,42,0,0
18427,-111.111111111111,4,2,22,52,0,0
27069,-100,4,2,22,72,0,0
39297,-111.111111111111,4,2,22,62,0,0
48916,-111.111111111111,4,2,22,72,0,0
49732,-100,4,2,22,72,0,0
58862,-100,4,2,22,42,0,0
59188,-100,4,2,22,52,0,0
59514,-100,4,2,22,62,0,0
59840,-100,4,2,22,72,0,0
60166,-100,4,2,22,82,0,0
60656,-100,4,2,22,62,0,0
61145,-100,4,2,22,72,0,0
61471,-100,4,2,22,82,0,0
61797,-100,4,2,22,92,0,0
61878,-100,4,2,22,82,0,0
67014,-100,4,2,22,92,0,0
67095,-100,4,2,22,82,0,0
72232,-100,4,2,22,92,0,0
72313,-100,4,2,22,82,0,0
77449,-100,4,2,22,92,0,0
77530,-100,4,2,22,82,0,0
86987,-100,4,2,22,5,0,0
87069,-100,4,2,22,72,0,0
87150,-100,4,2,22,5,0,0
87232,-100,4,2,22,72,0,0
87313,-100,4,2,22,5,0,0
87395,-100,4,2,22,72,0,0
87884,-100,4,2,22,5,0,0

[Colours]
Combo1 : 185,135,192
Combo2 : 217,234,147
Combo3 : 239,227,146
Combo4 : 150,190,214
Combo5 : 214,139,141

[HitObjects]
256,192,167,12,2,1471,1:2:0:0:
218,88,2775,6,0,P|281:90|321:113,1,99.9999999999999,2|12,1:2|0:2,0:2:0:0:
366,191,3427,2,0,P|364:254|341:294,1,99.9999999999999,2|10,1:2|0:2,0:0:0:0:
308,317,3916,2,0,P|239:310|199:306,1,99.9999999999999,2|2,0:2|0:2,0:2:0:0:
158,301,4406,1,10,0:2:0:0:
88,229,4732,1,2,1:2:0:0:
129,138,5058,2,0,P|123:98|120:76,1,50,10|2,0:2|0:2,0:0:0:0:
113,39,5384,6,0,P|149:55|216:44,1,99.9999999999999,2|10,1:2|0:2,0:2:0:0:
302,17,6036,1,2,1:2:0:0:
376,83,6362,1,10,0:2:0:0:
319,165,6688,2,0,P|330:221|337:263,1,99.9999999999999,2|8,1:2|0:2,0:2:0:0:
351,316,7177,1,2,0:2:0:0:
351,316,7340,2,0,P|403:326|448:312,1,99.9999999999999,2|10,1:2|0:2,0:2:0:0:
509,233,7993,6,0,P|500:183|490:134,1,99.9999999999999,2|12,1:2|0:2,0:2:0:0:
472,36,8645,2,0,P|422:44|373:54,1,99.9999999999999,2|10,1:2|0:2,0:0:0:0:
332,82,9134,2,0,P|282:73|233:63,1,99.9999999999999,2|2,0:2|0:2,0:2:0:0:
184,57,9623,1,10,0:2:0:0:
109,124,9949,1,2,1:2:0:0:
142,218,10275,1,10,0:2:0:0:
237,246,10601,6,0,P|278:229|345:238,1,99.9999999999999,2|10,1:2|0:2,0:2:0:0:
420,280,11253,1,2,1:2:0:0:
387,374,11580,1,10,0:2:0:0:
299,337,11906,1,2,1:2:0:0:
299,337,12069,2,0,P|236:350|193:359,1,99.9999999999999,2|2,1:2|1:2,0:0:0:0:
152,369,12558,1,10,1:2:0:0:
70,311,12884,1,10,0:2:0:0:
124,227,13210,6,0,P|124:179|99:117,2,99.9999999999999,6|8|0,1:2|0:2|1:2,0:2:0:0:
70,311,14188,1,10,0:2:0:0:
152,369,14514,2,0,P|200:369|262:344,1,99.9999999999999,0|10,1:2|0:2,0:0:0:0:
332,296,15166,1,2,1:2:0:0:
366,201,15493,2,0,P|357:163|352:144,1,50,10|0,0:2|0:2,0:2:0:0:
340,104,15819,6,0,P|283:109|232:94,1,99.9999999999999,12|8,0:2|0:2,0:0:0:0:
156,45,16471,2,0,P|123:52|99:58,1,50,12|0,0:2|1:2,0:0:0:0:
59,70,16797,2,0,P|79:121|82:174,1,99.9999999999999,8|4,0:2|1:3,0:0:0:0:
65,212,17286,2,0,P|77:240|83:263,1,50,10|10,0:2|0:2,0:2:0:0:
80,308,17612,2,0,B|128:293|175:322|175:322|226:298,1,150,10|0,0:2|3:2,0:2:0:0:
308,254,18427,5,0,1:2:0:0:
348,173,18753,1,0,0:2:0:0:
294,99,19080,2,0,P|232:109|160:73,2,134.999995880127,0|0|0,1:2|1:2|0:0,0:0:0:0:
376,63,20384,2,0,P|372:35|369:12,2,44.999998626709,0|0|0,1:2|1:2|3:2,0:0:0:0:
457,102,21036,6,0,P|450:148|446:194,1,89.999997253418,0|0,1:2|0:2,0:2:0:0:
374,246,21688,2,0,P|330:227|250:254,1,134.999995880127,0|0,1:2|1:2,0:0:0:0:
195,324,22503,1,0,0:2:0:0:
195,324,22666,2,0,P|151:313|98:302,2,89.999997253418,0|0|0,0:0|1:2|3:2,0:0:0:0:
282,346,23645,5,4,1:2:0:0:
368,321,23971,1,0,0:2:0:0:
425,251,24297,2,0,P|439:180|410:114,2,134.999995880127,0|0|0,1:2|1:2|0:0,0:0:0:0:
337,230,25601,2,0,P|326:181|317:141,1,89.999997253418,0|0,1:2|3:2,0:0:0:0:
306,103,26090,1,0,3:2:0:0:
306,103,26253,6,0,B|206:92|234:154|123:140,1,179.999994506836,0|0,1:2|1:2,0:2:0:0:
85,132,27069,1,6,1:3:0:0:
22,210,27395,2,0,P|30:265|35:313,1,99.9999999999999,2|6,1:3|1:3,0:0:0:0:
46,362,27884,1,6,1:3:0:0:
46,362,28047,2,0,P|97:335|154:345,1,99.9999999999999,14|0,0:2|1:2,0:2:0:0:
181,362,28536,1,8,0:2:0:0:
265,308,28862,6,0,P|259:256|250:203,1,99.9999999999999,6|10,1:2|0:2,0:2:0:0:
309,128,29514,2,0,P|353:108|408:114,1,99.9999999999999,2|10,1:2|0:2,0:0:0:0:
449,131,30003,2,0,P|428:176|433:225,1,99.9999999999999,2|2,0:2|0:2,0:0:0:0:
453,271,30493,1,10,0:2:0:0:
363,315,30819,2,0,P|314:309|264:307,1,99.9999999999999,0|10,1:2|0:2,0:2:0:0:
171,270,31471,6,0,P|121:275|71:277,1,99.9999999999999,0|10,1:2|0:2,0:2:0:0:
10,199,32123,1,2,1:2:0:0:
70,120,32449,1,10,0:2:0:0:
70,120,32612,2,0,P|111:129|172:104,1,99.9999999999999,2|0,0:2|0:2,0:0:0:0:
205,80,33101,1,10,0:2:0:0:
205,80,33264,2,0,P|246:71|307:96,1,99.9999999999999,2|0,0:2|0:2,0:0:0:0:
335,123,33753,1,8,0:2:0:0:
290,213,34080,6,0,P|237:219|178:228,1,99.9999999999999,2|8,1:2|0:2,0:0:0:0:
92,243,34732,1,2,1:2:0:0:
75,341,35058,1,8,0:2:0:0:
167,379,35384,2,0,P|210:356|269:357,1,99.9999999999999,2|10,1:2|0:2,0:0:0:0:
303,328,35873,2,0,P|346:351|405:350,1,99.9999999999999,2|2,0:2|0:2,0:2:0:0:
442,334,36362,1,8,0:2:0:0:
497,250,36688,6,0,P|486:197|476:148,1,99.9999999999999,0|10,1:2|0:2,0:0:0:0:
444,57,37340,1,2,1:2:0:0:
350,21,37666,1,10,0:2:0:0:
274,86,37993,2,0,P|238:81|215:77,1,50,10|2,0:2|1:2,0:0:0:0:
190,50,38319,1,2,1:2:0:0:
190,50,38482,2,0,P|130:60|87:68,1,99.9999999999999,6|0,1:2|1:2,0:2:0:0:
42,77,38971,1,8,0:2:0:0:
14,162,39297,6,0,B|52:208|54:282|54:282|31:296|17:340,1,179.999994506836,0|0,1:2|1:2,0:2:0:0:
106,355,40275,1,0,3:2:0:0:
181,305,40601,2,0,B|297:286|297:286|322:311|361:321,1,179.999994506836,0|0,1:2|1:2,0:0:0:0:
440,324,41580,1,0,3:2:0:0:
488,248,41906,6,0,B|505:202|499:163|469:128|469:128|403:146,1,179.999994506836,0|0,1:2|1:2,0:2:0:0:
332,166,42884,1,0,3:2:0:0:
294,247,43210,2,0,B|233:264|182:225|182:225|154:246|115:247,1,179.999994506836,0|0,1:2|1:2,0:0:0:0:
37,227,44188,1,0,3:2:0:0:
27,137,44514,6,0,P|70:95|149:93,1,134.999995880127,0|0,1:2|1:2,0:2:0:0:
183,107,45166,2,0,P|211:88|271:82,1,89.999997253418,0|0,1:2|3:2,0:2:0:0:
350,112,45819,2,0,P|338:174|329:247,1,134.999995880127,0|0,1:2|1:2,0:0:0:0:
295,274,46471,2,0,P|311:328|317:361,1,89.999997253418,0|0,1:2|3:2,0:0:0:0:
228,377,47123,6,0,B|196:342|196:342|103:365,1,134.999995880127,0|0,1:2|1:2,0:0:0:0:
68,377,47775,2,0,P|76:341|56:277,1,89.999997253418,0|0,3:2|3:2,3:2:0:0:
12,223,48427,1,6,1:2:0:0:
12,223,48590,2,0,L|20:166,1,44.999998626709,2|0,1:2|0:0,0:0:0:0:
24,133,48916,2,0,P|63:161|150:141,1,134.999995880127,6|8,1:2|0:2,0:2:0:0:
235,104,49732,6,0,P|244:160|251:212,1,99.9999999999999,4|8,1:2|0:2,0:2:0:0:
260,256,50221,1,2,0:2:0:0:
260,256,50384,2,0,P|305:270|370:252,1,99.9999999999999,2|10,1:2|0:2,0:0:0:0:
435,199,51036,2,0,P|425:150|439:103,1,99.9999999999999,2|8,1:2|0:2,0:0:0:0:
460,58,51525,2,0,P|411:67|364:53,1,99.9999999999999,2|2,0:2|0:2,0:0:0:0:
320,28,52014,1,8,0:2:0:0:
222,8,52340,6,0,P|154:22|105:34,1,99.9999999999999,2|10,1:2|0:2,0:2:0:0:
77,48,52830,2,0,P|99:93|98:150,1,99.9999999999999,2|2,0:2|0:2,0:0:0:0:
86,190,53319,1,10,0:2:0:0:
147,275,53645,1,2,1:2:0:0:
147,275,53808,2,0,P|192:253|249:254,1,99.9999999999999,2|2,0:2|0:2,0:2:0:0:
289,266,54297,1,2,1:2:0:0:
376,314,54623,1,10,0:2:0:0:
466,272,54949,6,0,P|461:223|452:150,1,99.9999999999999,10|8,0:2|0:2,0:0:0:0:
371,128,55601,1,10,0:2:0:0:
371,128,55764,2,0,P|373:103|376:78,1,50,6|0,1:2|0:2,0:2:0:0:
377,28,56090,2,0,P|330:45|262:35,1,99.9999999999999,6|2,1:2|1:2,0:2:0:0:
233,25,56580,1,2,0:2:0:0:
148,78,56906,2,0,P|150:102|155:139,1,50,2|10,1:2|0:2,0:0:0:0:
157,177,57232,1,8,0:2:0:0:
256,192,57558,12,2,60493,1:2:0:0:
255,161,61471,6,0,P|314:159|352:183,1,99.9999999999999,2|12,1:2|0:2,0:2:0:0:
386,271,62123,2,0,P|338:277|279:286,1,99.9999999999999,2|10,1:2|0:2,0:0:0:0:
249,317,62612,2,0,P|201:311|142:302,1,99.9999999999999,2|2,0:2|0:2,0:2:0:0:
101,291,63101,1,10,0:2:0:0:
44,208,63427,1,2,1:2:0:0:
112,134,63753,2,0,P|106:93|101:72,1,50,10|2,0:2|0:2,0:2:0:0:
91,35,64080,6,0,P|138:15|200:22,1,99.9999999999999,2|10,1:2|0:2,0:0:0:0:
281,46,64732,1,2,1:2:0:0:
312,141,65058,1,10,0:2:0:0:
252,221,65384,2,0,P|265:274|274:329,1,99.9999999999999,2|8,1:2|0:2,0:0:0:0:
289,370,65873,1,2,0:2:0:0:
289,370,66036,2,0,P|338:352|387:359,1,99.9999999999999,2|10,1:2|0:2,0:0:0:0:
465,300,66688,6,0,P|447:251|454:202,1,99.9999999999999,2|12,1:2|0:2,0:2:0:0:
478,107,67340,2,0,P|424:101|362:95,1,99.9999999999999,2|10,1:2|0:2,0:0:0:0:
335,69,67830,2,0,P|281:75|219:81,1,99.9999999999999,2|2,0:2|0:2,0:2:0:0:
186,89,68319,1,10,0:2:0:0:
118,162,68645,1,2,1:2:0:0:
160,252,68971,1,10,0:2:0:0:
259,242,69297,6,0,P|316:236|366:263,1,99.9999999999999,2|10,1:2|0:2,0:2:0:0:
434,311,69949,1,2,1:2:0:0:
361,379,70275,1,10,0:2:0:0:
274,339,70601,1,10,1:2:0:0:
274,339,70764,2,0,P|226:346|171:354,1,99.9999999999999,10|10,1:2|1:2,0:0:0:0:
126,364,71253,1,10,1:2:0:0:
49,298,71580,2,0,P|45:272|40:239,1,50,10|10,1:2|1:2,0:2:0:0:
5,213,71906,6,0,P|13:153|21:98,1,99.9999999999999,2|12,1:2|0:2,0:2:0:0:
80,35,72558,2,0,P|116:52|185:43,1,99.9999999999999,2|10,1:2|0:2,0:0:0:0:
221,30,73047,2,0,P|204:66|213:135,1,99.9999999999999,2|2,0:2|0:2,0:2:0:0:
227,171,73536,1,10,0:2:0:0:
321,203,73862,1,2,1:2:0:0:
407,152,74188,2,0,P|435:156|458:161,1,50,10|2,0:2|0:2,0:2:0:0:
505,169,74514,6,0,P|488:216|476:273,1,99.9999999999999,2|10,1:2|0:2,0:2:0:0:
443,359,75166,1,2,1:2:0:0:
345,380,75493,1,10,0:2:0:0:
273,309,75819,2,0,P|212:305|168:329,1,99.9999999999999,2|8,1:2|0:2,0:0:0:0:
144,358,76308,1,2,0:2:0:0:
144,358,76471,2,0,P|97:349|30:337,1,99.9999999999999,2|10,1:2|0:2,0:0:0:0:
14,244,77123,6,0,P|30:201|15:140,1,99.9999999999999,2|12,1:2|0:2,0:2:0:0:
77,67,77775,2,0,P|120:83|181:68,1,99.9999999999999,2|10,1:2|0:2,0:0:0:0:
214,47,78264,2,0,P|257:31|318:46,1,99.9999999999999,2|2,0:2|0:2,0:2:0:0:
348,71,78753,1,10,0:2:0:0:
385,164,79080,1,2,1:2:0:0:
307,226,79406,1,10,0:2:0:0:
211,194,79732,6,0,P|168:200|147:203,1,50,2|2,1:2|0:2,0:0:0:0:
112,212,80058,2,0,P|96:255|117:322,1,99.9999999999999,10|2,0:2|1:2,0:2:0:0:
185,367,80710,1,10,0:2:0:0:
274,319,81036,1,2,1:2:0:0:
274,319,81199,2,0,P|326:325|379:333,1,99.9999999999999,2|2,1:2|1:2,0:0:0:0:
422,342,81688,1,10,1:2:0:0:
494,273,82014,1,8,1:2:0:0:
448,183,82340,6,0,P|459:132|433:75,2,99.9999999999999,6|8|0,1:2|0:2|1:2,0:2:0:0:
360,231,83319,1,10,0:2:0:0:
260,220,83645,2,0,P|269:283|276:332,1,99.9999999999999,0|10,1:2|0:2,0:0:0:0:
190,373,84297,1,2,1:2:0:0:
108,315,84623,2,0,P|78:318|52:323,1,50,10|0,0:2|0:2,0:2:0:0:
8,326,84949,6,0,P|19:279|9:220,1,99.9999999999999,6|10,1:2|0:2,0:0:0:0:
0,128,85601,1,12,1:2:0:0:
64,51,85927,1,0,1:2:0:0:
156,94,86253,2,0,P|207:88|257:82,1,99.9999999999999,8|8,1:2|1:2,0:0:0:0:
342,32,86906,2,0,P|366:34|391:37,1,50,2|2,1:2|1:2,0:2:0:0:
444,50,87232,1,2,1:2:0:0:
444,50,87395,6,0,B|416:134|416:134|435:164|475:173,1,150,6|0,1:2|0:0,0:2:0:0:
