osu file format v14

[General]
AudioFilename: audio.mp3
AudioLeadIn: 0
PreviewTime: 43800
Countdown: 1
SampleSet: Soft
StackLeniency: 0.7
Mode: 0
LetterboxInBreaks: 0
WidescreenStoryboard: 0

[Editor]
DistanceSpacing: 1
BeatDivisor: 4
GridSize: 4
TimelineZoom: 3.899998

[Metadata]
Title:Stream training #1
TitleUnicode:Stream training #1
Artist:Various Artists
ArtistUnicode:Various Artists
Creator:- - Makrica - -
Version:Pharrell Williams - Happy (MeloDramatic Remix)
Source:
Tags:DnB Pharrell Williams Happy (MeloDramatic Remix) Light Up my Love Ani feat. Moco stream training DEMENSION Various Artists makrica
BeatmapID:2022701
BeatmapSetID:965445

[Difficulty]
HPDrainRate:6
CircleSize:3.8
OverallDifficulty:9.3
ApproachRate:9.3
SliderMultiplier:1.7
SliderTickRate:1

[Events]
//Background and Video events
0,0,"bg.jpg",0,0
//Break Periods
2,66028,76246
//Storyboard Layer 0 (Background)
//Storyboard Layer 1 (Fail)
//Storyboard Layer 2 (Pass)
//Storyboard Layer 3 (Foreground)
//Storyboard Sound Samples

[TimingPoints]
0,342.857142857143,4,2,1,50,1,0
21942,-90.9090909090909,4,2,1,50,0,0
40114,-125,4,2,1,50,0,0
42514,-71.4285714285714,4,2,1,50,0,0
42857,-66.6666666666667,4,2,1,50,0,0
43200,-62.5,4,2,1,50,0,0
43542,-58.8235294117647,4,2,1,50,0,0
43885,-66.6666666666667,4,2,1,50,0,1
47657,-62.5,4,2,1,50,0,1
48000,-58.8235294117647,4,2,1,50,0,1
48342,-76.9230769230769,4,2,1,50,0,1
48685,-66.6666666666667,4,2,1,50,0,1
53314,-62.5,4,2,1,50,0,1
53657,-58.8235294117647,4,2,1,50,0,1
54171,-66.6666666666667,4,2,1,50,0,1
58800,-62.5,4,2,1,50,0,1
59143,-58.8235294117647,4,2,1,50,0,1
59657,-66.6666666666667,4,2,1,50,0,1
63085,-58.8235294117647,4,2,1,50,0,1
63771,-66.6666666666667,4,2,1,50,0,1
65828,-100,4,2,1,50,0,0
76800,-100,4,2,1,50,0,0
85028,-100,4,2,1,50,0,0
87771,-66.6666666666667,4,2,1,50,0,1
91542,-62.5,4,2,1,50,0,1
91885,-58.8235294117647,4,2,1,50,0,1
92228,-76.9230769230769,4,2,1,50,0,1
92571,-66.6666666666667,4,2,1,50,0,1
97200,-62.5,4,2,1,50,0,1
97543,-58.8235294117647,4,2,1,50,0,1
98057,-66.6666666666667,4,2,1,50,0,1
102686,-62.5,4,2,1,50,0,1
104228,-66.6666666666667,4,2,1,50,0,1
113485,-62.5,4,2,1,50,0,1
113828,-58.8235294117647,4,2,1,50,0,1
114170,-76.9230769230769,4,2,1,50,0,1
114513,-66.6666666666667,4,2,1,50,0,1
119142,-62.5,4,2,1,50,0,1
119485,-58.8235294117647,4,2,1,50,0,1
119999,-66.6666666666667,4,2,1,50,0,1
124628,-62.5,4,2,1,50,0,1
124971,-58.8235294117647,4,2,1,50,0,1
125485,-66.6666666666667,4,2,1,50,0,1
131657,-100,4,2,1,50,0,0

[HitObjects]
84,186,0,6,0,P|75:246|98:279,1,85,14|0,0:0|0:0,0:0:0:0:
163,322,257,1,2,0:0:0:0:
258,278,342,2,0,P|298:265|337:279,1,85,10|0,0:0|0:0,0:0:0:0:
455,224,685,2,0,L|526:198,3,42.5,2|2|2|0,0:0|0:0|0:0|0:0,0:0:0:0:
354,139,1028,2,0,P|340:99|352:59,1,85,10|0,0:0|0:0,0:0:0:0:
256,198,1371,6,0,P|247:258|270:291,1,85,2|0,0:0|0:0,0:0:0:0:
395,252,1714,2,0,P|455:258|481:289,2,85,10|2|0,0:0|0:0|0:0,0:0:0:0:
332,115,2228,1,2,0:0:0:0:
257,277,2400,2,0,P|205:309|166:302,1,85,10|0,0:0|0:0,0:0:0:0:
415,176,2742,6,0,P|475:175|505:202,1,85,2|0,0:0|0:0,0:0:0:0:
496,293,3000,1,2,0:0:0:0:
404,353,3085,2,0,P|345:369|309:350,1,85,10|0,0:0|0:0,0:0:0:0:
151,372,3428,2,0,L|86:389,3,42.5,2|2|2|0,0:0|0:0|0:0|0:0,0:0:0:0:
244,270,3771,2,0,P|253:210|230:177,1,85,10|0,0:0|0:0,0:0:0:0:
62,235,4114,6,0,P|53:295|76:328,1,85,2|0,0:0|0:0,0:0:0:0:
299,359,4457,2,0,P|341:356|402:319,2,85,10|2|0,0:0|0:0|0:0,0:0:0:0:
142,281,4971,1,2,0:0:0:0:
242,190,5142,2,0,P|300:206|321:240,1,85,10|0,0:0|0:0,0:0:0:0:
254,242,5400,5,2,0:0:0:0:
227,295,5485,2,0,P|219:336|237:374,1,85,14|0,0:0|0:0,0:0:0:0:
356,266,5742,1,2,0:0:0:0:
314,223,5828,2,0,P|277:202|235:206,1,85,10|0,0:0|0:0,0:0:0:0:
87,273,6171,2,0,L|22:297,3,42.5,2|2|2|0,0:0|0:0|0:0|0:0,0:0:0:0:
109,138,6514,2,0,P|102:96|120:59,1,85,10|0,0:0|0:0,0:0:0:0:
221,210,6857,6,0,P|220:270|192:299,1,85,2|0,0:0|0:0,0:0:0:0:
59,326,7200,2,0,P|7:358|-2:397,2,85,10|2|0,0:0|0:0|0:0,0:0:0:0:
215,295,7714,1,2,0:0:0:0:
60,282,7885,2,0,P|8:314|-1:353,1,85,10|0,0:0|0:0,0:0:0:0:
130,199,8228,6,0,P|190:198|220:225,1,85,2|0,0:0|0:0,0:0:0:0:
219,319,8485,1,2,0:0:0:0:
308,375,8571,2,0,P|346:392|387:383,1,85,10|0,0:0|0:0,0:0:0:0:
149,374,8914,2,0,L|84:391,3,42.5,2|2|2|0,0:0|0:0|0:0|0:0,0:0:0:0:
224,299,9257,2,0,P|233:239|210:206,1,85,10|0,0:0|0:0,0:0:0:0:
42,264,9600,6,0,P|33:324|56:357,1,85,2|0,0:0|0:0,0:0:0:0:
153,150,9942,2,0,P|118:125|47:115,2,85,10|2|0,0:0|0:0|0:0,0:0:0:0:
202,288,10457,1,2,0:0:0:0:
314,130,10628,2,0,P|318:171|297:207,1,85,10|0,0:0|0:0,0:0:0:0:
245,182,10885,5,2,0:0:0:0:
223,126,10971,2,0,P|219:84|241:48,1,85,14|0,0:0|0:0,0:0:0:0:
348,168,11228,1,2,0:0:0:0:
302,207,11314,2,0,P|263:224|221:215,1,85,10|0,0:0|0:0,0:0:0:0:
82,133,11657,2,0,L|19:102,3,42.5,2|2|2|0,0:0|0:0|0:0|0:0,0:0:0:0:
89,270,12000,2,0,P|77:311|91:349,1,85,10|0,0:0|0:0,0:0:0:0:
208,210,12342,6,0,P|213:150|188:118,1,85,2|0,0:0|0:0,0:0:0:0:
56,162,12685,2,0,P|10:203|8:243,2,85,10|2|0,0:0|0:0|0:0,0:0:0:0:
211,125,13200,1,2,0:0:0:0:
58,89,13371,2,0,P|16:44|17:4,1,85,10|0,0:0|0:0,0:0:0:0:
117,211,13714,6,0,P|176:218|209:194,1,85,2|0,0:0|0:0,0:0:0:0:
218,101,13971,1,2,0:0:0:0:
312,55,14057,2,0,P|351:42|391:55,1,85,10|0,0:0|0:0,0:0:0:0:
154,39,14400,2,0,L|91:15,3,42.5,2|2|2|0,0:0|0:0|0:0|0:0,0:0:0:0:
221,122,14742,2,0,P|223:182|197:213,1,85,10|0,0:0|0:0,0:0:0:0:
36,137,15085,6,0,P|33:76|59:45,1,85,2|0,0:0|0:0,0:0:0:0:
134,262,15428,2,0,P|96:283|24:285,2,85,10|2|0,0:0|0:0|0:0,0:0:0:0:
198,130,15942,1,2,0:0:0:0:
292,299,16114,2,0,P|300:258|283:220,1,85,10|0,0:0|0:0,0:0:0:0:
222,239,16371,5,2,0:0:0:0:
195,292,16457,2,0,P|187:333|205:371,1,85,14|0,0:0|0:0,0:0:0:0:
324,263,16714,1,2,0:0:0:0:
282,220,16800,2,0,P|245:199|203:203,1,85,10|0,0:0|0:0,0:0:0:0:
55,270,17142,2,0,L|-10:294,3,42.5,2|2|2|0,0:0|0:0|0:0|0:0,0:0:0:0:
207,349,17485,2,0,P|249:345|289:310,1,85,10|0,0:0|0:0,0:0:0:0:
130,219,17828,6,0,P|131:279|159:308,1,85,2|0,0:0|0:0,0:0:0:0:
353,329,18171,2,0,L|471:345,2,85,10|2|0,0:0|0:0|0:0,0:0:0:0:
282,203,18685,1,2,0:0:0:0:
427,219,18857,2,0,L|545:235,1,85,10|0,0:0|0:0,0:0:0:0:
406,72,19200,6,0,P|362:113|360:154,1,85,2|0,0:0|0:0,0:0:0:0:
403,339,19542,2,0,P|438:316|454:277,1,85,10|0,0:0|0:0,0:0:0:0:
252,145,19885,6,0,P|191:145|162:173,1,85,2|0,0:0|0:0,0:0:0:0:
324,352,20228,2,0,P|384:351|413:323,1,85,10|0,0:0|0:0,0:0:0:0:
221,303,20571,6,0,P|212:363|235:396,1,85,2|0,0:0|0:0,0:0:0:0:
371,194,20914,2,0,P|384:154|372:114,1,85,10|0,0:0|0:0,0:0:0:0:
111,236,21257,6,0,P|102:296|125:329,1,85,2|0,0:0|0:0,0:0:0:0:
450,227,21600,2,0,P|463:187|451:147,1,85,10|0,0:0|0:0,0:0:0:0:
115,141,21857,5,2,0:0:0:0:
84,175,21942,2,0,P|69:252|92:285,1,93.5000028533936,14|0,0:0|0:0,0:0:0:0:
231,325,22285,2,0,L|310:326,3,46.7500014266968,10|2|2|0,0:0|0:0|0:0|0:0,0:0:0:0:
101,365,22628,1,2,0:0:0:0:
222,214,22800,1,2,0:0:0:0:
222,214,22885,1,2,0:0:0:0:
222,214,22971,2,0,P|236:174|221:123,1,93.5000028533936,10|0,0:0|0:0,0:0:0:0:
95,242,23314,6,0,P|86:302|117:350,1,93.5000028533936,2|0,0:0|0:0,0:0:0:0:
369,369,23657,2,0,L|478:387,2,93.5000028533936,10|2|0,0:0|0:0|0:0,0:0:0:0:
425,176,24171,1,2,0:0:0:0:
425,176,24257,1,2,0:0:0:0:
425,176,24342,2,0,L|456:284,1,93.5000028533936,10|0,0:0|0:0,0:0:0:0:
333,278,24685,6,0,P|318:234|329:189,1,93.5000028533936,2|0,0:0|0:0,0:0:0:0:
448,65,25028,1,10,0:0:0:0:
257,106,25200,1,2,0:0:0:0:
257,106,25285,1,2,0:0:0:0:
257,106,25371,2,0,P|307:73|363:76,1,93.5000028533936,2|0,0:0|0:0,0:0:0:0:
431,168,25714,5,10,0:0:0:0:
309,345,25885,2,0,P|268:357|187:342,2,93.5000028533936,2|2|0,0:0|0:0|0:0,0:0:0:0:
438,294,26400,5,10,0:0:0:0:
279,237,26571,2,0,P|238:224|157:239,2,93.5000028533936,2|2|0,0:0|0:0|0:0,0:0:0:0:
345,117,27085,5,10,0:0:0:0:
85,132,27257,1,2,0:0:0:0:
85,132,27342,1,2,0:0:0:0:
85,132,27428,2,0,P|65:189|82:242,1,93.5000028533936,10|0,0:0|0:0,0:0:0:0:
314,81,27771,2,0,P|360:69|421:83,2,93.5000028533936,10|2|0,0:0|0:0|0:0,0:0:0:0:
187,209,28285,1,2,0:0:0:0:
187,209,28371,1,2,0:0:0:0:
187,209,28457,2,0,P|172:252|185:297,1,93.5000028533936,10|0,0:0|0:0,0:0:0:0:
60,148,28800,6,0,P|48:103|63:59,1,93.5000028533936,2|0,0:0|0:0,0:0:0:0:
369,15,29142,2,0,L|461:0,2,93.5000028533936,10|2|0,0:0|0:0|0:0,0:0:0:0:
425,208,29657,1,2,0:0:0:0:
425,208,29742,1,2,0:0:0:0:
425,208,29828,2,0,L|450:118,1,93.5000028533936,10|0,0:0|0:0,0:0:0:0:
332,106,30171,6,0,P|318:149|328:194,1,93.5000028533936,2|0,0:0|0:0,0:0:0:0:
448,319,30514,1,10,0:0:0:0:
257,278,30685,1,2,0:0:0:0:
257,278,30771,1,2,0:0:0:0:
256,277,30857,2,0,P|293:306|339:313,1,93.5000028533936,2|0,0:0|0:0,0:0:0:0:
431,216,31200,5,10,0:0:0:0:
309,39,31371,2,0,P|264:26|217:30,2,93.5000028533936,2|2|0,0:0|0:0|0:0,0:0:0:0:
438,90,31885,5,10,0:0:0:0:
279,146,32057,2,0,P|234:160|188:157,2,93.5000028533936,2|2|0,0:0|0:0|0:0,0:0:0:0:
345,267,32571,5,10,0:0:0:0:
85,252,32742,1,2,0:0:0:0:
85,252,32828,1,2,0:0:0:0:
85,252,32914,2,0,P|66:209|70:163,1,93.5000028533936,10|0,0:0|0:0,0:0:0:0:
231,59,33257,2,0,L|310:58,2,46.7500014266968,10|2|0,0:0|0:0|0:0,0:0:0:0:
106,182,33600,1,2,0:0:0:0:
239,271,33771,1,2,0:0:0:0:
239,271,33857,1,2,0:0:0:0:
239,271,33942,2,0,P|271:298|283:350,1,93.5000028533936,10|0,0:0|0:0,0:0:0:0:
368,205,34285,6,0,P|377:145|346:97,1,93.5000028533936,2|0,0:0|0:0,0:0:0:0:
94,78,34628,2,0,L|-15:60,2,93.5000028533936,10|2|0,0:0|0:0|0:0,0:0:0:0:
38,271,35142,1,2,0:0:0:0:
38,271,35228,1,2,0:0:0:0:
38,271,35314,2,0,L|7:163,1,93.5000028533936,10|0,0:0|0:0,0:0:0:0:
130,169,35657,6,0,P|145:213|134:258,1,93.5000028533936,2|0,0:0|0:0,0:0:0:0:
15,382,36000,1,10,0:0:0:0:
206,341,36171,1,2,0:0:0:0:
206,341,36257,1,2,0:0:0:0:
206,341,36342,2,0,P|156:374|100:371,1,93.5000028533936,2|0,0:0|0:0,0:0:0:0:
32,279,36685,5,10,0:0:0:0:
154,102,36857,2,0,P|195:90|276:105,2,93.5000028533936,2|2|0,0:0|0:0|0:0,0:0:0:0:
25,153,37371,5,10,0:0:0:0:
184,210,37542,2,0,P|225:223|306:208,2,93.5000028533936,2|2|0,0:0|0:0|0:0,0:0:0:0:
118,330,38057,5,10,0:0:0:0:
378,315,38228,1,2,0:0:0:0:
378,315,38314,1,2,0:0:0:0:
378,315,38400,2,0,P|398:258|381:205,1,93.5000028533936,2|0,0:0|0:0,0:0:0:0:
149,366,38742,2,0,P|103:378|42:364,2,93.5000028533936,10|2|0,0:0|0:0|0:0,0:0:0:0:
253,213,39257,2,0,P|273:156|256:103,1,93.5000028533936,2|10,0:0|0:0,0:0:0:0:
468,285,39600,1,2,0:0:0:0:
468,285,39685,1,2,0:0:0:0:
468,285,39771,2,0,P|495:338|486:393,1,93.5000028533936,2|0,0:0|0:0,0:0:0:0:
277,373,40114,6,0,L|220:387,3,34,10|2|2|0,0:0|0:0|0:0|0:0,0:0:0:0:
315,296,40457,2,0,L|366:320,3,34,2|2|2|0,0:0|0:0|0:0|0:0,0:0:0:0:
292,213,40800,2,0,L|247:233,3,34,10|2|2|0,0:0|0:0|0:0|0:0,0:0:0:0:
412,212,41142,5,2,0:0:0:0:
391,121,41314,1,2,0:0:0:0:
331,51,41485,1,10,0:0:0:0:
244,18,41657,1,2,0:0:0:0:
15,100,41828,5,2,0:0:0:0:
0,191,42000,1,2,0:0:0:0:
31,278,42171,1,10,0:0:0:0:
99,340,42342,1,2,0:0:0:0:
257,384,42514,5,2,0:0:0:0:
312,367,42600,1,2,0:0:0:0:
364,336,42685,1,2,0:0:0:0:
405,291,42771,1,2,0:0:0:0:
425,228,42857,5,10,0:0:0:0:
405,167,42942,1,2,0:0:0:0:
352,133,43028,1,2,0:0:0:0:
288,140,43114,1,2,0:0:0:0:
244,194,43200,5,2,0:0:0:0:
245,265,43285,1,2,0:0:0:0:
290,318,43371,1,2,0:0:0:0:
358,333,43457,1,2,0:0:0:0:
432,322,43542,5,10,0:0:0:0:
489,270,43628,1,2,0:0:0:0:
512,198,43714,1,2,0:0:0:0:
512,120,43800,1,2,0:0:0:0:
505,45,43885,6,0,P|478:20|449:9,1,63.7500024318696,6|0,0:0|0:0,0:0:0:0:
380,0,44057,1,2,0:0:0:0:
326,36,44142,1,2,0:0:0:0:
300,93,44228,5,10,0:0:0:0:
315,153,44314,1,2,0:0:0:0:
365,191,44400,1,2,0:0:0:0:
422,187,44485,1,2,0:0:0:0:
483,202,44571,5,2,0:0:0:0:
512,255,44657,1,2,0:0:0:0:
496,315,44742,1,2,0:0:0:0:
445,343,44828,1,2,0:0:0:0:
382,341,44914,1,10,0:0:0:0:
341,294,45000,1,2,0:0:0:0:
333,236,45085,6,0,P|336:209|361:172,3,63.7500024318696,2|2|2|0,0:0|0:0|0:0|0:0,0:0:0:0:
250,208,45428,6,0,P|225:220|199:256,3,63.7500024318696,2|2|10|0,0:0|0:0|0:0|0:0,0:0:0:0:
283,131,45771,6,0,P|280:104|255:67,3,63.7500024318696,2|2|2|0,0:0|0:0|0:0|0:0,0:0:0:0:
98,36,46114,5,2,0:0:0:0:
48,74,46200,1,2,0:0:0:0:
27,133,46285,1,10,0:0:0:0:
44,194,46371,1,2,0:0:0:0:
91,235,46457,1,2,0:0:0:0:
153,244,46542,1,2,0:0:0:0:
197,197,46628,5,2,0:0:0:0:
162,147,46714,1,2,0:0:0:0:
100,146,46800,1,2,0:0:0:0:
63,194,46885,1,2,0:0:0:0:
80,253,46971,5,10,0:0:0:0:
138,275,47057,1,2,0:0:0:0:
192,255,47142,1,2,0:0:0:0:
227,205,47228,1,2,0:0:0:0:
289,204,47314,5,2,0:0:0:0:
326,252,47400,1,2,0:0:0:0:
309,311,47485,1,2,0:0:0:0:
251,333,47571,1,2,0:0:0:0:
195,305,47657,5,10,0:0:0:0:
190,238,47742,1,2,0:0:0:0:
223,180,47828,1,2,0:0:0:0:
283,150,47914,1,2,0:0:0:0:
350,144,48000,5,2,0:0:0:0:
415,171,48085,1,2,0:0:0:0:
447,234,48171,1,2,0:0:0:0:
431,303,48257,1,2,0:0:0:0:
374,346,48342,5,10,0:0:0:0:
324,325,48428,1,2,0:0:0:0:
308,274,48514,1,2,0:0:0:0:
336,229,48600,1,2,0:0:0:0:
399,217,48685,6,0,P|426:215|466:233,3,63.7500024318696,2|2|2|0,0:0|0:0|0:0|0:0,0:0:0:0:
317,163,49028,6,0,P|291:152|247:157,3,63.7500024318696,10|2|2|0,0:0|0:0|0:0|0:0,0:0:0:0:
143,33,49371,6,0,P|114:55|98:81,1,63.7500024318696,14|0,0:0|0:0,0:0:0:0:
78,138,49542,1,2,0:0:0:0:
73,201,49628,1,2,0:0:0:0:
94,261,49714,1,10,0:0:0:0:
136,308,49800,1,2,0:0:0:0:
193,335,49885,1,2,0:0:0:0:
257,336,49971,1,2,0:0:0:0:
319,318,50057,5,2,0:0:0:0:
356,267,50142,1,2,0:0:0:0:
348,205,50228,1,2,0:0:0:0:
300,164,50314,1,2,0:0:0:0:
238,167,50400,1,10,0:0:0:0:
194,211,50485,1,2,0:0:0:0:
198,274,50571,6,0,P|207:299|241:328,3,63.7500024318696,2|2|2|0,0:0|0:0|0:0|0:0,0:0:0:0:
277,248,50914,6,0,P|303:241|346:251,3,63.7500024318696,2|2|10|0,0:0|0:0|0:0|0:0,0:0:0:0:
311,325,51257,6,0,P|317:351|347:384,3,63.7500024318696,2|2|2|0,0:0|0:0|0:0|0:0,0:0:0:0:
449,307,51600,5,2,0:0:0:0:
493,262,51685,1,2,0:0:0:0:
512,201,51771,1,10,0:0:0:0:
502,139,51857,1,2,0:0:0:0:
464,89,51942,1,2,0:0:0:0:
407,61,52028,1,2,0:0:0:0:
343,60,52114,6,0,P|307:69|283:87,1,63.7500024318696,2|0,0:0|0:0,0:0:0:0:
258,143,52285,1,2,0:0:0:0:
295,193,52371,1,2,0:0:0:0:
357,204,52457,1,10,0:0:0:0:
407,168,52542,1,2,0:0:0:0:
420,107,52628,1,2,0:0:0:0:
386,55,52714,1,2,0:0:0:0:
333,17,52800,5,2,0:0:0:0:
269,15,52885,1,2,0:0:0:0:
214,45,52971,1,2,0:0:0:0:
178,97,53057,1,2,0:0:0:0:
173,160,53142,1,10,0:0:0:0:
198,218,53228,1,2,0:0:0:0:
257,251,53314,5,2,0:0:0:0:
319,221,53400,1,2,0:0:0:0:
345,158,53485,1,2,0:0:0:0:
324,92,53571,1,2,0:0:0:0:
251,93,53657,5,2,0:0:0:0:
200,145,53742,1,2,0:0:0:0:
188,219,53828,1,10,0:0:0:0:
217,285,53914,1,2,0:0:0:0:
275,327,54000,1,2,0:0:0:0:
346,330,54085,1,2,0:0:0:0:
415,308,54171,6,0,P|442:306|482:324,3,63.7500024318696,2|2|2|0,0:0|0:0|0:0|0:0,0:0:0:0:
343,249,54514,6,0,P|317:238|273:243,3,63.7500024318696,10|2|2|0,0:0|0:0|0:0|0:0,0:0:0:0:
390,78,54857,6,0,P|419:91|442:114,1,63.7500024318696,14|0,0:0|0:0,0:0:0:0:
476,168,55028,1,2,0:0:0:0:
499,227,55114,1,2,0:0:0:0:
490,289,55200,1,10,0:0:0:0:
452,339,55285,1,2,0:0:0:0:
394,364,55371,1,2,0:0:0:0:
332,357,55457,1,2,0:0:0:0:
280,319,55542,5,2,0:0:0:0:
256,260,55628,1,2,0:0:0:0:
271,200,55714,1,2,0:0:0:0:
320,159,55800,1,2,0:0:0:0:
382,155,55885,1,10,0:0:0:0:
435,189,55971,1,2,0:0:0:0:
460,248,56057,6,0,P|466:274|455:316,3,63.7500024318696,2|2|2|0,0:0|0:0|0:0|0:0,0:0:0:0:
376,265,56400,6,0,P|351:253|307:255,3,63.7500024318696,2|2|10|0,0:0|0:0|0:0|0:0,0:0:0:0:
351,342,56742,6,0,P|371:360|413:370,3,63.7500024318696,2|2|2|0,0:0|0:0|0:0|0:0,0:0:0:0:
146,320,57085,5,2,0:0:0:0:
102,275,57171,1,2,0:0:0:0:
83,214,57257,1,10,0:0:0:0:
93,152,57342,1,2,0:0:0:0:
131,102,57428,1,2,0:0:0:0:
188,74,57514,1,2,0:0:0:0:
252,73,57600,6,0,P|288:82|312:100,1,63.7500024318696,2|0,0:0|0:0,0:0:0:0:
337,156,57771,1,2,0:0:0:0:
300,206,57857,1,2,0:0:0:0:
238,217,57942,1,10,0:0:0:0:
188,181,58028,1,2,0:0:0:0:
175,120,58114,1,2,0:0:0:0:
209,68,58200,1,2,0:0:0:0:
262,30,58285,5,2,0:0:0:0:
326,28,58371,1,2,0:0:0:0:
381,58,58457,1,2,0:0:0:0:
417,110,58542,1,2,0:0:0:0:
422,173,58628,1,10,0:0:0:0:
397,231,58714,1,2,0:0:0:0:
338,264,58800,5,2,0:0:0:0:
276,234,58885,1,2,0:0:0:0:
250,171,58971,1,2,0:0:0:0:
271,105,59057,1,2,0:0:0:0:
344,106,59142,5,2,0:0:0:0:
395,158,59228,1,2,0:0:0:0:
407,232,59314,1,10,0:0:0:0:
378,298,59400,1,2,0:0:0:0:
320,340,59485,1,2,0:0:0:0:
249,343,59571,1,2,0:0:0:0:
180,321,59657,6,0,P|153:319|113:337,3,63.7500024318696,2|2|2|0,0:0|0:0|0:0|0:0,0:0:0:0:
252,262,60000,6,0,P|278:251|322:256,3,63.7500024318696,10|2|2|0,0:0|0:0|0:0|0:0,0:0:0:0:
204,91,60342,6,0,P|175:103|152:126,1,63.7500024318696,14|0,0:0|0:0,0:0:0:0:
119,181,60514,1,2,0:0:0:0:
96,240,60600,1,2,0:0:0:0:
105,302,60685,1,10,0:0:0:0:
143,352,60771,1,2,0:0:0:0:
201,377,60857,1,2,0:0:0:0:
263,370,60942,1,2,0:0:0:0:
315,332,61028,5,2,0:0:0:0:
339,273,61114,1,2,0:0:0:0:
324,213,61200,1,2,0:0:0:0:
275,172,61285,1,2,0:0:0:0:
213,168,61371,1,10,0:0:0:0:
160,202,61457,1,2,0:0:0:0:
135,261,61542,6,0,P|128:287|139:329,3,63.7500024318696,2|2|2|0,0:0|0:0|0:0|0:0,0:0:0:0:
219,278,61885,6,0,P|243:266|287:268,3,63.7500024318696,2|2|10|0,0:0|0:0|0:0|0:0,0:0:0:0:
244,355,62228,6,0,P|223:373|181:383,3,63.7500024318696,2|2|2|0,0:0|0:0|0:0|0:0,0:0:0:0:
17,343,62571,5,2,0:0:0:0:
68,379,62657,1,2,0:0:0:0:
132,384,62742,1,10,0:0:0:0:
186,348,62828,1,2,0:0:0:0:
212,291,62914,1,2,0:0:0:0:
197,231,63000,1,2,0:0:0:0:
158,170,63085,5,2,0:0:0:0:
135,101,63171,1,2,0:0:0:0:
162,35,63257,1,2,0:0:0:0:
223,0,63342,1,2,0:0:0:0:
288,15,63428,1,2,0:0:0:0:
337,65,63514,1,2,0:0:0:0:
346,133,63600,1,2,0:0:0:0:
304,191,63685,1,2,0:0:0:0:
241,223,63771,6,0,P|217:236|173:239,3,63.7500024318696,2|2|2|0,0:0|0:0|0:0|0:0,0:0:0:0:
268,306,64114,6,0,P|292:318|337:317,3,63.7500024318696,10|2|2|0,0:0|0:0|0:0|0:0,0:0:0:0:
320,246,64457,6,0,P|325:219|313:176,3,63.7500024318696,2|2|2|0,0:0|0:0|0:0|0:0,0:0:0:0:
300,122,64800,5,10,0:0:0:0:
263,71,64885,1,2,0:0:0:0:
204,49,64971,1,2,0:0:0:0:
143,65,65057,1,2,0:0:0:0:
101,111,65142,1,2,0:0:0:0:
91,173,65228,1,2,0:0:0:0:
137,218,65314,5,2,0:0:0:0:
188,184,65400,1,2,0:0:0:0:
190,122,65485,1,10,0:0:0:0:
142,84,65571,1,2,0:0:0:0:
83,100,65657,5,2,0:0:0:0:
60,157,65742,1,2,0:0:0:0:
79,212,65828,1,14,0:0:0:0:
427,198,76800,6,0,P|436:138|413:105,1,85,14|0,0:0|0:0,0:0:0:0:
348,62,77057,1,2,0:0:0:0:
253,106,77142,2,0,P|213:119|174:105,1,85,10|0,0:0|0:0,0:0:0:0:
56,160,77485,2,0,L|-15:186,3,42.5,2|2|2|0,0:0|0:0|0:0|0:0,0:0:0:0:
157,245,77828,2,0,P|171:285|159:325,1,85,10|0,0:0|0:0,0:0:0:0:
255,186,78171,6,0,P|264:126|241:93,1,85,2|0,0:0|0:0,0:0:0:0:
116,132,78514,2,0,P|56:126|30:95,2,85,10|2|0,0:0|0:0|0:0,0:0:0:0:
179,269,79028,1,2,0:0:0:0:
254,107,79200,2,0,P|306:75|345:82,1,85,10|0,0:0|0:0,0:0:0:0:
96,208,79542,6,0,P|36:209|6:182,1,85,2|0,0:0|0:0,0:0:0:0:
15,91,79800,1,2,0:0:0:0:
107,31,79885,2,0,P|166:15|202:34,1,85,10|0,0:0|0:0,0:0:0:0:
360,12,80228,2,0,L|425:-5,3,42.5,2|2|2|0,0:0|0:0|0:0|0:0,0:0:0:0:
267,114,80571,2,0,P|258:174|281:207,1,85,10|0,0:0|0:0,0:0:0:0:
449,149,80914,6,0,P|458:89|435:56,1,85,2|0,0:0|0:0,0:0:0:0:
212,25,81257,2,0,P|170:28|109:65,2,85,10|2|0,0:0|0:0|0:0,0:0:0:0:
369,103,81771,1,2,0:0:0:0:
269,194,81942,2,0,P|211:178|190:144,1,85,10|0,0:0|0:0,0:0:0:0:
257,142,82200,5,2,0:0:0:0:
284,89,82285,2,0,P|292:48|274:10,1,85,14|0,0:0|0:0,0:0:0:0:
155,118,82542,1,2,0:0:0:0:
197,161,82628,2,0,P|234:182|276:178,1,85,10|0,0:0|0:0,0:0:0:0:
424,111,82971,2,0,L|489:87,3,42.5,2|2|2|0,0:0|0:0|0:0|0:0,0:0:0:0:
402,246,83314,2,0,P|409:288|391:325,1,85,10|0,0:0|0:0,0:0:0:0:
290,174,83657,6,0,P|291:114|319:85,1,85,2|0,0:0|0:0,0:0:0:0:
171,29,84000,2,0,P|133:9|62:10,2,85,10|2|0,0:0|0:0|0:0,0:0:0:0:
244,229,84514,1,2,0:0:0:0:
113,195,84685,2,0,P|94:137|111:101,1,85,10|0,0:0|0:0,0:0:0:0:
100,172,85028,5,2,0:0:0:0:
121,263,85200,1,2,0:0:0:0:
181,333,85371,1,10,0:0:0:0:
268,366,85542,1,2,0:0:0:0:
497,284,85714,5,2,0:0:0:0:
512,193,85885,1,2,0:0:0:0:
481,106,86057,1,10,0:0:0:0:
413,44,86228,1,2,0:0:0:0:
255,0,86400,5,2,0:0:0:0:
200,17,86485,1,2,0:0:0:0:
148,48,86571,1,2,0:0:0:0:
107,93,86657,1,2,0:0:0:0:
87,156,86742,5,10,0:0:0:0:
107,217,86828,1,2,0:0:0:0:
160,251,86914,1,2,0:0:0:0:
224,244,87000,1,2,0:0:0:0:
268,190,87085,5,2,0:0:0:0:
267,119,87171,1,2,0:0:0:0:
222,66,87257,1,2,0:0:0:0:
154,51,87342,1,2,0:0:0:0:
80,62,87428,5,10,0:0:0:0:
23,114,87514,1,2,0:0:0:0:
0,186,87600,1,2,0:0:0:0:
0,264,87685,1,2,0:0:0:0:
7,339,87771,6,0,P|34:364|63:375,1,63.7500024318696,6|0,0:0|0:0,0:0:0:0:
124,384,87942,1,2,0:0:0:0:
184,365,88028,1,2,0:0:0:0:
224,317,88114,1,10,0:0:0:0:
233,255,88200,1,2,0:0:0:0:
206,198,88285,1,2,0:0:0:0:
153,164,88371,1,2,0:0:0:0:
109,211,88457,5,2,0:0:0:0:
100,272,88542,1,2,0:0:0:0:
124,330,88628,1,2,0:0:0:0:
171,371,88714,1,2,0:0:0:0:
234,384,88800,1,10,0:0:0:0:
294,365,88885,1,2,0:0:0:0:
330,312,88971,6,0,P|337:286|326:243,3,63.7500024318696,2|2|2|0,0:0|0:0|0:0|0:0,0:0:0:0:
250,286,89314,6,0,P|224:276|195:243,3,63.7500024318696,2|2|10|0,0:0|0:0|0:0|0:0,0:0:0:0:
268,204,89657,6,0,P|278:179|273:135,3,63.7500024318696,2|2|2|0,0:0|0:0|0:0|0:0,0:0:0:0:
271,61,90000,5,2,0:0:0:0:
314,15,90085,1,2,0:0:0:0:
376,0,90171,1,10,0:0:0:0:
436,18,90257,1,2,0:0:0:0:
472,69,90342,1,2,0:0:0:0:
470,131,90428,1,2,0:0:0:0:
429,180,90514,5,2,0:0:0:0:
369,196,90600,1,2,0:0:0:0:
312,170,90685,1,2,0:0:0:0:
285,114,90771,1,2,0:0:0:0:
300,53,90857,5,10,0:0:0:0:
361,38,90942,1,2,0:0:0:0:
419,61,91028,1,2,0:0:0:0:
454,113,91114,1,2,0:0:0:0:
454,176,91200,5,2,0:0:0:0:
397,204,91285,1,2,0:0:0:0:
334,200,91371,1,2,0:0:0:0:
282,165,91457,1,2,0:0:0:0:
266,99,91542,5,10,0:0:0:0:
296,39,91628,1,2,0:0:0:0:
355,9,91714,1,2,0:0:0:0:
421,21,91800,1,2,0:0:0:0:
444,89,91885,5,2,0:0:0:0:
396,142,91971,1,2,0:0:0:0:
329,167,92057,1,2,0:0:0:0:
258,159,92142,1,2,0:0:0:0:
218,120,92228,5,10,0:0:0:0:
217,66,92314,1,2,0:0:0:0:
252,24,92400,1,2,0:0:0:0:
305,14,92485,1,2,0:0:0:0:
355,35,92571,6,0,P|375:52|392:93,3,63.7500024318696,2|2|2|0,0:0|0:0|0:0|0:0,0:0:0:0:
305,114,92914,6,0,P|288:136|283:180,3,63.7500024318696,10|2|2|0,0:0|0:0|0:0|0:0,0:0:0:0:
432,311,93257,6,0,P|457:285|469:257,1,63.7500024318696,14|0,0:0|0:0,0:0:0:0:
493,201,93428,1,2,0:0:0:0:
503,138,93514,1,2,0:0:0:0:
485,78,93600,1,10,0:0:0:0:
443,31,93685,1,2,0:0:0:0:
384,7,93771,1,2,0:0:0:0:
321,12,93857,1,2,0:0:0:0:
266,44,93942,5,2,0:0:0:0:
238,101,94028,1,2,0:0:0:0:
232,164,94114,1,2,0:0:0:0:
248,225,94200,1,2,0:0:0:0:
284,277,94285,1,10,0:0:0:0:
336,313,94371,1,2,0:0:0:0:
396,337,94457,6,0,P|421:343|464:331,3,63.7500024318696,2|2|2|0,0:0|0:0|0:0|0:0,0:0:0:0:
332,267,94800,6,2,P|305:262|262:276,3,63.7500024318696,2|2|2|0,0:0|0:0|0:0|0:0,0:0:0:0:
300,353,95142,6,0,P|278:366|233:368,3,63.7500024318696,2|2|2|0,0:0|0:0|0:0|0:0,0:0:0:0:
72,353,95485,5,2,0:0:0:0:
72,289,95571,1,2,0:0:0:0:
98,231,95657,1,2,0:0:0:0:
144,189,95742,1,2,0:0:0:0:
204,168,95828,1,2,0:0:0:0:
267,173,95914,1,2,0:0:0:0:
315,216,96000,6,0,P|333:247|337:278,1,63.7500024318696,2|2,0:0|0:0,0:0:0:0:
292,319,96171,1,2,0:0:0:0:
236,289,96257,1,2,0:0:0:0:
197,239,96342,1,10,0:0:0:0:
187,176,96428,1,2,0:0:0:0:
206,116,96514,1,2,0:0:0:0:
249,70,96600,1,2,0:0:0:0:
308,48,96685,5,2,0:0:0:0:
371,56,96771,1,2,0:0:0:0:
423,91,96857,1,2,0:0:0:0:
452,146,96942,1,2,0:0:0:0:
453,209,97028,1,10,0:0:0:0:
427,265,97114,1,2,0:0:0:0:
374,310,97200,5,2,0:0:0:0:
307,320,97285,1,2,0:0:0:0:
252,280,97371,1,2,0:0:0:0:
242,213,97457,1,2,0:0:0:0:
281,158,97542,5,2,0:0:0:0:
346,129,97628,1,2,0:0:0:0:
417,141,97714,1,10,0:0:0:0:
470,192,97800,1,2,0:0:0:0:
484,263,97885,1,2,0:0:0:0:
455,330,97971,1,2,0:0:0:0:
380,342,98057,6,0,P|353:340|313:358,3,63.7500024318696,2|2|2|0,0:0|0:0|0:0|0:0,0:0:0:0:
452,283,98400,6,0,P|478:272|522:277,3,63.7500024318696,8|0|0|0,0:0|0:0|0:0|0:0,0:0:0:0:
250,235,98742,6,0,P|240:204|241:172,1,63.7500024318696,14|0,0:0|0:0,0:0:0:0:
256,110,98914,1,2,0:0:0:0:
280,52,99000,1,2,0:0:0:0:
328,11,99085,1,10,0:0:0:0:
389,0,99171,1,2,0:0:0:0:
451,10,99257,1,2,0:0:0:0:
499,51,99342,1,2,0:0:0:0:
512,114,99428,5,2,0:0:0:0:
511,177,99514,1,2,0:0:0:0:
467,221,99600,1,2,0:0:0:0:
405,222,99685,1,2,0:0:0:0:
359,179,99771,1,10,0:0:0:0:
356,117,99857,1,2,0:0:0:0:
399,70,99942,6,0,P|421:54|465:50,3,63.7500024318696,2|2|2|0,0:0|0:0|0:0|0:0,0:0:0:0:
284,107,100285,6,0,P|259:117|232:152,3,63.7500024318696,2|2|10|0,0:0|0:0|0:0|0:0,0:0:0:0:
376,162,100628,5,2,0:0:0:0:
424,202,100714,1,2,0:0:0:0:
442,262,100800,1,2,0:0:0:0:
423,322,100885,1,2,0:0:0:0:
374,362,100971,1,2,0:0:0:0:
312,367,101057,1,2,0:0:0:0:
253,342,101142,5,10,0:0:0:0:
237,283,101228,1,2,0:0:0:0:
279,240,101314,1,2,0:0:0:0:
338,253,101400,1,2,0:0:0:0:
370,308,101485,6,0,P|379:338|378:370,1,63.7500024318696,2|0,0:0|0:0,0:0:0:0:
314,381,101657,1,2,0:0:0:0:
251,372,101742,1,2,0:0:0:0:
201,334,101828,1,10,0:0:0:0:
175,276,101914,1,2,0:0:0:0:
179,213,102000,1,2,0:0:0:0:
213,160,102085,1,2,0:0:0:0:
268,129,102171,5,2,0:0:0:0:
330,118,102257,1,2,0:0:0:0:
389,140,102342,1,2,0:0:0:0:
428,189,102428,1,2,0:0:0:0:
437,251,102514,1,10,0:0:0:0:
413,310,102600,1,2,0:0:0:0:
366,353,102685,5,2,0:0:0:0:
298,360,102771,1,2,0:0:0:0:
236,333,102857,1,2,0:0:0:0:
196,277,102942,1,2,0:0:0:0:
188,209,103028,6,0,L|181:134,1,68,2|0,0:0|0:0,0:0:0:0:
198,317,103200,2,0,L|206:393,1,68,10|0,0:0|0:0,0:0:0:0:
164,192,103371,2,0,L|130:124,1,68,2|0,0:0|0:0,0:0:0:0:
228,324,103542,2,0,P|239:355|262:392,1,68,2|0,0:0|0:0,0:0:0:0:
126,196,103714,2,0,L|70:144,1,68,2|0,0:0|0:0,0:0:0:0:
272,329,103885,2,0,P|296:355|346:373,3,68,10|2|2|0,0:0|0:0|0:0|0:0,0:0:0:0:
391,379,104228,6,0,P|422:372|449:357,1,63.7500024318696,14|0,0:0|0:0,0:0:0:0:
497,313,104400,1,2,0:0:0:0:
508,250,104485,1,2,0:0:0:0:
498,188,104571,1,10,0:0:0:0:
466,132,104657,1,2,0:0:0:0:
420,90,104742,1,2,0:0:0:0:
361,66,104828,1,2,0:0:0:0:
297,72,104914,5,2,0:0:0:0:
243,105,105000,1,2,0:0:0:0:
219,163,105085,1,2,0:0:0:0:
233,224,105171,1,2,0:0:0:0:
279,267,105257,1,10,0:0:0:0:
341,274,105342,1,2,0:0:0:0:
402,257,105428,6,0,P|419:236|429:192,3,63.7500024318696,2|2|2|0,0:0|0:0|0:0|0:0,0:0:0:0:
348,196,105771,6,0,P|327:177|312:135,3,63.7500024318696,2|2|10|0,0:0|0:0|0:0|0:0,0:0:0:0:
395,124,106114,6,0,P|420:113|464:118,3,63.7500024318696,2|2|2|0,0:0|0:0|0:0|0:0,0:0:0:0:
511,188,106457,5,2,0:0:0:0:
512,250,106542,1,2,0:0:0:0:
495,310,106628,1,10,0:0:0:0:
449,353,106714,1,2,0:0:0:0:
389,372,106800,1,2,0:0:0:0:
327,362,106885,1,2,0:0:0:0:
272,330,106971,5,2,0:0:0:0:
244,273,107057,1,2,0:0:0:0:
255,212,107142,1,2,0:0:0:0:
301,169,107228,1,2,0:0:0:0:
363,163,107314,1,10,0:0:0:0:
417,195,107400,1,2,0:0:0:0:
441,253,107485,1,2,0:0:0:0:
446,316,107571,1,2,0:0:0:0:
410,368,107657,5,2,0:0:0:0:
347,360,107742,1,2,0:0:0:0:
299,320,107828,1,2,0:0:0:0:
281,260,107914,1,2,0:0:0:0:
298,199,108000,1,10,0:0:0:0:
346,158,108085,1,2,0:0:0:0:
409,148,108171,5,2,0:0:0:0:
457,187,108257,1,2,0:0:0:0:
473,247,108342,1,2,0:0:0:0:
450,305,108428,1,2,0:0:0:0:
396,338,108514,1,2,0:0:0:0:
334,332,108600,1,2,0:0:0:0:
288,290,108685,1,10,0:0:0:0:
275,229,108771,1,2,0:0:0:0:
292,167,108857,1,2,0:0:0:0:
335,120,108942,1,2,0:0:0:0:
393,94,109028,6,0,P|418:86|461:95,3,63.7500024318696,2|2|2|0,0:0|0:0|0:0|0:0,0:0:0:0:
430,179,109371,6,0,P|438:205|472:234,3,63.7500024318696,10|2|2|0,0:0|0:0|0:0|0:0,0:0:0:0:
168,52,109714,6,0,P|139:64|116:87,1,63.7500024318696,14|0,0:0|0:0,0:0:0:0:
83,142,109885,1,2,0:0:0:0:
60,201,109971,1,2,0:0:0:0:
69,263,110057,1,2,0:0:0:0:
107,313,110142,1,2,0:0:0:0:
165,338,110228,1,2,0:0:0:0:
227,331,110314,1,2,0:0:0:0:
279,293,110400,5,2,0:0:0:0:
303,234,110485,1,2,0:0:0:0:
288,174,110571,1,2,0:0:0:0:
239,133,110657,1,2,0:0:0:0:
177,129,110742,1,10,0:0:0:0:
124,163,110828,1,2,0:0:0:0:
99,222,110914,6,0,P|92:248|103:290,3,63.7500024318696,2|2|2|0,0:0|0:0|0:0|0:0,0:0:0:0:
183,239,111257,6,0,P|207:227|251:229,3,63.7500024318696,2|2|10|0,0:0|0:0|0:0|0:0,0:0:0:0:
216,319,111600,6,0,P|197:338|156:351,3,63.7500024318696,2|2|2|2,0:0|0:0|0:0|0:0,0:0:0:0:
98,353,111942,5,2,0:0:0:0:
48,315,112028,1,2,0:0:0:0:
27,256,112114,1,10,0:0:0:0:
44,195,112200,1,2,0:0:0:0:
91,154,112285,1,2,0:0:0:0:
153,145,112371,1,2,0:0:0:0:
197,192,112457,5,2,0:0:0:0:
162,242,112542,1,2,0:0:0:0:
100,243,112628,1,2,0:0:0:0:
63,195,112714,1,2,0:0:0:0:
80,136,112800,5,10,0:0:0:0:
138,114,112885,1,2,0:0:0:0:
192,134,112971,1,2,0:0:0:0:
227,184,113057,1,2,0:0:0:0:
289,185,113142,5,2,0:0:0:0:
326,137,113228,1,2,0:0:0:0:
309,78,113314,1,2,0:0:0:0:
251,56,113400,1,2,0:0:0:0:
195,84,113485,5,10,0:0:0:0:
190,151,113571,1,2,0:0:0:0:
223,209,113657,1,2,0:0:0:0:
283,239,113742,1,2,0:0:0:0:
350,245,113828,5,2,0:0:0:0:
415,218,113914,1,2,0:0:0:0:
447,155,114000,1,2,0:0:0:0:
431,86,114085,1,2,0:0:0:0:
374,43,114171,5,10,0:0:0:0:
324,64,114257,1,2,0:0:0:0:
308,115,114342,1,2,0:0:0:0:
336,160,114428,1,2,0:0:0:0:
399,172,114514,6,0,P|426:174|466:156,3,63.7500024318696,2|2|2|0,0:0|0:0|0:0|0:0,0:0:0:0:
317,226,114857,6,0,P|291:237|247:232,3,63.7500024318696,10|2|2|0,0:0|0:0|0:0|0:0,0:0:0:0:
143,356,115200,6,0,P|114:334|98:308,1,63.7500024318696,14|0,0:0|0:0,0:0:0:0:
78,251,115371,1,2,0:0:0:0:
73,188,115457,1,2,0:0:0:0:
94,128,115542,1,10,0:0:0:0:
136,81,115628,1,2,0:0:0:0:
193,54,115714,1,2,0:0:0:0:
257,53,115800,1,2,0:0:0:0:
319,71,115885,5,2,0:0:0:0:
356,122,115971,1,2,0:0:0:0:
348,184,116057,1,2,0:0:0:0:
300,225,116142,1,2,0:0:0:0:
238,222,116228,1,10,0:0:0:0:
194,178,116314,1,2,0:0:0:0:
198,115,116400,6,0,P|207:90|241:61,3,63.7500024318696,2|2|2|0,0:0|0:0|0:0|0:0,0:0:0:0:
277,141,116742,6,0,P|303:148|346:138,3,63.7500024318696,2|2|10|0,0:0|0:0|0:0|0:0,0:0:0:0:
311,64,117085,6,0,P|317:38|347:5,3,63.7500024318696,2|2|2|0,0:0|0:0|0:0|0:0,0:0:0:0:
449,82,117428,5,2,0:0:0:0:
493,127,117514,1,2,0:0:0:0:
512,188,117600,1,10,0:0:0:0:
502,250,117685,1,2,0:0:0:0:
464,300,117771,1,2,0:0:0:0:
407,328,117857,1,2,0:0:0:0:
343,329,117942,6,0,P|307:320|283:302,1,63.7500024318696,2|0,0:0|0:0,0:0:0:0:
258,246,118114,1,2,0:0:0:0:
295,196,118200,1,2,0:0:0:0:
357,185,118285,1,10,0:0:0:0:
407,221,118371,1,2,0:0:0:0:
420,282,118457,1,2,0:0:0:0:
386,334,118542,1,2,0:0:0:0:
333,372,118628,5,2,0:0:0:0:
269,374,118714,1,2,0:0:0:0:
214,344,118800,1,2,0:0:0:0:
178,292,118885,1,2,0:0:0:0:
173,229,118971,1,10,0:0:0:0:
198,171,119057,1,2,0:0:0:0:
257,138,119142,5,2,0:0:0:0:
319,168,119228,1,2,0:0:0:0:
345,231,119314,1,2,0:0:0:0:
324,297,119400,1,2,0:0:0:0:
251,296,119485,5,2,0:0:0:0:
200,244,119571,1,2,0:0:0:0:
188,170,119657,1,10,0:0:0:0:
217,104,119742,1,2,0:0:0:0:
275,62,119828,1,2,0:0:0:0:
346,59,119914,1,2,0:0:0:0:
415,81,120000,6,0,P|442:83|482:65,3,63.7500024318696,2|2|2|0,0:0|0:0|0:0|0:0,0:0:0:0:
343,140,120342,6,0,P|317:151|273:146,3,63.7500024318696,10|2|2|0,0:0|0:0|0:0|0:0,0:0:0:0:
390,306,120685,6,0,P|419:293|442:270,1,63.7500024318696,14|0,0:0|0:0,0:0:0:0:
476,216,120856,1,2,0:0:0:0:
499,157,120942,1,2,0:0:0:0:
490,95,121028,1,10,0:0:0:0:
452,45,121113,1,2,0:0:0:0:
394,20,121199,1,2,0:0:0:0:
332,27,121285,1,2,0:0:0:0:
280,65,121370,5,2,0:0:0:0:
256,124,121456,1,2,0:0:0:0:
271,184,121542,1,2,0:0:0:0:
320,225,121628,1,2,0:0:0:0:
382,229,121713,1,10,0:0:0:0:
435,195,121799,1,2,0:0:0:0:
460,136,121885,6,0,P|466:110|455:68,3,63.7500024318696,2|2|2|0,0:0|0:0|0:0|0:0,0:0:0:0:
376,119,122228,6,0,P|351:131|307:129,3,63.7500024318696,2|2|10|0,0:0|0:0|0:0|0:0,0:0:0:0:
351,42,122570,6,0,P|371:24|413:14,3,63.7500024318696,2|2|2|0,0:0|0:0|0:0|0:0,0:0:0:0:
146,64,122913,5,2,0:0:0:0:
102,109,122999,1,2,0:0:0:0:
83,170,123085,1,10,0:0:0:0:
93,232,123170,1,2,0:0:0:0:
131,282,123256,1,2,0:0:0:0:
188,310,123342,1,2,0:0:0:0:
252,311,123428,6,0,P|288:302|312:284,1,63.7500024318696,2|0,0:0|0:0,0:0:0:0:
337,228,123599,1,2,0:0:0:0:
300,178,123685,1,2,0:0:0:0:
238,167,123770,1,10,0:0:0:0:
188,203,123856,1,2,0:0:0:0:
175,264,123942,1,2,0:0:0:0:
209,316,124028,1,2,0:0:0:0:
262,354,124113,5,2,0:0:0:0:
326,356,124199,1,2,0:0:0:0:
381,326,124285,1,2,0:0:0:0:
417,274,124370,1,2,0:0:0:0:
422,211,124456,1,10,0:0:0:0:
397,153,124542,1,2,0:0:0:0:
338,120,124628,5,2,0:0:0:0:
276,150,124713,1,2,0:0:0:0:
250,213,124799,1,2,0:0:0:0:
271,279,124885,1,2,0:0:0:0:
344,278,124970,5,2,0:0:0:0:
395,226,125056,1,2,0:0:0:0:
407,152,125142,1,10,0:0:0:0:
378,86,125228,1,2,0:0:0:0:
320,44,125313,1,2,0:0:0:0:
249,41,125399,1,2,0:0:0:0:
180,63,125485,6,0,P|153:65|113:47,3,63.7500024318696,2|2|2|0,0:0|0:0|0:0|0:0,0:0:0:0:
252,122,125828,6,0,P|278:133|322:128,3,63.7500024318696,10|2|2|0,0:0|0:0|0:0|0:0,0:0:0:0:
204,293,126170,6,0,P|175:281|152:258,1,63.7500024318696,14|0,0:0|0:0,0:0:0:0:
119,203,126342,1,2,0:0:0:0:
96,144,126428,1,2,0:0:0:0:
105,82,126513,1,10,0:0:0:0:
143,32,126599,1,2,0:0:0:0:
201,7,126685,1,2,0:0:0:0:
263,14,126770,1,2,0:0:0:0:
315,52,126856,5,2,0:0:0:0:
339,111,126942,1,2,0:0:0:0:
324,171,127028,1,2,0:0:0:0:
275,212,127113,1,2,0:0:0:0:
213,216,127199,1,10,0:0:0:0:
160,182,127285,1,2,0:0:0:0:
135,123,127370,6,0,P|128:97|139:55,3,63.7500024318696,2|2|2|0,0:0|0:0|0:0|0:0,0:0:0:0:
219,106,127713,6,0,P|243:118|287:116,3,63.7500024318696,2|2|10|0,0:0|0:0|0:0|0:0,0:0:0:0:
244,29,128056,6,0,P|223:11|181:1,3,63.7500024318696,2|2|2|0,0:0|0:0|0:0|0:0,0:0:0:0:
17,41,128399,5,2,0:0:0:0:
68,5,128485,1,2,0:0:0:0:
132,0,128570,1,10,0:0:0:0:
186,36,128656,1,2,0:0:0:0:
212,93,128742,1,2,0:0:0:0:
197,153,128828,1,2,0:0:0:0:
158,214,128913,5,2,0:0:0:0:
135,283,128999,1,2,0:0:0:0:
162,349,129085,1,2,0:0:0:0:
223,384,129170,1,2,0:0:0:0:
288,369,129256,1,2,0:0:0:0:
337,319,129342,1,2,0:0:0:0:
346,251,129428,1,2,0:0:0:0:
304,193,129513,1,2,0:0:0:0:
241,161,129599,6,0,P|217:148|173:145,3,63.7500024318696,2|2|2|0,0:0|0:0|0:0|0:0,0:0:0:0:
268,78,129942,6,0,P|292:66|337:67,3,63.7500024318696,10|2|2|0,0:0|0:0|0:0|0:0,0:0:0:0:
320,138,130285,6,0,P|325:165|313:208,3,63.7500024318696,2|2|2|0,0:0|0:0|0:0|0:0,0:0:0:0:
300,262,130628,5,10,0:0:0:0:
263,313,130713,1,2,0:0:0:0:
204,335,130799,1,2,0:0:0:0:
143,319,130885,1,2,0:0:0:0:
101,273,130970,1,2,0:0:0:0:
91,211,131056,1,2,0:0:0:0:
137,166,131142,5,2,0:0:0:0:
188,200,131228,1,2,0:0:0:0:
190,262,131313,1,10,0:0:0:0:
142,300,131399,1,2,0:0:0:0:
83,284,131485,5,2,0:0:0:0:
60,227,131570,1,2,0:0:0:0:
79,172,131656,1,14,0:0:0:0:
