osu file format v9

[General]
AudioFilename: Theory_of_Eternity.mp3
AudioLeadIn: 1000
PreviewTime: 48829
Countdown: 0
SampleSet: Normal
StackLeniency: 0.7
Mode: 0
LetterboxInBreaks: 0

[Editor]
Bookmarks: 12829,45079,48829,71329,83329,87829
DistanceSpacing: 0.2
BeatDivisor: 4
GridSize: 4

[Metadata]
Title:Stream Practice Maps
Artist:Various Artists
Creator:NewRulerNA
Version:Theory of Eternity BPM160
Source:
Tags:electronic instrumental jubeat dance dance revolution x2 ddr beatmania iidx 15 dj troopers 17 sirius うみねこのなく頃に散 umineko no naku koro ni ryu☆ taka tag humanoid galderia shiraishi しらいし 新世界 mutsuhiko izumi xaki 07th expansion

[Difficulty]
HPDrainRate:3
CircleSize:4
OverallDifficulty:8
ApproachRate:8
SliderMultiplier:2
SliderTickRate:1

[Events]
//Background and Video events
0,0,"BG8.jpg"
//Break Periods
2,11716,12079
2,72841,81079
//Storyboard Layer 0 (Background)
//Storyboard Layer 1 (Fail)
//Storyboard Layer 2 (Pass)
//Storyboard Layer 3 (Foreground)
//Storyboard Sound Samples
//Background Colour Transformations
3,100,163,162,255

[TimingPoints]
829,375,4,1,0,50,1,0
111172,-100,4,1,0,5,0,0

[Colours]
Combo1 : 255,0,0
Combo2 : 0,0,0
Combo3 : 0,0,255

[HitObjects]
220,80,829,1,2
132,124,1016,1,0
92,216,1204,1,2
140,304,1391,1,0
292,80,1766,5,0
380,124,1953,1,2
420,216,2141,1,0
372,304,2328,1,2
276,332,2516,2,0,B|240:216|120:196,1,200
120,300,3079,1,2
40,240,3266,1,0
40,240,3360,1,0
40,240,3454,1,2
56,140,3641,1,0
136,80,3829,6,0,B|224:16,1,100,2|0
284,96,4204,2,0,B|372:32,1,100,2|0
216,200,4579,6,0,B|304:264,1,100,2|0
364,184,4954,2,0,B|452:248,1,100,2|0
384,324,5329,1,2
288,352,5516,1,0
288,352,5610,1,0
288,352,5704,1,2
196,312,5891,1,0
112,256,6079,2,0,B|112:128,1,100,2|0
196,104,6454,2,0,B|196:232,1,100,2|0
296,212,6829,5,2
324,212,6922,1,0
352,204,7016,1,0
380,192,7110,1,0
400,172,7204,2,0,B|400:72,1,100,2|0
276,32,7579,1,2
152,76,7766,2,0,B|96:168,1,100,0|2
152,280,8141,2,0,B|208:188,1,100,0|2
268,308,8516,5,0
268,308,8610,1,0
268,308,8704,1,2
316,188,8891,2,0,B|272:296,1,100,0|2
252,152,9266,2,0,B|296:44,1,100,0|2
400,128,9641,1,0
448,248,9829,5,2
448,248,9922,1,0
448,248,10016,1,0
360,344,10204,2,0,B|292:256,1,100,2|0
172,240,10579,2,0,B|240:328,1,100,2|0
104,332,10954,1,2
28,228,11141,1,0
272,92,11329,5,6
36,140,11516,1,4
420,72,12829,5,2
420,96,12922,1,0
416,120,13016,1,0
412,144,13110,1,0
404,168,13204,2,0,B|408:196|356:240,3,50,2|0|0|0
364,224,13579,5,2
344,236,13672,1,0
340,260,13766,1,0
336,284,13860,1,0
324,308,13954,1,2
304,324,14047,1,0
280,336,14141,1,0
256,336,14235,1,0
232,328,14329,6,0,B|184:296,3,50,2|0|0|0
164,300,14704,1,2
144,284,14797,1,0
132,260,14891,1,0
132,236,14985,1,0
132,212,15079,5,2
140,188,15172,1,0
164,180,15266,1,0
188,168,15360,1,0
204,152,15454,1,2
212,128,15547,1,0
212,104,15641,1,0
204,80,15735,1,0
192,60,15829,5,2
168,56,15922,1,0
144,60,16016,1,0
120,68,16110,1,0
96,76,16204,1,2
76,88,16297,1,0
60,108,16391,1,0
48,132,16485,1,0
36,156,16579,2,0,B|8:208,3,50,2|0|0|0
36,204,16954,2,0,B|64:256,3,50,2|0|0|0
64,272,17329,6,0,B|68:344,1,50,2|0
100,300,17516,2,0,B|104:372,1,50
136,328,17704,2,0,B|140:256,1,50,2|0
172,300,17891,2,0,B|176:228,1,50
208,276,18079,2,0,B|212:348,1,50,2|0
244,304,18266,2,0,B|248:376,1,50
280,332,18454,2,0,B|284:260,1,50,2|0
316,304,18641,2,0,B|320:232,1,50
344,256,18829,5,2
368,252,18922,1,0
392,240,19016,1,0
408,220,19110,1,0
424,200,19204,1,2
428,176,19297,1,0
428,152,19391,1,0
416,128,19485,1,0
400,108,19579,5,2
384,92,19672,1,0
364,76,19766,1,0
344,64,19860,1,0
320,52,19954,1,2
296,48,20047,1,0
272,52,20141,1,0
248,60,20235,1,0
224,72,20329,5,2
204,88,20422,1,0
184,100,20516,1,0
164,112,20610,1,0
144,128,20704,1,2
128,144,20797,1,0
112,164,20891,1,0
100,184,20985,1,0
92,208,21079,5,2
92,232,21172,1,0
96,256,21266,1,0
108,276,21360,1,0
124,296,21454,1,2
144,312,21547,1,0
168,316,21641,1,0
192,308,21735,1,0
212,296,21829,6,0,B|212:228,1,50,2|0
248,284,22016,2,0,B|248:216,1,50
280,272,22204,2,0,B|280:204,1,50,2|0
244,260,22391,2,0,B|244:192,1,50
212,248,22579,2,0,B|212:180,1,50,2|0
248,236,22766,2,0,B|248:168,1,50
280,224,22954,2,0,B|280:156,1,50,2|0
244,212,23141,2,0,B|244:144,1,50
212,200,23329,6,0,B|212:68,1,100,2|0
336,80,23704,1,2
336,80,23797,1,0
336,80,23891,1,0
120,160,24079,1,2
120,160,24172,1,0
120,160,24266,1,0
340,196,24454,1,2
336,220,24547,1,0
324,240,24641,1,0
308,260,24735,1,0
292,276,24829,6,0,B|224:308,3,50,2|0|0|0
232,316,25204,2,0,B|157:309,3,50,2|0|0|0
160,320,25579,2,0,B|98:277,3,50,2|0|0|0
96,296,25954,2,0,B|64:227,3,50,2|0|0|0
52,240,26329,5,2
40,216,26422,1,0
44,192,26516,1,0
52,168,26610,1,0
68,148,26704,1,2
84,132,26797,1,0
104,116,26891,1,0
128,104,26985,1,0
152,96,27079,5,2
176,96,27172,1,0
200,100,27266,1,0
224,112,27360,1,0
244,128,27454,1,2
260,148,27547,1,0
276,164,27641,1,0
292,184,27735,1,0
304,208,27829,6,0,B|332:256,2,50,2|0|0
396,44,28204,2,0,B|424:-4,2,50,2|0|0
388,236,28579,2,0,B|360:188,2,50,2|0|0
224,336,28954,2,0,B|196:384,2,50,2|0|0
112,288,29329,5,2
88,320,29422,1,0
48,312,29516,1,0
20,284,29610,1,0
24,244,29704,2,0,B|80:148,1,100,2|0
252,60,30079,2,0,B|196:156,1,100,2|0
264,348,30454,1,2
304,336,30547,1,0
340,316,30641,1,0
364,284,30735,1,0
380,248,30829,6,0,B|396:168,1,50,2|0
352,204,31016,2,0,B|336:124,1,50
316,156,31204,1,2
292,164,31297,1,0
272,180,31391,1,0
260,204,31485,1,0
248,224,31579,5,2
232,244,31672,1,0
212,256,31766,1,0
188,260,31860,1,0
164,260,31954,1,2
144,248,32047,1,0
128,228,32141,1,0
120,204,32235,1,0
120,180,32329,5,2
128,156,32422,1,0
140,132,32516,1,0
160,116,32610,1,0
180,104,32704,1,2
204,100,32797,1,0
228,104,32891,1,0
248,120,32985,1,0
252,144,33079,5,2
248,168,33172,1,0
240,192,33266,1,0
224,212,33360,1,0
204,228,33454,1,2
180,240,33547,1,0
156,252,33641,1,0
132,248,33735,1,0
112,232,33829,5,2
112,228,33922,1,0
112,224,34016,1,0
112,220,34110,1,0
112,216,34204,1,2
112,212,34297,1,0
112,208,34391,1,0
112,204,34485,1,0
112,200,34579,5,2
112,196,34672,1,0
112,192,34766,1,0
112,188,34860,1,0
112,184,34954,1,2
112,180,35047,1,0
112,176,35141,1,0
112,172,35235,1,0
112,168,35329,5,6
312,84,35516,1,4
424,308,35891,5,0
396,336,35985,1,0
360,352,36079,1,2
320,352,36172,1,0
284,332,36266,1,0
260,300,36360,1,0
228,272,36454,1,2
192,256,36547,1,0
152,256,36641,1,0
120,276,36735,1,0
88,300,36829,6,0,B|52:312|20:288,3,50,2|0|0|0
16,264,37204,1,2
12,224,37297,1,0
32,188,37391,1,0
72,180,37485,1,0
108,196,37579,1,2
148,188,37672,1,0
184,168,37766,1,0
212,140,37860,1,0
232,108,37954,1,2
264,84,38047,1,0
304,84,38141,1,0
336,108,38235,1,0
352,144,38329,6,0,B|420:188,1,50,2|0
360,192,38516,2,0,B|428:236,1,50,0|0
364,236,38704,2,0,B|296:280,1,50,2|0
356,284,38891,2,0,B|288:328,1,50,0|0
288,340,39079,1,2
244,340,39172,1,0
208,324,39266,1,0
184,292,39360,1,0
184,252,39454,1,2
200,216,39547,1,0
236,196,39641,1,0
264,168,39735,1,0
276,132,39829,5,2
280,92,39922,1,0
268,56,40016,1,0
236,32,40110,1,0
200,16,40204,1,2
160,12,40297,1,0
124,24,40391,1,0
92,48,40485,1,0
72,84,40579,5,2
68,124,40672,1,0
72,164,40766,1,0
100,188,40860,1,0
136,192,40954,1,2
172,180,41047,1,0
208,196,41141,1,0
244,212,41235,1,0
268,244,41329,6,0,B|304:304,3,50,2|0|0|0
312,292,41704,2,0,B|348:232,3,50,2|0|0|0
356,248,42079,1,2
372,236,42172,1,0
384,220,42266,1,0
396,204,42360,1,0
408,188,42454,1,2
408,168,42547,1,0
400,148,42641,1,0
388,132,42735,1,0
380,116,42829,5,2
368,100,42922,1,0
356,84,43016,1,0
344,68,43110,1,0
328,56,43204,1,2
308,52,43297,1,0
288,48,43391,1,0
268,44,43485,1,0
248,44,43579,5,2
228,48,43672,1,0
208,52,43766,1,0
188,56,43860,1,0
168,64,43954,1,2
152,76,44047,1,0
136,88,44141,1,0
124,104,44235,1,0
112,120,44329,5,2
104,136,44422,1,0
96,156,44516,1,0
88,176,44610,1,0
84,196,44704,1,2
80,216,44797,1,0
84,236,44891,1,0
92,256,44985,1,0
100,272,45079,5,2
112,288,45172,1,0
128,300,45266,1,0
144,308,45360,1,0
160,316,45454,1,2
180,320,45547,1,0
200,324,45641,1,0
220,324,45735,1,0
240,324,45829,5,2
260,320,45922,1,0
280,312,46016,1,0
296,300,46110,1,0
308,284,46204,1,2
320,268,46297,1,0
332,252,46391,1,0
344,236,46485,1,0
356,220,46579,5,2
368,204,46672,1,0
380,188,46766,1,0
388,168,46860,1,0
388,148,46954,1,2
384,128,47047,1,0
372,112,47141,1,0
360,96,47235,1,0
348,80,47329,5,2
336,64,47422,1,0
320,52,47516,1,0
300,52,47610,1,0
280,60,47704,1,2
276,80,47797,1,0
272,100,47891,1,0
272,120,47985,1,0
276,140,48079,5,2
280,160,48172,1,0
284,180,48266,1,0
292,200,48360,1,0
296,220,48454,1,2
300,240,48547,1,0
292,260,48641,1,0
280,276,48735,1,0
264,288,48829,6,0,B|232:352,1,50,2|0
228,316,49016,2,0,B|196:380,1,50,0|0
196,344,49204,2,0,B|164:280,1,50,2|0
156,292,49391,2,0,B|124:228,1,50,0|0
144,232,49579,2,0,B|176:168,1,50,2|0
184,180,49766,2,0,B|216:116,1,50,0|0
224,128,49954,1,2
224,128,50047,1,0
224,128,50141,1,4
432,60,50329,6,0,B|356:60,1,50,2|0
432,96,50516,2,0,B|356:96,1,50,0|0
432,132,50704,2,0,B|356:132,1,50,2|0
432,168,50891,2,0,B|336:168,1,50
432,204,51079,1,2
404,240,51172,1,0
364,264,51266,1,0
324,248,51360,1,0
284,228,51454,1,2
240,236,51547,1,0
204,260,51641,1,4
268,360,51829,5,2
268,336,51922,1,0
268,312,52016,1,0
268,288,52110,1,0
268,264,52204,1,2
268,240,52297,1,0
268,216,52391,1,0
268,192,52485,1,0
268,168,52579,5,2
268,144,52672,1,0
268,120,52766,1,0
268,96,52860,1,0
268,72,52954,2,0,B|268:-4,2,50,2|0|4
100,120,53329,5,2
104,128,53422,1,0
108,136,53516,1,0
112,144,53610,1,0
116,152,53704,1,2
124,160,53797,1,0
132,168,53891,1,0
140,172,53985,1,0
148,176,54079,5,2
156,180,54172,1,0
164,184,54266,1,0
176,184,54360,1,0
184,184,54454,1,2
192,188,54547,1,0
200,192,54641,1,0
208,196,54735,1,0
216,200,54829,6,0,B|244:248,3,50,6|0|0|0
264,240,55204,2,0,B|236:192,3,50,2|0|0|0
264,196,55579,2,0,B|292:244,3,50,2|0|0|0
312,236,55954,2,0,B|286:192,3,50,2|0|0|0
312,196,56329,6,0,B|376:164,1,50,6|0
336,160,56516,2,0,B|400:128,1,50,0|0
360,120,56704,1,2
364,96,56797,1,0
360,72,56891,1,0
348,52,56985,1,0
328,40,57079,2,0,B|272:24,1,50,2|0
256,32,57266,2,0,B|200:52,1,50
192,68,57454,2,0,B|156:144,2,50,2|0|4
64,176,57829,5,6
64,204,57922,1,0
72,232,58016,1,4
88,260,58110,1,0
116,276,58204,1,2
144,276,58297,1,0
172,268,58391,1,0
196,248,58485,1,0
220,228,58579,5,6
248,220,58672,1,0
276,224,58766,1,4
300,240,58860,1,0
324,260,58954,1,2
348,276,59047,1,0
376,280,59141,1,0
400,264,59235,1,0
412,236,59329,5,4
408,208,59422,1,0
400,180,59516,1,0
384,156,59610,1,4
360,140,59704,1,0
336,120,59797,1,0
312,104,59891,1,4
288,88,59985,1,0
264,72,60079,5,0
236,60,60172,1,4
204,56,60266,1,0
176,64,60360,1,0
152,80,60454,1,4
140,108,60547,1,0
152,136,60641,1,0
176,156,60735,1,4
208,156,60829,5,2
236,164,60922,1,0
260,180,61016,1,0
268,208,61110,1,0
264,236,61204,1,2
248,260,61297,1,0
244,288,61391,1,0
264,312,61485,1,0
292,320,61579,5,2
320,324,61672,1,0
348,308,61766,1,0
360,280,61860,1,0
356,252,61954,1,2
348,224,62047,1,0
348,192,62141,1,0
356,164,62235,1,0
372,140,62329,5,2
384,112,62422,1,0
388,84,62516,1,0
380,56,62610,1,0
364,32,62704,1,2
336,28,62797,1,0
308,40,62891,1,0
276,44,62985,1,0
248,56,63079,6,0,B|188:120,3,50,2|0|0|0
240,104,63454,2,0,B|180:168,3,50,2|0|0|0
192,112,63829,2,0,B|132:176,3,50,2|0|0|0
184,160,64204,2,0,B|124:224,3,50,2|0|0|0
132,172,64579,2,0,B|72:236,3,50,2|0|0|0
124,220,64954,2,0,B|64:284,3,50,2|0|0|0
112,280,65329,2,0,B|172:344,3,50,2|0|0|0
120,328,65704,2,0,B|180:392,3,50,2|0|0|0
184,360,66079,5,2
200,360,66172,1,0
216,356,66266,1,0
228,348,66360,1,0
240,336,66454,1,2
248,324,66547,1,0
256,312,66641,1,0
264,300,66735,1,0
272,288,66829,6,0,B|308:224,1,50,2|0
280,244,67016,2,0,B|316:180,1,50,0|0
320,196,67204,1,2
332,188,67297,1,0
344,176,67391,1,0
348,160,67485,1,0
344,144,67579,5,2
340,128,67672,1,0
332,116,67766,1,0
320,104,67860,1,0
312,92,67954,1,2
304,80,68047,1,0
300,64,68141,1,0
300,48,68235,1,0
308,36,68329,5,2
320,28,68422,1,0
336,24,68516,1,0
352,24,68610,1,0
368,24,68704,1,2
384,28,68797,1,0
396,36,68891,1,0
404,48,68985,1,0
408,64,69079,5,2
412,80,69172,1,0
416,96,69266,1,0
420,112,69360,1,0
424,128,69454,1,2
428,144,69547,1,0
432,160,69641,1,0
436,176,69735,1,0
436,192,69829,5,2
436,208,69922,1,0
432,224,70016,1,0
424,236,70110,1,0
416,248,70204,1,2
404,256,70297,1,0
392,264,70391,1,0
380,272,70485,1,0
364,276,70579,5,2
348,280,70672,1,0
332,280,70766,1,0
316,280,70860,1,0
300,280,70954,1,2
284,276,71047,1,0
268,272,71141,1,0
252,268,71235,1,0
240,264,71329,6,0,B|172:264|152:188,1,100,2|0
148,204,71610,2,0,B|80:204|60:128,1,100,2|0
80,144,71891,6,0,B|148:144|168:220,1,100,2|0
172,204,72172,2,0,B|240:204|260:280,1,100,2|0
240,264,72454,6,0,B|172:264|152:188,1,100,2|0
420,60,81829,5,2
420,68,81922,1,0
420,80,82016,1,0
420,88,82110,1,0
420,96,82204,1,2
416,104,82297,1,0
412,112,82391,1,0
408,120,82485,1,0
404,128,82579,5,2
400,136,82672,1,0
396,144,82766,1,0
392,152,82860,1,0
384,160,82954,1,2
376,168,83047,1,0
368,172,83141,1,0
360,176,83235,1,0
352,176,83329,6,2,B|288:124,3,50,2|2|2|0
116,296,84829,5,2
104,276,84922,1,0
104,252,85016,1,0
116,232,85110,1,0
136,220,85204,1,2
156,208,85297,1,0
172,188,85391,1,0
184,168,85485,1,0
188,144,85579,5,2
188,120,85672,1,0
172,100,85766,1,0
180,76,85860,1,0
196,56,85954,1,2
220,52,86047,1,0
244,56,86141,1,0
264,72,86235,1,0
280,92,86329,5,2
284,116,86422,1,0
276,140,86516,1,0
260,160,86610,1,0
252,184,86704,1,2
252,208,86797,1,0
260,232,86891,1,0
276,252,86985,1,0
296,268,87079,5,2
320,276,87172,1,0
344,280,87266,1,0
368,276,87360,1,0
388,264,87454,1,2
404,244,87547,1,0
416,224,87641,1,0
428,200,87735,1,0
436,176,87829,6,0,B|456:120,3,50,2|0|0|0
404,116,88204,2,0,B|424:60,3,50,2|0|0|0
372,60,88579,2,0,B|352:116,3,50,2|0|0|0
304,104,88954,2,0,B|284:160,3,50,2|0|0|0
264,156,89329,5,2
244,168,89422,1,0
236,192,89516,1,0
244,216,89610,1,0
244,240,89704,1,2
240,264,89797,1,0
232,288,89891,1,0
216,308,89985,1,0
192,320,90079,5,2
168,320,90172,1,0
144,312,90266,1,0
124,296,90360,1,0
108,276,90454,1,2
96,252,90547,1,0
88,228,90641,1,0
84,204,90735,1,0
88,180,90829,6,0,B|124:120,1,50,6|0
140,140,91016,2,0,B|176:200,1,50
184,168,91203,2,0,B|220:228,1,50,2|0
236,204,91391,2,0,B|272:144,1,50
288,156,91579,2,0,B|312:68|396:40,1,150,2|0
400,64,91954,2,0,B|400:260,1,150,2|0
412,236,92329,6,0,B|323:212|257:271,1,150,6|0
280,284,92704,2,0,B|280:120,1,150,2|0
304,144,93079,1,2
324,128,93172,1,0
328,104,93266,1,0
316,84,93360,1,0
292,72,93454,2,0,B|220:52,2,50,2|0|0
136,76,93829,5,6
116,92,93922,1,0
108,116,94016,1,4
104,140,94110,1,0
104,164,94204,1,2
112,188,94297,1,0
124,208,94391,1,0
244,296,94579,5,6
264,280,94672,1,0
272,256,94766,1,4
276,232,94860,1,0
276,208,94954,1,2
268,184,95047,1,0
256,164,95141,1,0
348,44,95329,5,6
364,24,95422,1,0
388,16,95516,1,4
412,12,95610,1,0
436,12,95704,1,6
460,20,95797,1,0
480,32,95891,1,4
372,136,96079,5,6
396,172,96172,1,0
416,212,96266,1,4
300,140,96454,1,6
324,176,96547,1,0
344,216,96641,1,0
228,148,96828,1,2
196,116,96922,1,0
160,92,97016,1,0
116,100,97110,1,0
76,116,97203,1,2
128,288,97391,5,0
128,288,97485,1,0
128,288,97579,1,2
256,232,97766,1,0
124,180,97954,1,2
124,180,98047,1,0
124,180,98141,1,0
260,216,98329,5,2
204,88,98516,1,0
204,88,98610,1,0
204,88,98704,1,2
272,208,98891,1,0
332,80,99079,1,2
332,80,99172,1,0
332,80,99266,1,0
284,212,99454,1,2
284,212,99547,1,0
284,212,99641,1,0
404,140,99829,5,2
404,140,99922,1,0
404,140,100016,1,0
392,280,100204,1,2
392,280,100297,1,0
192,216,100579,5,2
164,200,100672,1,0
136,176,100766,1,0
132,140,100860,1,0
144,108,100954,1,2
176,92,101047,1,0
204,72,101141,1,0
224,44,101235,1,0
240,12,101329,1,2
288,140,101516,5,0
316,128,101610,1,0
344,116,101704,1,2
372,116,101797,1,0
400,124,101891,1,0
424,140,101985,1,0
444,164,102079,1,2
452,192,102172,5,0
460,220,102266,1,0
364,248,102454,1,2
372,276,102548,1,0
276,308,102735,1,0
284,336,102829,1,2
184,340,103016,5,0
156,332,103110,1,0
140,308,103204,1,2
132,280,103297,1,0
128,252,103391,1,0
136,224,103485,1,0
156,200,103579,2,0,B|208:176,3,50,2|0|0|0
188,152,103954,2,0,B|240:128,3,50,2|0|0|0
236,100,104329,5,2
260,84,104422,1,0
288,72,104516,1,0
316,60,104610,1,0
344,68,104704,1,2
372,80,104797,1,0
392,100,104891,1,0
408,124,104985,1,0
420,152,105079,6,0,B|448:216,1,50,2|0
408,196,105266,2,0,B|420:252,1,50
388,236,105454,2,0,B|372:296,1,50,2|0
356,264,105641,2,0,B|324:300,1,50
308,304,105829,5,2
292,304,105922,1,0
276,308,106016,1,0
260,308,106110,1,0
244,308,106204,1,2
228,308,106297,1,0
212,304,106391,1,0
200,296,106485,1,0
188,284,106579,5,2
176,276,106672,1,0
164,264,106766,1,0
156,252,106860,1,0
152,236,106954,1,2
152,220,107047,1,0
152,204,107141,1,0
152,188,107235,1,0
140,180,107329,6,0,B|140:120|196:72,1,100,2|0
200,76,107610,2,0,B|162:106|162:166,1,100,2|0
184,152,107891,2,0,B|184:92|240:44,1,100,2|0
244,48,108172,2,0,B|206:78|206:138,1,100,2|0
228,120,108454,2,0,B|228:60|284:12,1,100,2|0
368,52,108829,5,2
368,52,108922,1,0
368,52,109016,1,0
332,208,109204,1,2
332,208,109297,1,0
332,208,109391,1,0
196,292,109579,1,2
196,292,109672,1,0
196,292,109766,1,0
96,168,109954,5,2
96,168,110047,1,0
96,168,110141,1,0
208,56,110329,1,2
208,56,110422,1,0
208,56,110516,1,0
368,52,110704,1,2
368,52,110797,1,0
368,52,110891,1,0
368,52,110985,1,0
256,192,111172,12,0,112766
