osu file format v14

[General]
AudioFilename: Thank you for playing.mp3
AudioLeadIn: 0
PreviewTime: -1
Countdown: 0
SampleSet: None
StackLeniency: 0.7
Mode: 2
LetterboxInBreaks: 0
WidescreenStoryboard: 1

[Editor]
DistanceSpacing: 0.8
BeatDivisor: 4
GridSize: 16
TimelineZoom: 1

[Metadata]
Title:Sped up Razor Sharp Maps
TitleUnicode:Sped up Razor Sharp Maps
Artist:Various Artists
ArtistUnicode:Various Artists
Creator:Dahcreeper
Version:Thank you for playing! 1.3x
Source:
Tags:
BeatmapID:1348049
BeatmapSetID:635292

[Difficulty]
HPDrainRate:6.5
CircleSize:4
OverallDifficulty:10
ApproachRate:10
SliderMultiplier:2
SliderTickRate:2

[Events]
//Background and Video events
0,0,"20110922021009.jpg",0,0
//Break Periods
//Storyboard Layer 0 (Background)
//Storyboard Layer 1 (Fail)
//Storyboard Layer 2 (Pass)
//Storyboard Layer 3 (Foreground)
//Storyboard Sound Samples

[TimingPoints]
522,271.4932,4,2,1,50,1,0
11381,-100,4,2,2,100,0,1
28756,-100,4,2,1,50,0,0
48304,-100,4,2,2,50,0,1
65680,-100,4,2,1,50,0,0
72196,279.7203,4,2,1,50,1,0
72475,288.4615,4,2,1,50,1,0
72619,318.3024,4,2,1,50,1,0
73096,329.6703,4,2,1,50,1,0
73425,341.8803,4,2,1,50,1,0
73596,369.2308,4,2,1,50,1,0
73780,384.6154,4,2,1,50,1,0
73973,401.3378,4,2,1,50,1,0
74173,419.5804,4,2,1,50,1,0
74382,512.8205,4,2,1,50,1,0
74638,542.9865,4,2,1,50,1,0
75692,542.9865,4,2,1,50,1,0

[HitObjects]
128,48,522,6,0,L|80:144,1,100
208,144,793,2,0,L|160:240,1,100
160,240,1200,1,0,0:0:0:0:
163,233,1336,2,0,L|208:144,1,100
336,144,1607,6,0,L|416:64,1,100
288,64,1879,2,0,L|208:144,1,100
336,144,2150,2,0,P|288:192|160:160,1,200
288,128,2558,1,0,0:0:0:0:
480,128,2693,6,0,L|448:32,1,100
336,32,2965,2,0,L|272:112,1,100
272,112,3372,1,0,0:0:0:0:
273,110,3508,2,0,L|336:32,1,100
208,32,3780,6,0,L|80:32,1,100
224,64,4051,2,0,L|336:64,1,100
208,80,4323,2,0,P|160:96|32:192,1,200
160,176,4730,1,0,0:0:0:0:
352,176,4866,6,0,P|400:144|384:112,1,100
272,112,5136,2,0,P|224:80|240:48,1,100
240,48,5544,1,0,0:0:0:0:
236,50,5680,2,0,P|228:95|272:112,1,100
144,112,5951,6,0,L|80:192,1,100
208,208,6223,2,0,L|144:288,1,100
272,288,6494,2,0,L|480:288,1,200
352,224,6902,1,0,0:0:0:0:
80,224,7037,6,0,L|48:112,1,100
176,128,7309,1,0,0:0:0:0:
432,224,7444,2,0,L|464:112,1,100
336,128,7716,1,0,0:0:0:0:
48,128,7852,2,0,L|176:128,1,100
416,128,8123,6,0,L|464:224,1,100
336,224,8395,2,0,L|384:320,1,100
256,320,8598,1,0,0:0:0:0:
131,313,8666,2,0,L|176:224,1,100
51,217,8938,2,0,L|96:128,1,100
384,128,9210,6,0,L|416:96,1,33.33333
368,96,9300,2,0,L|352:64,1,33.33333
288,48,9413,1,0,0:0:0:0:
256,192,10295,12,0,11246,0:0:0:0:
320,48,11381,5,6,0:0:0:0:
368,56,11449,1,0,0:0:0:0:
410,84,11516,1,0,0:0:0:0:
436,126,11584,1,0,0:0:0:0:
443,175,11653,1,8,0:0:0:0:
430,223,11720,1,0,0:0:0:0:
399,261,11788,1,0,0:0:0:0:
354,283,11856,1,0,0:0:0:0:
176,288,11924,5,2,0:0:0:0:
134,264,11992,1,0,0:0:0:0:
134,216,12060,1,0,0:0:0:0:
175,192,12127,1,0,0:0:0:0:
352,176,12196,1,8,0:0:0:0:
393,152,12263,1,0,0:0:0:0:
393,104,12331,1,0,0:0:0:0:
352,80,12399,1,0,0:0:0:0:
112,80,12467,6,0,L|128:144,1,50
176,160,12603,2,0,L|192:224,1,50
384,240,12739,2,0,L|320:240,1,50
272,240,12874,2,0,L|192:240,1,50
416,304,13010,5,6,0:0:0:0:
458,278,13078,1,0,0:0:0:0:
481,235,13146,1,0,0:0:0:0:
480,185,13213,1,0,0:0:0:0:
453,143,13281,1,8,0:0:0:0:
409,121,13350,1,0,0:0:0:0:
360,124,13417,1,0,0:0:0:0:
319,151,13485,1,0,0:0:0:0:
160,176,13553,6,0,L|96:176,1,50
176,160,13689,2,0,L|240:160,1,50
64,128,13825,2,0,L|0:128,1,50
80,112,13960,2,0,L|144:112,1,50
336,208,14096,6,0,L|400:208,1,50
320,224,14232,2,0,L|256:224,1,50
448,256,14368,2,0,L|512:256,1,50
432,272,14503,2,0,L|368:272,1,50
32,272,14639,6,0,L|0:208,3,50
96,224,14910,2,0,L|64:160,3,50
224,144,15182,6,0,L|192:80,3,50
368,112,15453,2,0,L|336:48,3,50
144,80,15725,5,6,0:0:0:0:
97,94,15793,1,0,0:0:0:0:
79,139,15860,1,0,0:0:0:0:
102,181,15928,1,0,0:0:0:0:
336,192,15996,2,0,L|272:192,1,50
224,192,16133,2,0,L|160:192,1,50
368,304,16268,5,2,0:0:0:0:
414,289,16336,1,0,0:0:0:0:
432,244,16403,1,0,0:0:0:0:
409,202,16471,1,0,0:0:0:0:
176,192,16540,2,0,L|240:192,1,50
288,192,16676,2,0,L|352:192,1,50
144,64,16811,5,2,0:0:0:0:
95,73,16879,1,0,0:0:0:0:
56,104,16946,1,0,0:0:0:0:
37,149,17014,1,0,0:0:0:0:
40,199,17082,1,8,0:0:0:0:
66,241,17150,1,0,0:0:0:0:
109,266,17218,1,0,0:0:0:0:
158,268,17286,1,0,0:0:0:0:
352,272,17354,6,0,L|368:224,1,50
288,224,17490,2,0,L|224:224,1,50
416,176,17626,2,0,L|432:112,1,50
256,112,17761,2,0,L|192:112,1,50
432,112,17897,6,0,L|448:160,1,50
368,160,18033,2,0,L|352:208,1,50
432,208,18169,2,0,L|448:256,1,50
368,256,18304,2,0,L|352:304,1,50
144,304,18440,6,0,L|64:304,1,50
304,272,18576,2,0,L|240:272,1,50
80,240,18712,2,0,L|0:240,1,50
240,208,18847,2,0,L|176:208,1,50
32,192,18983,5,6,0:0:0:0:
16,145,19050,1,0,0:0:0:0:
20,121,19084,1,0,0:0:0:0:
33,100,19118,1,0,0:0:0:0:
53,84,19152,1,0,0:0:0:0:
76,76,19186,1,0,0:0:0:0:
240,80,19254,5,8,0:0:0:0:
255,126,19322,1,0,0:0:0:0:
251,150,19356,1,0,0:0:0:0:
238,171,19390,1,0,0:0:0:0:
218,187,19423,1,0,0:0:0:0:
195,195,19457,1,0,0:0:0:0:
368,224,19526,6,0,L|432:224,1,50
352,208,19662,2,0,L|272:208,1,50
448,192,19797,2,0,L|480:128,1,50
288,144,19933,2,0,L|208:144,1,50
448,128,20069,6,0,L|464:176,1,50
400,192,20205,2,0,L|416:240,1,50
352,256,20340,2,0,L|368:304,1,50
304,320,20476,2,0,L|320:368,1,50
240,368,20612,5,2,0:0:0:0:
190,373,20680,1,0,0:0:0:0:
145,353,20747,1,0,0:0:0:0:
116,313,20815,1,0,0:0:0:0:
112,264,20883,1,8,0:0:0:0:
132,219,20951,1,0,0:0:0:0:
173,191,21019,1,0,0:0:0:0:
222,187,21086,1,0,0:0:0:0:
416,192,21155,6,0,L|480:192,1,50
400,160,21290,2,0,L|384:96,1,50
464,96,21426,2,0,L|400:96,1,50
256,96,21562,2,0,L|192:96,1,50
384,112,21698,6,0,L|448:112,1,50
368,128,21833,2,0,L|304:128,1,50
128,160,21970,2,0,L|160:224,1,50
208,208,22105,2,0,L|240:272,1,50
32,272,22241,6,0,L|16:224,1,50
80,224,22376,2,0,L|144:224,1,50
288,224,22513,2,0,L|352:224,1,50
400,224,22648,2,0,L|416:176,1,50
224,144,22784,6,0,L|144:144,1,50
384,96,22920,2,0,L|320:96,1,50
112,96,23056,2,0,L|32:96,1,50
128,128,23191,2,0,L|144:176,1,50
384,144,23327,5,2,0:0:0:0:
426,165,23395,1,0,0:0:0:0:
431,213,23463,1,0,0:0:0:0:
392,242,23530,1,0,0:0:0:0:
240,224,23598,1,8,0:0:0:0:
197,245,23666,1,0,0:0:0:0:
192,293,23733,1,0,0:0:0:0:
231,322,23801,1,0,0:0:0:0:
80,176,23870,5,6,0:0:0:0:
37,197,23937,1,0,0:0:0:0:
32,245,24005,1,0,0:0:0:0:
71,274,24073,1,0,0:0:0:0:
384,144,24141,1,8,0:0:0:0:
427,165,24209,1,0,0:0:0:0:
432,213,24276,1,0,0:0:0:0:
393,242,24344,1,0,0:0:0:0:
224,256,24413,6,0,L|160:256,1,50
320,224,24549,2,0,L|384:224,1,50
224,224,24684,2,0,L|160:224,1,50
320,224,24820,2,0,L|384:224,1,50
128,208,24956,6,0,L|64:208,1,50
224,176,25092,2,0,L|288:176,1,50
128,176,25227,2,0,L|64:176,1,50
224,176,25363,2,0,L|288:176,1,50
32,96,25499,6,0,L|48:48,1,50
112,48,25635,2,0,L|192:48,1,50
480,288,25770,2,0,L|464:336,1,50
400,336,25906,2,0,L|320:336,1,50
112,240,26042,6,0,L|64:224,1,50
400,240,26177,2,0,L|448:224,1,50
112,144,26313,2,0,L|64:160,1,50
400,144,26449,2,0,L|448:160,1,50
192,192,26585,6,0,L|112:192,1,50
80,192,26720,2,0,L|0:192,1,50
288,128,26856,2,0,L|208:128,1,50
80,128,26992,2,0,L|16:128,1,50
320,192,27128,6,0,L|400:192,1,50
432,192,27263,2,0,L|512:192,1,50
224,256,27400,2,0,L|304:256,1,50
432,256,27535,2,0,L|496:256,1,50
208,192,27671,5,6,0:0:0:0:
160,180,27739,1,0,0:0:0:0:
144,161,27773,1,0,0:0:0:0:
138,137,27806,1,0,0:0:0:0:
142,113,27840,1,0,0:0:0:0:
156,92,27874,1,0,0:0:0:0:
304,192,27943,5,8,0:0:0:0:
351,203,28010,1,0,0:0:0:0:
367,222,28044,1,0,0:0:0:0:
373,246,28078,1,0,0:0:0:0:
369,270,28112,1,0,0:0:0:0:
355,291,28146,1,0,0:0:0:0:
144,288,28213,6,0,L|112:240,1,50
192,240,28350,2,0,L|224:192,1,50
64,240,28485,2,0,L|32:192,1,50
272,192,28621,2,0,L|320:176,1,50
64,160,28756,6,0,L|32:64,1,100
160,64,29028,2,0,L|176:16,1,50
112,16,29164,2,0,L|96:80,1,50
160,64,29300,2,0,L|272:64,1,100
416,64,29571,2,0,L|352:64,1,50
176,128,29707,2,0,L|240:128,1,50
288,128,29843,6,0,L|400:128,1,100
240,160,30114,2,0,L|176:160,1,50
96,160,30250,2,0,L|160:160,1,50
240,160,30386,2,0,L|304:160,1,50
384,160,30521,2,0,L|448:160,1,50
336,160,30657,2,0,L|272:160,1,50
64,112,30793,2,0,L|128:112,1,50
320,112,30929,6,0,L|368:208,1,100
208,208,31200,2,0,L|192:272,1,50
288,256,31336,2,0,L|304:320,1,50
208,304,31472,2,0,L|160:208,1,100
320,208,31743,2,0,L|384:208,1,50
128,160,31879,2,0,L|192:160,1,50
240,160,32015,6,0,L|288:64,1,100
128,64,32286,2,0,L|64:64,1,50
144,96,32422,2,0,L|160:144,1,50
224,144,32558,2,0,L|288:144,1,50
96,176,32693,2,0,L|32:176,1,50
272,208,32829,2,0,L|208:208,1,50
64,240,32965,2,0,L|144:240,1,50
320,256,33100,6,0,L|416:224,1,100
256,208,33372,2,0,L|240:160,1,50
304,160,33508,2,0,L|288:112,1,50
352,112,33643,2,0,L|224:112,1,100
400,80,33915,2,0,L|464:80,1,50
272,48,34051,2,0,L|208:48,1,50
64,48,34186,6,0,P|16:96|48:144,1,100
160,128,34458,2,0,L|80:128,1,50
160,160,34594,2,0,L|240:160,1,50
304,160,34730,2,0,L|224:160,1,50
176,176,34866,2,0,L|256:176,1,50
320,176,35001,2,0,L|240:176,1,50
192,192,35136,2,0,L|272:192,1,50
48,240,35273,6,0,L|32:192,1,50
96,192,35408,2,0,L|80:144,1,50
144,144,35544,2,0,L|128:96,1,50
192,96,35680,2,0,L|176:48,1,50
464,144,35816,6,0,L|480:192,1,50
416,192,35951,2,0,L|432:240,1,50
368,240,36087,2,0,L|384:288,1,50
320,288,36223,2,0,L|336:336,1,50
128,320,36359,5,6,0:0:0:0:
80,320,36426,1,0,0:0:0:0:
63,302,36460,1,0,0:0:0:0:
57,278,36494,1,0,0:0:0:0:
64,254,36528,1,0,0:0:0:0:
83,238,36562,1,0,0:0:0:0:
256,256,36630,5,8,0:0:0:0:
303,256,36698,1,0,0:0:0:0:
320,238,36732,1,0,0:0:0:0:
326,214,36766,1,0,0:0:0:0:
319,190,36800,1,0,0:0:0:0:
300,174,36833,1,0,0:0:0:0:
464,176,36902,6,0,L|480:112,1,50
288,128,37037,2,0,L|224:128,1,50
48,208,37173,2,0,L|32:272,1,50
224,256,37309,2,0,L|288:256,1,50
432,256,37444,6,0,L|496:256,1,50
416,240,37580,1,0,0:0:0:0:
373,214,37648,1,0,0:0:0:0:
353,170,37716,1,8,0:0:0:0:
362,121,37783,1,0,0:0:0:0:
397,87,37851,1,0,0:0:0:0:
446,79,37920,1,0,0:0:0:0:
400,48,37987,6,0,L|352:96,1,50
304,80,38123,2,0,L|256:128,1,50
112,144,38259,2,0,L|112:208,1,50
400,144,38395,2,0,L|400:208,1,50
336,192,38530,5,2,0:0:0:0:
289,207,38598,1,0,0:0:0:0:
256,244,38666,1,0,0:0:0:0:
248,293,38733,1,0,0:0:0:0:
266,339,38801,1,8,0:0:0:0:
305,369,38870,1,0,0:0:0:0:
64,352,38937,1,4,0:0:0:0:
108,331,39005,1,0,0:0:0:0:
320,288,39073,6,0,L|384:288,1,50
192,288,39210,2,0,L|128:288,1,50
320,240,39345,2,0,L|384:240,1,50
144,224,39481,2,0,L|208:224,1,50
400,160,39616,6,0,L|448:112,2,50
112,160,39820,2,0,L|64:112,2,50
288,96,40023,1,4,0:0:0:0:
337,92,40091,1,0,0:0:0:0:
383,110,40159,5,2,0:0:0:0:
417,146,40226,1,0,0:0:0:0:
433,193,40294,1,0,0:0:0:0:
428,242,40363,1,0,0:0:0:0:
402,285,40430,1,8,0:0:0:0:
361,312,40498,1,0,0:0:0:0:
312,320,40566,1,4,0:0:0:0:
224,320,40634,1,0,0:0:0:0:
32,304,40703,6,0,L|0:256,3,50
96,256,40974,2,0,L|160:256,1,50
160,192,41110,2,0,L|96:192,1,50
208,192,41246,6,0,L|240:144,3,50
144,144,41517,2,0,L|80:144,1,50
96,80,41653,2,0,L|160:80,1,50
384,80,41789,6,0,L|512:80,1,100
352,112,42060,2,0,L|480:112,1,100
288,160,42331,2,0,L|416:160,1,100
256,192,42603,2,0,L|384:192,1,100
32,224,42874,6,0,L|144:224,1,100
288,224,43146,2,0,L|176:224,1,100
464,224,43417,2,0,L|480:112,1,100
352,128,43689,2,0,L|368:16,1,100
144,240,43960,5,6,0:0:0:0:
111,241,44005,1,0,0:0:0:0:
82,226,44050,1,0,0:0:0:0:
65,197,44096,1,0,0:0:0:0:
65,164,44141,1,0,0:0:0:0:
83,136,44186,1,0,0:0:0:0:
160,144,44232,5,8,0:0:0:0:
192,142,44276,1,0,0:0:0:0:
221,157,44322,1,0,0:0:0:0:
238,186,44367,1,0,0:0:0:0:
238,219,44413,1,0,0:0:0:0:
220,247,44458,1,0,0:0:0:0:
288,256,44503,5,2,0:0:0:0:
320,254,44548,1,0,0:0:0:0:
349,269,44593,1,0,0:0:0:0:
366,298,44639,1,0,0:0:0:0:
366,331,44684,1,0,0:0:0:0:
348,359,44730,1,0,0:0:0:0:
416,352,44775,5,8,0:0:0:0:
448,354,44820,1,0,0:0:0:0:
477,339,44865,1,0,0:0:0:0:
494,310,44910,1,0,0:0:0:0:
494,277,44956,1,0,0:0:0:0:
476,249,45001,1,0,0:0:0:0:
144,208,45046,6,0,L|96:208,1,33.33333
96,176,45136,2,0,L|80:144,3,33.33333
160,144,45318,6,0,L|208:144,1,33.33333
208,176,45408,2,0,L|224:208,3,33.33333
288,208,45590,6,0,L|336:208,1,33.33333
336,176,45680,2,0,L|352:144,3,33.33333
272,144,45861,6,0,L|224:144,1,33.33333
224,112,45951,2,0,L|208:80,3,33.33333
400,80,46133,5,6,0:0:0:0:
433,82,46177,1,0,0:0:0:0:
463,95,46223,1,0,0:0:0:0:
488,117,46268,1,0,0:0:0:0:
505,146,46313,1,0,0:0:0:0:
512,178,46359,1,0,0:0:0:0:
508,211,46403,5,8,0:0:0:0:
494,242,46449,1,0,0:0:0:0:
472,266,46494,1,0,0:0:0:0:
442,282,46540,1,0,0:0:0:0:
410,288,46585,1,0,0:0:0:0:
377,283,46630,1,0,0:0:0:0:
112,304,46675,5,6,0:0:0:0:
78,301,46720,1,0,0:0:0:0:
48,288,46765,1,0,0:0:0:0:
23,266,46810,1,0,0:0:0:0:
6,237,46856,1,0,0:0:0:0:
0,205,46901,1,0,0:0:0:0:
3,172,46946,5,8,0:0:0:0:
17,141,46991,1,0,0:0:0:0:
39,117,47036,1,0,0:0:0:0:
69,101,47082,1,0,0:0:0:0:
101,95,47127,1,0,0:0:0:0:
134,100,47173,1,0,0:0:0:0:
480,128,47286,6,4,L|352:128,1,100
208,128,47490,2,4,L|320:128,1,100
32,128,47693,2,4,L|160:128,1,100
304,128,47897,2,4,L|192:128,1,100
192,128,48066,1,0,0:0:0:0:
168,120,48100,1,0,0:0:0:0:
154,100,48134,1,0,0:0:0:0:
153,75,48168,1,0,0:0:0:0:
168,55,48202,1,0,0:0:0:0:
191,48,48236,1,0,0:0:0:0:
384,48,48304,5,6,0:0:0:0:
433,48,48372,1,0,0:0:0:0:
475,74,48440,1,0,0:0:0:0:
497,118,48507,1,0,0:0:0:0:
493,167,48575,1,8,0:0:0:0:
464,207,48643,1,0,0:0:0:0:
418,226,48711,1,0,0:0:0:0:
369,218,48779,1,0,0:0:0:0:
192,224,48847,6,0,L|128:224,1,50
144,288,48983,2,0,L|224:288,1,50
368,288,49119,2,0,L|336:224,1,50
288,240,49254,2,0,L|240:160,1,50
80,192,49390,6,0,L|48:144,1,50
128,144,49526,2,0,L|192:144,1,50
336,192,49662,2,0,L|368:144,1,50
288,144,49797,2,0,L|224:144,1,50
400,112,49933,6,0,L|416:160,1,50
336,160,50069,2,0,L|320:208,1,50
480,224,50205,2,0,L|416:224,1,50
208,224,50340,2,0,L|288:224,1,50
432,240,50476,6,0,L|448:304,1,50
384,320,50612,2,0,L|320:320,1,50
128,304,50748,2,0,L|112:240,1,50
176,256,50883,2,0,L|256:256,1,50
448,176,51020,6,0,L|384:176,1,50
336,176,51155,2,0,L|256:176,1,50
448,176,51290,2,0,L|416:112,1,50
368,128,51426,2,0,L|336:64,1,50
64,112,51562,6,0,L|48:176,3,50
272,160,51833,2,0,L|336:160,1,50
240,176,51970,2,0,L|176:176,1,50
448,112,52105,6,0,L|464:176,3,50
240,224,52376,2,0,L|176:224,1,50
272,208,52513,2,0,L|336:208,1,50
144,144,52648,6,0,L|80:144,1,50
368,144,52784,2,0,L|432:144,1,50
256,128,52920,1,8,0:0:0:0:
209,144,52987,1,0,0:0:0:0:
177,182,53055,1,0,0:0:0:0:
167,230,53123,1,0,0:0:0:0:
183,277,53190,5,2,0:0:0:0:
221,310,53259,1,0,0:0:0:0:
269,320,53326,1,0,0:0:0:0:
316,304,53394,1,0,0:0:0:0:
144,240,53463,6,0,L|80:240,1,50
368,240,53599,2,0,L|432:240,1,50
256,256,53734,1,2,0:0:0:0:
209,239,53802,1,0,0:0:0:0:
177,201,53870,1,0,0:0:0:0:
167,153,53937,1,0,0:0:0:0:
183,106,54005,5,8,0:0:0:0:
221,73,54073,1,0,0:0:0:0:
269,63,54141,1,0,0:0:0:0:
316,79,54209,1,0,0:0:0:0:
96,64,54277,5,6,0:0:0:0:
53,89,54345,1,0,0:0:0:0:
27,131,54413,1,0,0:0:0:0:
22,181,54480,1,0,0:0:0:0:
40,227,54548,1,8,0:0:0:0:
76,261,54616,1,0,0:0:0:0:
123,275,54684,1,0,0:0:0:0:
172,266,54752,1,0,0:0:0:0:
416,272,54820,6,0,L|480:272,1,50
320,272,54956,2,0,L|256:272,1,50
432,256,55092,2,0,L|496:256,1,50
336,256,55227,2,0,L|272:256,1,50
96,112,55363,6,0,L|32:112,1,50
192,112,55499,2,0,L|256:112,1,50
80,128,55635,2,0,L|16:128,1,50
176,128,55770,2,0,L|240:128,1,50
448,128,55906,5,6,0:0:0:0:
464,173,55973,1,0,0:0:0:0:
456,197,56007,1,0,0:0:0:0:
439,214,56041,1,0,0:0:0:0:
416,223,56075,1,0,0:0:0:0:
391,221,56109,1,0,0:0:0:0:
64,256,56177,5,8,0:0:0:0:
47,210,56245,1,0,0:0:0:0:
55,186,56279,1,0,0:0:0:0:
72,169,56313,1,0,0:0:0:0:
95,160,56346,1,0,0:0:0:0:
120,162,56380,1,0,0:0:0:0:
288,160,56449,6,0,L|368:160,1,50
160,128,56585,2,0,L|224:128,1,50
368,160,56720,2,0,L|448:160,1,50
240,128,56856,2,0,L|304:128,1,50
464,128,56992,6,0,L|480:176,2,50
224,224,57196,2,0,L|208:272,2,50
400,240,57400,6,0,L|464:240,1,50
384,208,57535,1,2,0:0:0:0:
341,183,57603,1,0,0:0:0:0:
325,137,57670,1,0,0:0:0:0:
344,92,57738,1,0,0:0:0:0:
388,71,57806,1,8,0:0:0:0:
436,84,57874,1,0,0:0:0:0:
80,208,57943,2,0,L|48:144,1,50
336,160,58078,6,0,L|448:160,1,100
336,112,58282,1,0,0:0:0:0:
176,160,58350,2,0,L|64:160,1,100
176,112,58553,1,0,0:0:0:0:
384,224,58621,2,0,L|496:224,1,100
384,272,58825,1,0,0:0:0:0:
128,224,58893,2,0,L|16:224,1,100
128,272,59096,1,0,0:0:0:0:
336,256,59164,6,0,L|368:208,2,50
176,256,59367,2,0,L|144:208,2,50
336,256,59571,2,0,L|368:208,1,50
176,256,59707,5,6,0:0:0:0:
127,249,59775,1,0,0:0:0:0:
92,215,59843,1,0,0:0:0:0:
86,166,59910,1,0,0:0:0:0:
110,124,59978,1,8,0:0:0:0:
156,105,60046,1,0,0:0:0:0:
320,112,60114,2,0,L|256:112,1,50
64,112,60250,6,4,L|32:208,1,100
304,192,60521,2,4,L|176:192,1,100
448,272,60793,2,4,L|480:176,1,100
204,192,61064,2,4,L|332:192,1,100
48,208,61336,6,0,L|16:160,3,50
208,192,61607,2,0,L|224:144,1,50
48,208,61743,6,0,L|16:160,3,50
224,192,62015,2,0,L|256:144,1,50
48,208,62150,6,0,L|16:160,3,50
224,192,62422,6,0,L|288:192,1,50
96,208,62558,2,0,L|32:208,1,50
208,208,62693,2,0,L|272:208,1,50
80,224,62830,2,0,L|16:224,1,50
320,208,62965,6,0,L|384:208,1,50
96,208,63100,2,0,L|32:208,1,50
304,224,63236,2,0,L|368:224,1,50
80,224,63372,2,0,L|16:224,1,50
336,96,63508,5,6,0:0:0:0:
378,117,63576,1,0,0:0:0:0:
381,165,63643,1,0,0:0:0:0:
342,191,63711,1,0,0:0:0:0:
112,208,63780,2,0,L|176:208,1,50
336,96,63915,5,4,0:0:0:0:
378,117,63983,1,0,0:0:0:0:
381,165,64050,1,2,0:0:0:0:
342,191,64118,1,0,0:0:0:0:
32,208,64186,2,0,L|96:208,1,50
336,96,64323,5,12,0:0:0:0:
378,117,64390,1,0,0:0:0:0:
381,165,64458,1,0,0:0:0:0:
342,191,64526,1,0,0:0:0:0:
80,256,64594,6,0,L|16:256,1,50
320,224,64730,2,0,L|256:224,1,50
96,240,64866,2,0,L|32:240,1,50
336,208,65001,2,0,L|272:208,1,50
112,224,65136,6,0,L|48:224,1,50
352,192,65272,2,0,L|288:192,1,50
128,208,65408,2,0,L|64:208,1,50
368,176,65543,2,0,L|304:176,1,50
112,176,65680,6,0,L|16:96,1,100
160,112,65951,2,0,L|64:32,1,100
80,48,66359,1,0,0:0:0:0:
83,47,66494,2,0,L|160:112,1,100
288,112,66766,6,0,L|320:208,1,100
176,208,67037,2,0,L|288:208,1,100
144,240,67309,2,0,L|352:240,1,200
224,272,67716,1,0,0:0:0:0:
416,272,67852,6,0,L|448:176,1,100
320,176,68123,2,0,L|208:176,1,100
220,176,68530,1,0,0:0:0:0:
220,176,68666,2,0,L|320:176,1,100
208,208,68938,6,0,L|160:304,1,100
288,304,69210,2,0,L|400:304,1,100
272,304,69481,2,0,L|48:304,1,200
192,304,69888,1,0,0:0:0:0:
368,304,70023,6,0,L|304:208,1,100
192,224,70295,2,0,L|256:128,1,100
247,140,70703,1,0,0:0:0:0:
247,140,70838,2,0,L|192:224,1,100
320,224,71110,6,0,L|432:224,1,100
304,192,71381,2,0,L|192:192,1,100
320,160,71653,2,0,P|432:160|480:96,1,200
352,96,72060,1,0,0:0:0:0:
176,96,72196,6,0,P|128:112|80:176,1,100
208,144,72475,1,0,0:0:0:0:
48,144,72619,2,0,P|16:192|128:288,1,200
272,288,73096,2,0,L|384:288,1,100
192,288,73425,5,4,0:0:0:0:
121,216,73596,1,0,0:0:0:0:
122,116,73780,1,0,0:0:0:0:
194,46,73973,1,0,0:0:0:0:
294,47,74173,1,4,0:0:0:0:
364,118,74382,1,0,0:0:0:0:
363,218,74638,1,0,0:0:0:0:
291,288,74977,1,0,0:0:0:0:
192,288,75692,6,4,L|176:256,4,25
