osu file format v14

[General]
AudioFilename: Apparition.mp3
AudioLeadIn: 0
PreviewTime: -1
Countdown: 0
SampleSet: None
StackLeniency: 0.7
Mode: 2
LetterboxInBreaks: 0
WidescreenStoryboard: 1

[Editor]
DistanceSpacing: 0.8
BeatDivisor: 4
GridSize: 16
TimelineZoom: 1

[Metadata]
Title:Sped up Razor Sharp Maps
TitleUnicode:Sped up Razor Sharp Maps
Artist:Various Artists
ArtistUnicode:Various Artists
Creator:Dahcreeper
Version:Apparition 1.2x
Source:
Tags:
BeatmapID:1348046
BeatmapSetID:635292

[Difficulty]
HPDrainRate:5
CircleSize:4
OverallDifficulty:10
ApproachRate:10
SliderMultiplier:2
SliderTickRate:2

[Events]
//Background and Video events
0,0,"1366.png",0,0
//Break Periods
//Storyboard Layer 0 (Background)
//Storyboard Layer 1 (Fail)
//Storyboard Layer 2 (Pass)
//Storyboard Layer 3 (Foreground)
//Storyboard Sound Samples

[TimingPoints]
474,625,4,1,1,100,1,0
44224,-100,4,1,1,5,0,0
45474,208.3333,4,1,11,80,1,0
45525,-100,4,1,1,60,0,0
46932,-100,4,1,2,40,0,0
47088,-100,4,1,11,80,0,0
47192,-100,4,1,1,60,0,0
48599,-100,4,1,2,40,0,0
48755,-100,4,1,11,80,0,0
48859,-100,4,1,1,60,0,0
50265,-100,4,1,2,40,0,0
50421,-100,4,1,11,80,0,0
50525,-100,4,1,1,60,0,0
51307,-100,4,1,7,60,0,0
51411,-100,4,1,7,30,0,0
51515,-100,4,1,7,60,0,0
51620,-100,4,1,7,30,0,0
51724,-100,4,1,7,60,0,0
51828,-100,4,1,7,30,0,0
51932,-100,4,1,8,60,0,0
52036,-100,4,1,8,30,0,0
52140,-100,4,1,11,80,0,0
52192,-100,4,1,1,60,0,0
53599,-100,4,1,2,40,0,0
53755,-100,4,1,11,80,0,0
53859,-100,4,1,1,60,0,0
55265,-100,4,1,2,40,0,0
55421,-100,4,1,11,80,0,0
55525,-100,4,1,1,60,0,0
56932,-100,4,1,2,40,0,0
57088,-100,4,1,11,80,0,0
57192,-100,4,1,1,60,0,0
57974,-100,4,1,7,60,0,0
58078,-100,4,1,7,30,0,0
58182,-100,4,1,7,60,0,0
58286,-100,4,1,7,30,0,0
58390,-100,4,1,7,60,0,0
58495,-100,4,1,7,30,0,0
58599,-100,4,1,7,60,0,0
58703,-100,4,1,7,30,0,0
58807,-100,4,1,11,80,0,0
59015,-100,4,3,1,60,0,0
59224,-100,4,3,11,80,0,0
59275,-100,4,3,1,60,0,0
59640,-100,4,3,11,80,0,0
59692,-100,4,3,1,60,0,0
60057,-100,4,3,11,80,0,0
60109,-100,4,3,1,60,0,0
60474,-100,4,3,11,80,0,0
60942,-100,4,3,1,60,0,0
61307,-100,4,3,11,80,0,0
61359,-100,4,3,1,60,0,0
61724,-100,4,3,11,80,0,0
61775,-100,4,3,1,60,0,0
62140,-100,4,3,11,80,0,0
62192,-100,4,3,1,60,0,0
62557,-100,4,3,11,80,0,0
62609,-100,4,3,1,60,0,0
62974,-100,4,3,11,80,0,0
63025,-100,4,3,1,60,0,0
63390,-100,4,3,11,80,0,0
63442,-100,4,3,1,60,0,0
63807,-100,4,3,11,80,0,0
63859,-100,4,3,1,60,0,0
64224,-100,4,3,11,80,0,0
64275,-100,4,3,1,60,0,0
64640,-100,4,3,11,80,0,0
64692,-100,4,3,1,60,0,0
65057,-100,4,3,11,80,0,0
65109,-100,4,3,1,60,0,0
65474,-100,4,1,10,40,0,1
68442,-100,4,1,7,40,0,1
68703,-100,4,1,10,40,0,1
70474,-100,4,1,7,40,0,1
70578,-100,4,1,10,40,0,1
71307,-100,4,1,2,40,0,1
74015,-100,4,1,2,40,0,1
75109,-100,4,1,7,40,0,1
75370,-100,4,1,2,40,0,1
76932,-100,4,1,2,60,0,1
76984,-100,4,1,2,40,0,1
80057,-100,4,1,2,40,0,1
80370,-100,4,1,2,40,0,1
81775,-100,4,1,7,40,0,1
82140,-100,4,1,2,40,0,1
84849,-100,4,1,5,40,0,1
85057,-100,4,1,2,40,0,1
85474,-100,4,1,2,60,0,0
85525,-100,4,1,1,40,0,0
86724,-100,4,1,2,40,0,0
86984,-100,4,1,1,40,0,0
88182,-100,4,1,2,40,0,0
88650,-100,4,1,2,40,0,0
89796,-100,4,1,6,40,0,0
90421,-100,4,1,2,40,0,0
91463,-100,4,1,6,40,0,0
92140,-100,4,1,2,40,0,0
92192,-100,4,1,2,40,0,0
93390,-100,4,1,6,50,0,0
93755,-100,4,1,2,40,0,0
94171,-100,4,1,6,50,0,0
94588,-100,4,1,2,40,0,0
95474,-100,4,1,2,40,0,0
96099,-100,4,1,9,70,0,0
96150,-100,4,1,2,40,0,0
96463,-100,4,1,6,40,0,0
97088,-100,4,1,2,40,0,0
97557,-100,4,2,3,50,0,0
97609,-100,4,1,2,40,0,0
98130,-100,4,1,6,40,0,0
98807,-100,4,1,2,40,0,0
100005,-100,4,1,6,50,0,0
100421,-100,4,1,2,40,0,0
100838,-100,4,1,6,50,0,0
101255,-100,4,1,2,40,0,0
102765,-100,4,1,9,70,0,0
102817,-100,4,1,2,40,0,0
103130,-100,4,1,6,40,0,0
103650,-100,4,1,2,40,0,0
104224,-100,4,2,3,50,0,0
104275,-100,4,1,2,40,0,0
104796,-100,4,1,6,40,0,0
105474,-100,4,1,10,40,0,1
111932,-100,4,1,5,40,0,1
112140,-100,4,1,10,40,0,1
115057,-100,4,1,5,40,0,1
115265,-100,4,1,10,40,0,1
118807,-100,4,1,11,80,0,0
118859,-100,4,1,1,60,0,0
120213,-100,4,1,2,40,0,0
120421,-100,4,1,11,80,0,0
120525,-100,4,1,1,60,0,0
121880,-100,4,1,2,40,0,0
122088,-100,4,1,11,80,0,0
122192,-100,4,1,1,60,0,0
123546,-100,4,1,2,40,0,0
123755,-100,4,1,11,80,0,0
123859,-100,4,1,1,60,0,0
124640,-100,4,1,7,60,0,0
124745,-100,4,1,7,30,0,0
124849,-100,4,1,7,60,0,0
124953,-100,4,1,7,30,0,0
125057,-100,4,1,7,60,0,0
125161,-100,4,1,7,30,0,0
125265,-100,4,1,7,60,0,0
125370,-100,4,1,7,30,0,0
125474,-100,4,1,11,80,0,0
125525,-100,4,1,1,60,0,0
126880,-100,4,1,2,40,0,0
127088,-100,4,1,11,80,0,0
127192,-100,4,1,1,60,0,0
128390,-100,4,1,2,60,0,0
128546,-100,4,1,2,40,0,0
128755,-100,4,1,11,80,0,0
128859,-100,4,1,1,60,0,0
130213,-100,4,1,2,40,0,0
130421,-100,4,1,11,80,0,0
130525,-100,4,1,1,60,0,0
131307,-100,4,1,7,60,0,0
131411,-100,4,1,7,30,0,0
131515,-100,4,1,7,60,0,0
131620,-100,4,1,7,30,0,0
131724,-100,4,1,7,60,0,0
131828,-100,4,1,7,30,0,0
131932,-100,4,1,7,60,0,0
132036,-100,4,1,7,30,0,0
132140,214.8333,4,1,2,80,1,0
132570,208.1666,4,1,2,30,1,0
132985,208.1666,4,1,2,20,1,0
133401,-100,4,1,1,15,0,0
133818,-100,4,1,1,10,0,0
134234,200.3334,4,1,2,10,1,0
134634,-200,4,1,1,50,0,0
134684,-200,4,1,1,10,0,0
135435,214.5923,4,1,2,10,1,0
136723,215.8334,4,1,1,30,1,0
136723,-200,4,1,1,30,0,0
137155,208.3333,4,1,1,30,1,0
137155,-200,4,1,1,30,0,0
137206,-200,4,1,1,10,0,0
137571,-200,4,1,1,20,0,0
137988,201.6666,4,1,1,30,1,0
137988,-200,4,1,1,30,0,0
138038,-200,4,1,1,10,0,0
138795,219.1666,4,1,1,30,1,0
139014,212.5,4,1,1,20,1,0
139652,221.5,4,1,1,20,1,0
139873,218.6667,4,1,1,10,1,0
140420,208.3333,4,1,1,30,1,0
140680,220.9167,4,1,1,30,1,0
140900,208.3333,4,1,1,30,1,0
140900,-200,4,1,1,30,0,0
140952,-200,4,1,1,10,0,0
141109,221,4,1,1,10,1,0
141330,208.3333,4,1,1,30,1,0
141330,-200,4,1,1,30,0,0
141381,-200,4,1,1,10,0,0
141538,193.3333,4,1,1,10,1,0
141731,208.3333,4,1,1,30,1,0
141731,-200,4,1,1,30,0,0
141783,-200,4,1,1,10,0,0
141940,208.3333,4,1,1,10,1,0
142044,-200,4,1,1,30,0,0
142148,-200,4,1,1,60,0,0
142200,-200,4,1,1,10,0,0
143815,-200,4,1,1,30,0,0
144440,195,4,1,1,30,1,0
144635,208.3333,4,1,1,30,1,0
144635,-200,4,1,1,30,0,0
144686,-200,4,1,1,10,0,0
144999,-200,4,1,1,30,0,0
145051,-200,4,1,1,30,0,0
145103,-200,4,1,1,10,0,0
145468,-200,4,1,1,30,0,0
145520,-200,4,1,1,10,0,0
145885,-200,4,1,1,30,0,0
145936,-200,4,1,1,10,0,0
146093,203.9167,4,1,1,10,1,0
146705,198.6666,4,1,1,30,1,0
147499,208.3333,4,1,1,30,1,0
147550,-200,4,1,1,30,0,0
147603,-200,4,1,1,10,0,0
147759,199.5833,4,1,1,10,1,0
148358,208.3333,4,1,1,30,1,0
148410,201.75,4,1,1,30,1,0
148813,205.6667,4,1,1,30,1,0
149224,312.5,4,1,1,60,1,0
149224,-200,4,1,1,70,0,0
149849,-200,4,1,1,70,0,0
156099,-200,4,1,1,50,0,0
156411,-200,4,1,1,40,0,0
156724,-200,4,1,1,30,0,0
157036,-200,4,1,1,20,0,0
157349,-200,4,1,1,10,0,0
157661,-200,4,1,1,70,0,0
169224,413.2231,4,1,1,60,1,0
169533,416.6667,3,1,1,60,1,0
169845,-100,4,2,1,70,0,0
189533,-100,4,1,1,70,0,0
192866,-200,4,1,1,70,0,0
193283,-200,4,1,7,80,0,0
193335,-200,4,1,1,40,0,0
193700,-100,4,1,1,70,0,0
197033,-200,4,1,1,70,0,0
197450,-200,4,1,7,80,0,0
197501,-200,4,1,1,40,0,0
197871,400,4,1,1,70,1,0
198271,-200,4,1,1,70,0,0
198671,-200,4,1,7,60,0,0
198721,-200,4,1,1,40,0,0
199071,-200,4,1,1,70,0,0
200071,-100,4,1,7,70,0,0
200121,-100,4,1,1,70,0,0
201471,-200,4,1,1,70,0,0
201871,-200,4,1,7,80,0,0
201921,-200,4,1,1,40,0,0
202271,-200,4,1,1,70,0,0
203271,-100,4,1,1,70,0,0
211071,-200,4,1,1,70,0,0
211471,-200,4,1,7,80,0,0
211521,-200,4,1,1,40,0,0
211871,-200,4,1,1,70,0,0
212871,-100,4,1,1,70,0,0
214271,-200,4,1,1,70,0,0
214671,-200,4,1,7,80,0,0
214721,-200,4,1,1,40,0,0
215071,-200,4,1,1,70,0,0
216071,-100,4,1,1,70,0,0
223071,-100,4,1,2,70,0,0
223471,200,4,1,2,60,1,0
224871,-200,4,1,1,60,0,0
225071,-100,4,1,2,60,0,0
225871,-100,4,1,5,60,0,0
226671,-100,4,1,2,60,0,0
228071,-200,4,1,1,60,0,0
228271,-100,4,1,2,60,0,0
229671,-200,4,1,1,60,0,0
229871,-100,4,1,2,60,0,0
230471,-200,4,1,1,60,0,0
230671,-100,4,1,2,60,0,0
235471,-117.6471,4,1,2,60,0,0
236671,-100,4,1,2,60,0,0
241871,-117.6471,4,1,2,60,0,0
242071,-100,4,1,2,60,0,0
243471,-100,4,1,2,60,0,0
245071,-100,4,1,1,50,0,1
246671,-100,4,1,6,60,0,1
247071,-100,4,1,2,50,0,1
248071,-100,4,1,1,50,0,1
249671,-100,4,1,6,60,0,1
250071,-100,4,1,2,50,0,1
250271,-100,4,1,5,45,0,1
250671,-100,4,1,1,50,0,1
250871,-100,4,1,6,60,0,1
251271,-100,4,1,1,50,0,1
253071,-100,4,1,6,60,0,1
253471,-100,4,1,1,50,0,1
253671,-100,4,1,2,50,0,1
254271,-100,4,1,1,50,0,1
256071,-100,4,1,6,60,0,1
256471,-100,4,1,1,50,0,1
256671,-100,4,1,5,45,0,1
257071,-100,4,1,1,50,0,1
257271,-100,4,1,6,60,0,1
257671,200,4,1,1,50,1,0
259271,-76.92308,4,1,1,50,0,0
259471,-100,4,1,1,30,0,0
259671,-100,4,1,1,35,0,0
259871,-100,4,1,1,40,0,0
265271,-200,4,1,1,40,0,0
265671,-100,4,1,1,40,0,0
266871,-100,4,1,2,40,0,0
267221,-100,4,1,1,40,0,0
271671,-200,4,1,1,40,0,0
272071,-100,4,1,1,40,0,0
273271,-200,4,1,1,40,0,0
273671,-100,4,1,1,40,0,0
276071,-200,4,1,1,40,0,0
276871,-100,4,1,1,40,0,0
282471,-200,4,1,1,40,0,0
283271,-100,4,1,1,40,0,0
288871,-200,4,1,1,40,0,0
289671,-100,4,1,1,40,0,0
295271,-200,4,1,1,40,0,0
296071,-100,4,1,1,40,0,0
299271,185.1852,4,1,1,40,1,1
299271,-100,4,1,7,70,0,1
299364,-100,4,1,5,50,0,1
300011,-100,4,1,7,70,0,1
300105,-100,4,1,5,40,0,1
300197,-100,4,1,7,70,0,1
300290,-100,4,1,5,40,0,1
300382,-100,4,1,7,70,0,1
300475,-100,4,1,5,40,0,1
300567,-100,4,1,7,70,0,1
300660,-100,4,1,5,40,0,1
300752,-100,4,1,7,70,0,1
300799,-100,4,1,5,50,0,1
301493,-100,4,1,7,70,0,1
301585,-100,4,1,5,40,0,1
301678,-100,4,1,7,70,0,1
301771,-100,4,1,5,40,0,1
301864,-100,4,1,7,70,0,1
301956,-100,4,1,5,40,0,1
302049,-100,4,1,7,70,0,1
302141,-100,4,1,5,40,0,1
302234,-100,4,1,8,70,0,1
302280,-100,4,1,2,60,0,1
302975,-100,4,1,7,70,0,1
303067,-100,4,1,1,60,0,1
303345,-100,4,1,7,70,0,1
303438,-100,4,1,7,40,0,1
303530,-100,4,1,7,70,0,1
303576,-100,4,1,7,40,0,1
303623,-100,4,1,7,70,0,1
303669,-100,4,1,7,40,0,1
303715,-100,4,1,7,70,0,1
303761,-100,4,1,5,50,0,1
304456,-100,4,1,7,70,0,1
304549,-100,4,1,7,40,0,1
304641,-100,4,1,7,70,0,1
304734,-100,4,1,7,40,0,1
304826,-100,4,1,7,70,0,1
304919,-100,4,1,7,40,0,1
305011,-100,4,1,7,70,0,1
305105,-100,4,1,7,40,0,1
305197,-100,4,1,7,70,0,1
305243,-100,4,1,5,50,0,1
305938,-100,4,1,7,70,0,1
306030,-100,4,1,5,40,0,1
306123,-100,4,1,7,70,0,1
306215,-100,4,1,5,40,0,1
306308,-100,4,1,7,70,0,1
306400,-100,4,1,5,40,0,1
306493,-100,4,1,7,70,0,1
306585,-100,4,1,5,40,0,1
306678,-100,4,1,8,70,0,1
306725,-100,4,1,1,60,0,1
307419,-100,4,1,7,70,0,1
307511,-100,4,1,7,60,0,1
307790,-100,4,1,7,70,0,1
307882,-100,4,1,7,40,0,1
307975,-100,4,1,7,70,0,1
308021,-100,4,1,7,40,0,1
308160,-100,4,1,2,60,0,1
308206,-100,4,1,5,50,0,1
310011,-100,4,1,2,50,0,1
310660,-100,4,1,1,40,0,1
310752,-100,4,1,2,60,0,1
310799,-100,4,1,5,50,0,1
312605,-100,4,1,2,50,0,1
313252,-100,4,1,1,40,0,1
313345,-100,4,1,2,60,0,1
313391,-100,4,1,5,50,0,1
315197,-100,4,1,2,50,0,1
315845,-100,4,1,1,40,0,1
315938,-100,4,1,2,60,0,1
315984,-100,4,1,5,50,0,1
317790,-100,4,1,2,50,0,1
318530,357.1429,4,1,1,40,1,0
318530,-100,4,1,9,40,0,0
321387,-100,4,1,1,40,0,0
321745,-100,4,1,9,40,0,0
322101,-100,4,1,5,40,0,0
322815,-100,4,1,1,40,0,0
323173,-100,4,1,9,40,0,0
323530,-100,4,1,5,40,0,0
324245,-100,4,1,9,40,0,0
327101,-100,4,1,1,40,0,0
327459,-100,4,1,9,40,0,0
327815,-100,4,1,5,40,0,0
328530,-100,4,1,1,40,0,0
328887,-100,4,1,9,40,0,0
329245,-100,4,1,5,40,0,0
329959,-100,4,1,1,40,0,0
330673,-100,4,1,9,40,0,0
332101,-100,4,1,7,70,0,0
332190,-100,4,1,7,10,0,0
332280,-100,4,1,7,40,0,0
332459,-100,4,1,7,70,0,0
332548,-100,4,1,1,40,0,0
332815,250,4,1,5,100,1,0
332815,-100,4,1,5,40,0,0
332878,357.1429,4,1,5,40,1,0
333503,384.6154,4,1,5,40,1,0
333887,357.1429,4,1,2,100,1,0
333887,-100,4,1,2,60,0,0
334245,-100,4,1,9,100,0,0
334422,-100,4,1,9,5,0,0
335673,-200,4,1,3,40,0,0
339601,-200,4,1,5,40,0,0
339958,-200,4,1,3,40,0,0
357101,208.3333,4,1,10,40,1,0
357101,-100,4,1,10,40,0,1
358143,-100,4,1,5,40,0,1
358351,-100,4,1,10,40,0,1
358560,-100,4,1,5,40,0,1
358768,-100,4,1,10,40,0,1
366893,-100,4,1,5,40,0,1
367101,-100,4,1,2,40,0,1
369810,-100,4,1,9,60,0,1
369861,-100,4,1,2,40,0,1
370435,-100,4,1,10,40,0,1
373143,-100,4,1,5,40,0,1
373351,-100,4,1,10,40,0,1
373560,-100,4,1,5,40,0,1
373768,-100,4,1,10,40,0,1
377049,-100,4,1,1,40,0,0
377101,-100,4,1,10,40,0,1
383560,-100,4,1,5,40,0,1
383768,-100,4,1,10,40,0,1
386685,-100,4,1,5,40,0,1
386893,-100,4,1,10,40,0,1
390435,-100,4,2,1,40,0,0
393768,-100,4,2,9,60,0,0
393820,-200,4,2,1,40,0,0
397101,-100,4,1,1,40,0,0
400018,-200,4,1,5,40,0,0
400226,-200,4,1,1,40,0,0
403768,-100,4,1,2,65,0,1
403820,-100,4,1,5,40,0,1
405018,-100,4,1,6,50,0,1
405122,-100,4,1,5,40,0,1
405226,-100,4,1,6,50,0,1
405330,-100,4,1,5,40,0,1
405435,-100,4,1,2,40,0,1
405486,-100,4,1,5,40,0,1
407101,-100,4,1,2,40,0,1
407153,-100,4,1,5,40,0,1
408351,-100,4,1,6,50,0,1
408455,-100,4,1,5,40,0,1
408560,-100,4,1,6,50,0,1
408664,-100,4,1,5,40,0,1
408768,-100,4,1,2,40,0,1
408820,-100,4,1,5,40,0,1
410435,-100,4,1,2,60,0,0
411268,-100,4,1,11,80,0,0
411294,-100,4,1,2,40,0,0
411372,-100,4,1,2,60,0,0
412830,-100,4,1,11,80,0,0
412856,-100,4,1,2,40,0,0
412935,-100,4,1,2,60,0,0
415174,-100,4,1,2,30,0,0
415851,-100,4,1,2,23,0,0
416268,-100,4,1,2,15,0,0
416685,-100,4,1,2,10,0,0
417101,-100,4,1,2,5,0,0

[HitObjects]
256,192,44224,12,0,45317,0:0:0:0:
176,264,45474,5,4,0:0:0:0:
136,234,45525,1,0,0:0:0:0:
112,190,45578,1,0,0:0:0:0:
110,141,45630,1,0,0:0:0:0:
129,95,45682,1,0,0:0:0:0:
166,62,45734,1,0,0:0:0:0:
213,48,45786,1,0,0:0:0:0:
262,55,45838,1,0,0:0:0:0:
320,56,45890,6,0,L|372:92,3,50
312,64,46099,2,0,L|248:64,3,50
200,64,46307,6,0,L|176:128,1,50
240,120,46411,1,0,0:0:0:0:
288,120,46463,1,0,0:0:0:0:
326,152,46515,1,0,0:0:0:0:
333,200,46567,1,0,0:0:0:0:
308,242,46620,1,0,0:0:0:0:
261,257,46671,1,0,0:0:0:0:
200,264,46724,6,0,L|136:264,1,50
88,264,46828,2,0,L|72:208,1,50
228,192,46932,6,0,L|212:128,1,50
64,160,47036,2,0,L|48:96,1,50
328,56,47140,5,4,0:0:0:0:
376,66,47192,1,0,0:0:0:0:
408,103,47245,1,0,0:0:0:0:
413,152,47296,1,0,0:0:0:0:
408,176,47349,1,0,0:0:0:0:
390,222,47400,1,0,0:0:0:0:
357,260,47453,1,0,0:0:0:0:
314,284,47505,1,0,0:0:0:0:
256,288,47557,6,0,L|200:256,3,50
152,264,47765,2,0,L|104:236,3,50
64,280,47974,6,0,L|56:216,1,50
120,224,48078,2,0,L|184:224,1,50
232,224,48182,2,0,L|288:224,1,50
280,160,48286,2,0,L|216:160,1,50
168,160,48390,6,0,L|160:96,1,50
224,104,48495,2,0,L|216:40,1,50
64,128,48599,6,0,L|56:64,1,50
248,104,48703,2,0,L|240:40,1,50
56,184,48807,5,4,0:0:0:0:
64,232,48859,1,0,0:0:0:0:
93,272,48911,1,0,0:0:0:0:
138,293,48963,1,0,0:0:0:0:
200,296,49015,2,0,L|264:296,1,50
248,232,49120,2,0,L|176:232,1,50
136,232,49224,6,0,L|92:192,3,50
168,224,49432,2,0,L|248:224,3,50
256,232,49640,6,0,L|272:176,1,50
328,184,49745,2,0,L|344:128,1,50
400,136,49849,2,0,L|416:80,1,50
472,88,49953,2,0,L|488:32,1,50
424,40,50057,5,0,0:0:0:0:
374,36,50109,1,0,0:0:0:0:
329,57,50161,1,0,0:0:0:0:
300,97,50213,1,0,0:0:0:0:
448,136,50265,6,0,L|424:200,1,50
288,144,50370,2,0,L|264:208,1,50
424,200,50474,5,4,0:0:0:0:
405,246,50525,1,0,0:0:0:0:
376,286,50578,1,0,0:0:0:0:
337,318,50630,1,0,0:0:0:0:
280,344,50682,1,0,0:0:0:0:
232,359,50734,1,0,0:0:0:0:
183,354,50786,1,0,0:0:0:0:
139,331,50838,1,0,0:0:0:0:
112,280,50890,6,0,L|176:280,3,50
224,280,51099,2,0,L|244:228,3,50
424,280,51307,6,0,P|464:240|432:136,1,150
88,104,51515,6,0,P|48:144|80:248,1,150
416,192,51724,6,0,L|312:304,1,150
96,192,51932,6,0,L|200:80,1,150
440,128,52140,6,0,L|456:184,1,50
392,176,52245,2,0,L|376:120,1,50
440,128,52349,2,0,L|456:184,1,50
392,176,52453,2,0,L|328:184,1,50
280,184,52557,6,0,L|216:184,3,50
168,184,52765,2,0,L|104:184,3,50
56,184,52974,5,8,0:0:0:0:
33,227,53025,1,0,0:0:0:0:
31,277,53078,1,0,0:0:0:0:
50,323,53130,1,0,0:0:0:0:
88,355,53182,1,0,0:0:0:0:
135,369,53234,1,0,0:0:0:0:
184,360,53286,1,0,0:0:0:0:
225,332,53338,1,0,0:0:0:0:
272,296,53390,6,0,L|288:240,1,50
216,240,53495,2,0,L|232:184,1,50
352,264,53599,6,0,L|368:208,1,50
160,224,53703,2,0,L|176:168,1,50
424,232,53807,5,4,0:0:0:0:
445,187,53859,1,0,0:0:0:0:
449,137,53911,1,0,0:0:0:0:
434,90,53963,1,0,0:0:0:0:
402,51,54015,1,0,0:0:0:0:
359,27,54067,1,0,0:0:0:0:
310,20,54120,1,0,0:0:0:0:
261,32,54171,1,0,0:0:0:0:
200,40,54224,6,0,L|136:40,3,50
208,48,54432,2,0,L|264:48,3,50
320,48,54640,6,0,L|384:48,1,50
432,48,54745,2,0,L|368:48,1,50
312,72,54849,2,0,L|376:72,1,50
424,72,54953,2,0,L|360:72,1,50
304,72,55057,6,0,L|288:144,1,50
352,128,55161,2,0,L|336:200,1,50
216,112,55265,6,0,L|200:184,1,50
400,192,55370,2,0,L|384:264,1,50
112,320,55474,5,4,0:0:0:0:
63,315,55525,1,0,0:0:0:0:
27,281,55578,1,0,0:0:0:0:
21,233,55630,1,0,0:0:0:0:
80,224,55682,1,0,0:0:0:0:
128,228,55734,1,0,0:0:0:0:
164,262,55786,1,0,0:0:0:0:
170,310,55838,1,0,0:0:0:0:
232,312,55890,5,0,0:0:0:0:
280,307,55942,1,0,0:0:0:0:
316,273,55995,1,0,0:0:0:0:
322,225,56046,1,0,0:0:0:0:
264,224,56099,1,0,0:0:0:0:
215,219,56150,1,0,0:0:0:0:
179,185,56203,1,0,0:0:0:0:
173,137,56255,1,0,0:0:0:0:
232,136,56307,6,0,L|296:136,3,50
344,136,56515,2,0,L|408:136,1,50
400,200,56620,2,0,L|328:200,1,50
288,200,56724,6,0,L|272:272,1,50
336,256,56828,2,0,L|320:328,1,50
192,280,56932,6,0,L|176:352,1,50
392,312,57036,2,0,L|408:240,1,50
112,328,57140,5,4,0:0:0:0:
89,283,57192,1,0,0:0:0:0:
81,234,57245,1,0,0:0:0:0:
90,185,57296,1,0,0:0:0:0:
115,142,57349,1,0,0:0:0:0:
152,108,57400,1,0,0:0:0:0:
197,89,57453,1,0,0:0:0:0:
247,85,57505,1,0,0:0:0:0:
312,88,57557,6,0,L|344:44,3,50
304,88,57765,2,0,L|232:88,3,50
72,160,57974,6,0,L|40:320,1,150
440,224,58182,6,0,L|472:64,1,150
56,192,58390,6,0,P|80:144|176:104,1,150
456,192,58599,6,0,P|432:240|336:280,1,150
24,304,58807,6,0,L|20:104,1,200
256,200,59067,2,0,L|256:136,2,50
480,192,59224,2,0,L|480:312,1,100
256,192,59432,2,0,L|256:80,1,100
32,192,59640,5,4,0:0:0:0:
480,192,59849,2,0,L|480:312,1,100
32,192,60057,1,4,0:0:0:0:
480,184,60265,2,0,L|480:264,1,50
288,192,60370,1,0,0:0:0:0:
228,192,60421,1,0,0:0:0:0:
32,256,60474,6,0,B|16:40|16:40|32:240,1,400
32,344,60995,1,0,0:0:0:0:
256,336,61099,2,0,L|256:200,1,100
480,200,61307,5,4,0:0:0:0:
32,184,61515,2,0,L|32:264,1,50
224,192,61620,1,0,0:0:0:0:
284,192,61671,1,0,0:0:0:0:
480,160,61724,2,0,L|480:368,1,200
32,288,62140,6,0,L|32:88,1,200
256,136,62400,2,0,L|256:200,2,50
480,152,62557,2,0,L|480:272,1,100
256,240,62765,2,0,L|256:112,1,100
32,192,62974,5,4,0:0:0:0:
480,192,63182,2,0,L|480:304,1,100
32,192,63390,1,4,0:0:0:0:
480,184,63599,2,0,L|480:264,1,50
288,192,63703,1,0,0:0:0:0:
228,192,63755,1,0,0:0:0:0:
32,64,63807,6,0,B|16:352|16:352|32:232,1,400
32,16,64328,1,0,0:0:0:0:
256,168,64432,2,0,L|256:288,1,100
480,192,64640,5,4,0:0:0:0:
32,192,64849,2,0,L|32:128,3,50
256,112,65057,2,0,L|256:312,1,200
32,232,65474,6,0,L|24:176,3,50
160,232,65682,2,0,L|168:288,3,50
40,224,65890,6,0,L|16:176,1,50
16,120,65995,2,0,L|38:164,1,50
188,224,66099,2,0,L|212:176,1,50
220,120,66203,2,0,L|197:164,1,50
72,168,66307,6,0,L|8:168,1,50
80,144,66411,2,0,L|160:144,1,50
320,152,66515,2,0,L|384:152,1,50
312,176,66620,2,0,L|232:176,1,50
88,128,66724,6,0,L|160:128,1,50
200,128,66828,2,0,L|296:128,1,50
480,128,66932,2,0,L|504:176,3,50
184,192,67140,6,0,L|120:192,1,50
72,192,67245,2,0,L|16:192,1,50
256,136,67349,2,0,L|212:96,1,50
72,136,67453,2,0,L|8:136,1,50
328,192,67557,6,0,L|392:192,1,50
440,192,67661,2,0,L|496:192,1,50
256,248,67765,2,0,L|296:288,1,50
440,248,67870,2,0,L|504:248,1,50
236,208,67974,6,0,L|208:252,1,50
360,180,68078,2,0,L|392:220,1,50
256,104,68182,2,0,L|192:104,1,50
256,72,68286,2,0,L|320:72,1,50
88,104,68390,6,0,B|56:152|56:152|168:152,1,150
424,280,68599,6,0,B|456:232|456:232|344:232,1,150
104,248,68807,6,0,L|32:248,1,50
112,248,68911,2,0,L|168:248,1,50
408,136,69015,2,0,L|480:136,1,50
400,136,69120,2,0,L|344:136,1,50
64,184,69224,6,0,L|80:240,1,50
136,224,69328,2,0,L|152:280,1,50
392,272,69432,2,0,L|320:272,1,50
160,280,69536,2,0,L|80:280,1,50
392,224,69640,5,2,0:0:0:0:
438,212,69692,1,0,0:0:0:0:
453,166,69745,1,0,0:0:0:0:
422,130,69796,1,0,0:0:0:0:
176,120,69849,2,0,L|232:120,1,50
288,120,69953,2,0,L|344:120,1,50
120,160,70057,5,2,0:0:0:0:
73,171,70109,1,0,0:0:0:0:
58,217,70161,1,0,0:0:0:0:
89,253,70213,1,0,0:0:0:0:
336,264,70265,2,0,L|280:264,1,50
224,264,70370,2,0,L|168:264,1,50
400,224,70474,6,0,L|464:224,1,50
448,160,70578,2,0,L|376:160,1,50
112,160,70682,2,0,L|48:160,1,50
64,224,70786,2,0,L|136:224,1,50
344,224,70890,6,0,L|416:224,1,50
456,224,70995,2,0,L|512:224,1,50
168,224,71099,2,0,L|96:224,1,50
56,224,71203,2,0,L|0:224,1,50
376,192,71307,5,6,0:0:0:0:
426,192,71359,1,0,0:0:0:0:
476,192,71411,1,0,0:0:0:0:
208,192,71515,5,6,0:0:0:0:
258,192,71567,1,0,0:0:0:0:
308,192,71620,1,0,0:0:0:0:
32,192,71724,6,0,L|16:136,3,50
176,128,71932,6,0,L|192:72,3,50
32,160,72140,5,6,0:0:0:0:
28,209,72192,1,0,0:0:0:0:
48,254,72245,1,0,0:0:0:0:
88,283,72296,1,0,0:0:0:0:
137,290,72349,1,0,0:0:0:0:
183,271,72400,1,0,0:0:0:0:
215,233,72453,1,0,0:0:0:0:
224,185,72505,1,0,0:0:0:0:
248,128,72557,1,0,0:0:0:0:
276,168,72609,1,0,0:0:0:0:
322,185,72661,1,0,0:0:0:0:
369,172,72713,1,0,0:0:0:0:
496,168,72765,6,0,L|512:112,3,50
352,112,72974,5,4,0:0:0:0:
303,119,73025,1,0,0:0:0:0:
265,151,73078,1,0,0:0:0:0:
252,198,73130,1,0,0:0:0:0:
192,200,73182,1,0,0:0:0:0:
143,207,73234,1,0,0:0:0:0:
105,239,73286,1,0,0:0:0:0:
92,286,73338,1,0,0:0:0:0:
152,288,73390,5,4,0:0:0:0:
201,281,73442,1,0,0:0:0:0:
239,249,73495,1,0,0:0:0:0:
252,202,73546,1,0,0:0:0:0:
312,200,73599,1,4,0:0:0:0:
361,193,73650,1,0,0:0:0:0:
399,161,73703,1,4,0:0:0:0:
412,114,73755,1,0,0:0:0:0:
256,112,73807,6,0,L|240:56,3,50
408,72,74015,6,0,L|472:72,1,50
456,136,74120,2,0,L|384:136,1,50
200,136,74224,2,0,L|128:136,1,50
88,136,74328,2,0,L|24:136,1,50
312,248,74432,6,0,L|384:248,1,50
424,248,74536,2,0,L|488:248,1,50
104,312,74640,2,0,L|40:312,1,50
56,248,74745,2,0,L|128:248,1,50
168,248,74849,6,0,L|176:192,1,50
112,208,74953,2,0,L|48:208,1,50
344,208,75057,6,0,P|408:184|424:80,1,150
168,176,75265,6,0,P|104:200|88:304,1,150
384,288,75474,5,4,0:0:0:0:
426,262,75525,1,0,0:0:0:0:
452,220,75578,1,0,0:0:0:0:
457,170,75630,1,0,0:0:0:0:
439,124,75682,1,0,0:0:0:0:
402,91,75734,1,0,0:0:0:0:
355,77,75786,1,0,0:0:0:0:
306,86,75838,1,0,0:0:0:0:
248,88,75890,2,0,L|232:160,1,50
296,144,75995,2,0,L|352:144,1,50
24,160,76099,6,0,L|8:208,3,50
192,256,76307,5,6,0:0:0:0:
240,246,76359,1,0,0:0:0:0:
279,215,76411,1,0,0:0:0:0:
299,170,76463,1,0,0:0:0:0:
296,121,76515,1,0,0:0:0:0:
270,79,76567,1,0,0:0:0:0:
227,53,76620,1,0,0:0:0:0:
178,50,76671,1,0,0:0:0:0:
16,64,76724,6,0,L|32:136,1,50
88,112,76828,2,0,L|104:184,1,50
352,192,76932,6,0,L|288:192,1,50
160,192,77036,2,0,L|104:192,1,50
320,304,77140,6,0,L|392:304,1,50
432,304,77245,2,0,L|496:304,1,50
424,304,77349,1,0,0:0:0:0:
374,302,77400,1,0,0:0:0:0:
332,277,77453,1,0,0:0:0:0:
307,234,77505,1,0,0:0:0:0:
307,185,77557,1,0,0:0:0:0:
331,142,77609,1,0,0:0:0:0:
373,116,77661,1,0,0:0:0:0:
422,114,77713,1,0,0:0:0:0:
256,96,77765,6,0,L|192:96,1,50
32,128,77870,2,0,L|16:184,1,50
296,192,77974,6,0,L|368:192,1,50
408,192,78078,2,0,L|480:192,1,50
160,192,78182,2,0,L|96:192,1,50
112,256,78286,2,0,L|192:256,1,50
352,192,78390,6,0,L|416:192,1,50
400,256,78495,2,0,L|320:256,1,50
216,192,78599,2,0,L|144:192,1,50
104,192,78703,2,0,L|32:192,1,50
488,192,78807,6,0,L|504:144,11,50
352,136,79432,6,0,L|336:88,3,50
160,136,79640,6,0,L|176:88,3,50
344,232,79849,6,0,L|328:184,3,50
32,272,80057,6,0,L|48:224,3,50
240,248,80265,6,0,L|296:248,1,50
296,184,80370,2,0,L|224:184,1,50
24,192,80474,6,0,L|8:240,11,50
160,136,81099,6,0,L|176:88,3,50
424,120,81307,5,4,0:0:0:0:
420,169,81359,1,0,0:0:0:0:
398,213,81411,1,0,0:0:0:0:
359,244,81463,1,0,0:0:0:0:
296,248,81515,1,6,0:0:0:0:
253,225,81567,1,0,0:0:0:0:
240,178,81620,1,4,0:0:0:0:
266,137,81671,1,0,0:0:0:0:
440,128,81724,6,0,P|456:176|368:224,1,150
72,256,81932,6,0,P|56:208|144:160,1,150
368,64,82140,5,4,0:0:0:0:
388,109,82192,1,0,0:0:0:0:
392,159,82245,1,0,0:0:0:0:
381,207,82296,1,0,0:0:0:0:
355,249,82349,1,0,0:0:0:0:
316,281,82400,1,0,0:0:0:0:
270,298,82453,1,0,0:0:0:0:
220,300,82505,1,0,0:0:0:0:
160,296,82557,5,0,0:0:0:0:
139,250,82609,1,0,0:0:0:0:
135,200,82661,1,0,0:0:0:0:
146,152,82713,1,0,0:0:0:0:
172,110,82765,1,4,0:0:0:0:
211,78,82817,1,0,0:0:0:0:
257,61,82870,1,0,0:0:0:0:
307,59,82921,1,0,0:0:0:0:
80,72,82974,6,0,L|48:144,1,50
88,168,83078,2,0,L|144:168,1,50
432,72,83182,6,0,L|464:144,1,50
424,168,83286,2,0,L|368:168,1,50
96,320,83390,5,6,0:0:0:0:
84,272,83442,1,0,0:0:0:0:
104,226,83495,1,0,0:0:0:0:
146,201,83546,1,0,0:0:0:0:
416,64,83599,5,6,0:0:0:0:
427,111,83650,1,0,0:0:0:0:
407,157,83703,1,0,0:0:0:0:
365,182,83755,1,0,0:0:0:0:
136,272,83807,5,6,0:0:0:0:
98,239,83859,1,0,0:0:0:0:
76,194,83911,1,0,0:0:0:0:
75,145,83963,1,0,0:0:0:0:
93,99,84015,1,0,0:0:0:0:
129,64,84067,1,0,0:0:0:0:
176,47,84120,1,0,0:0:0:0:
225,50,84171,1,0,0:0:0:0:
288,56,84224,5,0,0:0:0:0:
335,55,84275,1,0,0:0:0:0:
357,97,84328,1,0,0:0:0:0:
329,135,84380,1,0,0:0:0:0:
272,136,84432,1,6,0:0:0:0:
224,135,84484,1,0,0:0:0:0:
202,177,84536,1,6,0:0:0:0:
230,215,84588,1,0,0:0:0:0:
496,232,84640,6,0,L|504:176,3,50
240,176,84849,6,0,L|232:120,3,50
440,112,85057,6,0,L|472:64,1,50
328,104,85161,2,0,L|296:152,1,50
472,112,85265,2,0,L|504:64,1,50
360,104,85370,2,0,L|288:104,1,50
120,128,85474,6,0,L|8:128,1,100
160,128,85682,2,0,L|112:232,1,100
392,256,85890,2,0,L|504:256,1,100
352,256,86099,2,0,L|400:152,1,100
208,128,86307,2,0,L|336:128,3,100
88,96,86724,5,6,0:0:0:0:
376,128,86828,1,6,0:0:0:0:
136,128,86932,2,0,L|80:128,1,50
88,192,87036,2,0,L|146:192,1,50
392,192,87140,6,0,L|512:192,3,100
176,136,87557,2,0,L|76:136,3,100
208,76,87974,2,0,L|108:76,1,100
480,192,88182,5,6,0:0:0:0:
32,248,88390,1,6,0:0:0:0:
480,88,88599,1,6,0:0:0:0:
152,48,88807,5,6,0:0:0:0:
107,70,88859,1,0,0:0:0:0:
72,105,88911,1,0,0:0:0:0:
48,149,88963,1,0,0:0:0:0:
38,198,89015,1,4,0:0:0:0:
44,247,89067,1,0,0:0:0:0:
63,293,89120,1,0,0:0:0:0:
96,331,89171,1,0,0:0:0:0:
138,358,89224,5,0,0:0:0:0:
200,360,89275,1,0,0:0:0:0:
239,330,89327,1,0,0:0:0:0:
262,286,89380,1,0,0:0:0:0:
72,200,89431,5,4,0:0:0:0:
95,156,89484,1,0,0:0:0:0:
136,128,89535,1,0,0:0:0:0:
185,122,89588,1,0,0:0:0:0:
424,120,89640,6,0,L|488:120,1,50
480,184,89745,2,0,L|424:184,1,50
184,184,89849,6,0,L|160:128,1,50
336,128,89953,6,0,L|312:72,1,50
144,72,90057,6,0,L|88:72,1,50
88,136,90161,2,0,L|176:136,1,50
368,312,90265,6,0,L|424:312,1,50
424,248,90370,2,0,L|336:248,1,50
128,328,90474,5,6,0:0:0:0:
85,302,90525,1,0,0:0:0:0:
55,262,90578,1,0,0:0:0:0:
42,214,90630,1,0,0:0:0:0:
47,165,90682,1,4,0:0:0:0:
71,121,90734,1,0,0:0:0:0:
108,89,90786,1,0,0:0:0:0:
155,72,90838,1,0,0:0:0:0:
384,72,90890,6,0,L|320:72,1,50
272,72,90995,2,0,L|192:72,1,50
416,120,91099,6,0,L|480:120,1,50
472,184,91203,2,0,L|408:184,1,50
192,192,91307,6,0,L|112:192,1,50
80,192,91411,2,0,L|-8:192,1,50
320,120,91515,6,0,L|384:120,1,50
192,120,91620,6,0,L|128:120,1,50
320,64,91724,6,0,L|400:64,1,50
432,64,91828,2,0,L|488:64,1,50
192,64,91932,6,0,L|112:64,1,50
80,64,92036,2,0,L|24:64,1,50
384,288,92140,6,0,L|496:288,1,100
280,224,92349,2,0,L|392:224,1,100
128,96,92557,6,0,L|16:96,1,100
232,160,92765,2,0,L|120:160,1,100
480,152,92974,6,0,L|352:152,1,100
112,152,93182,2,0,L|240:152,1,100
400,152,93390,6,0,L|272:152,1,100
32,152,93599,2,0,L|160:152,1,100
376,168,93807,6,0,L|496:168,1,100
136,168,94015,2,0,L|16:168,1,100
304,152,94224,6,0,L|176:152,3,100
448,208,94640,6,0,L|472:320,1,100
208,136,94849,2,0,L|184:248,1,100
304,240,95057,6,0,L|328:128,1,100
64,176,95265,2,0,L|40:64,1,100
376,40,95474,5,4,0:0:0:0:
412,88,95525,1,0,0:0:0:0:
422,126,95578,1,0,0:0:0:0:
427,176,95630,1,0,0:0:0:0:
419,225,95682,1,4,0:0:0:0:
399,271,95734,1,0,0:0:0:0:
367,309,95786,1,0,0:0:0:0:
327,338,95838,1,0,0:0:0:0:
48,184,95890,5,0,0:0:0:0:
31,230,95942,1,0,0:0:0:0:
50,275,95995,1,0,0:0:0:0:
94,296,96046,1,0,0:0:0:0:
432,256,96099,6,0,L|400:200,1,50
360,176,96203,2,0,L|288:152,1,50
128,120,96307,6,0,L|168:88,1,50
228,84,96411,2,0,L|308:84,1,50
36,124,96515,5,4,0:0:0:0:
17,169,96567,1,0,0:0:0:0:
22,218,96620,1,4,0:0:0:0:
49,259,96671,1,0,0:0:0:0:
200,168,96724,6,0,L|224:224,3,50
400,208,96932,6,0,L|376:264,3,50
192,224,97140,6,0,L|96:224,1,50
80,224,97245,2,0,L|0:224,1,50
256,144,97349,6,0,L|216:96,1,50
72,144,97453,2,0,L|16:144,1,50
256,240,97557,6,0,L|296:288,1,50
432,224,97661,2,0,L|512:224,1,50
256,144,97765,6,0,L|296:96,1,50
440,144,97870,2,0,L|496:144,1,50
80,152,97974,6,0,L|36:220,1,50
72,252,98078,2,0,L|116:196,1,50
344,288,98182,6,0,L|288:348,1,50
248,328,98286,2,0,L|160:328,1,50
32,48,98390,6,0,L|8:104,1,50
32,152,98495,2,0,L|96:152,1,50
432,296,98599,6,0,L|488:296,1,50
480,232,98703,2,0,L|416:232,1,50
128,96,98807,6,0,L|16:96,1,100
232,160,99015,2,0,L|120:160,1,100
384,288,99224,6,0,L|496:288,1,100
280,224,99432,2,0,L|392:224,1,100
32,232,99640,6,0,L|160:232,1,100
400,232,99849,2,0,L|272:232,1,100
112,232,100057,6,0,L|240:232,1,100
480,232,100265,2,0,L|352:232,1,100
136,216,100474,6,0,L|16:216,1,100
376,216,100682,2,0,L|496:216,1,100
208,232,100890,6,0,L|336:232,3,100
64,176,101307,6,0,L|40:64,1,100
304,248,101515,2,0,L|328:136,1,100
208,144,101724,6,0,L|184:256,1,100
448,208,101932,2,0,L|472:320,1,100
136,344,102140,5,4,0:0:0:0:
107,304,102192,1,0,0:0:0:0:
90,258,102245,1,0,0:0:0:0:
85,208,102296,1,0,0:0:0:0:
93,159,102349,1,4,0:0:0:0:
113,113,102400,1,0,0:0:0:0:
145,75,102453,1,0,0:0:0:0:
185,46,102505,1,0,0:0:0:0:
472,64,102557,5,0,0:0:0:0:
423,60,102609,1,0,0:0:0:0:
374,68,102661,1,0,0:0:0:0:
328,89,102713,1,0,0:0:0:0:
80,128,102765,6,0,L|112:184,1,50
152,208,102870,2,0,L|224:232,1,50
384,264,102974,6,0,L|320:264,1,50
272,264,103078,2,0,L|192:264,1,50
488,264,103182,6,0,L|512:208,3,50
312,216,103390,6,0,L|288:160,3,50
112,176,103599,6,0,L|136:120,3,50
320,160,103807,6,0,L|416:160,1,50
432,160,103911,2,0,L|512:160,1,50
256,240,104015,6,0,L|320:240,1,50
440,240,104120,2,0,L|496:240,1,50
100,168,104224,6,0,L|4:168,1,50
56,108,104328,2,0,L|106:108,1,50
256,240,104432,6,0,L|316:240,1,50
248,252,104536,2,0,L|192:252,1,50
432,232,104640,6,0,L|460:164,1,50
440,128,104745,2,0,L|408:48,1,50
168,96,104849,6,0,L|248:96,1,50
280,96,104953,2,0,L|368:96,1,50
80,88,105057,6,0,L|24:88,1,50
32,152,105161,2,0,L|96:152,1,50
432,296,105265,6,0,L|488:296,1,50
480,232,105370,2,0,L|416:232,1,50
192,224,105474,6,0,L|120:224,1,50
80,224,105578,2,0,L|0:224,1,50
192,160,105682,2,0,L|256:160,1,50
72,160,105786,2,0,L|16:160,1,50
200,144,105890,6,0,L|264:144,1,50
80,144,105995,2,0,L|24:144,1,50
208,128,106099,2,0,L|272:128,1,50
88,128,106203,2,0,L|32:128,1,50
320,160,106307,6,0,L|392:160,1,50
432,160,106411,2,0,L|512:160,1,50
320,224,106515,2,0,L|256:224,1,50
440,224,106620,2,0,L|496:224,1,50
428,228,106724,6,0,L|364:228,1,50
432,240,106828,2,0,L|488:240,1,50
304,256,106932,2,0,L|240:256,1,50
424,256,107036,2,0,L|480:256,1,50
128,104,107140,5,6,0:0:0:0:
81,121,107192,1,0,0:0:0:0:
47,157,107245,1,0,0:0:0:0:
31,204,107296,1,0,0:0:0:0:
37,253,107349,1,2,0:0:0:0:
63,295,107400,1,0,0:0:0:0:
105,322,107453,1,0,0:0:0:0:
154,328,107505,1,0,0:0:0:0:
384,280,107557,5,6,0:0:0:0:
431,263,107609,1,0,0:0:0:0:
465,227,107661,1,0,0:0:0:0:
481,180,107713,1,0,0:0:0:0:
475,131,107765,1,2,0:0:0:0:
449,89,107817,1,0,0:0:0:0:
407,62,107870,1,0,0:0:0:0:
358,56,107921,1,0,0:0:0:0:
176,168,107974,6,0,L|168:116,1,50
228,112,108078,2,0,L|324:112,1,50
340,112,108182,2,0,L|332:168,1,50
276,168,108286,2,0,L|180:168,1,50
360,220,108390,6,0,L|364:276,1,50
304,268,108495,2,0,L|208:268,1,50
192,268,108599,6,0,L|184:216,1,50
244,208,108703,2,0,L|340:208,1,50
16,192,108807,6,0,L|0:248,3,50
16,184,109015,2,0,L|64:128,1,50
104,128,109120,2,0,L|184:128,1,50
336,112,109224,5,2,0:0:0:0:
344,161,109275,1,0,0:0:0:0:
338,210,109328,1,0,0:0:0:0:
318,255,109380,1,0,0:0:0:0:
285,293,109432,1,2,0:0:0:0:
243,319,109484,1,0,0:0:0:0:
195,332,109536,1,0,0:0:0:0:
145,330,109588,1,0,0:0:0:0:
416,304,109640,6,0,L|480:304,1,50
408,280,109745,2,0,L|336:280,1,50
416,256,109849,2,0,L|480:256,1,50
408,232,109953,2,0,L|336:232,1,50
96,240,110057,6,0,L|32:240,1,50
192,184,110161,2,0,L|256:184,1,50
72,200,110265,2,0,L|8:200,1,50
168,144,110370,2,0,L|232:144,1,50
24,144,110474,6,0,L|16:88,1,50
64,56,110578,2,0,L|144:56,1,50
176,56,110682,1,2,0:0:0:0:
224,64,110734,1,0,0:0:0:0:
262,96,110786,1,0,0:0:0:0:
280,142,110838,1,0,0:0:0:0:
272,191,110890,5,2,0:0:0:0:
241,230,110942,1,0,0:0:0:0:
196,248,110995,1,0,0:0:0:0:
147,242,111046,1,0,0:0:0:0:
88,256,111099,1,2,0:0:0:0:
104,302,111150,1,0,0:0:0:0:
142,334,111203,1,0,0:0:0:0:
190,344,111255,1,0,0:0:0:0:
480,328,111307,6,0,L|496:272,3,50
352,232,111515,6,0,L|336:176,3,50
160,232,111724,6,0,L|176:176,3,50
32,328,111932,6,0,L|16:272,3,50
320,160,112140,6,0,L|392:160,1,50
432,160,112245,2,0,L|512:160,1,50
320,224,112349,2,0,L|256:224,1,50
440,224,112453,2,0,L|496:224,1,50
312,240,112557,6,0,L|248:240,1,50
432,240,112661,2,0,L|488:240,1,50
304,256,112765,2,0,L|240:256,1,50
424,256,112870,2,0,L|480:256,1,50
192,224,112974,6,0,L|120:224,1,50
80,224,113078,2,0,L|0:224,1,50
192,160,113182,2,0,L|256:160,1,50
184,140,113286,2,0,L|128:140,1,50
200,144,113390,6,0,L|264:144,1,50
80,144,113495,2,0,L|24:144,1,50
92,140,113599,2,0,L|156:140,1,50
88,128,113703,2,0,L|32:128,1,50
384,280,113807,5,6,0:0:0:0:
431,263,113859,1,0,0:0:0:0:
465,227,113911,1,0,0:0:0:0:
481,180,113963,1,0,0:0:0:0:
475,131,114015,1,2,0:0:0:0:
449,89,114067,1,0,0:0:0:0:
407,62,114120,1,0,0:0:0:0:
358,56,114171,1,0,0:0:0:0:
128,104,114224,5,6,0:0:0:0:
81,121,114275,1,0,0:0:0:0:
47,157,114328,1,0,0:0:0:0:
31,204,114380,1,0,0:0:0:0:
37,253,114432,1,2,0:0:0:0:
63,295,114484,1,0,0:0:0:0:
105,322,114536,1,0,0:0:0:0:
154,328,114588,1,0,0:0:0:0:
336,216,114640,6,0,L|248:216,1,50
224,216,114745,2,0,L|128:216,1,50
228,188,114849,2,0,L|316:188,1,50
340,188,114953,2,0,L|436:188,1,50
176,168,115057,6,0,L|264:168,1,50
288,168,115161,2,0,L|384:168,1,50
388,204,115265,6,0,L|300:204,1,50
280,220,115370,2,0,L|184:220,1,50
496,192,115474,6,0,L|512:136,3,50
496,200,115682,2,0,L|448:256,1,50
408,256,115786,2,0,L|328:256,1,50
176,272,115890,5,2,0:0:0:0:
168,223,115942,1,0,0:0:0:0:
174,174,115995,1,0,0:0:0:0:
194,129,116046,1,0,0:0:0:0:
227,91,116099,1,2,0:0:0:0:
269,65,116150,1,0,0:0:0:0:
317,52,116203,1,0,0:0:0:0:
367,54,116255,1,0,0:0:0:0:
96,80,116307,6,0,L|32:80,1,50
104,104,116411,2,0,L|176:104,1,50
96,128,116515,2,0,L|32:128,1,50
104,152,116620,2,0,L|176:152,1,50
416,144,116724,6,0,L|480:144,1,50
320,200,116828,2,0,L|256:200,1,50
440,184,116932,2,0,L|504:184,1,50
344,240,117036,2,0,L|280:240,1,50
488,240,117140,6,0,L|496:296,1,50
448,328,117245,2,0,L|368:328,1,50
336,328,117349,1,2,0:0:0:0:
288,320,117400,1,0,0:0:0:0:
250,288,117453,1,0,0:0:0:0:
232,242,117505,1,0,0:0:0:0:
240,193,117557,5,2,0:0:0:0:
271,154,117609,1,0,0:0:0:0:
316,136,117661,1,0,0:0:0:0:
365,142,117713,1,0,0:0:0:0:
424,128,117765,1,2,0:0:0:0:
408,82,117817,1,0,0:0:0:0:
370,50,117870,1,0,0:0:0:0:
322,40,117921,1,0,0:0:0:0:
32,56,117974,6,0,L|16:112,3,50
160,152,118182,6,0,L|176:208,3,50
352,152,118390,6,0,L|336:208,3,50
480,56,118599,6,0,L|496:112,3,50
136,104,118807,5,4,0:0:0:0:
16,104,118911,1,0,0:0:0:0:
136,104,119015,1,0,0:0:0:0:
256,104,119120,1,0,0:0:0:0:
136,184,119224,1,0,0:0:0:0:
16,184,119328,1,0,0:0:0:0:
136,184,119432,1,0,0:0:0:0:
256,184,119536,1,0,0:0:0:0:
136,280,119640,5,8,0:0:0:0:
16,280,119745,1,0,0:0:0:0:
136,280,119849,1,0,0:0:0:0:
256,280,119953,1,0,0:0:0:0:
136,104,120057,1,0,0:0:0:0:
16,104,120161,1,0,0:0:0:0:
416,192,120265,5,6,0:0:0:0:
168,176,120370,1,6,0:0:0:0:
376,280,120474,5,4,0:0:0:0:
496,280,120578,1,0,0:0:0:0:
376,280,120682,1,0,0:0:0:0:
256,280,120786,1,0,0:0:0:0:
376,200,120890,1,0,0:0:0:0:
496,200,120995,1,0,0:0:0:0:
376,200,121099,1,0,0:0:0:0:
256,200,121203,1,0,0:0:0:0:
376,104,121307,5,8,0:0:0:0:
496,104,121411,1,0,0:0:0:0:
376,104,121515,1,0,0:0:0:0:
256,104,121620,1,0,0:0:0:0:
376,280,121724,1,8,0:0:0:0:
496,280,121828,1,8,0:0:0:0:
96,192,121932,5,6,0:0:0:0:
416,192,122036,1,6,0:0:0:0:
64,184,122140,6,0,L|32:304,1,100
160,288,122349,2,0,L|192:168,1,100
304,192,122557,2,0,L|272:312,1,100
400,296,122765,2,0,L|432:176,1,100
304,192,122974,6,0,L|168:192,1,100
336,160,123182,2,0,L|216:160,1,100
368,128,123390,2,0,L|232:128,1,100
400,80,123599,5,6,0:0:0:0:
144,80,123703,1,6,0:0:0:0:
448,200,123807,6,0,L|480:80,1,100
352,96,124015,2,0,L|320:216,1,100
208,192,124224,2,0,L|240:72,1,100
112,88,124432,2,0,L|80:208,1,100
392,288,124640,6,0,P|448:240|408:168,1,150
120,96,124849,6,0,P|64:144|104:216,1,150
448,288,125057,6,0,L|328:192,1,150
64,96,125265,6,0,L|184:192,1,150
448,248,125474,6,0,L|472:128,1,100
208,144,125682,2,0,L|328:144,1,100
64,136,125890,2,0,L|40:256,1,100
304,240,126099,2,0,L|184:240,1,100
464,272,126307,6,0,L|488:160,1,100
208,280,126515,2,0,L|184:168,1,100
304,104,126724,2,0,L|328:216,1,100
88,240,126932,5,6,0:0:0:0:
424,240,127036,1,6,0:0:0:0:
64,136,127140,6,0,L|40:256,1,100
304,240,127349,2,0,L|184:240,1,100
448,248,127557,2,0,L|472:128,1,100
208,144,127765,2,0,L|328:144,1,100
48,112,127974,6,0,L|24:224,1,100
304,104,128182,2,0,L|328:216,1,100
208,280,128390,2,0,L|184:168,1,100
424,144,128599,5,6,0:0:0:0:
88,144,128703,1,6,0:0:0:0:
392,200,128807,6,0,L|504:200,1,100
264,200,129015,2,0,L|376:200,1,100
156,200,129224,2,0,L|268:200,1,100
32,200,129432,2,0,L|144:200,1,100
392,200,129640,6,0,L|504:200,1,100
156,200,129849,2,0,L|268:200,1,100
32,200,130057,2,0,L|144:200,1,100
384,152,130265,5,6,0:0:0:0:
128,152,130370,1,6,0:0:0:0:
456,168,130474,6,0,L|472:280,1,100
352,272,130682,2,0,L|336:160,1,100
216,168,130890,2,0,L|232:280,1,100
112,272,131099,2,0,L|96:160,1,100
464,280,131307,6,0,L|480:104,1,150
336,128,131515,6,0,L|320:304,1,150
200,280,131724,6,0,L|216:104,1,150
72,128,131932,6,0,L|56:304,1,150
424,280,132140,5,4,0:0:0:0:
432,280,132570,1,0,0:0:0:0:
440,280,132985,1,0,0:0:0:0:
448,280,133401,1,0,0:0:0:0:
456,280,133818,1,0,0:0:0:0:
464,280,134234,1,0,0:0:0:0:
472,280,134634,5,6,0:0:0:0:
472,280,136723,5,0,0:0:0:0:
472,280,136776,1,0,0:0:0:0:
156,192,137155,2,0,L|356:192,1,200
40,280,137935,5,0,0:0:0:0:
40,280,137988,1,0,0:0:0:0:
448,288,138795,2,0,L|448:64,1,200
184,180,139652,6,0,B|188:16|188:16|188:68,1,200
424,92,140420,5,0,0:0:0:0:
168,208,140680,1,0,0:0:0:0:
296,212,140900,1,0,0:0:0:0:
48,208,141330,1,0,0:0:0:0:
384,152,141731,1,0,0:0:0:0:
120,156,142044,2,0,L|84:156,3,25
452,192,143815,5,0,0:0:0:0:
212,164,144231,1,0,0:0:0:0:
448,68,144440,1,0,0:0:0:0:
336,72,144635,6,0,P|248:76|168:136,1,175
240,128,145051,2,0,P|364:148|392:216,1,200
148,208,145885,5,0,0:0:0:0:
148,208,145936,1,0,0:0:0:0:
456,188,146705,5,0,0:0:0:0:
76,116,147550,5,0,0:0:0:0:
76,116,147603,1,0,0:0:0:0:
392,132,148358,5,0,0:0:0:0:
392,132,148410,1,0,0:0:0:0:
128,184,148813,5,0,0:0:0:0:
284,156,149224,6,0,P|352:168|296:264,1,200
225,237,150005,2,0,L|176:244,2,50
316,264,150474,6,0,P|344:224|328:160,1,100
228,168,150890,1,0,0:0:0:0:
308,168,150995,1,0,0:0:0:0:
200,168,151099,6,0,L|144:168,2,50
488,172,151724,6,0,P|456:212|296:224,1,200
416,184,152505,1,0,0:0:0:0:
264,144,152661,1,0,0:0:0:0:
112,112,152817,1,0,0:0:0:0:
280,108,152974,6,0,L|396:104,1,100
232,276,153599,2,0,L|116:280,2,100
92,280,154536,6,0,L|60:216,1,50
200,228,154849,2,0,L|232:292,1,50
92,280,155161,6,0,P|64:264|80:196,1,100
104,196,155551,2,0,L|144:184,1,25
308,180,155786,6,0,L|416:176,6,100
168,180,157817,1,8,0:0:0:0:
308,156,157974,2,0,L|380:156,1,50
216,96,158286,2,0,L|108:92,1,100
80,88,158676,2,0,L|60:120,1,25
268,124,158911,5,4,0:0:0:0:
85,240,159224,2,0,P|47:211|52:164,2,100
164,164,160005,1,0,0:0:0:0:
360,160,160161,1,0,0:0:0:0:
248,164,160317,1,0,0:0:0:0:
63,259,160474,6,0,L|52:160,1,100
176,256,160890,1,0,0:0:0:0:
96,256,160995,1,0,0:0:0:0:
208,256,161099,2,0,L|272:256,1,50
432,256,161411,6,0,L|464:176,1,75
68,252,161724,6,0,L|60:164,1,75
444,132,162036,6,0,L|452:220,1,75
179,238,162349,6,0,L|80:252,1,100
248,232,162817,1,0,0:0:0:0:
316,224,162974,1,0,0:0:0:0:
384,220,163130,1,0,0:0:0:0:
232,184,163286,6,0,L|112:184,1,100
280,200,163911,2,0,L|400:200,1,100
232,200,164536,6,0,L|112:200,1,100
280,184,165161,2,0,L|348:184,1,50
168,184,165474,6,0,P|184:160|264:136,1,100
284,132,165864,2,0,L|328:132,1,25
148,96,166099,6,0,L|268:96,1,100
364,288,166724,2,0,L|244:288,1,100
116,96,167349,6,0,L|236:96,1,100
396,288,167974,2,0,L|276:288,1,100
228,288,168442,1,0,0:0:0:0:
88,292,168599,2,0,L|80:224,1,50
216,232,168911,2,0,L|224:192,2,25
32,188,169224,5,4,0:0:0:0:
480,192,169533,6,0,P|476:256|272:272,1,300
152,248,170366,2,0,P|188:204|348:188,2,200
360,136,171616,2,0,P|324:180|164:196,1,200
52,228,172658,6,0,L|36:120,2,100
220,204,173283,2,0,P|296:232|184:320,1,300
36,248,174116,2,0,L|152:248,1,100
472,268,174533,6,0,B|480:208|480:208|472:256|472:256|496:128|496:128|424:128,1,300
348,208,175366,2,0,L|144:208,1,200
164,176,176200,2,0,L|368:176,1,200
84,172,177033,2,0,L|404:168,1,300
248,144,177866,6,0,L|128:144,1,100
264,240,178283,2,0,L|384:240,1,100
208,144,178700,6,0,L|88:144,1,100
208,196,179012,1,0,0:0:0:0:
304,240,179116,2,0,L|424:240,1,100
32,192,179533,5,6,0:0:0:0:
480,200,179950,6,0,L|488:120,2,66.66666
388,200,180366,2,0,L|380:280,2,66.66666
296,196,180783,2,0,L|68:192,2,200
32,192,182033,6,0,B|44:64|152:176|248:96|248:96|204:56,1,300
92,60,182866,2,0,L|216:60,1,100
332,72,183283,6,0,P|328:128|120:188,1,300
268,232,184116,2,0,L|144:232,1,100
32,184,184533,6,0,L|24:264,2,66.66666
124,184,184950,2,0,L|132:104,2,66.66666
216,192,185366,2,0,L|208:272,2,66.66666
308,192,185783,2,0,L|80:188,2,200
28,188,187033,6,0,P|40:248|240:320,1,300
132,232,187866,2,0,L|244:236,1,100
380,152,188283,2,0,L|268:148,1,100
96,232,188700,5,0,0:0:0:0:
145,233,188804,1,0,0:0:0:0:
195,235,188908,1,0,0:0:0:0:
316,200,189012,1,0,0:0:0:0:
416,152,189116,1,0,0:0:0:0:
366,150,189220,1,0,0:0:0:0:
316,148,189325,1,0,0:0:0:0:
196,200,189429,1,0,0:0:0:0:
12,220,189533,6,0,L|0:332,1,100
140,328,189950,2,0,L|152:216,1,100
292,232,190366,2,0,L|280:344,1,100
420,340,190783,2,0,L|432:228,1,100
292,228,191200,2,0,L|280:116,1,100
140,132,191616,2,0,L|152:244,1,100
292,224,192033,2,0,L|304:336,1,100
444,320,192450,2,0,L|432:208,1,100
192,196,192866,5,0,0:0:0:0:
480,216,193283,6,0,L|480:196,7,12.5
212,296,193700,6,0,L|192:192,1,100
300,88,194116,2,0,L|320:192,1,100
188,296,194533,2,0,L|168:192,1,100
324,88,194950,2,0,L|344:192,1,100
152,296,195366,2,0,L|132:192,1,100
360,88,195783,2,0,L|380:192,1,100
120,296,196200,2,0,L|100:192,1,100
392,88,196616,2,0,L|412:192,1,100
244,200,197033,5,0,0:0:0:0:
480,216,197450,6,0,L|480:204,7,12.5
52,168,197871,6,0,L|32:272,1,100
104,264,198271,2,0,L|220:264,1,100
220,264,198721,1,0,0:0:0:0:
232,261,198771,1,0,0:0:0:0:
243,256,198821,1,0,0:0:0:0:
252,247,198871,1,0,0:0:0:0:
257,236,198921,1,0,0:0:0:0:
259,224,198971,1,0,0:0:0:0:
257,211,199021,1,0,0:0:0:0:
104,176,199071,6,0,L|44:176,1,50
224,120,199471,2,0,L|284:120,2,50
364,112,200071,6,0,L|380:324,1,200
240,312,200671,2,0,L|188:312,2,33.33333
192,312,200871,2,0,L|140:312,2,33.33333
460,216,201071,6,0,L|480:112,1,100
408,120,201471,2,0,L|292:120,1,100
292,120,201921,1,0,0:0:0:0:
280,123,201971,1,0,0:0:0:0:
269,128,202021,1,0,0:0:0:0:
260,137,202071,1,0,0:0:0:0:
255,148,202121,1,0,0:0:0:0:
253,160,202171,1,0,0:0:0:0:
255,173,202221,1,0,0:0:0:0:
408,208,202271,6,0,L|468:208,1,50
288,264,202671,2,0,L|228:264,2,50
148,272,203271,6,0,L|132:60,1,200
272,72,203871,2,0,L|324:72,2,33.33333
320,72,204071,2,0,L|372:72,2,33.33333
144,80,204271,5,4,0:0:0:0:
94,86,204371,1,0,0:0:0:0:
51,110,204471,1,0,0:0:0:0:
20,149,204571,1,0,0:0:0:0:
92,148,204671,1,14,0:0:0:0:
141,154,204771,1,0,0:0:0:0:
184,178,204871,1,0,0:0:0:0:
215,217,204971,1,0,0:0:0:0:
284,216,205071,5,0,0:0:0:0:
234,222,205171,1,0,0:0:0:0:
191,246,205271,1,0,0:0:0:0:
160,285,205371,1,0,0:0:0:0:
228,284,205471,1,14,0:0:0:0:
277,277,205571,1,0,0:0:0:0:
320,253,205671,1,0,0:0:0:0:
351,214,205771,1,0,0:0:0:0:
280,216,205871,6,0,L|212:216,3,50
160,216,206271,2,0,L|92:216,3,50
180,212,206671,6,0,L|248:212,3,50
300,212,207071,2,0,L|368:212,3,50
420,212,207471,6,0,L|424:156,1,50
352,160,207671,2,0,L|348:104,1,50
280,112,207871,2,0,L|284:168,1,50
212,164,208071,2,0,L|208:220,1,50
136,212,208271,6,0,L|132:268,1,50
204,264,208471,2,0,L|208:320,1,50
276,312,208671,2,0,L|272:256,1,50
380,264,208871,2,0,L|384:320,1,50
272,304,209071,6,0,L|192:304,1,50
160,304,209271,2,0,L|256:304,1,50
304,272,209471,2,0,L|224:272,1,50
192,272,209671,2,0,L|288:272,1,50
336,256,209871,6,0,L|256:256,1,50
224,256,210071,2,0,L|320:256,1,50
368,224,210271,2,0,L|288:224,1,50
256,224,210471,2,0,L|352:224,1,50
460,216,210671,6,0,L|480:112,1,100
408,120,211071,2,0,L|292:120,1,100
292,120,211521,1,0,0:0:0:0:
280,123,211571,1,0,0:0:0:0:
269,128,211621,1,0,0:0:0:0:
260,137,211671,1,0,0:0:0:0:
255,148,211721,1,0,0:0:0:0:
253,160,211771,1,0,0:0:0:0:
255,173,211821,1,0,0:0:0:0:
408,208,211871,6,0,L|468:208,1,50
288,264,212271,2,0,L|228:264,2,50
148,272,212871,6,0,L|132:60,1,200
272,72,213471,2,0,L|324:72,2,33.33333
320,72,213671,2,0,L|372:72,2,33.33333
52,168,213871,6,0,L|32:272,1,100
104,264,214271,2,0,L|220:264,1,100
220,264,214721,1,0,0:0:0:0:
232,261,214771,1,0,0:0:0:0:
243,256,214821,1,0,0:0:0:0:
252,247,214871,1,0,0:0:0:0:
257,236,214921,1,0,0:0:0:0:
259,224,214971,1,0,0:0:0:0:
257,211,215021,1,0,0:0:0:0:
104,176,215071,6,0,L|44:176,1,50
224,120,215471,2,0,L|284:120,2,50
364,112,216071,6,0,L|380:324,1,200
240,312,216671,2,0,L|188:312,2,33.33333
192,312,216871,2,0,L|140:312,2,33.33333
440,280,217071,6,0,L|444:232,2,33.33333
392,276,217271,2,0,L|388:324,2,33.33333
344,272,217471,6,0,L|348:224,2,33.33333
296,268,217671,2,0,L|292:316,2,33.33333
248,264,217871,6,0,L|200:264,2,33.33333
200,264,218071,2,0,L|152:264,2,33.33333
248,264,218271,6,0,L|296:264,2,33.33333
296,264,218471,2,0,L|344:264,2,33.33333
248,264,218671,6,0,L|184:264,1,33.33333
168,264,218805,1,0,0:0:0:0:
244,220,218871,2,0,L|180:220,1,33.33333
164,220,219005,1,0,0:0:0:0:
244,220,219071,6,0,L|308:220,1,33.33333
324,220,219205,1,0,0:0:0:0:
248,264,219271,2,0,L|312:264,1,33.33333
328,264,219405,1,0,0:0:0:0:
248,264,219471,5,14,0:0:0:0:
215,259,219538,1,0,0:0:0:0:
187,241,219605,1,0,0:0:0:0:
171,212,219671,1,0,0:0:0:0:
168,179,219738,1,0,0:0:0:0:
181,149,219805,1,0,0:0:0:0:
228,144,219871,5,14,0:0:0:0:
261,144,219938,1,8,0:0:0:0:
294,145,220005,1,0,0:0:0:0:
327,146,220071,1,4,0:0:0:0:
361,146,220138,1,0,0:0:0:0:
394,147,220205,1,0,0:0:0:0:
168,220,220271,6,0,L|164:268,2,33.33333
128,216,220471,2,0,L|132:168,2,33.33333
192,232,220671,6,0,L|188:280,2,33.33333
24,208,220871,2,0,L|16:156,2,33.33333
168,220,221071,6,0,L|216:220,2,33.33333
208,224,221271,2,0,L|256:224,2,33.33333
88,176,221471,6,0,L|40:176,2,33.33333
256,148,221671,2,0,L|304:148,2,33.33333
264,228,221871,6,0,L|328:228,1,33.33333
344,228,222005,1,0,0:0:0:0:
268,272,222071,2,0,L|332:272,1,33.33333
348,272,222205,1,0,0:0:0:0:
268,272,222271,6,0,L|204:272,1,33.33333
188,272,222405,1,0,0:0:0:0:
264,228,222471,2,0,L|200:228,1,33.33333
184,228,222605,1,0,0:0:0:0:
264,228,222671,5,0,0:0:0:0:
297,233,222738,1,0,0:0:0:0:
325,251,222805,1,0,0:0:0:0:
341,280,222871,1,0,0:0:0:0:
344,313,222938,1,0,0:0:0:0:
331,343,223005,1,0,0:0:0:0:
104,184,223071,5,4,0:0:0:0:
71,184,223138,1,0,0:0:0:0:
38,183,223205,1,0,0:0:0:0:
208,256,223271,1,4,0:0:0:0:
242,256,223338,1,0,0:0:0:0:
275,255,223405,1,0,0:0:0:0:
468,352,223471,6,0,L|488:248,1,100
360,220,223671,2,0,L|236:220,1,100
148,180,223871,2,0,L|272:180,1,100
132,148,224071,2,0,L|8:148,1,100
380,176,224271,6,0,L|480:176,3,100
276,136,224671,2,0,L|376:136,1,100
168,88,224871,2,0,L|160:156,1,50
380,232,225071,6,0,L|496:232,1,100
364,204,225271,2,0,L|344:80,1,100
132,152,225471,2,0,L|16:152,1,100
148,180,225671,2,0,L|168:304,1,100
468,316,225871,5,6,0:0:0:0:
395,247,225971,1,4,0:0:0:0:
303,211,226071,1,6,0:0:0:0:
203,213,226171,1,4,0:0:0:0:
112,253,226271,1,4,0:0:0:0:
43,324,226371,1,4,0:0:0:0:
468,316,226471,1,4,0:0:0:0:
395,247,226571,1,4,0:0:0:0:
32,192,226671,6,0,L|164:192,1,100
252,184,226871,2,0,L|120:184,1,100
36,160,227071,2,0,L|168:160,1,100
256,152,227271,2,0,L|124:152,1,100
480,192,227471,6,0,L|348:192,1,100
260,200,227671,2,0,L|392:200,1,100
476,224,227871,2,0,L|344:224,1,100
72,220,228071,2,0,L|64:272,1,50
460,296,228271,6,0,L|480:176,1,100
204,288,228471,2,0,L|184:168,1,100
308,180,228671,2,0,L|328:300,1,100
52,88,228871,2,0,L|32:208,1,100
460,296,229071,6,0,P|480:228|432:100,1,200
200,132,229471,2,0,L|192:184,3,50
464,288,229671,2,0,L|476:200,1,75
52,88,229871,6,0,P|32:156|80:284,1,200
312,252,230271,2,0,L|320:200,3,50
48,96,230471,2,0,L|36:184,1,75
464,312,230671,6,0,L|480:204,1,100
360,208,230871,2,0,L|344:316,1,100
224,304,231071,2,0,L|240:196,1,100
464,316,231271,2,0,L|352:316,1,100
48,72,231471,6,0,L|32:180,1,100
152,176,231671,2,0,L|168:68,1,100
288,80,231871,2,0,L|272:188,1,100
48,68,232071,2,0,L|160:68,1,100
480,212,232271,6,0,L|372:212,3,100
64,200,232671,2,0,L|40:312,1,100
448,184,232871,2,0,L|472:72,1,100
116,176,233071,5,6,0:0:0:0:
191,238,233171,1,4,0:0:0:0:
312,240,233271,1,2,0:0:0:0:
387,178,233371,1,4,0:0:0:0:
40,144,233471,6,0,L|24:204,3,50
176,196,233671,2,0,L|192:256,3,50
384,248,233871,6,0,L|496:248,3,100
280,200,234271,2,0,L|392:200,1,100
172,140,234471,2,0,L|284:140,1,100
32,136,234671,6,0,L|16:248,1,100
136,236,234871,2,0,L|152:124,1,100
272,140,235071,2,0,L|256:252,1,100
36,228,235271,1,6,0:0:0:0:
280,284,235371,1,6,0:0:0:0:
44,280,235471,6,0,L|32:208,2,56.66667
112,276,235671,2,0,L|124:348,2,56.66667
44,276,235871,5,4,0:0:0:0:
83,236,235938,1,0,0:0:0:0:
137,221,236005,1,0,0:0:0:0:
200,248,236071,1,4,0:0:0:0:
239,287,236138,1,0,0:0:0:0:
293,302,236205,1,0,0:0:0:0:
360,300,236271,6,0,L|428:296,2,56.66667
296,276,236471,2,0,L|228:272,2,56.66667
128,92,236671,5,0,0:0:0:0:
80,105,236721,1,0,0:0:0:0:
43,138,236771,1,0,0:0:0:0:
24,184,236821,1,0,0:0:0:0:
80,208,236871,1,0,0:0:0:0:
132,236,236921,1,0,0:0:0:0:
80,264,236971,1,0,0:0:0:0:
28,292,237021,1,0,0:0:0:0:
464,316,237071,6,0,L|472:208,1,100
352,212,237271,2,0,L|460:212,1,100
332,216,237471,2,0,L|324:324,1,100
444,320,237671,2,0,L|336:320,1,100
32,192,237871,6,0,L|160:192,1,100
252,192,238071,2,0,L|372:192,2,100
372,192,238371,2,0,L|476:192,1,100
184,120,238571,1,6,0:0:0:0:
464,184,238671,6,0,L|472:296,1,100
352,284,238871,2,0,L|344:172,1,100
36,192,239071,2,0,L|176:188,1,100
476,192,239271,2,0,L|336:188,1,100
128,140,239471,6,0,L|24:136,3,100
376,189,239871,2,0,L|476:192,1,100
135,189,240071,2,0,L|36:192,1,100
400,184,240271,6,0,L|504:184,1,100
388,224,240471,2,0,L|376:336,1,100
112,200,240671,2,0,L|8:200,1,100
124,160,240871,2,0,L|136:48,1,100
480,96,241071,6,0,L|368:96,1,100
260,92,241271,2,0,L|372:92,1,100
240,88,241471,2,0,L|128:88,1,100
480,288,241671,2,0,L|368:288,1,100
92,312,241871,5,6,0:0:0:0:
60,265,241938,1,0,0:0:0:0:
50,209,242005,1,2,0:0:0:0:
64,155,242071,1,4,0:0:0:0:
99,111,242138,1,0,0:0:0:0:
149,84,242205,1,0,0:0:0:0:
68,84,242271,1,4,0:0:0:0:
91,145,242338,1,0,0:0:0:0:
137,193,242405,1,0,0:0:0:0:
198,219,242471,1,4,0:0:0:0:
264,220,242538,1,0,0:0:0:0:
326,195,242605,1,0,0:0:0:0:
104,184,242671,5,0,0:0:0:0:
122,137,242721,1,0,0:0:0:0:
155,100,242771,1,0,0:0:0:0:
198,75,242821,1,0,0:0:0:0:
247,66,242871,1,0,0:0:0:0:
296,73,242921,1,0,0:0:0:0:
340,96,242971,1,0,0:0:0:0:
374,132,243021,1,0,0:0:0:0:
395,177,243071,1,0,0:0:0:0:
399,227,243121,1,0,0:0:0:0:
387,275,243171,1,0,0:0:0:0:
360,317,243221,1,0,0:0:0:0:
320,347,243271,1,0,0:0:0:0:
273,363,243321,1,0,0:0:0:0:
223,363,243371,1,0,0:0:0:0:
176,346,243421,1,0,0:0:0:0:
153,333,243471,5,6,0:0:0:0:
256,17,243571,1,4,0:0:0:0:
358,333,243671,1,4,0:0:0:0:
90,138,243771,1,4,0:0:0:0:
421,138,243871,1,4,0:0:0:0:
153,333,243971,5,4,0:0:0:0:
256,17,244071,1,6,0:0:0:0:
358,333,244171,1,4,0:0:0:0:
90,138,244271,1,6,0:0:0:0:
421,138,244371,1,6,0:0:0:0:
153,333,244471,5,6,0:0:0:0:
256,17,244571,1,6,0:0:0:0:
358,333,244671,1,6,0:0:0:0:
28,188,244871,5,6,0:0:0:0:
480,204,245071,5,6,0:0:0:0:
28,200,245271,2,0,L|24:144,2,50
148,196,245471,2,0,L|152:252,2,50
480,204,245671,5,6,0:0:0:0:
32,204,245871,1,6,0:0:0:0:
484,200,246071,2,0,L|488:144,2,50
364,200,246271,1,6,0:0:0:0:
484,200,246471,2,0,L|488:144,2,50
36,224,246671,5,4,0:0:0:0:
127,184,246771,1,4,0:0:0:0:
226,171,246871,1,4,0:0:0:0:
325,184,246971,1,4,0:0:0:0:
28,188,247071,6,0,L|192:128,1,150
392,112,247271,2,0,P|464:136|372:212,1,250
120,272,247571,2,0,P|48:248|140:172,1,250
484,188,247871,2,0,L|320:128,1,150
32,124,248071,6,0,L|20:332,1,200
20,323,248321,2,0,L|24:264,1,50
144,276,248471,2,0,L|147:216,2,50
24,272,248671,5,6,0:0:0:0:
480,260,248871,2,0,L|492:52,1,200
491,60,249121,2,0,L|488:120,1,50
368,112,249271,1,6,0:0:0:0:
491,60,249471,2,0,L|488:120,2,50
32,248,249671,5,4,0:0:0:0:
115,193,249771,1,4,0:0:0:0:
211,166,249871,1,4,0:0:0:0:
310,170,249971,1,4,0:0:0:0:
28,208,250071,2,0,L|156:208,1,100
480,136,250271,5,4,0:0:0:0:
396,190,250371,1,4,0:0:0:0:
300,217,250471,1,4,0:0:0:0:
201,213,250571,1,4,0:0:0:0:
484,176,250671,2,0,L|356:176,1,100
32,136,250871,5,4,0:0:0:0:
115,190,250971,1,4,0:0:0:0:
211,217,251071,1,4,0:0:0:0:
310,213,251171,1,4,0:0:0:0:
428,188,251271,1,6,0:0:0:0:
32,180,251471,5,6,0:0:0:0:
484,184,251671,2,0,L|488:240,2,50
364,188,251871,2,0,L|360:132,2,50
32,180,252071,5,6,0:0:0:0:
480,180,252271,1,6,0:0:0:0:
28,184,252471,2,0,L|24:240,2,50
148,184,252671,1,6,0:0:0:0:
28,184,252871,2,0,L|24:240,2,50
476,160,253071,5,4,0:0:0:0:
385,200,253171,1,4,0:0:0:0:
286,213,253271,1,4,0:0:0:0:
187,200,253371,1,4,0:0:0:0:
484,196,253471,6,0,L|320:256,1,150
120,272,253671,2,0,P|48:248|140:172,1,250
392,112,253971,2,0,P|464:136|372:212,1,250
28,196,254271,2,0,L|192:256,1,150
480,260,254471,6,0,L|492:52,1,200
492,61,254721,2,0,L|488:120,1,50
368,108,254871,2,0,L|365:168,2,50
488,112,255071,5,6,0:0:0:0:
32,124,255271,2,0,L|20:332,1,200
21,324,255521,2,0,L|24:264,1,50
144,272,255671,1,6,0:0:0:0:
21,324,255871,2,0,L|24:264,2,50
480,136,256071,5,4,0:0:0:0:
397,191,256171,1,4,0:0:0:0:
301,218,256271,1,4,0:0:0:0:
202,214,256371,1,4,0:0:0:0:
484,176,256471,2,0,L|356:176,1,100
32,248,256671,5,4,0:0:0:0:
116,194,256771,1,4,0:0:0:0:
212,167,256871,1,4,0:0:0:0:
311,171,256971,1,4,0:0:0:0:
28,208,257071,2,0,L|156:208,1,100
480,248,257271,5,4,0:0:0:0:
397,194,257371,1,4,0:0:0:0:
301,167,257471,1,4,0:0:0:0:
202,171,257571,1,4,0:0:0:0:
468,260,257671,6,0,L|480:56,1,200
479,60,257971,1,0,0:0:0:0:
360,64,258071,6,0,L|348:268,1,200
348,263,258371,1,0,0:0:0:0:
228,264,258471,6,0,L|240:60,1,200
239,64,258771,1,0,0:0:0:0:
120,68,258871,6,0,L|108:272,1,200
108,267,259171,1,0,0:0:0:0:
452,304,259271,5,6,0:0:0:0:
470,242,259321,1,0,0:0:0:0:
467,177,259371,1,0,0:0:0:0:
442,118,259421,1,0,0:0:0:0:
398,70,259471,1,2,0:0:0:0:
341,41,259521,1,0,0:0:0:0:
276,32,259571,1,0,0:0:0:0:
213,47,259621,1,0,0:0:0:0:
272,64,259671,5,2,0:0:0:0:
290,110,259721,1,0,0:0:0:0:
289,159,259771,1,0,0:0:0:0:
270,205,259821,1,0,0:0:0:0:
234,239,259871,1,2,0:0:0:0:
187,257,259921,1,0,0:0:0:0:
138,256,259971,1,0,0:0:0:0:
92,235,260021,1,0,0:0:0:0:
152,220,260071,6,0,L|224:220,3,50
260,200,260271,2,0,L|332:200,3,50
368,196,260471,6,0,L|392:244,1,50
380,300,260571,2,0,L|356:252,1,50
380,300,260671,6,0,L|376:132,1,150
52,232,260871,6,0,L|220:100,1,200
88,108,261171,1,0,0:0:0:0:
460,152,261271,6,0,L|292:284,1,200
424,276,261571,1,0,0:0:0:0:
124,320,261671,6,0,L|120:112,1,200
120,120,261971,1,0,0:0:0:0:
388,64,262071,6,0,L|392:272,1,200
391,263,262371,1,0,0:0:0:0:
128,92,262471,6,0,P|76:152|128:264,1,200
232,260,262771,1,0,0:0:0:0:
384,292,262871,6,0,P|436:232|384:120,1,200
280,124,263171,1,0,0:0:0:0:
48,168,263271,6,0,P|56:228|192:308,1,200
40,320,263571,1,0,0:0:0:0:
464,216,263671,6,0,P|456:156|320:76,1,200
472,64,263971,1,0,0:0:0:0:
56,72,264071,6,0,L|32:272,1,200
32,270,264371,1,0,0:0:0:0:
152,268,264471,6,0,L|176:68,1,200
175,69,264771,1,0,0:0:0:0:
296,64,264871,6,0,L|272:264,1,200
272,262,265171,1,0,0:0:0:0:
176,68,265271,6,0,L|264:68,1,75
96,72,265471,2,0,L|184:72,1,75
440,64,265671,5,6,0:0:0:0:
485,151,265771,1,0,0:0:0:0:
466,247,265871,1,0,0:0:0:0:
391,310,265971,1,0,0:0:0:0:
272,312,266071,5,2,0:0:0:0:
317,224,266171,1,0,0:0:0:0:
298,128,266271,1,0,0:0:0:0:
223,65,266371,1,0,0:0:0:0:
104,68,266471,5,2,0:0:0:0:
59,155,266571,1,0,0:0:0:0:
78,251,266671,1,0,0:0:0:0:
153,314,266771,1,0,0:0:0:0:
272,316,266871,6,0,L|376:320,3,100
60,320,267271,5,6,0:0:0:0:
57,221,267371,1,0,0:0:0:0:
110,137,267471,1,0,0:0:0:0:
199,96,267571,1,0,0:0:0:0:
452,64,267671,5,2,0:0:0:0:
454,162,267771,1,0,0:0:0:0:
401,246,267871,1,0,0:0:0:0:
312,287,267971,1,0,0:0:0:0:
64,320,268071,6,0,L|24:216,1,100
148,212,268271,1,0,0:0:0:0:
28,192,268371,1,0,0:0:0:0:
448,320,268471,6,0,L|488:216,1,100
364,212,268671,1,0,0:0:0:0:
484,192,268771,1,0,0:0:0:0:
196,356,268871,6,0,P|108:328|376:156,1,750
64,64,269671,6,0,P|28:156|360:292,1,550
136,288,270271,6,0,P|88:264|128:184,1,150
432,280,270471,6,0,L|472:184,3,100
80,104,270871,6,0,L|40:200,3,100
308,144,271271,6,0,L|204:144,3,100
408,200,271671,6,0,P|444:224|452:264,1,75
104,184,271871,6,0,P|68:160|60:120,1,75
408,56,272071,5,6,0:0:0:0:
457,141,272171,1,0,0:0:0:0:
454,240,272271,1,0,0:0:0:0:
399,322,272371,1,0,0:0:0:0:
309,363,272471,1,2,0:0:0:0:
211,350,272571,1,0,0:0:0:0:
135,288,272671,1,0,0:0:0:0:
103,194,272771,1,0,0:0:0:0:
408,56,272871,5,2,0:0:0:0:
457,141,272971,1,0,0:0:0:0:
454,240,273071,1,0,0:0:0:0:
399,322,273171,1,0,0:0:0:0:
104,192,273271,6,0,L|92:108,1,75
224,112,273471,6,0,L|236:196,1,75
44,208,273671,6,0,L|20:320,3,100
144,304,274071,6,0,L|168:192,3,100
284,208,274471,6,0,L|260:320,3,100
384,304,274871,6,0,L|408:192,3,100
284,200,275271,6,0,L|156:200,3,100
64,180,275671,6,0,L|192:180,3,100
444,120,276071,6,0,P|480:172|412:252,1,175
68,264,276471,6,0,P|32:212|100:132,1,175
384,64,276871,5,6,0:0:0:0:
463,117,276971,1,0,0:0:0:0:
464,213,277071,1,0,0:0:0:0:
384,267,277171,1,0,0:0:0:0:
264,272,277271,5,2,0:0:0:0:
343,218,277371,1,0,0:0:0:0:
344,122,277471,1,8,0:0:0:0:
264,68,277571,1,0,0:0:0:0:
144,64,277671,5,6,0:0:0:0:
223,117,277771,1,0,0:0:0:0:
224,213,277871,1,0,0:0:0:0:
144,267,277971,1,0,0:0:0:0:
24,272,278071,5,2,0:0:0:0:
103,218,278171,1,0,0:0:0:0:
104,122,278271,1,8,0:0:0:0:
24,68,278371,1,0,0:0:0:0:
128,320,278471,5,6,0:0:0:0:
49,267,278571,1,0,0:0:0:0:
48,171,278671,1,0,0:0:0:0:
128,117,278771,1,0,0:0:0:0:
248,112,278871,5,2,0:0:0:0:
169,166,278971,1,0,0:0:0:0:
168,262,279071,1,8,0:0:0:0:
248,316,279171,1,0,0:0:0:0:
368,320,279271,5,6,0:0:0:0:
289,267,279371,1,0,0:0:0:0:
288,171,279471,1,0,0:0:0:0:
368,117,279571,1,0,0:0:0:0:
488,112,279671,5,2,0:0:0:0:
409,166,279771,1,0,0:0:0:0:
408,262,279871,1,10,0:0:0:0:
488,316,279971,1,0,0:0:0:0:
32,260,280071,5,6,0:0:0:0:
152,260,280171,1,0,0:0:0:0:
32,260,280271,1,0,0:0:0:0:
92,260,280371,1,0,0:0:0:0:
152,236,280471,5,2,0:0:0:0:
32,236,280571,1,0,0:0:0:0:
152,236,280671,1,8,0:0:0:0:
92,236,280771,1,0,0:0:0:0:
480,124,280871,5,6,0:0:0:0:
360,124,280971,1,0,0:0:0:0:
480,124,281071,1,0,0:0:0:0:
420,124,281171,1,0,0:0:0:0:
360,148,281271,5,2,0:0:0:0:
480,148,281371,1,0,0:0:0:0:
360,148,281471,1,8,0:0:0:0:
420,148,281571,1,0,0:0:0:0:
124,144,281671,6,0,L|52:224,3,100
388,240,282071,6,0,L|456:160,3,100
128,112,282471,6,0,P|92:164|120:280,1,175
384,272,282871,6,0,P|420:220|392:104,1,175
72,308,283271,5,6,0:0:0:0:
88,209,283371,1,0,0:0:0:0:
140,125,283471,1,0,0:0:0:0:
221,68,283571,1,0,0:0:0:0:
28,288,283671,5,2,0:0:0:0:
79,202,283771,1,0,0:0:0:0:
156,139,283871,1,8,0:0:0:0:
249,105,283971,1,0,0:0:0:0:
440,76,284071,5,6,0:0:0:0:
423,174,284171,1,0,0:0:0:0:
371,258,284271,1,0,0:0:0:0:
290,315,284371,1,0,0:0:0:0:
484,96,284471,5,2,0:0:0:0:
432,181,284571,1,0,0:0:0:0:
355,244,284671,1,8,0:0:0:0:
262,278,284771,1,0,0:0:0:0:
144,280,284871,6,0,L|28:280,3,100
244,280,285271,6,0,L|128:280,3,100
348,280,285671,6,0,L|232:280,1,100
360,232,285871,2,0,L|476:232,1,100
200,180,286071,6,0,L|328:180,1,100
420,164,286271,2,0,L|304:164,1,100
68,76,286471,5,6,0:0:0:0:
47,121,286521,1,0,0:0:0:0:
38,170,286571,1,0,0:0:0:0:
41,220,286621,1,0,0:0:0:0:
56,267,286671,1,0,0:0:0:0:
83,309,286721,1,0,0:0:0:0:
119,344,286771,1,0,0:0:0:0:
162,368,286821,1,0,0:0:0:0:
444,308,286871,5,2,0:0:0:0:
464,262,286921,1,0,0:0:0:0:
473,213,286971,1,0,0:0:0:0:
470,163,287021,1,0,0:0:0:0:
455,116,287071,1,8,0:0:0:0:
428,74,287121,1,0,0:0:0:0:
392,39,287171,1,0,0:0:0:0:
349,15,287221,1,0,0:0:0:0:
48,36,287271,5,6,0:0:0:0:
61,84,287321,1,0,0:0:0:0:
75,132,287371,1,0,0:0:0:0:
88,180,287421,1,0,0:0:0:0:
102,228,287471,1,0,0:0:0:0:
115,276,287521,1,0,0:0:0:0:
129,324,287571,1,0,0:0:0:0:
143,372,287621,1,0,0:0:0:0:
464,36,287671,5,10,0:0:0:0:
450,84,287721,1,0,0:0:0:0:
436,132,287771,1,0,0:0:0:0:
423,180,287821,1,0,0:0:0:0:
409,228,287871,1,0,0:0:0:0:
396,276,287921,1,0,0:0:0:0:
382,324,287971,1,0,0:0:0:0:
368,372,288021,1,0,0:0:0:0:
128,368,288071,5,6,0:0:0:0:
114,320,288121,1,0,0:0:0:0:
100,272,288171,1,0,0:0:0:0:
87,224,288221,1,0,0:0:0:0:
73,176,288271,1,0,0:0:0:0:
60,128,288321,1,0,0:0:0:0:
46,80,288371,1,0,0:0:0:0:
32,32,288421,1,0,0:0:0:0:
384,368,288471,5,2,0:0:0:0:
398,320,288521,1,0,0:0:0:0:
412,272,288571,1,0,0:0:0:0:
425,224,288621,1,0,0:0:0:0:
439,176,288671,1,8,0:0:0:0:
452,128,288721,1,0,0:0:0:0:
466,80,288771,1,0,0:0:0:0:
480,32,288821,1,0,0:0:0:0:
148,52,288871,6,0,P|104:72|152:176,1,175
364,332,289271,6,0,P|408:312|360:208,1,175
100,72,289671,5,6,0:0:0:0:
56,95,289721,1,0,0:0:0:0:
27,135,289771,1,0,0:0:0:0:
18,184,289821,1,0,0:0:0:0:
31,232,289871,1,0,0:0:0:0:
64,270,289921,1,0,0:0:0:0:
109,289,289971,1,0,0:0:0:0:
159,288,290021,1,0,0:0:0:0:
220,284,290071,6,0,L|288:284,3,50
328,272,290271,2,0,L|396:272,3,50
436,272,290471,5,2,0:0:0:0:
444,222,290521,1,0,0:0:0:0:
440,173,290571,1,0,0:0:0:0:
422,126,290621,1,0,0:0:0:0:
392,86,290671,1,0,0:0:0:0:
353,56,290721,1,0,0:0:0:0:
307,37,290771,1,0,0:0:0:0:
257,31,290821,1,0,0:0:0:0:
196,32,290871,6,0,L|136:32,3,50
204,44,291071,2,0,L|264:44,3,50
196,56,291271,5,10,0:0:0:0:
147,68,291321,1,0,0:0:0:0:
105,94,291371,1,0,0:0:0:0:
74,133,291421,1,0,0:0:0:0:
56,180,291471,1,0,0:0:0:0:
55,229,291521,1,0,0:0:0:0:
69,277,291571,1,0,0:0:0:0:
98,318,291621,1,0,0:0:0:0:
156,324,291671,5,2,0:0:0:0:
205,326,291721,1,0,0:0:0:0:
248,302,291771,1,0,0:0:0:0:
273,260,291821,1,0,0:0:0:0:
272,210,291871,1,8,0:0:0:0:
245,169,291921,1,0,0:0:0:0:
201,147,291971,1,0,0:0:0:0:
151,152,292021,1,0,0:0:0:0:
92,156,292071,6,0,L|24:156,7,50
100,152,292471,6,0,L|168:152,7,50
208,152,292871,6,0,L|268:152,1,50
316,152,292971,2,0,L|256:152,1,50
324,152,293071,2,0,L|396:152,1,50
380,212,293171,2,0,L|312:208,1,50
272,212,293271,5,2,0:0:0:0:
233,242,293321,1,0,0:0:0:0:
218,289,293371,1,0,0:0:0:0:
233,336,293421,1,0,0:0:0:0:
271,366,293471,1,8,0:0:0:0:
320,370,293521,1,0,0:0:0:0:
363,344,293571,1,0,0:0:0:0:
383,300,293621,1,0,0:0:0:0:
324,292,293671,6,0,L|292:228,3,50
360,244,293871,2,0,L|392:180,3,50
324,196,294071,5,10,0:0:0:0:
275,204,294121,1,0,0:0:0:0:
229,185,294171,1,0,0:0:0:0:
200,145,294221,1,0,0:0:0:0:
197,96,294271,1,0,0:0:0:0:
220,52,294321,1,0,0:0:0:0:
262,27,294371,1,0,0:0:0:0:
312,29,294421,1,0,0:0:0:0:
372,28,294471,6,0,L|432:28,3,50
362,29,294671,2,0,L|302:29,3,50
252,32,294871,5,2,0:0:0:0:
202,34,294921,1,0,0:0:0:0:
154,50,294971,1,0,0:0:0:0:
113,78,295021,1,0,0:0:0:0:
80,115,295071,1,8,0:0:0:0:
59,160,295121,1,0,0:0:0:0:
50,209,295171,1,0,0:0:0:0:
54,259,295221,1,0,0:0:0:0:
348,324,295271,6,0,P|408:296|424:188,1,175
164,60,295671,6,0,P|104:88|88:196,1,175
392,244,296071,6,0,L|408:192,1,50
392,244,296171,2,0,L|376:192,1,50
392,244,296271,2,0,L|448:212,1,50
392,244,296371,2,0,L|336:212,1,50
392,244,296471,6,0,L|452:244,1,50
392,244,296571,2,0,L|328:244,1,50
400,228,296671,2,0,L|456:228,1,50
384,244,296771,2,0,L|328:244,1,50
120,140,296871,6,0,L|104:192,1,50
120,140,296971,2,0,L|136:192,1,50
120,140,297071,2,0,L|64:172,1,50
120,140,297171,2,0,L|176:172,1,50
120,140,297271,6,0,L|60:140,1,50
120,140,297371,2,0,L|184:140,1,50
112,156,297471,2,0,L|56:156,1,50
128,140,297571,2,0,L|184:140,1,50
412,136,297671,6,0,L|428:196,1,50
364,188,297771,2,0,L|280:188,1,50
256,188,297871,2,0,L|240:256,1,50
304,244,297971,2,0,L|372:244,1,50
168,292,298071,6,0,L|236:292,1,50
380,292,298171,2,0,L|432:292,1,50
100,248,298271,2,0,L|84:188,1,50
148,196,298371,2,0,L|232:196,1,50
464,200,298471,6,0,L|476:140,1,50
280,120,298571,2,0,L|212:120,1,50
32,120,298671,2,0,L|24:180,1,50
84,172,298771,2,0,L|152:172,1,50
376,56,298871,5,2,0:0:0:0:
424,64,298921,1,0,0:0:0:0:
465,93,298971,1,0,0:0:0:0:
488,137,299021,1,0,0:0:0:0:
489,186,299071,1,0,0:0:0:0:
469,231,299121,1,0,0:0:0:0:
431,263,299171,1,0,0:0:0:0:
382,274,299221,1,0,0:0:0:0:
112,300,299271,6,0,L|16:256,3,100
202,341,299641,2,0,L|106:297,3,100
472,288,300011,6,0,L|492:156,1,100
40,288,300197,6,0,L|20:156,1,100
472,96,300382,6,0,L|492:228,1,100
40,96,300568,6,0,L|20:228,1,100
372,312,300752,6,0,L|400:196,1,100
276,200,300938,2,0,L|408:200,1,100
140,72,301123,2,0,L|112:188,1,100
236,184,301309,2,0,L|104:184,1,100
380,272,301493,6,0,L|488:264,1,100
132,272,301678,6,0,L|24:264,1,100
479,119,301864,6,0,L|380:112,1,100
32,119,302049,6,0,L|132:112,1,100
324,80,302234,5,6,0:0:0:0:
372,71,302280,1,0,0:0:0:0:
419,87,302326,1,0,0:0:0:0:
450,125,302372,1,0,0:0:0:0:
458,174,302419,1,4,0:0:0:0:
440,220,302465,1,0,0:0:0:0:
402,251,302511,1,0,0:0:0:0:
353,258,302557,1,0,0:0:0:0:
292,264,302605,6,0,L|280:208,1,50
340,212,302697,2,0,L|352:156,1,50
272,168,302790,2,0,L|260:112,1,50
320,116,302882,2,0,L|332:60,1,50
76,60,302975,6,0,L|16:60,1,50
88,68,303067,1,0,0:0:0:0:
135,80,303113,1,0,0:0:0:0:
164,120,303160,1,4,0:0:0:0:
162,169,303205,1,0,0:0:0:0:
129,205,303252,1,0,0:0:0:0:
81,214,303298,1,0,0:0:0:0:
252,292,303345,6,0,L|316:292,1,50
484,288,303438,6,0,L|496:224,1,50
260,92,303530,6,0,L|196:92,1,50
28,96,303624,6,0,L|16:160,1,50
392,252,303715,6,0,L|508:252,1,100
292,252,303900,2,0,L|408:252,1,100
192,252,304085,2,0,L|308:252,1,100
92,252,304270,2,0,L|208:252,1,100
480,188,304456,6,0,L|408:108,1,100
32,188,304641,6,0,L|104:108,1,100
480,196,304826,6,0,L|408:276,1,100
32,196,305011,6,0,L|104:276,1,100
380,272,305197,6,0,L|492:272,1,100
280,272,305382,2,0,L|392:272,1,100
132,272,305567,2,0,L|24:272,3,100
464,236,305938,6,0,L|476:124,1,100
32,208,306123,6,0,L|96:112,1,100
480,208,306308,6,0,L|416:112,1,100
48,236,306493,6,0,L|36:124,1,100
372,112,306678,6,0,L|432:112,1,50
360,112,306771,1,0,0:0:0:0:
311,108,306817,1,0,0:0:0:0:
275,141,306864,1,4,0:0:0:0:
275,190,306910,1,0,0:0:0:0:
310,223,306956,1,0,0:0:0:0:
359,221,307002,1,0,0:0:0:0:
420,224,307049,6,0,L|432:280,1,50
372,276,307141,2,0,L|361:227,1,50
420,224,307234,2,0,L|432:280,1,50
372,276,307326,2,0,L|361:227,1,50
492,232,307419,5,6,0:0:0:0:
485,182,307465,1,0,0:0:0:0:
467,136,307511,1,0,0:0:0:0:
438,95,307557,1,0,0:0:0:0:
401,62,307604,1,4,0:0:0:0:
356,40,307650,1,0,0:0:0:0:
308,28,307696,1,0,0:0:0:0:
258,29,307742,1,0,0:0:0:0:
32,92,307790,6,0,L|20:152,1,50
172,144,307882,6,0,L|160:204,1,50
24,212,307975,6,0,L|36:272,1,50
88,288,308067,6,0,L|136:320,1,50
288,300,308160,6,0,L|392:300,2,100
480,260,308438,2,0,L|376:260,2,100
288,196,308715,1,4,0:0:0:0:
476,192,308808,1,4,0:0:0:0:
284,128,308900,6,0,L|388:128,2,100
476,88,309179,2,0,L|372:88,2,100
284,24,309456,1,4,0:0:0:0:
472,20,309549,1,4,0:0:0:0:
284,72,309641,6,0,L|396:72,1,100
488,128,309826,2,0,L|384:128,1,100
72,112,310011,6,0,P|48:180|92:260,1,150
440,272,310197,6,0,P|464:204|420:124,1,150
72,272,310382,6,0,P|48:204|92:124,1,150
440,112,310568,6,0,P|464:180|420:260,1,150
224,84,310752,6,0,L|120:84,2,100
32,124,311030,2,0,L|136:124,2,100
224,188,311308,1,4,0:0:0:0:
36,192,311400,1,4,0:0:0:0:
228,256,311493,6,0,L|124:256,2,100
36,296,311771,2,0,L|140:296,2,100
228,360,312049,1,4,0:0:0:0:
40,364,312141,1,4,0:0:0:0:
228,312,312234,5,4,0:0:0:0:
24,256,312326,2,4,L|128:256,2,100
440,272,312604,6,0,P|464:204|420:124,1,150
72,112,312790,6,0,P|48:180|92:260,1,150
440,112,312975,6,0,P|464:180|420:260,1,150
72,272,313160,6,0,P|48:204|92:124,1,150
380,88,313345,6,0,L|488:88,3,100
280,88,313715,1,4,0:0:0:0:
480,148,313808,2,0,L|376:148,2,100
280,148,314085,6,0,L|388:148,3,100
180,148,314456,1,4,0:0:0:0:
380,208,314549,2,0,L|276:208,2,100
280,208,314826,5,4,0:0:0:0:
476,208,314919,1,4,0:0:0:0:
376,256,315011,2,0,L|492:256,1,100
188,248,315197,6,0,P|88:240|76:188,1,150
324,136,315382,6,0,P|424:144|436:196,1,150
188,136,315567,6,0,P|88:144|76:196,1,150
324,248,315752,6,0,P|424:240|436:188,1,150
132,296,315938,6,0,L|24:296,3,100
232,296,316309,1,4,0:0:0:0:
32,236,316401,2,0,L|136:236,2,100
232,236,316679,6,0,L|124:236,3,100
332,236,317050,1,4,0:0:0:0:
132,176,317142,2,0,L|236:176,2,100
232,176,317420,5,4,0:0:0:0:
36,176,317512,1,4,0:0:0:0:
136,128,317605,2,0,L|20:128,1,100
324,136,317790,6,0,P|424:144|436:196,1,150
188,248,317975,6,0,P|88:240|76:188,1,150
324,248,318160,6,0,P|424:240|436:188,1,150
188,136,318345,6,0,P|88:144|76:196,1,150
280,292,318530,6,0,L|512:292,1,200
156,192,319245,2,0,L|388:192,1,200
232,92,319959,2,0,L|0:92,1,200
356,192,320673,2,0,L|124:192,1,200
476,304,321387,6,0,L|480:240,1,50
384,252,321565,2,0,L|380:188,1,50
480,200,321745,6,0,P|460:152|352:76,1,150
36,136,322101,5,4,0:0:0:0:
132,136,322190,1,4,0:0:0:0:
36,136,322280,1,4,0:0:0:0:
132,136,322370,1,4,0:0:0:0:
36,136,322459,1,4,0:0:0:0:
204,136,322548,1,4,0:0:0:0:
36,136,322637,1,4,0:0:0:0:
204,136,322726,1,4,0:0:0:0:
36,80,322815,6,0,L|32:144,1,50
128,132,322994,2,0,L|132:196,1,50
32,184,323173,6,0,P|52:232|160:308,1,150
476,248,323530,5,4,0:0:0:0:
380,248,323619,1,4,0:0:0:0:
476,248,323709,1,4,0:0:0:0:
380,248,323798,1,4,0:0:0:0:
476,248,323887,1,4,0:0:0:0:
308,248,323976,1,4,0:0:0:0:
476,248,324065,1,4,0:0:0:0:
276,248,324155,1,4,0:0:0:0:
452,328,324245,6,0,L|456:112,1,200
60,328,324959,2,0,L|56:112,1,200
452,328,325673,2,0,L|456:112,1,200
60,328,326387,2,0,L|56:112,1,200
468,320,327101,6,0,L|420:276,1,50
372,284,327280,2,0,L|420:240,1,50
468,252,327459,2,0,L|304:252,1,150
260,256,327815,5,4,0:0:0:0:
212,247,327905,1,4,0:0:0:0:
192,204,327994,1,4,0:0:0:0:
217,163,328083,1,4,0:0:0:0:
32,232,328173,1,4,0:0:0:0:
80,223,328262,1,4,0:0:0:0:
100,180,328351,1,4,0:0:0:0:
75,139,328440,1,4,0:0:0:0:
44,64,328530,6,0,L|92:108,1,50
140,100,328710,2,0,L|92:144,1,50
44,132,328888,2,0,L|208:132,1,150
252,128,329245,5,4,0:0:0:0:
300,137,329334,1,4,0:0:0:0:
320,180,329423,1,4,0:0:0:0:
295,221,329512,1,4,0:0:0:0:
480,152,329602,1,4,0:0:0:0:
432,161,329691,1,4,0:0:0:0:
412,204,329780,1,4,0:0:0:0:
437,245,329870,1,4,0:0:0:0:
376,248,329959,6,0,L|288:248,1,50
224,248,330137,2,0,L|136:248,1,50
440,316,330315,2,0,L|352:316,1,50
152,316,330494,2,0,L|64:316,1,50
360,256,330673,5,6,0:0:0:0:
358,231,330717,1,0,0:0:0:0:
347,208,330762,1,0,0:0:0:0:
329,191,330806,1,0,0:0:0:0:
306,181,330851,1,0,0:0:0:0:
492,172,330940,1,0,0:0:0:0:
156,136,331030,5,6,0:0:0:0:
157,160,331075,1,0,0:0:0:0:
168,183,331120,1,0,0:0:0:0:
186,200,331164,1,0,0:0:0:0:
209,210,331209,1,0,0:0:0:0:
20,212,331298,1,0,0:0:0:0:
340,119,331387,6,0,P|408:134|411:204,1,150
172,120,331745,6,0,P|116:124|136:228,1,150
340,120,332101,5,4,0:0:0:0:
364,114,332145,1,0,0:0:0:0:
388,119,332190,1,0,0:0:0:0:
408,134,332235,1,0,0:0:0:0:
419,156,332280,1,0,0:0:0:0:
420,181,332324,1,0,0:0:0:0:
411,204,332369,1,0,0:0:0:0:
172,120,332459,5,4,0:0:0:0:
147,114,332503,1,0,0:0:0:0:
123,119,332548,1,0,0:0:0:0:
103,134,332592,1,0,0:0:0:0:
92,156,332637,1,0,0:0:0:0:
91,181,332681,1,0,0:0:0:0:
100,204,332726,1,0,0:0:0:0:
388,260,332815,5,4,0:0:0:0:
404,220,332878,1,4,0:0:0:0:
404,160,332967,1,0,0:0:0:0:
380,104,333056,1,0,0:0:0:0:
124,124,333145,5,4,0:0:0:0:
108,164,333235,1,4,0:0:0:0:
108,224,333324,1,0,0:0:0:0:
132,280,333413,1,0,0:0:0:0:
424,296,333503,6,0,P|468:252|384:200,1,150
88,88,333887,6,0,P|44:132|128:184,1,150
368,252,334244,6,0,B|452:192|452:192|324:96|328:100|392:256|392:256|412:100|412:100|260:300,1,750
64,300,335672,6,0,B|32:184|32:184|112:300|112:300|16:312|16:312|120:136,1,550
324,128,336744,6,0,L|364:180,1,50
172,196,337101,6,0,B|80:180|80:180|240:164|240:164|116:128,1,375
344,72,338530,6,0,B|396:92|396:92|436:200|436:200|424:216,1,175
200,236,339244,6,0,L|168:236,2,25
312,148,339601,2,0,L|336:148,2,25
32,92,339958,6,0,B|28:220|28:220|144:104|144:104|60:128,1,375
348,60,341387,6,0,B|400:160|400:160|308:112|308:112|400:112|400:112|328:152,1,375
128,304,342815,6,0,P|96:268|176:84,1,275
420,80,343887,6,0,L|440:140,1,50
112,108,344244,6,0,L|104:128,1,12.5
108,136,344333,1,0,0:0:0:0:
110,160,344422,1,0,0:0:0:0:
116,185,344511,1,0,0:0:0:0:
126,208,344600,1,4,0:0:0:0:
139,229,344690,1,0,0:0:0:0:
155,248,344779,1,0,0:0:0:0:
174,265,344868,1,0,0:0:0:0:
194,278,344957,1,4,0:0:0:0:
217,289,345047,1,0,0:0:0:0:
241,296,345136,1,0,0:0:0:0:
266,299,345225,1,0,0:0:0:0:
296,300,345315,2,0,L|328:300,3,25
76,344,345672,6,0,P|60:296|112:56,1,300
472,156,346922,1,2,0:0:0:0:
76,40,347101,6,0,P|60:88|112:328,1,300
472,156,348351,1,2,0:0:0:0:
76,344,348530,6,0,P|60:296|112:56,1,300
472,156,349780,1,2,0:0:0:0:
100,44,349958,6,0,P|80:84|88:228,1,175
412,44,350672,6,0,P|432:84|424:228,1,175
52,312,351387,6,0,L|372:308,1,300
24,220,352637,1,2,0:0:0:0:
460,72,352815,6,0,L|272:72,1,175
32,140,353530,6,0,L|140:140,1,100
488,164,354065,1,2,0:0:0:0:
52,312,354244,6,0,L|372:308,1,300
32,192,355494,1,2,0:0:0:0:
460,312,355672,6,0,L|272:312,1,175
32,244,356386,6,0,L|120:244,1,75
464,256,356744,6,0,P|472:220|464:160,1,75
192,92,357101,6,0,L|120:92,1,50
80,92,357205,2,0,L|16:92,1,50
280,156,357310,2,0,L|352:156,1,50
160,184,357414,2,0,L|104:184,1,50
160,220,357518,6,0,L|224:220,1,50
80,280,357622,2,0,L|24:280,1,50
260,280,357726,2,0,L|312:280,1,50
372,280,357830,2,0,L|424:280,1,50
132,320,357935,6,0,L|12:320,1,100
304,192,358143,1,4,0:0:0:0:
254,192,358195,1,4,0:0:0:0:
204,192,358247,1,4,0:0:0:0:
396,196,358351,6,0,L|516:196,1,100
308,192,358560,1,4,0:0:0:0:
258,192,358612,1,4,0:0:0:0:
208,192,358664,1,4,0:0:0:0:
64,264,358768,6,0,L|8:264,1,50
76,264,358872,1,0,0:0:0:0:
124,256,358924,1,0,0:0:0:0:
155,218,358976,1,2,0:0:0:0:
154,169,359028,1,0,0:0:0:0:
121,133,359080,1,0,0:0:0:0:
73,127,359132,1,0,0:0:0:0:
132,120,359185,6,0,L|212:120,1,50
124,104,359289,2,0,L|56:104,1,50
280,92,359393,2,0,L|292:144,1,50
232,144,359497,2,0,L|160:144,1,50
404,152,359601,6,0,L|416:204,1,50
356,204,359705,2,0,L|284:204,1,50
60,200,359810,6,0,P|24:248|88:304,1,150
332,304,360018,6,0,L|182:304,1,150
452,200,360226,6,0,P|488:248|424:304,1,150
136,324,360435,5,4,0:0:0:0:
89,307,360486,1,0,0:0:0:0:
52,274,360539,1,0,0:0:0:0:
32,228,360590,1,0,0:0:0:0:
32,179,360643,1,4,0:0:0:0:
52,133,360695,1,0,0:0:0:0:
89,100,360747,1,0,0:0:0:0:
136,84,360799,1,0,0:0:0:0:
196,84,360851,6,0,L|252:84,1,50
244,144,360955,2,0,L|184:144,1,50
40,184,361060,2,0,L|28:240,1,50
244,240,361164,2,0,L|256:184,1,50
56,96,361268,5,4,0:0:0:0:
41,143,361320,1,0,0:0:0:0:
42,193,361372,1,0,0:0:0:0:
59,240,361424,1,0,0:0:0:0:
90,279,361476,1,4,0:0:0:0:
131,306,361528,1,0,0:0:0:0:
179,319,361580,1,4,0:0:0:0:
229,316,361632,1,0,0:0:0:0:
352,280,361685,6,0,L|412:280,1,50
340,280,361789,2,0,L|248:280,1,50
436,216,361893,2,0,L|496:216,1,50
424,216,361997,2,0,L|332:216,1,50
120,276,362101,5,4,0:0:0:0:
104,228,362153,1,0,0:0:0:0:
110,179,362205,1,0,0:0:0:0:
137,137,362257,1,0,0:0:0:0:
392,276,362310,1,4,0:0:0:0:
407,228,362361,1,0,0:0:0:0:
401,179,362414,1,0,0:0:0:0:
374,137,362465,1,0,0:0:0:0:
72,280,362518,5,0,0:0:0:0:
76,230,362570,1,0,0:0:0:0:
101,188,362622,1,0,0:0:0:0:
143,161,362674,1,0,0:0:0:0:
440,280,362726,1,4,0:0:0:0:
435,230,362778,1,0,0:0:0:0:
410,188,362830,1,0,0:0:0:0:
368,161,362882,1,0,0:0:0:0:
56,296,362935,5,4,0:0:0:0:
77,251,362986,1,0,0:0:0:0:
115,218,363039,1,0,0:0:0:0:
162,203,363090,1,0,0:0:0:0:
456,296,363143,1,4,0:0:0:0:
434,251,363195,1,0,0:0:0:0:
396,218,363247,1,4,0:0:0:0:
349,203,363299,1,0,0:0:0:0:
56,292,363351,5,4,0:0:0:0:
95,261,363403,1,0,0:0:0:0:
142,245,363455,1,0,0:0:0:0:
192,244,363507,1,0,0:0:0:0:
456,292,363560,1,4,0:0:0:0:
416,261,363611,1,0,0:0:0:0:
369,245,363664,1,0,0:0:0:0:
319,244,363715,1,0,0:0:0:0:
164,228,363768,6,0,L|84:228,1,50
176,228,363872,2,0,L|236:228,1,50
68,172,363976,2,0,L|16:172,1,50
224,148,364080,2,0,L|284:148,1,50
212,148,364185,6,0,L|144:148,1,50
332,112,364289,2,0,L|388:112,1,50
444,112,364393,2,0,L|496:112,1,50
240,92,364497,2,0,L|180:92,1,50
356,124,364601,6,0,L|412:124,1,50
348,132,364705,2,0,L|276:132,1,50
356,144,364810,2,0,L|424:144,1,50
228,132,364914,2,0,L|168:132,1,50
116,132,365018,6,0,L|48:132,1,50
124,144,365122,2,0,L|192:144,1,50
336,172,365226,2,0,L|392:172,1,50
192,200,365330,2,0,L|136:200,1,50
464,336,365435,5,2,0:0:0:0:
472,286,365486,1,0,0:0:0:0:
468,237,365539,1,0,0:0:0:0:
449,190,365590,1,0,0:0:0:0:
419,151,365643,1,2,0:0:0:0:
379,121,365695,1,0,0:0:0:0:
333,103,365747,1,0,0:0:0:0:
283,99,365799,1,0,0:0:0:0:
48,48,365851,5,2,0:0:0:0:
40,98,365903,1,0,0:0:0:0:
44,147,365955,1,0,0:0:0:0:
63,194,366007,1,0,0:0:0:0:
93,233,366060,1,2,0:0:0:0:
133,263,366111,1,0,0:0:0:0:
179,281,366164,1,0,0:0:0:0:
229,285,366215,1,0,0:0:0:0:
424,280,366268,6,0,L|480:280,1,50
312,216,366372,2,0,L|256:216,1,50
324,212,366476,2,0,L|392:212,1,50
192,164,366580,2,0,L|136:164,1,50
308,112,366685,6,0,L|372:112,1,50
300,96,366789,2,0,L|240:96,1,50
80,96,366893,2,0,L|16:96,1,50
28,156,366997,2,8,L|96:156,1,50
368,212,367101,6,0,L|432:212,1,50
480,212,367205,2,0,L|424:212,1,50
368,212,367310,2,0,L|288:212,1,50
376,192,367414,2,0,L|296:192,1,50
264,192,367518,6,0,L|196:192,1,50
152,192,367622,1,0,0:0:0:0:
116,226,367674,1,0,0:0:0:0:
106,274,367726,1,6,0:0:0:0:
126,319,367778,1,0,0:0:0:0:
167,346,367830,1,0,0:0:0:0:
216,344,367882,1,0,0:0:0:0:
448,264,367935,6,0,L|384:264,1,50
336,264,368039,2,0,L|276:264,1,50
448,212,368143,2,0,L|500:212,1,50
264,204,368247,2,0,L|212:204,1,50
408,156,368351,6,0,L|464:152,1,50
400,136,368455,2,0,L|336:128,1,50
180,120,368560,2,0,L|108:120,1,50
68,120,368664,2,0,L|4:120,1,50
324,144,368768,5,6,0:0:0:0:
298,186,368820,1,0,0:0:0:0:
256,212,368872,1,0,0:0:0:0:
207,218,368924,1,0,0:0:0:0:
408,264,368976,2,0,L|336:264,1,50
168,272,369080,2,0,L|96:272,1,50
304,192,369185,6,0,L|356:192,1,50
292,192,369289,2,0,L|216:192,1,50
384,136,369393,2,0,L|444:136,1,50
488,112,369497,2,0,L|504:64,1,50
228,64,369601,6,0,L|148:64,1,50
116,64,369705,2,0,L|36:64,1,50
460,132,369810,2,0,L|468:192,1,50
296,192,369914,2,0,L|288:252,1,50
348,244,370018,6,0,L|356:304,1,50
184,304,370122,2,0,L|176:364,1,50
236,352,370226,2,0,L|244:292,1,50
72,292,370330,2,0,L|64:232,1,50
348,260,370435,5,2,0:0:0:0:
397,261,370486,1,0,0:0:0:0:
438,234,370539,1,0,0:0:0:0:
455,188,370590,1,0,0:0:0:0:
396,184,370643,1,2,0:0:0:0:
346,182,370695,1,0,0:0:0:0:
305,209,370747,1,0,0:0:0:0:
288,255,370799,1,0,0:0:0:0:
480,176,370851,5,2,0:0:0:0:
463,130,370903,1,0,0:0:0:0:
422,103,370955,1,0,0:0:0:0:
372,105,371007,1,0,0:0:0:0:
32,176,371060,1,2,0:0:0:0:
49,130,371111,1,0,0:0:0:0:
90,103,371164,1,0,0:0:0:0:
140,105,371215,1,0,0:0:0:0:
340,164,371268,6,0,L|412:164,1,50
332,172,371372,2,0,L|272:172,1,50
436,236,371476,2,0,L|488:236,1,50
256,248,371580,2,0,L|192:248,1,50
268,248,371685,6,0,L|336:248,1,50
116,288,371789,2,0,L|60:288,1,50
264,308,371893,2,0,L|328:308,1,50
376,308,371997,2,0,L|428:308,1,50
124,312,372101,6,0,L|64:312,1,50
136,304,372205,1,0,0:0:0:0:
184,300,372257,1,0,0:0:0:0:
217,264,372310,1,2,0:0:0:0:
216,215,372361,1,0,0:0:0:0:
183,180,372414,1,0,0:0:0:0:
134,177,372465,1,0,0:0:0:0:
388,72,372518,6,0,L|448:72,1,50
376,80,372622,1,0,0:0:0:0:
327,83,372674,1,0,0:0:0:0:
294,119,372726,1,2,0:0:0:0:
295,168,372778,1,0,0:0:0:0:
328,203,372830,1,0,0:0:0:0:
377,206,372882,1,0,0:0:0:0:
132,244,372935,6,0,L|24:244,1,100
232,244,373143,1,4,0:0:0:0:
182,244,373195,1,4,0:0:0:0:
132,244,373247,1,4,0:0:0:0:
332,244,373351,6,0,L|224:244,1,100
432,244,373560,1,4,0:0:0:0:
382,244,373611,1,4,0:0:0:0:
332,244,373664,1,4,0:0:0:0:
80,256,373768,6,0,L|24:256,1,50
44,196,373872,2,0,L|108:196,1,50
332,208,373976,1,4,0:0:0:0:
381,204,374028,1,0,0:0:0:0:
422,177,374080,1,0,0:0:0:0:
445,134,374132,1,0,0:0:0:0:
444,84,374185,5,0,0:0:0:0:
418,42,374236,1,0,0:0:0:0:
375,18,374289,1,0,0:0:0:0:
325,18,374340,1,0,0:0:0:0:
128,68,374393,2,0,L|192:68,1,50
320,96,374497,2,0,L|384:96,1,50
104,140,374601,6,0,L|44:140,1,50
84,204,374705,2,0,L|152:204,1,50
196,200,374810,2,0,L|272:200,1,50
72,264,374914,2,0,L|16:264,1,50
84,264,375018,6,0,L|144:264,1,50
76,244,375122,2,0,L|16:244,1,50
300,188,375226,2,0,L|240:188,1,50
188,188,375330,2,0,L|136:188,1,50
392,252,375435,6,0,L|460:252,1,50
256,252,375539,2,0,L|200:252,1,50
256,216,375643,2,0,L|320:216,1,50
120,132,375747,2,0,L|52:132,1,50
256,132,375851,6,0,L|312:132,1,50
256,168,375955,2,0,L|192:168,1,50
396,228,376060,2,0,L|452:228,1,50
448,168,376164,2,0,L|384:168,1,50
128,56,376268,5,4,0:0:0:0:
78,61,376320,1,0,0:0:0:0:
38,89,376372,1,0,0:0:0:0:
17,134,376424,1,0,0:0:0:0:
216,140,376476,1,4,0:0:0:0:
265,145,376528,1,0,0:0:0:0:
305,173,376580,1,4,0:0:0:0:
326,218,376632,1,0,0:0:0:0:
464,248,376685,5,4,0:0:0:0:
443,293,376736,1,0,0:0:0:0:
403,321,376789,1,0,0:0:0:0:
354,326,376840,1,0,0:0:0:0:
20,220,376893,1,4,0:0:0:0:
41,265,376945,1,0,0:0:0:0:
81,293,376997,1,0,0:0:0:0:
130,298,377049,1,0,0:0:0:0:
320,160,377101,6,0,L|392:160,1,50
432,160,377205,2,0,L|512:160,1,50
320,224,377310,2,0,L|256:224,1,50
92,208,377414,2,0,L|42:208,1,50
228,152,377518,6,0,L|292:152,1,50
432,240,377622,2,0,L|488:240,1,50
304,256,377726,2,0,L|240:256,1,50
424,256,377830,2,0,L|480:256,1,50
192,224,377935,6,0,L|120:224,1,50
80,224,378039,2,0,L|0:224,1,50
228,176,378143,2,0,L|292:176,1,50
428,152,378247,2,0,L|478:152,1,50
280,112,378351,6,0,L|230:112,1,50
80,144,378455,2,0,L|24:144,1,50
208,128,378560,2,0,L|272:128,1,50
88,128,378664,2,0,L|32:128,1,50
384,280,378768,5,6,0:0:0:0:
431,263,378820,1,0,0:0:0:0:
465,227,378872,1,0,0:0:0:0:
481,180,378924,1,0,0:0:0:0:
475,131,378976,1,2,0:0:0:0:
449,89,379028,1,0,0:0:0:0:
407,62,379080,1,0,0:0:0:0:
358,56,379132,1,0,0:0:0:0:
128,104,379185,5,6,0:0:0:0:
81,121,379236,1,0,0:0:0:0:
47,157,379289,1,0,0:0:0:0:
31,204,379340,1,0,0:0:0:0:
37,253,379393,1,2,0:0:0:0:
63,295,379445,1,0,0:0:0:0:
105,322,379497,1,0,0:0:0:0:
154,328,379549,1,0,0:0:0:0:
336,216,379601,6,0,L|248:216,1,50
224,216,379705,2,0,L|128:216,1,50
112,212,379810,2,0,L|104:160,1,50
164,144,379914,2,0,L|260:144,1,50
364,128,380018,6,0,L|452:128,1,50
476,136,380122,2,0,L|488:184,1,50
428,184,380226,6,0,L|340:184,1,50
316,184,380330,2,0,L|220:184,1,50
496,192,380435,6,0,L|512:136,3,50
496,200,380643,2,0,L|448:256,1,50
408,256,380747,2,0,L|328:256,1,50
176,272,380851,5,2,0:0:0:0:
168,223,380903,1,0,0:0:0:0:
174,174,380955,1,0,0:0:0:0:
194,129,381007,1,0,0:0:0:0:
227,91,381060,1,2,0:0:0:0:
269,65,381111,1,0,0:0:0:0:
317,52,381164,1,0,0:0:0:0:
367,54,381215,1,0,0:0:0:0:
96,80,381268,6,0,L|32:80,1,50
104,104,381372,2,0,L|176:104,1,50
96,128,381476,2,0,L|32:128,1,50
104,152,381580,2,0,L|176:152,1,50
416,144,381685,6,0,L|480:144,1,50
320,200,381789,2,0,L|256:200,1,50
440,184,381893,2,0,L|504:184,1,50
344,240,381997,2,0,L|280:240,1,50
488,240,382101,6,0,L|496:296,1,50
448,328,382205,2,0,L|368:328,1,50
336,328,382310,1,2,0:0:0:0:
288,320,382361,1,0,0:0:0:0:
250,288,382414,1,0,0:0:0:0:
232,242,382465,1,0,0:0:0:0:
240,193,382518,5,2,0:0:0:0:
271,154,382570,1,0,0:0:0:0:
316,136,382622,1,0,0:0:0:0:
365,142,382674,1,0,0:0:0:0:
424,128,382726,1,2,0:0:0:0:
408,82,382778,1,0,0:0:0:0:
370,50,382830,1,0,0:0:0:0:
322,40,382882,1,0,0:0:0:0:
32,56,382935,6,0,L|16:112,3,50
160,152,383143,6,0,L|176:208,3,50
352,152,383351,6,0,L|336:208,3,50
480,56,383560,6,0,L|496:112,3,50
192,224,383768,6,0,L|120:224,1,50
80,224,383872,2,0,L|0:224,1,50
192,160,383976,2,0,L|256:160,1,50
72,160,384080,2,0,L|16:160,1,50
200,144,384185,6,0,L|264:144,1,50
80,144,384289,2,0,L|24:144,1,50
208,128,384393,2,0,L|272:128,1,50
88,128,384497,2,0,L|32:128,1,50
320,160,384601,6,0,L|392:160,1,50
432,160,384705,2,0,L|512:160,1,50
320,224,384810,2,0,L|256:224,1,50
440,224,384914,2,0,L|496:224,1,50
312,240,385018,6,0,L|248:240,1,50
432,240,385122,2,0,L|488:240,1,50
304,256,385226,2,0,L|240:256,1,50
424,256,385330,2,0,L|480:256,1,50
128,104,385435,5,6,0:0:0:0:
81,121,385486,1,0,0:0:0:0:
47,157,385539,1,0,0:0:0:0:
31,204,385590,1,0,0:0:0:0:
37,253,385643,1,2,0:0:0:0:
63,295,385695,1,0,0:0:0:0:
105,322,385747,1,0,0:0:0:0:
154,328,385799,1,0,0:0:0:0:
384,280,385851,5,6,0:0:0:0:
431,263,385903,1,0,0:0:0:0:
465,227,385955,1,0,0:0:0:0:
481,180,386007,1,0,0:0:0:0:
475,131,386060,1,2,0:0:0:0:
449,89,386111,1,0,0:0:0:0:
407,62,386164,1,0,0:0:0:0:
358,56,386215,1,0,0:0:0:0:
176,168,386268,6,0,L|264:168,1,50
288,168,386372,2,0,L|384:168,1,50
336,216,386476,2,0,L|248:216,1,50
224,216,386580,2,0,L|128:216,1,50
336,216,386685,6,0,L|248:216,1,50
224,216,386789,2,0,L|128:216,1,50
176,168,386893,6,0,L|264:168,1,50
288,168,386997,2,0,L|384:168,1,50
16,192,387101,6,0,L|0:248,3,50
16,184,387310,2,0,L|64:128,1,50
104,128,387414,2,0,L|184:128,1,50
336,112,387518,5,2,0:0:0:0:
344,161,387570,1,0,0:0:0:0:
338,210,387622,1,0,0:0:0:0:
318,255,387674,1,0,0:0:0:0:
285,293,387726,1,2,0:0:0:0:
243,319,387778,1,0,0:0:0:0:
195,332,387830,1,0,0:0:0:0:
145,330,387882,1,0,0:0:0:0:
416,304,387935,6,0,L|480:304,1,50
408,280,388039,2,0,L|336:280,1,50
416,256,388143,2,0,L|480:256,1,50
408,232,388247,2,0,L|336:232,1,50
96,240,388351,6,0,L|32:240,1,50
192,184,388455,2,0,L|256:184,1,50
72,200,388560,2,0,L|8:200,1,50
168,144,388664,2,0,L|232:144,1,50
24,144,388768,6,0,L|16:88,1,50
64,56,388872,2,0,L|144:56,1,50
176,56,388976,1,2,0:0:0:0:
224,64,389028,1,0,0:0:0:0:
262,96,389080,1,0,0:0:0:0:
280,142,389132,1,0,0:0:0:0:
272,191,389185,5,2,0:0:0:0:
241,230,389236,1,0,0:0:0:0:
196,248,389289,1,0,0:0:0:0:
147,242,389340,1,0,0:0:0:0:
88,256,389393,1,2,0:0:0:0:
104,302,389445,1,0,0:0:0:0:
142,334,389497,1,0,0:0:0:0:
190,344,389549,1,0,0:0:0:0:
480,328,389601,6,0,L|496:272,3,50
352,232,389810,6,0,L|336:176,3,50
160,232,390018,6,0,L|176:176,3,50
32,328,390226,6,0,L|16:272,3,50
440,320,390435,6,0,L|472:108,4,200
440,320,391685,2,0,L|352:264,1,100
240,292,391893,2,0,L|328:236,1,100
204,232,392101,6,0,P|116:224|80:128,3,200
308,152,392935,2,0,P|396:160|432:256,3,200
72,64,393768,6,0,L|40:276,4,200
72,64,395018,2,0,L|128:100,1,50
204,88,395226,2,0,L|256:112,1,50
308,116,395435,6,0,P|396:124|412:136,3,100
204,268,396268,2,0,P|116:260|100:248,3,100
204,268,397049,1,0,0:0:0:0:
480,276,397101,6,0,L|480:216,4,50
32,192,397518,2,0,L|32:292,1,100
256,192,397726,1,2,0:0:0:0:
32,276,397935,2,0,L|32:216,4,50
480,276,398351,2,0,L|480:216,4,50
256,192,398664,1,2,0:0:0:0:
32,108,398768,6,0,L|32:168,4,50
480,192,399185,2,0,L|480:92,1,100
256,192,399393,1,2,0:0:0:0:
480,108,399601,2,0,L|480:168,3,50
256,192,399810,6,0,L|256:252,3,50
56,252,400018,2,0,L|12:252,1,25
32,220,400122,2,0,L|68:220,1,25
256,160,400226,2,0,L|256:128,3,25
480,196,400435,6,0,L|480:232,4,25
32,188,400851,2,0,L|32:260,1,50
256,192,401060,2,0,L|256:264,1,50
480,196,401268,2,0,L|480:232,4,25
32,188,401685,2,0,L|32:260,1,50
256,192,401893,2,0,L|256:264,1,50
32,188,402101,6,0,L|32:152,4,25
480,196,402518,2,0,L|480:124,1,50
256,192,402726,2,0,L|256:120,1,50
32,188,402935,2,0,L|32:152,3,25
328,160,403143,6,0,L|336:124,3,25
184,224,403351,2,0,L|176:260,3,25
328,224,403560,2,0,L|336:260,3,25
128,220,403768,6,0,L|20:220,2,100
28,180,404080,1,4,0:0:0:0:
228,220,404185,2,0,L|124:220,1,100
228,184,404393,1,4,0:0:0:0:
28,180,404497,1,4,0:0:0:0:
228,184,404601,6,0,L|128:184,2,100
28,184,404914,2,0,L|128:184,2,100
228,184,405226,2,0,L|128:184,1,100
384,164,405435,6,0,L|492:164,2,100
484,204,405747,1,4,0:0:0:0:
284,164,405851,2,0,L|388:164,1,100
284,200,406060,1,4,0:0:0:0:
484,204,406164,1,4,0:0:0:0:
284,200,406268,6,0,L|384:200,2,100
484,200,406580,2,0,L|384:200,2,100
284,200,406893,2,0,L|384:200,1,100
32,192,407101,6,0,L|144:192,1,100
368,188,407310,2,0,L|256:188,1,100
148,188,407518,2,0,L|260:188,1,100
480,192,407726,2,0,L|368:192,1,100
480,192,407935,6,0,L|368:192,1,100
144,196,408143,2,0,L|256:196,1,100
364,196,408351,2,0,L|252:196,1,100
32,192,408560,2,0,L|144:192,1,100
476,244,408768,6,0,L|492:140,1,100
204,252,408976,2,0,L|188:148,1,100
308,152,409185,2,0,L|324:256,1,100
36,244,409393,2,0,L|20:140,1,100
456,240,409601,6,0,L|480:136,1,100
204,156,409810,2,0,L|312:156,1,100
56,144,410018,1,0,0:0:0:0:
44,192,410070,1,0,0:0:0:0:
33,241,410122,1,0,0:0:0:0:
308,228,410226,1,0,0:0:0:0:
258,228,410278,1,0,0:0:0:0:
208,228,410330,1,0,0:0:0:0:
472,216,410435,5,4,0:0:0:0:
164,148,410539,1,4,0:0:0:0:
408,60,410643,1,4,0:0:0:0:
52,240,410747,1,4,0:0:0:0:
300,280,410851,1,4,0:0:0:0:
92,144,410955,1,4,0:0:0:0:
460,128,411060,1,4,0:0:0:0:
132,200,411164,1,4,0:0:0:0:
464,344,411268,6,0,B|468:184|468:184|460:240|460:240|476:32,1,400
52,112,411789,1,4,0:0:0:0:
416,228,411893,1,4,0:0:0:0:
152,288,411997,1,4,0:0:0:0:
152,288,412414,5,4,0:0:0:0:
444,212,412518,1,4,0:0:0:0:
140,152,412622,1,4,0:0:0:0:
424,96,412726,1,4,0:0:0:0:
88,80,412830,6,0,L|72:284,1,200
440,260,413143,1,4,0:0:0:0:
148,180,413247,1,4,0:0:0:0:
392,116,413351,1,4,0:0:0:0:
392,116,413560,5,4,0:0:0:0:
72,164,413664,1,4,0:0:0:0:
392,228,413768,1,4,0:0:0:0:
76,288,413872,1,4,0:0:0:0:
76,288,414080,5,4,0:0:0:0:
400,188,414185,1,4,0:0:0:0:
64,104,414289,1,4,0:0:0:0:
304,212,414393,1,4,0:0:0:0:
304,212,414810,5,4,0:0:0:0:
60,272,414914,1,4,0:0:0:0:
456,116,415018,1,4,0:0:0:0:
76,112,415122,1,4,0:0:0:0:
256,192,415226,12,0,417101,0:0:0:0:
