osu file format v14

[General]
AudioFilename: audio.mp3
AudioLeadIn: 0
PreviewTime: 241887
Countdown: 0
SampleSet: Soft
StackLeniency: 0.7
Mode: 0
LetterboxInBreaks: 0
EpilepsyWarning: 1
WidescreenStoryboard: 1

[Editor]
Bookmarks: 1149,36816,60495,94615,119380,143380,169325,209966,244629,300052,337152,374017,410061
DistanceSpacing: 1.1
BeatDivisor: 4
GridSize: 32
TimelineZoom: 2.2

[Metadata]
Title:Songs Compilation IV
TitleUnicode:Songs Compilation IV
Artist:Various Artists
ArtistUnicode:Various Artists
Creator:Sotarks
Version:Marathon
Source:
Tags:Armin a_r_m_i_n Reform kujinn pono elinor eli [_eli_] dj-Jo djJo TrySail Utsuroi うつろい マギアレコード 魔法少女まどか☆マギカ外伝 magia record puella magi madoka magica SPYAIR イマジネーション Imagination ハイキュー!! Haikyu!! Haikyuu!! Brian The Sun Lonely Go! BORUTO-ボルト-NARUTO NEXT GENERATIONS Mrs. GREEN APPLE インフェルノ Inferno 炎炎ノ消防隊 fire force 大森靖子 Oomori Seiko JUSTadICE ブラッククローバー Black Clover Ray ♡km/h km/h ろんぐらいだぁす! long riders! heart kmh 倖田來未 Koda Kumi Guess Who Is Back Yamajet feat. ひうらまさこ Hiura Masako Sunglow crossbeats pp REV. SUNRISE Happy High Carolie しあわせハイカロリー 分島花音 Wakeshima Kanon ツキナミ Tsukinami ななひら Nanahira チカっとチカ千花っ♡ Chikatto Chika Kaguya-sama: Love War wa Kokurasetai: Tensai-tachi no Renai Zunousen かぐや様は告らせたい~天才たちの恋愛頭脳戦~halozy 藍月なくる Aitsuki Nakuru Monochrome Butterfly トコロクラニスト よーすけ@KG the peggies 君のせい Kimi Sei 青春ブタ野郎はバニーガール先輩の夢を見ない Seishun Buta Yarō Yarou Yumemiru Shōjo Shoujo Yume o Minai ao-buta 765 MILLION ALLSTARS UNION!! アイドルマスター ミリオンライブ! アイマス ミリマス ミリシタ Idolmaster 堀江晶太 idolm@ster anime japanese pop
BeatmapID:2593620
BeatmapSetID:1247857

[Difficulty]
HPDrainRate:5.2
CircleSize:3.8
OverallDifficulty:9
ApproachRate:9.2
SliderMultiplier:1.72
SliderTickRate:1

[Events]
//Background and Video events
0,0,"bg.jpg",0,0
//Break Periods
2,119600,126614
2,296911,299502
//Storyboard Layer 0 (Background)
//Storyboard Layer 1 (Fail)
//Storyboard Layer 2 (Pass)
//Storyboard Layer 3 (Foreground)
//Storyboard Layer 4 (Overlay)
//Storyboard Sound Samples

[TimingPoints]
14,288.461538461538,4,2,22,62,1,0
1167,-121.951219512195,4,2,22,62,0,0
2321,-98.0392156862745,4,2,22,82,0,0
34629,294.117647058824,4,2,22,62,1,0
34629,-108.695652173913,4,2,22,62,0,0
35805,-108.695652173913,4,2,22,72,0,0
36393,-192.307692307692,4,2,22,52,0,0
36834,-98.0392156862745,4,2,22,82,0,0
56981,-98.0392156862745,4,2,22,72,0,0
58158,300,4,2,22,62,1,0
58158,-121.951219512195,4,2,22,62,0,0
58608,294.117647058824,4,2,22,62,1,0
58608,-121.951219512195,4,2,22,62,0,0
59049,295.566502463054,4,2,22,62,1,0
59049,-121.951219512195,4,2,22,62,0,0
59492,294.117647058824,4,2,22,62,1,0
59492,-121.951219512195,4,2,22,62,0,0
59933,293.398533007335,4,2,22,62,1,0
60519,294.117647058824,4,2,22,82,1,0
60519,-98.0392156862745,4,2,22,82,0,0
92724,-161.290322580645,4,2,22,82,0,0
93460,324.324324324324,4,2,22,62,1,0
117784,319.148936170213,4,2,22,82,1,0
118103,324.324324324324,4,2,22,82,1,0
119075,-89.2857142857143,4,2,22,82,0,0
127184,-108.695652173913,4,2,22,72,0,0
129454,-75.7575757575758,4,2,22,72,0,0
129778,-98.0392156862745,4,2,22,82,0,0
140967,-192.307692307692,4,2,22,82,0,0
142265,-108.695652173913,4,2,22,82,0,0
142410,-108.695652173913,4,2,22,62,0,0
143400,324.324324324324,4,2,22,72,1,0
143562,-161.290322580645,4,2,22,72,0,0
144535,-89.2857142857143,4,2,22,72,0,0
145021,-108.695652173913,4,2,22,72,0,0
145670,-81.9672131147541,4,2,22,72,0,0
145994,-98.0392156862745,4,2,22,82,0,0
161562,-108.695652173913,4,2,22,82,0,0
164156,-98.0392156862745,4,2,22,82,0,0
168048,-98.0392156862745,4,2,22,92,0,0
169021,-81.9672131147541,4,2,22,82,0,0
169247,-81.9672131147541,4,2,22,52,0,0
169345,-121.951219512195,4,2,22,62,0,0
170643,327.868852459016,4,2,22,62,1,0
173921,-121.951219512195,4,2,22,62,0,0
174577,-238.095238095238,4,2,22,62,0,0
175790,-238.095238095238,4,2,22,5,0,0
175888,-98.0392156862745,4,2,22,82,0,0
207692,-138.888888888889,4,2,22,62,0,0
209987,333.333333333333,4,2,22,72,1,0
209987,-108.695652173913,4,2,22,72,0,0
210320,-81.9672131147541,4,2,22,82,0,0
210637,-81.9672131147541,4,2,22,72,0,0
210820,-108.695652173913,4,2,22,72,0,0
215320,-98.0392156862745,4,2,22,82,0,0
240986,-192.307692307692,4,2,22,82,0,0
241554,-192.307692307692,4,2,22,62,0,0
241653,-161.290322580645,4,2,22,62,0,0
243986,-121.951219512195,4,2,22,62,0,0
244220,-121.951219512195,4,2,22,5,0,0
244320,329.67032967033,4,2,22,72,1,0
244320,-61.7283950617284,4,2,22,72,0,0
244554,-61.7283950617284,4,2,22,5,0,0
244649,333.333333333333,4,2,22,82,1,0
244649,-89.2857142857143,4,2,22,82,0,0
245315,-98.0392156862745,4,2,22,82,0,0
263315,-98.0392156862745,4,2,22,92,0,1
268649,-98.0392156862745,4,2,22,92,0,0
270649,-238.095238095238,4,2,22,82,0,0
270887,-238.095238095238,4,2,22,5,0,0
270982,-121.951219512195,4,2,22,82,0,0
271220,-121.951219512195,4,2,22,5,0,0
271315,-98.0392156862744,4,2,22,82,0,0
291982,342.857142857143,4,2,22,82,1,0
292153,-98.0392156862744,4,2,22,82,0,0
292667,337.078651685393,4,2,22,82,1,0
296711,-100,4,2,22,52,0,0
299408,332.409972299169,4,2,22,52,1,0
300072,337.078651685393,4,2,22,62,1,0
300072,-138.888888888889,4,2,22,62,0,0
301420,-108.695652173913,4,2,22,62,0,0
304116,-98.0392156862745,4,2,22,82,0,0
320802,-161.290322580645,4,2,22,82,0,0
321625,-161.290322580645,4,2,22,5,0,0
321813,-161.290322580645,4,2,22,82,0,0
322993,-108.695652173913,4,2,22,82,0,0
329734,-98.0392156862745,4,2,22,82,0,0
333611,338.409475465313,4,2,22,82,1,0
335810,342.857142857142,4,2,22,82,1,0
335810,-121.951219512195,4,2,22,82,0,0
336983,-121.951219512195,4,2,22,42,0,0
337181,-121.951219512195,4,2,22,52,0,0
337695,-121.951219512195,4,2,22,62,0,0
338210,-121.951219512195,4,2,22,72,0,0
338552,-98.0392156862744,4,2,22,82,0,0
371467,339.943342776204,4,2,22,82,1,0
371636,-192.307692307692,4,2,22,82,0,0
371698,-192.307692307692,4,2,22,62,0,0
372486,346.820809248555,4,2,22,62,1,0
372832,344.827586206897,4,2,22,62,1,0
372832,-161.290322580645,4,2,22,62,0,0
374038,-98.0392156862745,4,2,22,82,0,0
407314,-138.888888888889,4,2,22,62,0,0
409728,356.083086053412,4,2,22,62,1,0
409728,-121.951219512195,4,2,22,62,0,0
410084,348.837209302326,4,2,22,82,1,0
410084,-98.0392156862744,4,2,22,82,0,0
437990,-98.0392156862744,4,2,22,92,0,1
443572,-98.0392156862744,4,2,22,82,0,0
444948,-98.0392156862744,4,2,22,62,0,0
446692,-98.0392156862744,4,2,22,52,0,0

[Colours]
Combo1 : 210,255,145
Combo2 : 150,148,148
Combo3 : 218,216,216
Combo4 : 242,36,36
Combo5 : 255,129,15
Combo6 : 166,231,255
Combo7 : 255,242,83
Combo8 : 232,66,255

[HitObjects]
127,94,1167,6,0,P|134:140|140:182,1,70.5200000000001,8|0,2:0|1:2,2:0:0:0:
73,319,1456,1,0,1:2:0:0:
242,132,1600,2,0,P|235:178|229:220,1,70.5200000000001,8|0,1:3|1:2,2:0:0:0:
318,364,1888,1,0,1:2:0:0:
170,299,2033,1,4,1:3:0:0:
170,299,2321,54,0,P|238:287|279:280,1,87.72,6|0,1:2|2:0,2:0:0:0:
413,157,2610,1,10,2:0:0:0:
351,351,2754,1,2,1:2:0:0:
273,151,2898,1,2,2:0:0:0:
453,243,3042,1,6,1:3:0:0:
243,338,3187,1,10,2:0:0:0:
413,157,3331,1,2,2:0:0:0:
220,358,3475,6,0,B|155:336|101:320|101:320|76:346|56:365,1,175.44,2|8,1:2|2:0,2:0:0:0:
287,113,3908,2,0,P|364:147|359:250,1,175.44,2|4,1:2|1:3,2:0:0:0:
112,153,4340,2,0,P|121:105|130:60,1,87.72,10|0,2:0|2:0,2:0:0:0:
281,251,4629,102,0,P|222:262|179:271,1,87.72,2|0,1:2|2:0,2:0:0:0:
289,77,4917,1,10,2:0:0:0:
360,335,5062,2,0,P|419:346|462:355,1,87.72,2|0,1:2|2:0,2:0:0:0:
263,234,5350,2,0,P|204:245|161:254,1,87.72,6|8,1:3|2:0,2:0:0:0:
346,144,5638,1,2,1:2:0:0:
109,318,5783,6,0,P|100:274|92:231,1,87.72,2|0,1:2|2:0,2:0:0:0:
183,67,6071,1,10,2:0:0:0:
279,336,6215,2,0,P|287:292|295:249,1,87.72,2|0,1:2|2:0,2:0:0:0:
205,85,6504,1,6,1:3:0:0:
94,340,6648,2,0,P|85:296|77:253,1,87.72,10|0,2:0|2:0,2:0:0:0:
268,4,6937,102,0,B|291:22|318:39|318:39|294:97|274:157,1,175.44,2|8,1:2|2:0,2:0:0:0:
194,285,7369,1,0,1:2:0:0:
118,68,7513,2,0,P|172:78|220:88,1,87.72,2|4,2:0|1:3,2:0:0:0:
379,161,7802,2,0,P|325:171|277:181,1,87.72,10|0,2:0|2:0,2:0:0:0:
104,307,8090,6,0,B|154:278|205:318|177:330|216:361|296:330,1,175.44,2|8,1:2|2:0,2:0:0:0:
406,184,8523,1,0,1:2:0:0:
204,84,8667,2,0,P|216:149|222:188,1,87.72,2|4,2:0|1:3,2:0:0:0:
369,308,8956,2,0,P|376:264|384:221,1,87.72,10|0,2:0|2:0,2:0:0:0:
119,64,9244,102,0,P|133:150|150:257,1,175.44,2|8,1:2|2:0,2:0:0:0:
275,345,9677,1,0,1:2:0:0:
57,218,9821,2,0,P|45:283|39:322,1,87.72,2|4,2:0|1:3,2:0:0:0:
325,231,10110,2,0,P|317:187|309:144,1,87.72,10|0,2:0|2:0,2:0:0:0:
71,14,10398,6,0,P|124:64|235:30,1,175.44,2|8,1:2|2:0,2:0:0:0:
457,110,10831,2,0,P|374:90|309:143,1,175.44,2|4,1:2|1:3,2:0:0:0:
162,301,11263,1,8,1:2:0:0:
219,48,11408,1,8,1:2:0:0:
314,345,11552,102,0,P|321:301|329:258,1,87.72,6|0,1:2|2:0,2:0:0:0:
411,77,11840,1,10,2:0:0:0:
228,143,11985,1,2,1:2:0:0:
423,308,12129,2,0,P|415:264|407:221,1,87.72,2|4,2:0|1:3,2:0:0:0:
326,40,12417,1,10,2:0:0:0:
509,106,12562,1,2,2:0:0:0:
329,258,12706,6,0,B|281:277|240:253|264:238|217:201|167:230,1,175.44,2|8,1:2|2:0,2:0:0:0:
25,374,13138,2,0,P|106:362|237:341,1,175.44,2|4,1:2|1:3,2:0:0:0:
53,138,13571,2,0,P|45:201|37:252,1,87.72,10|0,2:0|2:0,2:0:0:0:
281,91,13860,102,0,P|340:80|383:71,1,87.72,2|0,1:2|2:0,2:0:0:0:
273,265,14148,1,10,2:0:0:0:
208,16,14292,2,0,P|149:5|106:-4,1,87.72,2|0,1:2|2:0,2:0:0:0:
307,111,14581,2,0,P|366:100|409:91,1,87.72,6|8,1:3|2:0,2:0:0:0:
216,198,14869,1,2,1:2:0:0:
386,359,15013,6,0,P|394:315|402:272,1,87.72,2|0,1:2|2:0,2:0:0:0:
299,108,15302,1,10,2:0:0:0:
411,354,15446,2,0,P|419:310|427:267,1,87.72,2|0,1:2|2:0,2:0:0:0:
466,78,15735,1,6,1:3:0:0:
313,295,15879,2,0,P|269:287|226:278,1,87.72,10|0,2:0|2:0,2:0:0:0:
59,98,16167,102,0,P|117:34|228:57,1,175.44,6|8,1:2|2:0,2:0:0:0:
297,194,16600,1,0,1:2:0:0:
89,312,16744,2,0,P|97:268|105:225,1,87.72,2|4,2:0|1:3,2:0:0:0:
367,122,17033,2,0,P|375:164|383:208,1,87.72,10|0,2:0|2:0,2:0:0:0:
254,384,17321,6,0,B|231:366|204:349|204:349|228:291|248:231,1,175.44,2|8,1:2|2:0,2:0:0:0:
365,351,17754,1,0,1:2:0:0:
146,244,17898,2,0,P|103:252|59:260,1,87.72,2|4,2:0|1:3,2:0:0:0:
280,105,18187,2,0,P|322:113|366:121,1,87.72,10|0,2:0|3:2,2:0:0:0:
434,68,18403,1,0,3:2:0:0:
434,68,18475,102,0,P|443:156|455:267,1,175.44,2|8,1:2|2:0,2:0:0:0:
340,36,18908,1,8,2:0:0:0:
340,36,18980,1,8,2:0:0:0:
340,36,19052,1,8,2:0:0:0:
259,268,19196,1,6,1:2:0:0:
259,268,19485,6,0,B|209:247|161:282|193:300|138:338|77:301,1,175.44,6|0,1:2|1:2,2:0:0:0:
164,77,19917,1,10,2:0:0:0:
282,358,20062,2,0,P|293:272|306:153,1,175.44,6|4,1:2|1:3,2:0:0:0:
438,345,20494,1,8,2:0:0:0:
371,101,20638,86,0,P|308:156|213:114,1,175.44,6|2,1:2|1:2,2:0:0:0:
335,308,21071,21,10,2:0:0:0:
275,62,21215,1,0,1:2:0:0:
221,283,21360,85,10,2:0:0:0:
281,37,21504,1,2,1:2:0:0:
152,328,21648,21,8,2:0:0:0:
92,82,21792,2,0,B|114:99|139:117|139:117|112:180|84:249,1,175.44,6|0,1:2|1:2,2:0:0:0:
184,36,22225,85,8,2:0:0:0:
253,253,22369,1,0,1:2:0:0:
312,58,22513,21,8,2:0:0:0:
243,275,22658,1,0,1:2:0:0:
393,10,22802,85,8,2:0:0:0:
476,257,22946,2,0,B|427:238|385:279|409:292|367:329|291:302,1,175.44,6|2,1:2|1:2,2:0:0:0:
174,144,23379,21,10,2:0:0:0:
105,361,23523,1,0,1:2:0:0:
165,116,23667,85,10,2:0:0:0:
234,333,23812,1,2,1:2:0:0:
107,55,23956,21,8,2:0:0:0:
36,280,24100,2,0,B|92:256|147:233|147:233|172:251|209:275,1,175.44,6|0,1:2|1:2,2:0:0:0:
366,166,24533,85,8,2:0:0:0:
297,383,24677,1,0,1:2:0:0:
354,137,24821,21,8,2:0:0:0:
423,354,24965,1,0,1:2:0:0:
285,82,25110,85,8,2:0:0:0:
215,298,25254,2,0,B|193:281|168:263|168:263|195:200|223:131,1,175.44,6|2,1:2|1:2,2:0:0:0:
134,350,25687,21,10,2:0:0:0:
65,133,25831,1,0,1:2:0:0:
144,372,25975,85,10,2:0:0:0:
213,155,26119,1,2,1:2:0:0:
374,316,26263,21,8,2:0:0:0:
305,99,26408,2,0,P|258:54|156:87,1,175.44,6|0,1:2|1:2,2:0:0:0:
338,304,26840,2,0,P|343:257|349:204,1,87.72,8|0,2:0|1:2,2:0:0:0:
176,265,27129,101,10,1:2:0:0:
440,188,27273,1,8,1:2:0:0:
195,244,27417,1,8,1:2:0:0:
442,382,27562,102,0,P|451:296|462:179,1,175.44,6|0,1:2|1:2,2:0:0:0:
222,72,27994,21,12,2:0:0:0:
332,297,28138,1,0,1:2:0:0:
396,80,28283,85,8,2:0:0:0:
171,190,28427,1,0,1:2:0:0:
362,309,28571,21,12,2:0:0:0:
252,84,28715,1,0,1:2:0:0:
147,286,28860,85,8,2:0:0:0:
398,201,29004,1,0,1:2:0:0:
155,67,29148,21,14,2:0:0:0:
265,292,29292,1,0,1:2:0:0:
171,42,29437,85,10,2:0:0:0:
61,267,29581,1,0,1:2:0:0:
44,0,29725,21,10,2:0:0:0:
154,224,29869,2,0,P|241:209|346:191,1,175.44,6|2,1:2|1:2,2:0:0:0:
464,65,30302,2,0,P|456:117|448:170,1,87.72,10|0,2:0|2:0,2:0:0:0:
321,329,30590,1,2,1:2:0:0:
512,267,30735,1,0,1:2:0:0:
353,108,30879,1,8,2:0:0:0:
465,336,31023,102,0,P|471:292|478:249,1,87.72,2|0,1:2|2:0,2:0:0:0:
330,88,31312,1,2,1:2:0:0:
257,322,31456,2,0,P|305:311|351:301,1,87.72,10|0,2:0|2:0,2:0:0:0:
237,82,31744,1,2,1:2:0:0:
164,316,31888,1,0,1:2:0:0:
228,57,32033,1,8,2:0:0:0:
301,291,32177,1,0,1:2:0:0:
83,99,32321,5,6,1:2:0:0:
403,177,32898,101,6,1:2:0:0:
115,384,33475,5,6,1:2:0:0:
174,189,33619,1,8,1:2:0:0:
278,371,33763,1,8,1:2:0:0:
278,371,34629,38,0,P|335:359|374:352,1,79.12,12|0,2:0|1:2,2:0:0:0:
470,223,34923,2,0,P|413:211|374:204,1,79.12,8|0,2:0|1:2,2:0:0:0:
194,77,35217,2,0,P|201:125|209:172,1,79.12,8|0,2:0|1:2,2:0:0:0:
41,228,35511,2,0,P|47:188|53:149,1,79.12,8|0,2:0|1:2,2:0:0:0:
42,120,35731,1,0,1:2:0:0:
42,120,35805,5,8,1:2:0:0:
146,361,35952,1,8,1:2:0:0:
194,77,36099,1,8,1:2:0:0:
194,77,36393,102,0,P|246:85|295:97,1,89.4400000000001,2|0,2:0|2:0,2:0:0:0:
474,152,36834,22,0,P|381:164|266:194,1,175.44,6|8,1:2|1:3,2:0:0:0:
98,305,37276,2,0,P|106:259|117:193,1,87.72,10|0,2:0|2:0,2:0:0:0:
34,63,37570,1,2,1:2:0:0:
217,134,37717,1,6,1:3:0:0:
19,256,37864,1,8,2:0:0:0:
210,105,38011,22,0,B|263:80|313:115|288:129|330:161|380:137,1,175.44,2|8,1:2|1:3,2:0:0:0:
498,60,38452,2,0,P|505:103|512:146,1,87.72,10|0,2:0|2:0,2:0:0:0:
305,286,38746,1,2,1:2:0:0:
400,113,38893,1,6,1:3:0:0:
499,328,39040,1,8,2:0:0:0:
290,179,39187,86,0,P|238:189|186:200,1,87.72,2|0,1:2|2:0,2:0:0:0:
110,367,39481,2,0,P|153:375|196:384,1,87.72,10|8,1:3|2:0,2:0:0:0:
52,163,39776,2,0,P|44:206|37:249,1,87.72,2|0,2:0|1:2,2:0:0:0:
234,369,40070,2,0,P|226:325|219:282,1,87.72,6|8,1:3|2:0,2:0:0:0:
296,80,40364,22,0,P|222:140|139:107,1,175.44,2|10,1:2|1:3,2:0:0:0:
372,215,40805,2,0,P|415:223|458:232,1,87.72,8|0,2:0|2:0,2:0:0:0:
389,90,41099,1,2,1:2:0:0:
444,317,41246,1,6,1:3:0:0:
374,77,41393,1,8,2:0:0:0:
261,314,41540,86,0,B|200:291|150:273|150:273|123:293|95:315,1,175.44,6|8,1:2|1:3,2:0:0:0:
230,116,41981,2,0,P|237:159|244:202,1,87.72,10|0,2:0|2:0,2:0:0:0:
170,374,42276,1,2,1:2:0:0:
358,274,42423,1,6,1:3:0:0:
158,171,42570,1,8,2:0:0:0:
402,354,42717,22,0,P|452:296|424:187,1,175.44,2|8,1:2|1:3,2:0:0:0:
275,38,43158,2,0,P|267:81|260:124,1,87.72,10|0,2:0|2:0,2:0:0:0:
161,276,43452,1,2,1:2:0:0:
357,190,43599,1,6,1:3:0:0:
182,78,43746,1,8,2:0:0:0:
331,285,43893,86,0,P|373:276|417:267,1,87.72,2|0,1:2|2:0,2:0:0:0:
454,67,44187,2,0,P|411:58|367:49,1,87.72,10|8,1:3|2:0,2:0:0:0:
227,200,44481,2,0,P|219:156|212:113,1,87.72,2|0,2:0|1:2,2:0:0:0:
72,24,44776,2,0,P|64:67|57:110,1,87.72,6|8,1:3|2:0,2:0:0:0:
0,298,45070,22,0,B|53:273|103:308|78:322|120:354|170:330,1,175.44,2|8,1:2|1:3,2:0:0:0:
327,163,45511,1,8,2:0:0:0:
186,354,45658,1,0,1:2:0:0:
154,108,45805,1,10,2:0:0:0:
340,253,45952,1,2,1:3:0:0:
132,111,46099,1,8,2:0:0:0:
392,334,46246,86,0,B|415:315|441:290|441:290|421:235|397:171,1,175.44,6|8,1:2|1:3,2:0:0:0:
233,44,46687,2,0,P|225:87|218:130,1,87.72,10|0,2:0|2:0,2:0:0:0:
282,290,46981,1,2,1:2:0:0:
108,195,47129,1,6,1:3:0:0:
310,89,47276,1,8,2:0:0:0:
86,284,47423,22,0,P|77:200|66:102,1,175.44,2|8,1:2|1:3,2:0:0:0:
273,257,47864,2,0,P|229:265|186:274,1,87.72,10|0,2:0|2:0,2:0:0:0:
281,100,48158,1,2,1:2:0:0:
226,346,48305,1,6,1:3:0:0:
259,79,48452,1,8,2:0:0:0:
412,292,48599,86,0,P|404:248|397:205,1,87.72,2|0,1:2|2:0,2:0:0:0:
169,116,48893,2,0,P|161:159|154:202,1,87.72,10|8,1:3|2:0,2:0:0:0:
342,80,49187,2,0,P|385:88|428:97,1,87.72,2|0,2:0|1:2,2:0:0:0:
222,296,49481,2,0,P|178:304|135:313,1,87.72,6|8,1:3|2:0,2:0:0:0:
49,86,49776,22,0,P|103:23|219:46,1,175.44,2|10,1:2|1:3,2:0:0:0:
339,256,50217,2,0,P|346:212|353:169,1,87.72,8|0,2:0|2:0,2:0:0:0:
283,0,50511,1,2,1:2:0:0:
471,88,50658,1,6,1:3:0:0:
257,203,50805,1,10,2:0:0:0:
485,65,50952,86,0,P|492:108|499:151,1,87.72,6|0,1:2|2:0,2:0:0:0:
353,284,51246,2,0,P|360:240|367:197,1,87.72,10|8,1:3|2:0,2:0:0:0:
405,26,51540,2,0,P|361:34|318:43,1,87.72,2|0,2:0|1:2,2:0:0:0:
170,185,51834,2,0,P|213:193|256:202,1,87.72,6|8,1:3|2:0,2:0:0:0:
58,38,52129,22,0,B|36:59|15:79|15:79|43:145|70:205,1,175.44,2|10,1:2|1:3,2:0:0:0:
136,352,52570,1,8,2:0:0:0:
246,170,52717,2,0,P|203:161|159:152,1,87.72,2|0,2:0|1:2,2:0:0:0:
267,355,53011,2,0,P|309:346|353:337,1,87.72,6|8,1:3|2:0,2:0:0:0:
423,211,53305,1,2,1:2:0:0:
183,267,53452,85,12,2:0:0:0:
308,58,53599,1,0,1:2:0:0:
353,337,53746,21,8,2:0:0:0:
228,128,53893,1,0,1:2:0:0:
194,384,54040,85,8,2:0:0:0:
319,175,54187,1,0,1:2:0:0:
163,384,54334,2,0,P|155:340|148:297,1,87.72,10|0,2:0|1:2,2:0:0:0:
199,38,54629,21,14,2:0:0:0:
1,167,54776,1,2,1:2:0:0:
267,299,54923,85,8,2:0:0:0:
121,120,55070,1,2,1:2:0:0:
36,357,55217,21,8,2:0:0:0:
248,198,55364,1,2,1:2:0:0:
15,80,55511,2,0,P|7:123|0:166,1,87.72,8|2,2:0|1:2,2:0:0:0:
177,357,55805,85,14,2:0:0:0:
255,104,55952,1,0,1:2:0:0:
175,331,56099,1,0,1:2:0:0:
220,26,56246,22,0,P|283:10|355:108,1,175.44,14|8,2:0|2:0,2:0:0:0:
147,223,56687,2,0,P|139:179|132:136,1,87.72,10|0,2:0|1:2,2:0:0:0:
362,277,56981,1,6,1:2:0:0:
362,277,58158,54,0,P|357:239|351:197,1,70.5200000000001,12|0,2:0|1:2,2:0:0:0:
396,97,58458,1,0,1:2:0:0:
262,239,58608,2,0,P|267:201|273:159,1,70.5200000000001,12|0,2:0|1:2,2:0:0:0:
228,59,58902,1,0,1:2:0:0:
173,207,59049,6,0,L|164:166,3,35.26,8|8|4|4,2:0|2:3|2:3|2:3,2:0:0:0:
97,214,59344,2,0,L|88:173,1,35.26,8|4,2:3|2:3,2:0:0:0:
254,273,59492,102,0,L|263:232,3,35.26,8|8|4|4,2:0|2:3|2:3|2:3,2:3:0:0:
330,280,59786,2,0,L|339:239,1,35.26,8|4,2:3|2:3,2:0:0:0:
177,359,59933,5,10,2:0:0:0:
343,163,60079,1,8,2:0:0:0:
343,163,60519,54,0,P|287:171|233:180,1,87.72,6|0,1:2|2:0,2:0:0:0:
160,23,60813,2,0,P|203:29|246:35,1,87.72,8|0,2:0|2:0,2:0:0:0:
129,244,61107,1,2,1:2:0:0:
34,89,61254,1,0,1:2:0:0:
235,211,61401,2,0,P|225:277|218:326,1,87.72,8|0,2:0|2:0,2:0:0:0:
33,383,61695,70,0,P|24:303|8:178,2,175.44,2|8|2,1:2|2:0|1:2,2:0:0:0:
135,167,62430,1,0,1:2:0:0:
239,323,62577,2,0,P|245:279|252:236,1,87.72,10|0,2:0|2:0,2:0:0:0:
373,54,62871,38,0,P|316:113|209:89,1,175.44,2|8,1:2|2:0,2:0:0:0:
122,19,63313,1,0,2:0:0:0:
222,222,63460,1,2,1:2:0:0:
143,37,63607,1,0,1:2:0:0:
62,248,63754,2,0,P|55:204|48:161,1,87.72,8|0,2:0|2:0,2:0:0:0:
259,18,64048,70,0,P|248:105|238:192,1,175.44,2|8,1:2|2:0,2:0:0:0:
317,365,64489,1,0,2:0:0:0:
145,277,64636,1,2,1:2:0:0:
325,175,64783,1,0,1:2:0:0:
185,384,64930,2,0,P|178:340|171:297,1,87.72,8|0,2:0|2:0,2:0:0:0:
108,72,65224,38,0,P|151:78|194:84,1,87.72,6|0,1:2|2:0,2:0:0:0:
329,210,65519,2,0,P|285:216|242:222,1,87.72,10|0,2:0|2:0,2:0:0:0:
85,317,65813,2,0,P|91:273|98:230,1,87.72,2|0,1:2|1:2,2:0:0:0:
209,24,66107,2,0,P|215:67|222:110,1,87.72,10|0,2:0|2:0,2:0:0:0:
217,313,66401,70,0,P|260:306|303:300,1,87.72,2|0,1:2|2:0,2:0:0:0:
403,123,66695,2,0,P|359:116|316:110,1,87.72,10|0,2:0|2:0,2:0:0:0:
413,310,66989,2,0,P|406:266|399:223,1,87.72,2|0,1:2|1:2,2:0:0:0:
222,110,67283,2,0,P|215:153|208:196,1,87.72,10|0,2:0|2:0,2:0:0:0:
70,324,67577,38,0,B|126:296|169:332|150:346|189:380|263:345,1,175.44,2|8,1:2|2:0,2:0:0:0:
352,214,68019,1,0,2:0:0:0:
172,85,68166,2,0,P|178:128|185:171,1,87.72,2|0,1:2|1:2,2:0:0:0:
365,320,68460,2,0,P|371:276|378:233,1,87.72,8|0,2:0|2:0,2:0:0:0:
287,47,68754,69,0,1:2:0:0:
462,144,68901,1,0,1:2:0:0:
286,288,69048,2,0,P|242:281|199:275,1,87.72,12|0,2:0|2:0,2:0:0:0:
62,152,69342,2,0,L|52:201,3,43.86,8|0|0|0,2:0|1:2|1:2|1:2,2:0:0:0:
214,130,69636,2,0,L|205:87,3,43.86,8|0|0|0,2:0|1:2|1:2|1:2,2:0:0:0:
74,231,69930,38,0,P|80:187|87:144,1,87.72,6|0,1:2|2:0,2:0:0:0:
235,43,70224,2,0,P|241:86|248:129,1,87.72,12|0,2:0|2:0,2:0:0:0:
337,300,70519,1,0,1:2:0:0:
173,233,70666,1,0,1:2:0:0:
361,95,70813,2,0,P|354:138|347:181,1,87.72,8|0,2:0|2:0,2:0:0:0:
404,362,71107,70,0,P|360:355|317:349,1,87.72,2|0,1:2|1:2,2:0:0:0:
173,233,71401,2,0,P|216:226|259:220,1,87.72,8|0,2:0|2:0,2:0:0:0:
456,94,71695,1,2,1:2:0:0:
369,273,71842,1,0,1:2:0:0:
245,66,71989,1,8,2:0:0:0:
381,146,72136,1,0,1:2:0:0:
196,267,72283,38,0,P|202:223|209:180,1,87.72,14|0,2:0|1:2,2:0:0:0:
326,26,72577,1,8,1:3:0:0:
127,110,72724,1,8,1:3:0:0:
305,219,72871,2,0,P|298:175|291:132,1,87.72,4|4,2:3|2:3,2:0:0:0:
105,21,73166,70,0,P|39:59|80:241,1,263.16,14|0,2:0|1:2,2:0:0:0:
226,341,73754,2,0,P|232:297|239:254,1,87.72,8|0,2:0|2:0,2:0:0:0:
155,103,74048,1,0,1:2:0:0:
330,182,74195,1,0,1:2:0:0:
104,295,74342,2,0,P|97:251|90:208,1,87.72,12|0,2:0|2:0,2:0:0:0:
265,17,74636,38,0,P|210:61|241:184,1,175.44,6|8,1:2|2:0,2:0:0:0:
342,304,75077,1,0,2:0:0:0:
446,134,75224,2,0,P|402:127|359:121,1,87.72,0|0,1:2|1:2,2:0:0:0:
244,299,75519,2,0,P|287:292|330:286,1,87.72,8|0,2:0|2:0,2:0:0:0:
143,57,75813,70,0,B|117:78|96:96|96:96|121:156|140:206,1,175.44,6|8,1:2|2:0,2:0:0:0:
213,374,76254,1,0,2:0:0:0:
337,141,76401,2,0,P|380:147|423:153,1,87.72,0|0,1:2|1:2,2:0:0:0:
512,325,76695,2,0,P|468:331|425:337,1,87.72,8|0,2:0|2:0,2:0:0:0:
130,234,76989,38,0,B|186:206|229:242|210:256|249:290|323:255,1,175.44,6|8,1:2|2:0,2:0:0:0:
163,105,77430,1,0,1:2:0:0:
241,344,77577,1,8,2:0:0:0:
332,142,77724,1,8,2:3:0:0:
213,218,77871,1,4,2:3:0:0:
322,282,78019,1,4,2:3:0:0:
224,128,78166,70,0,P|180:134|137:140,1,87.72,10|0,2:0|2:0,2:0:0:0:
69,328,78460,2,0,P|112:333|155:339,1,87.72,12|0,2:0|1:2,2:0:0:0:
225,302,78680,1,0,1:2:0:0:
225,302,78754,2,0,L|236:360,3,43.86,8|0|0|0,2:0|1:2|1:2|1:2,2:0:0:0:
346,384,79048,2,0,L|354:340,3,43.86,8|0|0|0,2:0|1:2|1:2|1:2,2:0:0:0:
449,273,79342,38,0,P|442:229|435:186,1,87.72,6|0,1:2|2:0,2:0:0:0:
270,67,79636,2,0,P|262:110|256:153,1,87.72,12|0,2:0|2:0,2:0:0:0:
331,315,79930,1,0,1:2:0:0:
155,217,80077,1,4,1:3:0:0:
352,127,80224,1,8,2:0:0:0:
219,320,80371,70,0,P|127:305|28:290,1,175.44,6|0,1:2|1:2,2:0:0:0:
220,51,80813,2,0,P|227:94|233:137,1,87.72,8|0,2:0|2:0,2:0:0:0:
133,275,81107,1,0,1:2:0:0:
312,200,81254,1,4,1:3:0:0:
139,117,81401,1,8,2:0:0:0:
303,323,81548,1,6,1:2:0:0:
303,323,81842,38,0,P|348:313|400:303,1,87.72,14|0,2:0|1:2,2:0:0:0:
250,115,82136,1,0,1:2:0:0:
125,270,82283,2,0,P|80:260|28:250,1,87.72,14|0,2:0|1:2,2:0:0:0:
169,53,82577,1,0,1:2:0:0:
303,323,82724,70,0,P|350:263|309:148,1,175.44,14|0,2:0|1:2,2:0:0:0:
142,77,83166,2,0,P|134:120|128:163,1,87.72,12|0,2:0|1:2,2:0:0:0:
168,238,83386,1,0,1:2:0:0:
168,238,83460,2,0,L|225:225,1,43.86,8|0,2:0|1:2,2:0:0:0:
307,81,83607,2,0,L|264:71,1,43.86,8|0,2:0|1:2,2:0:0:0:
380,268,83754,1,8,2:0:0:0:
380,268,84048,38,0,P|373:224|366:181,1,87.72,14|0,2:0|1:2,2:0:0:0:
246,33,84342,1,10,2:0:0:0:
442,75,84489,1,2,1:2:0:0:
240,224,84636,2,0,P|246:180|253:137,1,87.72,8|0,2:0|1:2,2:0:0:0:
380,268,84930,1,10,2:0:0:0:
159,162,85077,70,0,P|115:170|73:179,1,87.72,2|8,1:2|2:0,2:0:0:0:
0,306,85371,1,0,1:2:0:0:
81,94,85519,1,10,2:0:0:0:
177,325,85666,1,2,1:2:0:0:
177,325,85739,1,0,1:2:0:0:
177,325,85813,2,0,P|220:333|262:342,1,87.72,8|0,2:0|1:2,2:0:0:0:
366,160,86107,2,0,P|322:168|280:177,1,87.72,10|2,2:0|1:2,2:0:0:0:
471,317,86401,38,0,P|483:234|500:116,1,175.44,12|10,2:0|2:0,2:0:0:0:
304,33,86842,1,2,1:2:0:0:
266,289,86989,2,0,P|308:279|351:271,1,87.72,8|0,2:0|1:2,2:0:0:0:
219,119,87283,1,10,2:0:0:0:
154,351,87430,70,0,P|111:341|68:333,1,87.72,2|8,1:2|2:0,2:0:0:0:
201,148,87724,1,0,1:2:0:0:
292,369,87871,1,10,2:0:0:0:
110,206,88019,1,2,1:2:0:0:
110,206,88092,1,0,1:2:0:0:
110,206,88166,2,0,P|116:162|123:119,1,87.72,8|0,2:0|1:2,2:0:0:0:
342,36,88460,2,0,P|349:79|355:122,1,87.72,10|2,2:0|1:2,2:0:0:0:
395,334,88754,38,0,P|352:324|309:316,1,87.72,12|0,2:0|1:2,2:0:0:0:
149,193,89048,1,10,2:0:0:0:
206,372,89195,1,2,1:2:0:0:
340,201,89342,2,0,P|296:209|254:218,1,87.72,8|0,2:0|1:2,2:0:0:0:
395,334,89636,1,10,2:0:0:0:
159,135,89783,70,0,P|151:178|146:221,1,87.72,2|8,1:2|2:0,2:0:0:0:
237,377,90077,1,0,1:2:0:0:
66,289,90224,1,10,2:0:0:0:
248,193,90371,1,2,1:2:0:0:
248,193,90445,1,0,1:2:0:0:
248,193,90519,2,0,P|255:236|260:279,1,87.72,8|0,2:0|1:2,2:0:0:0:
325,133,90813,1,10,2:0:0:0:
141,229,90960,1,2,1:2:0:0:
311,356,91107,38,0,P|353:346|396:338,1,87.72,12|0,2:0|1:2,2:0:0:0:
233,116,91401,1,10,2:0:0:0:
156,330,91548,1,10,2:0:0:0:
260,86,91695,1,8,2:0:0:0:
337,300,91842,1,10,1:3:0:0:
152,142,91989,1,4,2:3:0:0:
357,196,92136,69,6,1:2:0:0:
66,329,92430,1,6,1:2:0:0:
403,110,92724,2,0,P|443:139|426:255,1,159.96,6|4,1:2|2:0,2:0:0:0:
440,240,93460,85,0,3:2:0:0:
448,273,93784,1,0,3:2:0:0:
456,306,94108,1,0,3:2:0:0:
464,339,94432,1,0,3:2:0:0:
223,160,94757,54,0,P|216:209|208:267,1,86,6|0,1:2|2:0,2:0:0:0:
78,360,95081,2,0,P|72:317|65:274,1,86,8|2,2:0|1:2,2:0:0:0:
41,187,95324,1,0,1:2:0:0:
41,187,95405,2,0,P|93:198|152:213,1,86,2|4,1:2|1:3,2:0:0:0:
269,316,95730,1,8,2:0:0:0:
201,127,95892,1,2,2:0:0:0:
248,338,96054,102,0,B|296:308|345:342|324:357|372:389|439:347,1,172,2|8,1:2|2:0,2:0:0:0:
510,239,96541,1,2,2:0:0:0:
332,154,96703,2,0,P|338:196|344:239,1,86,2|4,1:2|1:3,2:0:0:0:
414,59,97027,1,8,2:0:0:0:
234,140,97189,1,2,2:0:0:0:
451,295,97351,22,0,P|456:252|463:209,1,86,2|0,1:2|1:2,2:0:0:0:
281,340,97676,2,0,P|238:348|197:358,1,86,8|2,2:0|1:2,2:0:0:0:
126,316,97919,1,0,1:2:0:0:
126,316,98000,2,0,P|131:273|138:230,1,86,2|4,1:2|1:3,2:0:0:0:
239,71,98324,1,8,2:0:0:0:
43,142,98487,1,2,2:0:0:0:
242,270,98649,102,0,P|236:227|229:184,1,86,2|8,1:2|1:3,2:0:0:0:
88,43,98973,2,0,P|81:85|75:128,1,86,8|0,2:0|2:0,2:0:0:0:
41,299,99297,2,0,L|-1:284,2,43,0|0|4,1:2|1:2|1:3,2:0:0:0:
165,125,99622,1,8,2:0:0:0:
227,357,99784,1,6,2:3:0:0:
43,215,99946,102,0,P|84:204|126:196,1,86,6|0,1:2|1:2,2:0:0:0:
373,80,100270,2,0,P|331:69|289:61,1,86,8|2,2:0|1:2,2:0:0:0:
184,24,100514,1,0,1:2:0:0:
184,24,100595,2,0,P|190:66|196:109,1,86,2|4,1:2|1:3,2:0:0:0:
294,271,100919,1,8,2:0:0:0:
126,196,101081,1,2,2:0:0:0:
289,61,101243,22,0,P|274:155|259:257,1,172,2|8,1:2|2:0,2:0:0:0:
365,384,101730,1,2,2:0:0:0:
175,272,101892,1,2,1:2:0:0:
353,176,102054,1,4,1:3:0:0:
227,379,102216,2,0,P|185:368|143:360,1,86,8|2,2:0|2:0,2:0:0:0:
250,145,102541,102,0,P|256:187|262:230,1,86,2|0,1:2|1:2,2:0:0:0:
57,179,102865,2,0,P|62:136|69:93,1,86,8|2,2:0|1:2,2:0:0:0:
25,27,103108,1,0,1:2:0:0:
25,27,103189,2,0,P|66:16|108:8,1,86,2|4,1:2|1:3,2:0:0:0:
83,270,103514,2,0,P|41:258|0:250,1,86,12|2,2:0|2:0,2:0:0:0:
168,90,103838,101,10,1:2:0:0:
234,338,104000,1,8,1:2:0:0:
234,338,104487,21,8,1:2:0:0:
300,90,104649,1,8,1:2:0:0:
199,255,104811,1,0,3:2:0:0:
199,255,104892,1,0,3:2:0:0:
199,255,104973,1,2,3:2:0:0:
199,255,105054,1,0,3:2:0:0:
199,255,105135,102,0,B|247:225|296:259|275:274|323:306|390:264,1,172,6|8,1:2|2:0,2:0:0:0:
497,138,105622,1,2,1:2:0:0:
497,138,105703,1,0,1:2:0:0:
497,138,105784,2,0,P|503:180|509:223,1,86,2|4,1:2|1:3,2:0:0:0:
332,104,106108,1,8,2:0:0:0:
484,18,106270,1,2,2:0:0:0:
371,248,106432,102,0,P|329:236|288:228,1,86,2|0,1:2|1:2,2:0:0:0:
110,64,106757,2,0,P|152:52|193:44,1,86,8|2,2:0|1:2,2:0:0:0:
273,18,107000,1,0,1:2:0:0:
273,18,107081,2,0,P|267:60|261:103,1,86,2|4,1:2|1:3,2:0:0:0:
336,271,107405,1,8,2:0:0:0:
151,177,107568,1,2,2:0:0:0:
352,77,107730,22,0,P|361:159|373:269,1,172,2|8,1:2|2:0,2:0:0:0:
262,384,108216,1,2,2:0:0:0:
461,283,108378,1,2,1:2:0:0:
282,174,108541,1,4,1:3:0:0:
476,308,108703,2,0,P|481:265|488:222,1,86,8|2,2:0|2:0,2:0:0:0:
243,78,109027,102,0,P|252:144|264:233,1,129,2|0,1:2|2:0,2:0:0:0:
270,287,109351,2,0,P|228:275|186:266,1,86,12|0,2:0|2:0,2:0:0:0:
44,150,109676,2,0,L|28:206,3,43,10|0|0|0,1:2|1:2|1:2|1:2,2:0:0:0:
137,188,110000,1,8,1:2:0:0:
153,158,110081,1,8,1:2:0:0:
158,124,110162,1,8,1:2:0:0:
150,90,110243,1,8,1:2:0:0:
131,62,110324,102,0,P|197:93|276:73,1,129,6|0,1:2|2:0,2:0:0:0:
329,86,110649,2,0,P|386:68|428:63,1,86,8|0,2:0|2:0,2:0:0:0:
298,263,110973,2,0,P|241:245|199:240,1,86,6|0,1:3|2:0,2:0:0:0:
312,63,111297,2,0,P|369:45|411:40,1,86,8|0,2:0|2:0,2:0:0:0:
445,314,111622,22,0,P|396:242|426:143,2,172,10|8|6,1:3|2:0|1:3,2:0:0:0:
296,333,112432,1,0,2:0:0:0:
475,220,112595,2,0,P|462:143|455:107,1,86,8|0,2:0|2:0,2:0:0:0:
336,39,112919,102,0,P|270:70|191:50,1,129,6|0,1:2|2:0,2:0:0:0:
140,26,113243,2,0,P|131:72|125:110,1,86,8|0,2:0|2:0,2:0:0:0:
271,249,113568,2,0,P|264:206|256:164,1,86,6|0,1:3|2:0,2:0:0:0:
121,8,113892,2,0,P|112:54|106:92,1,86,8|0,2:0|2:0,2:0:0:0:
44,283,114216,102,0,P|94:222|194:233,2,172,10|8|6,1:3|2:0|1:3,2:0:0:0:
129,121,115027,1,0,2:0:0:0:
197,344,115189,2,0,P|237:329|279:322,1,86,8|0,2:0|2:0,2:0:0:0:
361,135,115514,21,14,2:0:0:0:
443,328,115676,1,0,1:2:0:0:
375,111,115838,101,10,2:0:0:0:
279,322,116000,1,0,1:2:0:0:
159,77,116162,101,14,2:0:0:0:
263,298,116324,1,0,1:2:0:0:
172,54,116487,21,10,2:0:0:0:
65,285,116649,1,0,1:2:0:0:
260,140,116811,101,14,2:0:0:0:
32,62,116973,1,0,1:2:0:0:
342,54,117135,101,10,2:0:0:0:
92,145,117297,1,0,1:2:0:0:
427,177,117459,21,14,2:0:0:0:
166,82,117622,1,0,1:2:0:0:
422,0,117784,2,0,P|429:44|438:98,1,86,10|0,2:0|1:2,2:0:0:0:
262,276,118103,101,10,2:0:0:0:
338,73,118265,1,4,1:3:0:0:
442,217,118427,1,6,1:3:0:0:
205,77,118589,101,8,2:0:0:0:
445,118,118751,1,6,2:3:0:0:
233,82,118913,1,4,2:3:0:0:
459,251,119075,22,0,B|419:234|382:256|403:275|355:303|298:275,1,144.48,10|0,2:0|2:0,2:0:0:0:
305,268,119400,1,6,1:2:0:0:
158,69,127184,38,0,P|166:118|174:168,1,79.12,14|0,2:0|1:2,2:0:0:0:
70,325,127508,1,2,1:2:0:0:
272,223,127670,1,12,2:0:0:0:
80,121,127832,1,2,1:2:0:0:
230,344,127994,1,0,1:2:0:0:
360,92,128157,1,14,2:0:0:0:
360,92,128238,1,0,1:2:0:0:
360,92,128319,1,2,1:2:0:0:
106,276,129292,2,0,P|103:257|97:220,1,39.56,0|0,1:2|1:2,2:0:0:0:
52,126,129454,6,0,B|105:101|154:134|123:152|175:185|243:144,1,170.28,14|0,2:0|2:0,2:0:0:0:
282,99,129778,6,0,P|296:173|302:225,1,87.72,14|0,2:0|1:2,2:0:0:0:
387,341,130102,2,0,P|315:316|267:295,1,87.72,10|0,2:0|1:2,2:0:0:0:
118,294,130427,2,0,P|175:244|217:213,1,87.72,10|0,2:0|1:2,2:0:0:0:
234,384,130751,1,8,2:0:0:0:
77,171,130913,38,0,P|126:105|233:107,1,175.44,6|0,1:2|1:2,2:0:0:0:
395,195,131400,1,10,2:0:0:0:
295,0,131562,1,2,1:2:0:0:
188,209,131724,2,0,P|243:226|285:247,1,87.72,10|0,2:0|1:2,2:0:0:0:
434,61,132048,1,8,2:0:0:0:
260,138,132211,1,2,1:2:0:0:
408,310,132373,70,0,P|418:250|432:186,1,87.72,14|0,2:0|1:2,2:0:0:0:
172,122,132697,2,0,P|180:165|187:208,1,87.72,10|0,2:0|1:2,2:0:0:0:
400,48,133021,2,0,P|359:30|317:18,1,87.72,10|0,2:0|1:2,2:0:0:0:
423,223,133346,1,10,2:0:0:0:
158,36,133508,38,0,P|135:133|119:245,1,175.44,6|0,1:2|1:2,2:0:0:0:
190,368,133994,1,10,2:0:0:0:
0,275,134157,1,2,1:2:0:0:
230,141,134319,2,0,P|246:197|254:258,1,87.72,10|0,2:0|1:2,2:0:0:0:
31,134,134643,2,0,P|39:90|51:49,1,87.72,8|0,2:0|1:2,2:0:0:0:
179,342,134967,69,14,2:0:0:0:
112,116,135130,1,0,1:2:0:0:
167,368,135292,37,8,2:0:0:0:
230,142,135454,1,0,1:2:0:0:
385,348,135616,69,10,2:0:0:0:
135,231,135778,1,2,1:2:0:0:
417,251,135940,37,8,2:0:0:0:
167,368,136102,1,0,1:2:0:0:
308,90,136265,69,10,2:0:0:0:
385,348,136427,1,2,1:2:0:0:
318,65,136589,37,10,2:0:0:0:
241,323,136751,1,0,1:2:0:0:
241,19,136913,69,10,2:0:0:0:
318,277,137075,1,0,1:2:0:0:
221,7,137238,2,0,P|209:69|202:120,1,87.72,10|0,2:0|2:0,2:0:0:0:
241,323,137562,38,0,P|185:306|141:303,1,87.72,6|0,1:2|2:0,2:0:0:0:
23,97,137886,2,0,P|64:82|107:77,1,87.72,10|0,2:0|1:2,2:0:0:0:
322,231,138211,1,2,2:0:0:0:
106,160,138373,1,2,1:2:0:0:
327,38,138535,2,0,P|335:80|342:124,1,87.72,10|0,2:0|2:0,2:0:0:0:
253,297,138859,69,2,1:2:0:0:
445,206,139021,1,2,1:2:0:0:
243,101,139184,1,10,2:0:0:0:
401,286,139346,2,0,P|439:264|481:251,1,87.72,2|0,1:2|1:2,2:0:0:0:
352,81,139670,2,0,P|343:118|338:150,1,43.86,10|0,1:2|1:2,1:2:0:0:
256,269,139832,2,0,P|251:247|245:226,1,43.86,10|0,1:2|1:2,1:2:0:0:
112,40,139994,1,10,1:2:0:0:
112,40,140075,1,8,1:2:0:0:
112,40,140157,38,0,P|90:150|83:229,1,175.44,6|8,1:2|2:0,2:0:0:0:
152,384,140643,2,0,P|102:365|63:358,1,87.72,6|0,1:2|2:0,2:0:0:0:
190,122,140967,38,0,B|262:77|337:134|290:162|371:216|436:167,1,268.32,6|0,1:2|2:0,2:0:0:0:
257,9,142102,1,6,2:3:0:0:
322,254,142265,2,0,P|372:236|411:230,1,79.12,6|8,2:3|2:3,2:0:0:0:
234,184,142589,5,8,3:0:0:0:
338,326,142751,1,8,3:0:0:0:
385,96,142913,1,8,3:0:0:0:
195,315,143075,1,8,3:0:0:0:
451,205,143238,1,4,2:3:0:0:
451,205,143319,1,4,2:3:0:0:
451,205,143400,1,14,1:2:0:0:
164,60,143562,102,0,B|136:86|108:109|108:109|140:177|169:254,1,213.28,10|0,1:2|3:2,2:0:0:0:
244,132,144372,1,8,2:0:0:0:
73,274,144535,6,0,B|126:241|179:281|154:299|199:335|280:292,1,192.64,6|4,1:2|2:3,2:0:0:0:
419,189,145021,2,0,P|428:239|436:280,1,79.12,8|0,2:0|2:0,2:0:0:0:
229,164,145345,2,0,P|225:190|220:217,2,39.56,0|0|0,1:2|1:2|1:2,1:2:0:0:
395,353,145670,102,0,P|413:306|330:328,1,157.38,12|0,2:0|2:0,2:0:0:0:
274,359,145994,86,0,P|234:347|176:342,1,87.72,6|0,1:2|2:0,2:0:0:0:
40,199,146318,2,0,P|80:187|138:182,1,87.72,8|0,2:0|2:0,2:0:0:0:
316,82,146643,1,2,1:2:0:0:
238,264,146805,1,4,1:3:0:0:
151,65,146967,1,10,2:0:0:0:
349,178,147129,1,2,3:2:0:0:
178,347,147291,86,0,P|124:297|162:180,2,175.44,0|8|2,1:2|2:0|1:2,2:0:0:0:
204,122,148102,1,0,1:2:0:0:
45,279,148264,1,10,2:0:0:0:
131,60,148427,1,0,3:2:0:0:
131,60,148508,1,0,3:2:0:0:
131,60,148589,6,0,B|181:30|234:67|210:84|252:116|326:81,1,175.44,2|8,1:2|2:0,2:0:0:0:
436,14,149075,1,2,3:2:0:0:
270,211,149237,2,0,P|216:194|176:188,1,87.72,2|4,1:2|1:3,2:0:0:0:
289,10,149562,1,10,2:0:0:0:
389,258,149724,2,0,P|443:241|483:235,1,87.72,2|0,3:2|1:2,2:0:0:0:
324,106,150048,5,8,3:0:0:0:
412,333,150210,1,8,2:0:0:0:
337,137,150372,1,0,3:2:0:0:
263,351,150535,1,6,1:2:0:0:
447,202,150697,1,8,1:2:0:0:
447,202,150778,1,8,1:2:0:0:
447,202,150859,2,0,P|437:146|426:100,1,87.72,10|8,2:0|1:2,2:0:0:0:
470,32,151102,1,8,1:2:0:0:
470,32,151183,86,0,B|420:2|367:39|391:56|349:88|275:53,1,175.44,6|8,1:2|2:0,2:0:0:0:
157,13,151670,1,4,3:0:0:0:
269,182,151832,2,0,P|274:132|289:67,1,87.72,2|0,1:2|1:2,2:0:0:0:
148,271,152156,1,8,2:0:0:0:
364,155,152318,6,0,P|414:162|459:183,1,87.72,2|0,3:2|1:2,2:0:0:0:
316,351,152643,1,2,3:2:0:0:
159,142,152805,2,0,P|109:149|64:170,1,87.72,10|0,2:0|2:0,2:0:0:0:
185,287,153129,1,0,1:2:0:0:
105,61,153291,1,4,1:3:0:0:
12,272,153454,2,0,P|30:329|37:367,1,87.72,10|0,2:0|3:2,2:0:0:0:
268,87,153778,6,0,P|333:106|361:213,1,175.44,6|8,1:2|2:0,2:0:0:0:
263,381,154264,1,2,1:2:0:0:
451,292,154427,1,8,2:0:0:0:
247,183,154589,1,0,3:2:0:0:
247,183,154670,1,0,3:2:0:0:
247,183,154751,2,0,P|234:237|229:284,1,87.72,8|0,2:0|3:2,2:0:0:0:
437,364,155075,86,0,P|430:320|419:278,1,87.72,6|0,1:2|3:2,2:0:0:0:
281,149,155400,1,8,2:0:0:0:
495,212,155562,1,0,3:2:0:0:
330,330,155724,2,0,P|272:310|231:307,1,87.72,6|0,1:3|2:0,2:0:0:0:
76,212,156048,2,0,P|132:195|175:189,1,87.72,10|0,2:0|2:0,2:0:0:0:
362,41,156372,6,0,P|375:91|386:156,1,87.72,6|0,1:2|2:0,2:0:0:0:
246,307,156697,5,8,2:0:0:0:
296,112,156859,1,0,3:2:0:0:
183,377,157021,85,10,2:0:0:0:
123,144,157183,1,0,3:2:0:0:
1,328,157345,5,10,2:0:0:0:
60,58,157508,1,2,3:2:0:0:
246,307,157670,6,0,P|189:290|139:286,1,87.72,0|0,1:2|2:0,2:0:0:0:
350,172,157994,85,8,2:0:0:0:
400,367,158156,1,0,3:2:0:0:
420,127,158318,5,10,2:0:0:0:
320,346,158481,1,0,3:2:0:0:
320,88,158643,5,10,2:0:0:0:
467,321,158805,1,0,3:2:0:0:
467,321,158886,1,0,3:2:0:0:
467,321,158967,86,0,P|475:277|486:235,1,87.72,6|0,1:2|2:0,2:0:0:0:
236,132,159291,2,0,P|247:174|254:217,1,87.72,8|0,2:0|3:2,2:0:0:0:
387,60,159616,5,10,2:0:0:0:
152,187,159778,1,0,3:2:0:0:
398,250,159940,5,10,2:0:0:0:
271,15,160102,1,2,3:2:0:0:
201,315,160264,86,0,P|122:324|57:227,2,175.44,6|8|4,1:2|2:0|1:2,2:0:0:0:
261,51,161075,1,0,1:2:0:0:
160,247,161237,1,8,2:0:0:0:
136,227,161318,1,8,2:3:0:0:
122,200,161399,1,4,2:3:0:0:
119,170,161481,1,4,2:3:0:0:
129,141,161562,6,0,B|179:119|222:149|198:163|239:193|306:164,1,158.24,6|0,1:2|2:0,2:0:0:0:
425,195,162048,1,0,3:2:0:0:
471,363,162210,2,0,P|490:285|450:212,1,158.24,8|0,2:0|1:2,2:0:0:0:
340,338,162697,1,0,3:2:0:0:
340,338,162778,1,0,3:2:0:0:
340,338,162859,6,0,P|265:314|155:305,1,158.24,6|0,1:2|1:2,2:0:0:0:
75,353,163345,1,0,3:2:0:0:
149,211,163508,2,0,P|90:231|42:222,1,79.12,10|0,2:0|2:0,2:0:0:0:
4,206,163751,2,0,P|10:180|20:146,1,39.56,2|0,2:0|1:2,2:0:0:0:
93,324,163994,1,2,3:2:0:0:
241,115,164156,86,0,P|308:63|412:93,1,175.44,6|0,1:2|3:2,2:0:0:0:
266,237,164643,2,0,P|204:282|146:380,1,175.44,14|8,2:0|2:0,2:0:0:0:
80,384,165048,1,8,2:0:0:0:
80,384,165129,6,0,P|28:327|87:226,1,175.44,6|0,1:2|3:2,2:0:0:0:
190,97,165616,2,0,P|98:115|26:31,1,175.44,14|10,2:0|2:0,2:0:0:0:
28,44,166021,1,8,1:2:0:0:
28,44,166102,1,2,1:2:0:0:
264,127,166264,1,2,1:2:0:0:
55,197,166427,1,8,2:0:0:0:
304,66,166589,1,10,2:0:0:0:
76,308,166751,1,4,1:2:0:0:
76,308,167075,5,4,2:3:0:0:
130,154,167237,1,4,2:3:0:0:
193,339,167399,85,8,2:3:0:0:
109,118,167562,1,8,2:3:0:0:
55,352,167724,5,8,2:0:0:0:
161,61,167886,1,8,2:0:0:0:
214,375,168048,5,6,1:2:0:0:
60,37,168210,1,6,1:2:0:0:
60,37,169021,86,0,P|118:26|144:114,1,157.38,12|0,2:0|2:0,2:0:0:0:
68,177,169345,54,0,L|62:139,3,35.26,0|0|0|0,3:2|3:2|3:2|3:2,3:2:0:0:
156,246,169670,1,0,3:2:0:0:
14,136,169832,1,0,3:2:0:0:
177,38,169994,1,0,3:2:0:0:
47,246,170156,1,0,3:2:0:0:
256,149,170318,1,0,3:2:0:0:
60,37,170481,1,0,3:2:0:0:
242,273,170643,5,4,1:2:0:0:
242,273,171298,1,4,2:3:0:0:
242,273,171954,1,4,2:3:0:0:
242,273,172610,1,4,2:3:0:0:
242,273,173265,101,4,3:0:0:0:
320,116,173429,1,0,3:2:0:0:
331,283,173593,1,4,3:0:0:0:
237,95,173757,1,0,3:2:0:0:
168,333,173921,2,0,L|158:286,1,35.26,4|0,3:0|3:2,2:0:0:0:
68,204,174085,1,0,3:2:0:0:
68,204,174167,1,0,3:2:0:0:
68,204,174249,2,0,L|101:194,1,35.26,4|0,3:0|3:2,2:0:0:0:
38,352,174413,2,0,L|4:342,1,35.26,0|0,3:2|3:2,2:0:0:0:
225,195,174577,6,0,B|295:152|373:220|329:243|392:296|472:257,1,270.9,4|0,1:2|2:0,2:0:0:0:
508,169,175888,6,0,P|454:179|415:189,1,87.72,6|0,1:2|2:0,2:0:0:0:
185,272,176216,2,0,P|228:279|271:290,1,87.72,0|0,1:2|2:0,2:0:0:0:
358,116,176544,1,8,2:0:0:0:
195,24,176708,2,0,P|211:119|225:198,1,175.44,4|0,1:3|1:2,2:0:0:0:
127,344,177200,37,2,1:2:0:0:
334,207,177364,1,0,1:2:0:0:
167,128,177528,1,0,1:2:0:0:
336,325,177692,1,0,1:2:0:0:
411,96,177856,1,8,2:0:0:0:
231,288,178020,2,0,P|131:273|25:257,1,175.44,4|0,1:3|1:2,2:0:0:0:
243,91,178511,70,0,P|252:142|260:190,1,87.72,2|0,1:2|2:0,2:0:0:0:
45,112,178839,2,0,P|52:68|59:25,1,87.72,0|0,1:2|2:0,2:0:0:0:
150,236,179167,1,8,2:0:0:0:
331,20,179331,2,0,P|405:26|448:126,1,175.44,4|0,1:3|1:2,2:0:0:0:
264,319,179823,37,2,1:2:0:0:
362,113,179987,1,0,1:2:0:0:
411,313,180151,1,2,1:2:0:0:
236,199,180315,1,0,1:2:0:0:
450,108,180479,69,10,2:0:0:0:
216,224,180643,1,8,2:0:0:0:
443,332,180806,1,10,2:0:0:0:
282,91,180970,1,8,2:0:0:0:
216,366,181134,38,0,P|162:356|102:348,1,87.72,6|0,1:2|2:0,2:0:0:0:
7,224,181462,2,0,P|50:215|93:209,1,87.72,0|0,1:2|2:0,2:0:0:0:
282,91,181790,1,8,2:0:0:0:
167,313,181954,2,0,P|182:226|196:140,1,175.44,4|0,1:3|1:2,2:0:0:0:
111,16,182446,69,2,1:2:0:0:
313,109,182610,1,8,2:0:0:0:
93,209,182774,1,0,1:2:0:0:
273,5,182938,1,0,1:2:0:0:
329,258,183102,2,0,L|345:322,2,43.86,8|0|0,2:0|1:2|1:2,2:0:0:0:
196,140,183429,1,8,2:0:0:0:
428,197,183593,1,8,2:0:0:0:
218,384,183757,37,14,2:0:0:0:
218,384,183921,2,0,P|233:297|247:211,1,175.44,8|0,1:3|1:2,2:0:0:0:
255,183,184331,1,0,1:2:0:0:
255,183,184413,1,12,2:0:0:0:
89,291,184577,2,0,P|50:268|62:132,1,175.44,4|0,1:3|1:2,2:0:0:0:
70,130,184987,1,0,1:2:0:0:
70,130,185069,69,14,2:0:0:0:
335,258,185233,1,0,1:2:0:0:
111,199,185397,1,10,2:0:0:0:
349,95,185561,1,0,1:2:0:0:
349,95,185642,1,0,1:2:0:0:
349,95,185724,2,0,P|358:166|368:245,2,131.58,10|8|8,2:0|2:0|2:0,2:0:0:0:
228,321,186380,38,0,P|176:311|124:302,1,87.72,14|0,1:2|1:2,1:2:0:0:
0,176,186708,2,0,P|52:166|104:157,1,87.72,8|0,1:2|1:2,1:2:0:0:
232,12,187036,2,0,P|225:68|219:115,1,87.72,8|0,1:2|1:2,1:2:0:0:
437,261,187364,2,0,P|431:217|426:173,1,87.72,8|0,1:2|1:2,1:2:0:0:
477,43,187692,69,10,1:2:0:0:
311,144,187856,1,0,1:2:0:0:
502,220,188020,1,8,1:2:0:0:
346,40,188183,1,0,1:2:0:0:
346,40,188265,1,0,1:2:0:0:
346,40,188347,2,0,P|302:47|259:56,1,87.72,8|0,1:2|1:2,1:2:0:0:
113,164,188675,2,0,P|156:170|199:179,1,87.72,8|0,1:2|1:2,1:2:0:0:
81,36,189003,37,10,1:2:0:0:
170,280,189167,1,0,1:2:0:0:
103,54,189331,1,8,1:2:0:0:
14,298,189495,1,0,1:2:0:0:
217,76,189659,2,0,P|221:119|227:163,1,87.72,8|0,1:2|1:2,1:2:0:0:
383,332,189987,2,0,P|388:288|393:244,1,87.72,8|0,1:2|1:2,1:2:0:0:
452,78,190315,70,0,P|408:84|365:93,1,87.72,10|0,1:2|1:2,1:2:0:0:
151,305,190642,2,0,P|194:311|237:320,1,87.72,10|0,1:2|1:2,1:2:0:0:
264,302,190888,1,0,1:2:0:0:
264,302,190970,1,10,1:2:0:0:
145,132,191134,1,8,1:2:0:0:
68,367,191298,1,10,1:2:0:0:
296,204,191462,1,8,1:2:0:0:
102,69,191626,38,0,P|106:112|112:156,1,87.72,14|0,1:2|1:2,1:2:0:0:
312,235,191954,2,0,P|317:191|322:147,1,87.72,8|0,1:2|1:2,1:2:0:0:
408,0,192282,1,8,1:2:0:0:
206,88,192446,1,0,1:2:0:0:
430,195,192610,2,0,P|424:151|419:107,1,87.72,8|0,1:2|1:2,1:2:0:0:
432,33,192856,1,0,1:2:0:0:
432,33,192938,70,0,P|388:39|345:48,1,87.72,10|0,1:2|1:2,1:2:0:0:
180,123,193265,2,0,P|223:128|266:137,1,87.72,8|0,1:2|1:2,1:2:0:0:
284,166,193511,1,0,1:2:0:0:
284,166,193593,1,8,1:2:0:0:
185,0,193757,1,0,1:2:0:0:
129,219,193921,1,8,1:2:0:0:
304,74,194085,1,0,1:2:0:0:
103,6,194249,38,0,P|97:49|92:93,1,87.72,10|0,1:2|1:2,1:2:0:0:
280,267,194577,2,0,P|275:223|269:179,1,87.72,8|0,1:2|1:2,1:2:0:0:
364,33,194905,1,8,1:2:0:0:
170,137,195069,1,0,1:2:0:0:
369,236,195233,1,8,1:2:0:0:
223,27,195397,1,0,1:2:0:0:
223,27,195479,1,0,1:2:0:0:
223,27,195561,69,10,1:2:0:0:
168,286,195724,1,0,1:2:0:0:
240,44,195888,1,10,1:2:0:0:
356,263,196052,1,0,1:2:0:0:
119,111,196216,1,10,1:2:0:0:
372,159,196380,1,8,1:2:0:0:
142,308,196544,1,10,1:2:0:0:
363,129,196708,1,8,1:2:0:0:
338,384,196872,38,0,P|333:341|326:294,1,87.72,6|0,1:2|2:0,2:0:0:0:
147,133,197200,2,0,P|140:176|135:219,1,87.72,0|0,1:2|2:0,2:0:0:0:
226,382,197528,1,10,2:0:0:0:
36,269,197692,1,2,1:2:0:0:
230,177,197856,1,2,2:0:0:0:
28,297,198020,1,2,1:2:0:0:
264,182,198183,69,2,1:2:0:0:
85,62,198347,2,0,P|91:105|96:148,1,87.72,8|2,2:0|1:2,2:0:0:0:
225,303,198675,1,2,1:2:0:0:
225,303,198757,1,0,1:2:0:0:
225,303,198839,1,8,2:0:0:0:
9,206,199003,1,2,1:2:0:0:
193,98,199167,1,10,2:0:0:0:
0,229,199331,1,0,1:2:0:0:
215,105,199495,38,0,P|258:110|301:119,1,87.72,4|0,1:2|2:0,2:0:0:0:
415,255,199823,2,0,P|371:260|328:269,1,87.72,0|0,1:2|2:0,2:0:0:0:
431,103,200151,1,10,2:0:0:0:
352,350,200315,1,2,1:2:0:0:
407,85,200479,1,2,2:0:0:0:
486,332,200642,1,2,1:2:0:0:
301,119,200806,69,6,1:2:0:0:
512,191,200970,1,0,1:2:0:0:
258,293,201134,1,2,1:2:0:0:
407,85,201298,1,0,1:2:0:0:
407,85,201380,1,0,1:2:0:0:
407,85,201462,1,10,2:0:0:0:
486,332,201626,1,8,2:0:0:0:
246,180,201790,1,10,2:0:0:0:
488,62,201954,1,8,2:0:0:0:
368,300,202118,38,0,P|361:251|353:198,1,87.72,6|0,1:2|2:0,2:0:0:0:
228,70,202446,2,0,P|221:113|215:156,1,87.72,0|0,1:2|2:0,2:0:0:0:
118,294,202774,1,10,2:0:0:0:
325,190,202938,1,2,1:2:0:0:
142,89,203102,1,2,2:0:0:0:
283,336,203265,1,2,1:2:0:0:
395,72,203429,69,2,1:2:0:0:
209,200,203593,1,8,2:0:0:0:
443,298,203757,1,2,1:2:0:0:
349,172,203921,1,2,1:2:0:0:
258,381,204085,2,0,L|210:371,2,43.86,8|0|2,2:0|1:2|1:2,2:0:0:0:
182,196,204413,1,10,2:0:0:0:
78,356,204577,1,8,2:0:0:0:
258,105,204741,37,14,2:0:0:0:
330,323,204905,1,0,1:2:0:0:
266,82,205069,1,8,2:0:0:0:
187,293,205233,1,0,1:2:0:0:
187,293,205315,1,0,1:2:0:0:
187,293,205397,1,8,2:0:0:0:
371,109,205561,1,0,1:2:0:0:
142,193,205724,1,8,2:0:0:0:
359,346,205888,1,0,1:2:0:0:
359,346,205970,1,0,1:2:0:0:
359,346,206052,69,14,1:2:0:0:
266,82,206216,1,0,1:2:0:0:
334,332,206380,1,8,2:0:0:0:
403,31,206544,1,0,1:2:0:0:
403,31,206626,1,0,1:2:0:0:
403,31,206708,2,0,P|420:113|433:174,2,131.58,10|8|8,2:0|2:0|2:0,2:0:0:0:
314,211,207364,85,4,1:2:0:0:
314,211,207692,2,0,P|276:204|225:195,1,61.9199999999999,8|0,2:0|2:0,2:0:0:0:
215,285,208020,2,0,P|184:290|154:296,1,61.9199999999999,8|0,2:0|2:0,2:0:0:0:
48,216,208347,2,0,P|40:256|35:283,1,61.9199999999999,8|0,2:0|2:0,2:0:0:0:
161,197,208675,2,0,P|155:166|149:136,1,61.9199999999999,8|0,2:0|2:0,2:0:0:0:
75,47,209003,1,8,2:0:0:0:
75,47,209331,5,8,2:0:0:0:
243,94,209495,1,8,2:3:0:0:
65,188,209659,1,4,2:3:0:0:
267,100,209823,1,4,2:3:0:0:
159,278,209987,102,0,P|151:203|143:129,1,118.68,6|0,1:2|2:0,2:0:0:0:
187,38,210320,6,0,P|177:149|168:268,1,209.84,4|0,1:0|1:2,2:0:0:0:
107,383,210820,2,0,P|156:371|200:361,1,79.12,2|0,2:0|1:2,2:0:0:0:
298,213,211153,2,0,P|249:201|205:191,1,79.12,2|0,3:2|2:0,2:0:0:0:
405,342,211487,1,0,3:2:0:0:
405,342,211570,1,0,3:2:0:0:
405,342,211653,2,0,P|411:302|418:254,1,79.12,8|0,2:0|2:0,2:0:0:0:
488,141,211987,2,0,L|499:201,2,39.56,0|0|0,1:2|3:2|3:2,2:0:0:0:
512,281,212320,1,2,3:2:0:0:
356,135,212487,1,0,3:2:0:0:
356,135,212570,1,0,3:2:0:0:
356,135,212653,2,0,P|317:143|279:153,1,79.12,2|0,1:2|2:0,2:0:0:0:
214,313,212987,2,0,P|175:303|137:294,1,79.12,8|0,2:0|2:0,2:0:0:0:
26,178,213320,101,2,1:2:0:0:
94,377,213487,1,8,2:3:0:0:
175,144,213653,1,6,2:3:0:0:
12,291,213820,2,0,P|6:251|-1:203,1,79.12,14|0,2:0|2:0,2:0:0:0:
73,73,214153,1,10,2:3:0:0:
73,73,214320,1,6,2:3:0:0:
137,294,214487,2,0,P|167:239|275:237,1,158.24,6|2,1:2|1:2,2:0:0:0:
381,308,214987,1,8,2:0:0:0:
407,313,215070,1,8,2:0:0:0:
435,308,215153,1,10,2:0:0:0:
458,294,215237,1,8,2:0:0:0:
479,274,215320,70,0,P|472:235|461:172,1,87.72,4|0,1:2|2:0,2:0:0:0:
283,120,215653,2,0,P|275:163|267:206,1,87.72,10|4,2:0|2:3,2:0:0:0:
365,383,215987,1,0,1:2:0:0:
165,265,216153,1,4,2:3:0:0:
364,178,216320,1,8,2:0:0:0:
151,291,216487,1,0,1:2:0:0:
151,291,216820,6,0,P|143:248|135:205,1,87.72,2|8,1:2|2:0,2:0:0:0:
336,112,217153,2,0,P|328:155|320:198,1,87.72,2|0,2:0|1:2,2:0:0:0:
383,333,217487,1,2,2:0:0:0:
230,233,217653,1,10,2:0:0:0:
415,161,217820,1,2,2:0:0:0:
255,336,217987,54,0,P|207:326|160:317,1,87.72,0|0,1:2|2:0,2:0:0:0:
31,172,218320,2,0,P|79:162|126:153,1,87.72,8|4,2:0|2:3,2:0:0:0:
298,39,218653,1,2,1:2:0:0:
231,235,218820,1,6,2:3:0:0:
282,20,218987,1,10,2:0:0:0:
359,258,219153,38,0,P|437:288|510:212,1,175.44,2|2,1:2|1:2,2:0:0:0:
376,72,219653,1,10,2:0:0:0:
305,321,219820,2,0,P|256:333|205:347,1,87.72,2|0,2:0|1:2,2:0:0:0:
124,146,220153,2,0,P|166:156|208:167,1,87.72,2|8,2:0|2:0,2:0:0:0:
21,291,220487,1,2,1:2:0:0:
21,291,220570,1,0,1:2:0:0:
21,291,220653,6,0,P|13:248|5:205,1,87.72,4|0,1:2|2:0,2:0:0:0:
225,81,220987,2,0,P|217:124|209:167,1,87.72,8|0,2:0|2:0,2:0:0:0:
305,321,221320,1,0,1:2:0:0:
114,221,221487,1,6,2:3:0:0:
313,123,221653,1,10,2:0:0:0:
142,331,221820,54,0,P|99:319|57:309,1,87.72,2|0,1:2|2:0,2:0:0:0:
196,120,222153,1,0,1:2:0:0:
300,318,222320,1,8,2:0:0:0:
144,233,222487,1,4,2:3:0:0:
313,123,222653,2,0,P|305:166|297:209,1,87.72,0|2,1:2|2:0,2:0:0:0:
469,289,222987,2,0,P|461:246|453:203,1,87.72,10|2,2:0|2:0,2:0:0:0:
499,47,223320,38,0,P|456:57|414:68,1,87.72,0|0,1:2|2:0,2:0:0:0:
296,209,223653,2,0,P|253:197|211:187,1,87.72,8|0,2:0|2:0,2:0:0:0:
52,59,223987,1,2,1:2:0:0:
126,281,224153,1,6,2:3:0:0:
70,42,224320,1,10,2:0:0:0:
31,260,224486,6,0,P|77:200|202:222,1,175.44,2|2,1:2|1:2,2:0:0:0:
332,310,224986,1,10,2:0:0:0:
258,108,225153,1,2,2:0:0:0:
169,351,225320,1,4,1:3:0:0:
384,212,225486,2,0,L|435:199,2,43.86,2|0|8,1:2|1:2|1:2,1:2:0:0:
153,94,225820,1,2,1:2:0:0:
153,94,225903,1,0,1:2:0:0:
153,94,225986,54,0,P|145:137|137:180,1,87.72,4|0,1:2|2:0,2:0:0:0:
305,321,226320,2,0,P|297:278|289:235,1,87.72,10|0,2:0|2:0,2:0:0:0:
416,327,226653,1,0,1:2:0:0:
190,258,226820,1,4,2:3:0:0:
373,136,226986,1,8,2:0:0:0:
180,283,227153,1,0,1:2:0:0:
180,283,227486,38,0,P|137:271|94:261,1,87.72,2|8,1:2|2:0,2:0:0:0:
0,141,227820,2,0,P|42:129|84:119,1,87.72,2|0,2:0|1:2,2:0:0:0:
261,35,228153,1,2,2:0:0:0:
167,186,228320,1,10,2:0:0:0:
74,10,228486,1,2,2:0:0:0:
279,161,228653,6,0,P|271:204|263:247,1,87.72,0|0,1:2|2:0,2:0:0:0:
442,341,228986,2,0,P|434:298|426:255,1,87.72,8|0,2:0|2:0,2:0:0:0:
312,128,229320,1,2,1:2:0:0:
508,176,229486,1,6,2:3:0:0:
332,311,229653,1,10,2:0:0:0:
433,69,229820,54,0,B|460:94|485:112|485:112|461:162|441:226,1,175.44,2|2,1:2|1:2,2:0:0:0:
314,56,230320,1,10,2:0:0:0:
262,268,230486,2,0,P|219:277|177:289,1,87.72,2|0,2:0|1:2,2:0:0:0:
97,93,230820,2,0,P|139:102|181:114,1,87.72,6|8,2:3|2:0,2:0:0:0:
49,251,231153,1,2,1:2:0:0:
215,37,231320,38,0,P|274:52|288:179,1,175.44,4|8,1:2|2:0,2:0:0:0:
177,289,231820,1,4,2:3:0:0:
389,223,231986,1,0,1:2:0:0:
225,130,232153,1,6,2:3:0:0:
350,344,232320,1,10,2:0:0:0:
492,116,232486,6,0,P|398:95|307:76,1,175.44,2|0,1:2|1:2,2:0:0:0:
222,299,232986,1,8,2:0:0:0:
377,184,233153,1,4,2:3:0:0:
208,100,233320,1,0,1:2:0:0:
332,311,233486,1,6,2:3:0:0:
440,82,233653,1,10,2:0:0:0:
278,167,233820,1,2,2:0:0:0:
495,280,233986,54,0,P|487:237|479:194,1,87.72,2|0,1:2|2:0,2:0:0:0:
319,53,234320,2,0,P|311:96|303:139,1,87.72,10|0,2:0|2:0,2:0:0:0:
184,281,234653,1,0,1:2:0:0:
396,197,234820,1,6,2:3:0:0:
217,92,234986,1,8,2:0:0:0:
350,294,235153,38,0,P|400:240|518:251,1,175.44,2|0,1:2|1:2,2:0:0:0:
243,179,235653,2,0,P|147:198|40:222,1,175.44,12|4,2:0|2:3,2:0:0:0:
239,293,236153,1,0,1:2:0:0:
239,293,236236,1,0,1:2:0:0:
239,293,236320,1,8,2:0:0:0:
133,116,236486,1,4,2:3:0:0:
47,339,236653,6,0,P|89:348|131:360,1,87.72,14|0,2:0|2:0,2:0:0:0:
350,144,236986,1,8,2:0:0:0:
123,238,237153,1,2,1:2:0:0:
386,311,237320,1,10,2:0:0:0:
152,228,237486,1,0,1:2:0:0:
365,123,237653,1,10,2:0:0:0:
271,371,237820,54,0,P|263:328|255:285,1,87.72,2|8,1:2|2:0,2:0:0:0:
346,93,238153,1,0,1:2:0:0:
135,314,238320,2,0,P|143:271|151:228,1,87.72,10|0,2:0|1:2,2:0:0:0:
61,81,238653,1,10,2:0:0:0:
262,172,238820,1,2,1:2:0:0:
37,365,238986,2,0,P|29:322|21:279,1,87.72,8|0,2:0|1:2,2:0:0:0:
287,77,239320,38,0,B|314:102|339:120|339:120|315:170|295:234,1,175.44,14|8,2:0|2:0,2:0:0:0:
385,341,239820,1,2,1:2:0:0:
235,153,239986,1,10,2:0:0:0:
439,237,240153,1,6,1:3:0:0:
231,357,240320,1,10,2:3:0:0:
457,218,240486,2,0,P|411:167|288:206,1,175.44,6|0,1:3|1:2,2:0:0:0:
258,248,240903,1,0,1:2:0:0:
258,248,240986,38,0,B|213:223|171:259|192:271|159:299|103:285,1,156.52,14|0,2:0|2:0,2:0:0:0:
45,256,241653,2,0,L|52:217,3,26.66,0|0|0|0,1:2|1:2|1:2|1:2,1:2:0:0:
134,190,241986,5,12,2:0:0:0:
89,356,242153,1,4,1:3:0:0:
128,214,242320,1,4,1:3:0:0:
209,358,242486,101,12,2:0:0:0:
53,263,242653,1,8,1:3:0:0:
206,174,242820,1,8,1:3:0:0:
89,356,242986,5,12,2:0:0:0:
274,243,243153,1,4,1:3:0:0:
92,136,243320,1,4,1:3:0:0:
239,375,243486,101,12,2:0:0:0:
30,248,243653,1,8,1:3:0:0:
236,127,243820,1,8,1:3:0:0:
87,362,243986,6,0,P|81:312|71:225,1,105.78,12|0,2:0|2:0,2:0:0:0:
150,190,244320,102,0,P|148:103|74:148,1,208.98,14|0,2:0|2:0,2:0:0:0:
164,277,244649,102,0,B|221:242|271:284|254:296|297:331|361:297,1,192.64,6|8,1:2|2:0,2:0:0:0:
492,237,245149,1,0,1:2:0:0:
492,237,245232,1,8,2:0:0:0:
492,237,245315,2,0,L|477:334,1,87.72,0|0,1:2|1:2,2:0:0:0:
317,196,245649,1,10,2:0:0:0:
429,69,245815,54,0,P|473:83|520:98,1,87.72,2|0,2:0|1:2,2:0:0:0:
374,283,246149,1,0,1:2:0:0:
247,89,246315,1,10,2:0:0:0:
387,164,246482,1,2,1:2:0:0:
387,164,246565,1,8,2:0:0:0:
387,164,246649,1,0,1:2:0:0:
179,279,246815,2,0,L|192:192,1,87.72,2|8,1:2|2:0,2:0:0:0:
79,63,247149,1,2,1:2:0:0:
268,244,247315,22,0,P|351:227|466:203,1,175.44,0|8,1:2|2:0,2:0:0:0:
303,28,247815,1,0,1:2:0:0:
303,28,247899,1,8,2:0:0:0:
303,28,247982,2,0,L|289:114,1,87.72,0|0,1:2|1:2,2:0:0:0:
373,263,248315,1,10,2:0:0:0:
182,78,248482,22,0,L|195:164,1,87.72,2|0,2:0|1:2,2:0:0:0:
115,323,248815,1,0,1:2:0:0:
283,209,248982,1,10,2:0:0:0:
104,141,249149,1,2,1:2:0:0:
104,141,249232,1,8,2:0:0:0:
104,141,249315,1,0,1:2:0:0:
266,318,249482,2,0,P|307:304|349:291,1,87.72,2|8,1:2|2:0,2:0:0:0:
388,129,249815,1,2,1:2:0:0:
174,301,249982,54,0,P|96:318|25:225,2,175.44,4|8|0,1:2|2:0|1:2,2:0:0:0:
76,50,250815,1,0,1:2:0:0:
123,226,250982,1,10,2:0:0:0:
277,0,251149,22,0,B|304:25|329:43|329:43|305:93|285:157,1,175.44,6|0,1:2|1:2,2:0:0:0:
374,271,251649,1,10,2:0:0:0:
219,71,251815,2,0,P|177:84|135:97,1,87.72,2|0,2:0|1:2,2:0:0:0:
248,259,252149,1,2,1:2:0:0:
43,114,252315,2,0,L|54:71,2,43.86,8|0|2,2:0|1:2|1:2,2:0:0:0:
183,305,252649,21,12,2:0:0:0:
135,97,252815,1,0,1:2:0:0:
14,256,252982,1,2,1:2:0:0:
242,109,253149,53,14,2:0:0:0:
49,23,253315,1,0,1:2:0:0:
107,237,253482,1,2,1:2:0:0:
236,7,253649,21,14,2:0:0:0:
14,106,253815,1,2,1:2:0:0:
213,253,253982,1,2,1:2:0:0:
49,23,254149,21,12,2:0:0:0:
271,122,254315,1,0,1:2:0:0:
72,269,254482,1,2,1:2:0:0:
236,7,254649,54,0,L|250:93,1,87.72,6|0,1:3|1:2,1:2:0:0:
386,313,254982,2,0,L|400:227,1,87.72,10|0,2:0|1:2,2:0:0:0:
264,275,255315,21,2,1:2:0:0:
486,153,255482,1,0,1:2:0:0:
486,153,255565,1,0,1:2:0:0:
486,153,255649,2,0,P|444:138|402:125,1,87.72,14|2,2:0|2:0,2:0:0:0:
510,284,255982,1,0,1:2:0:0:
433,49,256149,1,6,1:3:0:0:
493,270,256315,1,8,2:0:0:0:
314,91,256482,22,0,B|262:74|221:116|240:125|202:166|134:141,1,175.44,6|2,1:2|1:2,2:0:0:0:
0,60,256982,2,0,L|14:146,1,87.72,8|0,2:0|2:0,2:0:0:0:
180,271,257315,2,0,L|194:185,1,87.72,2|0,1:2|1:2,2:0:0:0:
115,56,257649,1,10,2:0:0:0:
272,232,257815,1,10,2:0:0:0:
272,232,257899,1,8,2:0:0:0:
272,232,257982,54,0,P|355:215|470:191,1,175.44,6|10,1:2|2:0,2:0:0:0:
306,39,258482,2,0,L|292:125,1,87.72,2|0,2:0|1:2,2:0:0:0:
376,266,258815,1,2,1:2:0:0:
194,184,258982,1,8,2:0:0:0:
389,77,259149,22,0,P|451:119|444:218,1,175.44,6|2,1:2|1:2,2:0:0:0:
222,272,259649,1,10,2:0:0:0:
376,176,259815,1,0,2:0:0:0:
218,381,259982,2,0,L|204:295,1,87.72,2|0,1:2|1:2,2:0:0:0:
271,146,260315,1,10,2:0:0:0:
113,220,260482,1,0,2:0:0:0:
311,32,260648,22,0,P|299:135|288:228,1,175.44,6|8,1:2|2:0,2:0:0:0:
448,333,261148,1,0,1:2:0:0:
448,333,261232,1,8,2:0:0:0:
448,333,261315,2,0,L|434:247,1,87.72,0|0,1:2|1:2,2:0:0:0:
490,71,261648,2,0,P|448:83|406:98,1,87.72,10|0,2:0|2:0,2:0:0:0:
214,179,261982,54,0,P|255:191|297:206,1,87.72,2|0,1:2|1:2,2:0:0:0:
114,33,262315,2,0,L|100:119,1,87.72,10|0,2:0|2:0,2:0:0:0:
190,289,262649,1,2,1:2:0:0:
0,193,262815,1,2,1:2:0:0:
199,92,262982,2,0,L|213:178,1,87.72,8|2,2:0|2:0,2:0:0:0:
386,329,263315,21,12,2:0:0:0:
298,128,263482,1,0,1:2:0:0:
223,307,263649,1,0,1:2:0:0:
413,111,263815,21,12,2:0:0:0:
192,187,263982,1,0,1:2:0:0:
386,329,264149,1,0,1:2:0:0:
236,92,264315,53,12,2:0:0:0:
132,319,264482,1,0,1:2:0:0:
363,212,264649,1,0,1:2:0:0:
137,75,264815,21,12,2:0:0:0:
223,307,264982,1,0,1:2:0:0:
330,107,265149,1,0,1:2:0:0:
111,233,265315,21,12,2:0:0:0:
422,154,265482,1,0,1:2:0:0:
135,219,265649,1,12,2:0:0:0:
351,89,265815,1,0,1:2:0:0:
209,348,265982,53,14,2:0:0:0:
160,78,266149,1,0,2:0:0:0:
327,269,266315,1,4,2:3:0:0:
51,178,266482,21,14,2:0:0:0:
325,64,266649,1,8,2:3:0:0:
74,183,266815,1,8,2:3:0:0:
356,286,266982,21,14,2:0:0:0:
189,95,267149,1,4,2:3:0:0:
238,365,267315,1,4,2:3:0:0:
407,143,267482,53,14,2:0:0:0:
132,257,267649,1,8,2:3:0:0:
383,138,267815,1,8,2:3:0:0:
145,2,267982,21,14,2:0:0:0:
268,285,268149,1,0,1:2:0:0:
291,46,268315,21,14,2:0:0:0:
168,329,268482,1,0,1:2:0:0:
34,98,268649,53,14,2:0:0:0:
392,225,268815,2,0,L|378:139,1,87.72,10|0,2:0|1:2,2:0:0:0:
199,230,269149,1,8,2:0:0:0:
358,36,269315,2,0,P|399:48|441:63,1,87.72,0|0,1:2|1:2,2:0:0:0:
346,323,269649,21,14,2:0:0:0:
144,45,269815,2,0,L|130:131,1,87.72,10|0,2:0|1:2,2:0:0:0:
274,281,270149,1,8,2:0:0:0:
286,263,270232,1,8,2:0:0:0:
293,242,270315,1,8,2:0:0:0:
294,220,270398,1,8,2:0:0:0:
289,199,270482,1,8,2:0:0:0:
278,180,270565,1,8,2:0:0:0:
262,165,270649,22,0,L|200:180,1,54.18,4|0,2:3|2:0,2:0:0:0:
100,118,270982,54,0,P|126:88|120:133,1,105.78,8|0,2:3|2:0,2:0:0:0:
84,224,271315,22,0,P|42:209|0:196,1,87.7200000000001,4|0,1:2|2:0,2:0:0:0:
247,78,271648,2,0,L|261:164,1,87.7200000000001,10|4,2:0|2:3,2:0:0:0:
396,318,271982,2,0,L|410:232,1,87.7200000000001,0|0,1:2|1:2,2:0:0:0:
496,111,272315,1,8,2:0:0:0:
302,281,272482,22,0,B|256:297|212:267|232:252|188:217|121:257,1,175.44,0|0,1:2|1:2,2:0:0:0:
15,357,272982,2,0,L|29:271,1,87.7200000000001,8|0,2:0|1:2,2:0:0:0:
0,190,273232,1,8,2:0:0:0:
0,190,273315,2,0,P|41:175|83:162,1,87.7200000000001,0|0,1:2|1:2,2:0:0:0:
249,372,273648,2,0,P|207:357|165:344,1,87.7200000000001,8|0,2:0|2:0,2:0:0:0:
310,145,273982,54,0,P|383:151|411:269,1,175.44,0|8,1:2|2:0,2:0:0:0:
209,206,274482,1,0,1:2:0:0:
209,206,274565,1,8,2:0:0:0:
209,206,274648,2,0,L|223:120,1,87.7200000000001,0|0,1:2|1:2,2:0:0:0:
329,243,274982,1,10,2:0:0:0:
166,49,275148,22,0,P|177:136|191:240,1,175.44,2|0,1:2|1:2,2:0:0:0:
217,384,275648,2,0,P|175:368|133:355,1,87.7200000000001,8|0,2:0|2:0,2:0:0:0:
0,229,275982,2,0,P|41:213|83:200,1,87.7200000000001,0|0,1:2|1:2,2:0:0:0:
227,102,276315,2,0,L|213:188,1,87.7200000000001,8|0,2:0|1:2,2:0:0:0:
260,261,276565,1,8,2:0:0:0:
260,261,276648,22,0,P|301:245|343:232,1,87.7200000000001,4|0,1:2|1:2,2:0:0:0:
437,87,276982,2,0,P|395:71|353:58,1,87.7200000000001,8|0,2:0|2:0,2:0:0:0:
499,207,277315,1,0,1:2:0:0:
288,115,277482,1,0,1:2:0:0:
441,0,277648,1,8,2:0:0:0:
345,198,277815,54,0,P|359:303|371:381,1,175.44,4|0,1:2|1:2,2:0:0:0:
138,237,278315,2,0,L|152:151,1,87.7200000000001,8|0,2:0|2:0,2:0:0:0:
256,320,278648,1,0,1:2:0:0:
63,198,278815,1,0,1:2:0:0:
208,67,278982,1,8,2:0:0:0:
233,83,279065,1,8,2:3:0:0:
250,108,279148,1,4,2:3:0:0:
256,138,279232,1,4,2:3:0:0:
251,168,279315,22,0,P|202:157|131:142,1,87.7200000000001,14|0,2:0|1:2,2:0:0:0:
315,28,279648,1,0,1:2:0:0:
398,259,279815,2,0,P|447:248|518:233,1,87.7200000000001,14|0,2:0|1:2,2:0:0:0:
324,55,280148,1,0,1:2:0:0:
234,271,280315,21,14,2:0:0:0:
431,159,280482,1,0,1:2:0:0:
250,250,280648,1,0,1:2:0:0:
463,340,280815,53,14,2:0:0:0:
334,119,280982,1,0,1:2:0:0:
268,358,281148,1,0,1:2:0:0:
431,159,281315,2,0,L|355:138,1,43.86,14|0,2:0|1:2,2:0:0:0:
243,43,281482,1,0,1:2:0:0:
243,43,281565,1,0,1:2:0:0:
243,43,281648,2,0,L|285:31,1,43.86,14|0,2:0|1:2,2:0:0:0:
195,240,281815,1,0,1:2:0:0:
195,240,281898,1,0,1:2:0:0:
195,240,281982,22,0,P|122:211|125:90,1,175.44,6|8,1:2|2:0,2:0:0:0:
321,228,282482,2,0,L|307:314,1,87.7200000000001,2|0,2:0|1:2,2:0:0:0:
211,132,282815,1,0,1:2:0:0:
393,69,282982,1,10,2:0:0:0:
210,334,283148,22,0,P|199:254|183:131,1,175.44,6|0,1:2|1:2,2:0:0:0:
62,284,283648,1,10,2:0:0:0:
273,107,283815,2,0,L|287:193,1,87.7200000000001,2|0,2:0|1:2,2:0:0:0:
210,334,284148,1,0,1:2:0:0:
365,246,284315,1,10,2:0:0:0:
164,123,284482,1,8,2:0:0:0:
164,123,284565,1,8,2:0:0:0:
164,123,284648,54,0,P|149:217|134:312,1,175.44,6|8,1:2|2:0,2:0:0:0:
252,202,285148,1,0,2:0:0:0:
62,89,285315,2,0,L|76:175,1,87.7200000000001,2|0,1:2|1:2,2:0:0:0:
51,334,285648,1,8,2:0:0:0:
164,123,285815,1,4,1:2:0:0:
231,363,285982,22,0,P|280:352|351:337,1,87.7200000000001,2|0,1:2|1:2,2:0:0:0:
439,266,286315,2,0,P|390:255|319:240,1,87.7200000000001,10|0,2:0|2:0,2:0:0:0:
131,178,286648,2,0,P|180:167|251:152,1,87.7200000000001,2|0,1:2|1:2,2:0:0:0:
448,62,286982,2,0,P|399:51|328:36,1,87.7200000000001,10|8,2:0|2:0,2:0:0:0:
274,0,287232,1,8,2:0:0:0:
274,0,287315,22,0,P|286:97|299:196,2,175.44,6|8|0,1:2|2:0|1:2,2:0:0:0:
216,159,288148,1,0,1:2:0:0:
356,51,288315,1,8,2:0:0:0:
228,251,288482,2,0,P|179:240|108:225,1,87.7200000000001,0|0,1:2|2:0,2:0:0:0:
245,74,288815,1,0,1:2:0:0:
328,244,288982,54,0,L|342:330,1,87.7200000000001,10|0,2:0|2:0,2:0:0:0:
174,228,289315,2,0,L|93:197,1,87.7200000000001,2|0,1:2|1:2,2:0:0:0:
259,107,289648,2,0,L|326:51,1,87.7200000000001,10|0,2:0|2:0,2:0:0:0:
217,316,289982,22,0,P|161:359|54:316,1,175.44,6|10,1:2|2:0,2:0:0:0:
176,102,290482,2,0,L|162:188,1,87.7200000000001,2|0,2:0|1:2,2:0:0:0:
326,360,290815,2,0,L|312:274,1,87.7200000000001,2|8,1:2|2:0,2:0:0:0:
399,136,291148,1,2,2:0:0:0:
217,316,291315,21,2,1:2:0:0:
317,94,291482,1,0,1:2:0:0:
417,313,291648,1,10,2:0:0:0:
200,179,291815,1,10,2:0:0:0:
200,179,291898,1,8,2:0:0:0:
200,179,291982,1,8,2:0:0:0:
431,76,292153,2,0,L|421:131,2,43.86,8|8|10,2:3|2:3|2:3,2:0:0:0:
275,279,292496,2,0,L|267:235,1,43.86,4|4,2:3|2:3,2:0:0:0:
243,83,292667,21,6,1:2:0:0:
256,192,292751,12,2,296711,2:0:0:0:
113,285,300072,102,0,P|123:225|135:143,1,123.84,2|0,1:2|2:0,2:0:0:0:
417,220,300746,2,0,P|407:160|395:78,1,123.84,2|0,1:2|2:0,2:0:0:0:
244,313,301420,6,0,P|243:242|307:283,1,158.24,2|0,1:2|2:0,2:0:0:0:
145,372,301925,2,0,L|101:361,2,39.56,2|2|2,2:0|2:0|2:0,2:0:0:0:
145,372,302937,101,0,1:2:0:0:
193,150,303105,1,0,1:2:0:0:
293,359,303274,1,0,1:2:0:0:
82,245,303442,1,0,1:2:0:0:
82,245,303779,2,0,P|138:254|182:269,1,79.12,2|0,2:0|2:0,2:0:0:0:
307,70,304116,38,0,P|217:70|170:147,1,175.44,6|8,1:2|2:0,2:0:0:0:
311,320,304622,1,0,1:2:0:0:
97,95,304791,2,0,P|87:144|79:185,1,87.72,0|0,2:0|1:2,2:0:0:0:
346,117,305128,2,0,P|337:73|328:30,1,87.72,8|0,2:0|2:0,2:0:0:0:
238,210,305465,21,2,1:2:0:0:
445,96,305633,1,0,2:0:0:0:
226,0,305802,1,10,2:0:0:0:
371,226,305970,1,0,1:2:0:0:
124,83,306139,2,0,P|115:125|106:169,1,87.72,2|0,2:0|1:2,2:0:0:0:
351,254,306476,2,0,P|342:210|333:167,1,87.72,8|0,2:0|2:0,2:0:0:0:
93,331,306813,86,0,P|148:267|254:287,1,175.44,2|8,1:2|2:0,2:0:0:0:
343,384,307319,1,0,1:2:0:0:
132,189,307487,2,0,P|182:176|234:163,1,87.72,0|0,2:0|1:2,2:0:0:0:
426,70,307824,2,0,P|383:58|341:48,1,87.72,8|0,2:0|2:0,2:0:0:0:
416,263,308161,21,2,1:2:0:0:
233,141,308330,1,0,2:0:0:0:
435,37,308498,1,10,2:0:0:0:
314,289,308667,1,0,1:2:0:0:
149,106,308836,2,0,P|157:62|166:19,1,87.72,2|0,2:0|1:2,2:0:0:0:
389,170,309173,2,0,P|380:126|371:83,1,87.72,8|0,2:0|2:0,2:0:0:0:
197,312,309510,86,0,P|217:216|240:100,1,175.44,2|8,1:2|2:0,2:0:0:0:
101,278,310015,1,0,1:2:0:0:
311,204,310184,1,0,2:0:0:0:
149,106,310352,1,0,1:2:0:0:
299,315,310521,1,8,2:0:0:0:
393,83,310689,1,0,2:0:0:0:
179,225,310858,22,0,P|187:267|196:311,1,87.72,2|0,1:2|2:0,2:0:0:0:
326,180,311195,1,10,2:0:0:0:
97,34,311364,2,0,P|79:120|61:205,1,175.44,0|0,1:2|1:2,2:0:0:0:
229,69,311869,1,8,2:0:0:0:
229,69,312206,86,0,P|253:74|283:80,1,43.86,8|0,2:0|2:0,2:0:0:0:
315,187,312375,2,0,P|336:183|357:179,1,43.86,8|0,2:0|2:0,2:0:0:0:
437,50,312543,2,0,P|445:92|454:136,1,87.72,2|0,2:0|2:0,2:0:0:0:
441,267,312880,2,0,P|419:262|398:258,1,43.86,8|0,2:0|2:0,2:0:0:0:
329,154,313049,2,0,P|307:158|286:162,1,43.86,8|0,2:0|2:0,2:0:0:0:
153,276,313218,2,0,P|161:232|170:189,1,87.72,2|0,2:0|2:0,2:0:0:0:
90,85,313555,21,8,2:0:0:0:
253,268,313723,1,8,2:0:0:0:
320,28,313892,2,0,P|277:16|235:6,1,87.72,2|0,2:0|2:0,2:0:0:0:
85,211,314229,2,0,P|127:199|169:189,1,87.72,2|0,2:0|2:0,2:0:0:0:
393,122,314566,1,8,2:0:0:0:
393,122,314903,86,0,B|366:144|346:158|346:158|373:222|402:304,1,175.44,2|8,1:2|2:0,2:0:0:0:
226,108,315409,2,0,B|174:93|136:128|157:140|116:178|53:161,1,175.44,0|0,1:2|1:2,2:0:0:0:
230,237,315914,1,8,2:0:0:0:
230,237,316251,21,8,2:0:0:0:
167,23,316420,1,8,2:0:0:0:
253,205,316588,2,0,P|261:161|270:118,1,87.72,2|0,2:0|2:0,2:0:0:0:
89,250,316925,85,8,2:0:0:0:
368,156,317094,1,8,2:0:0:0:
119,264,317263,2,0,P|110:220|101:177,1,87.72,2|0,2:0|2:0,2:0:0:0:
311,298,317600,21,8,2:0:0:0:
205,55,317768,1,8,2:0:0:0:
229,255,317937,1,2,2:0:0:0:
296,91,318105,1,0,2:0:0:0:
129,307,318274,1,8,2:0:0:0:
369,180,318442,1,8,2:0:0:0:
178,41,318611,2,0,P|169:83|160:127,1,87.72,2|0,2:0|2:0,2:0:0:0:
291,384,318948,85,8,2:0:0:0:
88,241,319116,2,0,P|116:182|237:180,1,175.44,10|0,2:0|2:0,2:0:0:0:
116,376,319622,1,8,2:0:0:0:
317,162,319791,2,0,B|369:147|407:182|386:194|427:232|490:215,1,175.44,10|0,2:0|2:0,2:0:0:0:
338,28,320296,1,10,2:0:0:0:
414,294,320465,1,8,2:0:0:0:
348,0,320633,1,10,2:0:0:0:
206,232,320802,22,0,B|220:261|230:294|230:294|252:188|277:81,1,266.6,10|0,2:0|2:0,2:0:0:0:
91,253,321813,85,8,2:0:0:0:
358,167,321982,1,8,2:0:0:0:
91,142,322150,1,8,2:0:0:0:
398,269,322319,1,8,2:0:0:0:
234,0,322656,21,2,3:2:0:0:
65,309,322993,86,0,B|114:286|167:264|167:264|192:283|226:305,1,158.24,2|8,1:2|2:0,2:0:0:0:
379,156,323498,2,0,B|332:136|294:171|315:183|274:221|210:197,1,158.24,0|0,1:2|1:2,2:0:0:0:
96,42,324004,1,8,2:0:0:0:
242,113,324173,1,0,2:0:0:0:
95,239,324341,22,0,P|88:199|79:153,1,79.12,2|0,1:2|2:0,2:0:0:0:
184,321,324678,1,8,2:0:0:0:
0,230,324847,1,0,1:2:0:0:
154,117,325015,1,0,2:0:0:0:
23,314,325184,1,0,1:2:0:0:
64,84,325352,1,8,2:0:0:0:
210,292,325521,1,0,2:0:0:0:
0,230,325689,86,0,P|64:172|159:198,1,158.24,2|8,1:2|2:0,2:0:0:0:
307,249,326195,1,0,1:2:0:0:
197,83,326364,1,0,2:0:0:0:
136,295,326532,1,0,1:2:0:0:
295,170,326701,1,8,2:0:0:0:
114,83,326869,1,0,2:0:0:0:
259,282,327038,22,0,P|334:265|441:241,1,158.24,2|8,1:2|2:0,2:0:0:0:
293,81,327543,2,0,P|285:119|278:158,1,79.12,0|0,1:2|2:0,2:0:0:0:
376,340,327880,1,0,1:2:0:0:
171,136,328049,2,0,P|178:174|185:213,1,79.12,8|0,2:0|2:0,2:0:0:0:
87,318,328386,85,14,2:0:0:0:
207,61,328555,1,0,1:2:0:0:
243,288,328723,21,8,2:0:0:0:
123,31,328892,1,0,1:2:0:0:
176,348,329060,85,8,2:0:0:0:
296,91,329229,1,0,1:2:0:0:
327,318,329397,21,8,2:0:0:0:
207,61,329566,1,0,1:2:0:0:
176,348,329734,86,0,P|130:338|83:329,1,87.72,14|0,2:0|1:2,2:0:0:0:
0,171,330072,2,0,P|45:161|93:152,1,87.72,8|0,2:0|1:2,2:0:0:0:
243,38,330409,2,0,P|236:76|225:138,1,87.72,8|0,2:0|1:2,2:0:0:0:
391,262,330746,2,0,P|383:218|375:175,1,87.72,8|0,2:0|1:2,2:0:0:0:
320,356,331083,21,14,2:0:0:0:
408,88,331251,1,4,1:3:0:0:
414,384,331420,85,10,2:0:0:0:
326,116,331588,1,4,1:3:0:0:
210,313,331757,21,10,2:0:0:0:
298,45,331925,1,4,1:3:0:0:
318,269,332094,85,10,2:0:0:0:
230,1,332263,1,4,1:3:0:0:
95,258,332431,21,12,1:2:0:0:
386,127,332600,1,8,1:2:0:0:
118,81,332768,1,8,1:2:0:0:
421,218,332937,1,8,1:2:0:0:
230,1,333105,85,12,1:2:0:0:
324,338,333274,1,8,1:2:0:0:
319,2,333442,1,8,1:2:0:0:
225,339,333611,1,8,1:2:0:0:
41,107,335810,70,0,B|166:22|284:152|206:195|334:337|476:222,1,493.64,10|0,2:0|2:0,2:0:0:0:
369,161,337181,5,8,2:0:0:0:
418,335,337352,1,4,2:3:0:0:
336,144,337524,1,4,2:3:0:0:
274,329,337695,1,8,2:0:0:0:
166,114,337867,1,4,2:3:0:0:
244,351,338038,1,4,2:3:0:0:
389,69,338210,1,12,2:0:0:0:
389,69,338552,86,0,P|435:92|440:207,1,175.44,6|10,1:2|2:0,2:0:0:0:
205,117,339067,2,0,P|213:74|221:24,1,87.7200000000001,2|0,1:2|2:0,2:0:0:0:
362,165,339410,1,14,1:3:0:0:
146,290,339581,2,0,P|138:247|130:197,1,87.7200000000001,8|2,2:0|2:0,2:0:0:0:
283,348,339924,85,2,1:2:0:0:
47,246,340095,1,10,1:3:0:0:
236,137,340267,1,10,2:0:0:0:
39,277,340438,2,0,P|-5:243|42:117,1,175.44,2|4,1:2|1:3,2:0:0:0:
219,36,340952,2,0,P|211:79|203:122,1,87.7200000000001,8|0,2:0|2:0,2:0:0:0:
275,314,341295,21,2,1:2:0:0:
88,205,341467,1,2,2:0:0:0:
298,102,341638,1,10,2:0:0:0:
124,207,341810,1,0,1:2:0:0:
310,329,341981,1,2,2:0:0:0:
202,111,342152,1,4,1:3:0:0:
124,353,342324,1,10,2:0:0:0:
325,197,342495,1,0,2:0:0:0:
101,117,342667,85,2,1:2:0:0:
275,314,342838,1,10,1:3:0:0:
184,25,343010,1,10,2:0:0:0:
100,331,343181,2,0,P|91:287|84:244,1,87.7200000000001,2|0,1:2|2:0,2:0:0:0:
271,94,343524,2,0,P|263:137|255:180,1,87.7200000000001,6|8,1:3|2:0,2:0:0:0:
376,354,343867,1,2,2:0:0:0:
165,126,344038,22,0,P|117:136|60:149,1,87.7200000000001,6|0,1:2|2:0,2:0:0:0:
252,308,344381,1,10,2:0:0:0:
334,39,344552,2,0,P|376:47|419:57,1,87.7200000000001,2|0,1:2|2:0,2:0:0:0:
200,151,344895,2,0,P|157:159|114:169,1,87.7200000000001,6|8,1:3|2:0,2:0:0:0:
341,249,345238,1,2,2:0:0:0:
226,40,345410,85,2,1:2:0:0:
147,276,345581,1,10,1:3:0:0:
343,137,345752,1,10,2:0:0:0:
138,48,345924,2,0,B|111:73|90:90|90:90|117:139|143:203,1,175.44,2|4,1:2|1:3,2:0:0:0:
343,137,346438,2,0,P|300:127|257:118,1,87.7200000000001,8|0,2:0|2:0,2:0:0:0:
388,251,346781,21,6,1:2:0:0:
306,37,346952,1,2,2:0:0:0:
238,269,347124,1,10,2:0:0:0:
463,139,347295,2,0,P|433:77|306:65,1,175.44,2|4,1:2|1:3,2:0:0:0:
184,209,347809,1,10,2:0:0:0:
349,136,347981,1,2,2:0:0:0:
162,45,348152,85,2,1:2:0:0:
319,248,348324,1,8,1:3:0:0:
188,55,348495,1,10,2:0:0:0:
87,281,348667,2,0,P|169:296|284:320,1,175.44,2|6,1:2|1:3,2:0:0:0:
135,142,349181,1,10,2:0:0:0:
209,384,349352,1,8,2:0:0:0:
352,123,349524,21,14,2:0:0:0:
162,263,349695,1,2,1:2:0:0:
389,365,349867,1,10,2:0:0:0:
220,123,350038,2,0,P|177:131|134:141,1,87.7200000000001,2|8,1:2|2:0,2:0:0:0:
25,340,350381,2,0,P|67:348|110:358,1,87.7200000000001,2|8,1:2|2:0,2:0:0:0:
317,210,350724,1,2,1:2:0:0:
130,266,350895,85,10,2:0:0:0:
376,339,351067,1,2,1:2:0:0:
155,251,351238,1,10,2:0:0:0:
387,112,351409,2,0,P|395:155|403:198,1,87.7200000000001,2|8,1:2|2:0,2:0:0:0:
275,352,351752,1,0,1:0:0:0:
492,181,351924,2,0,P|484:224|476:267,1,87.7200000000001,8|0,2:0|1:2,2:0:0:0:
362,92,352267,21,10,2:0:0:0:
491,310,352438,1,0,1:0:0:0:
270,208,352609,1,10,2:0:0:0:
494,82,352781,1,0,1:0:0:0:
316,319,352952,2,0,P|273:309|230:300,1,87.7200000000001,10|0,2:0|1:2,2:0:0:0:
74,201,353295,1,10,2:0:0:0:
143,384,353467,1,0,1:0:0:0:
195,112,353638,85,10,2:0:0:0:
51,309,353809,1,2,1:2:0:0:
270,208,353981,1,10,2:0:0:0:
57,84,354152,2,0,P|65:127|73:170,1,87.7200000000001,2|8,1:2|2:0,2:0:0:0:
268,336,354495,2,0,P|276:293|284:250,1,87.7200000000001,2|8,1:2|2:0,2:0:0:0:
162,126,354838,1,2,1:2:0:0:
59,338,355009,22,0,P|101:328|144:319,1,87.7200000000001,14|0,2:0|1:2,2:0:0:0:
245,131,355352,1,10,2:0:0:0:
353,354,355524,2,0,P|310:344|267:335,1,87.7200000000001,2|8,1:2|2:0,2:0:0:0:
69,290,355867,2,0,P|111:280|154:272,1,87.7200000000001,2|8,1:2|2:0,2:0:0:0:
260,108,356209,1,2,1:2:0:0:
267,335,356381,85,10,2:0:0:0:
83,171,356552,1,2,1:2:0:0:
369,240,356724,1,10,2:0:0:0:
138,358,356895,2,0,P|146:315|154:272,1,87.7200000000001,2|8,1:2|2:0,2:0:0:0:
260,108,357238,1,0,1:0:0:0:
49,316,357409,2,0,P|43:272|37:230,1,87.7200000000001,8|0,2:0|1:2,2:0:0:0:
217,374,357752,21,10,2:0:0:0:
282,174,357924,2,0,P|239:182|196:192,1,87.7200000000001,2|8,1:2|2:0,2:0:0:0:
343,342,358267,1,2,1:2:0:0:
377,89,358438,1,10,2:0:0:0:
166,294,358609,2,0,P|208:302|251:312,1,87.7200000000001,2|8,1:2|2:0,2:0:0:0:
26,149,358952,1,2,1:2:0:0:
79,362,359124,85,10,2:0:0:0:
202,98,359295,1,2,1:2:0:0:
90,339,359467,1,10,2:0:0:0:
299,217,359638,1,2,1:2:0:0:
57,147,359809,1,8,2:0:0:0:
57,147,359895,1,8,2:0:0:0:
57,147,359981,2,0,P|65:190|69:233,1,87.7200000000001,8|10,1:3|2:0,2:0:0:0:
279,33,360324,1,8,2:0:0:0:
279,33,360409,1,8,2:0:0:0:
279,33,360495,22,0,P|352:46|369:163,1,175.44,6|8,1:2|2:0,2:0:0:0:
153,300,361009,2,0,P|164:224|184:85,1,175.44,2|4,1:2|1:3,2:0:0:0:
390,253,361524,2,0,P|347:261|304:271,1,87.7200000000001,10|0,2:0|2:0,2:0:0:0:
383,133,361867,85,2,1:2:0:0:
463,344,362038,1,0,1:2:0:0:
267,247,362209,1,10,2:0:0:0:
470,149,362381,1,0,1:2:0:0:
338,367,362552,1,2,2:0:0:0:
277,126,362724,1,4,1:3:0:0:
483,256,362895,1,10,2:0:0:0:
222,350,363067,1,4,2:3:0:0:
378,101,363238,22,0,P|420:109|463:119,1,87.7200000000001,2|0,1:2|2:0,2:0:0:0:
327,326,363581,1,10,2:0:0:0:
213,87,363752,2,0,P|170:95|127:105,1,87.7200000000001,2|0,1:2|2:0,2:0:0:0:
32,253,364095,1,4,1:3:0:0:
103,9,364267,1,10,2:0:0:0:
211,242,364438,1,0,2:0:0:0:
0,135,364609,85,0,1:2:0:0:
226,0,364781,2,0,P|218:49|211:98,1,87.7200000000001,2|8,1:2|2:0,2:0:0:0:
99,277,365124,2,0,P|92:233|85:190,1,87.7200000000001,2|0,1:2|2:0,2:0:0:0:
222,336,365467,1,6,1:3:0:0:
100,103,365638,1,8,2:0:0:0:
24,356,365809,1,2,2:0:0:0:
212,86,365981,22,0,P|254:94|297:104,1,87.7200000000001,14|0,2:0|2:0,2:0:0:0:
462,275,366324,85,8,2:0:0:0:
379,48,366495,1,2,1:2:0:0:
369,322,366667,21,8,2:0:0:0:
452,95,366838,1,0,1:2:0:0:
463,382,367009,85,10,2:0:0:0:
380,155,367181,1,0,1:2:0:0:
263,357,367352,21,10,2:0:0:0:
487,231,367524,1,0,1:2:0:0:
255,97,367695,85,10,2:0:0:0:
387,349,367867,1,0,1:2:0:0:
354,79,368038,21,10,2:0:0:0:
222,331,368209,1,0,1:2:0:0:
194,35,368381,85,10,2:0:0:0:
326,287,368552,1,0,1:2:0:0:
111,59,368724,22,0,P|103:108|96:157,1,87.7200000000001,14|0,2:0|2:0,2:0:0:0:
224,323,369067,1,8,2:0:0:0:
2,217,369238,1,2,1:2:0:0:
209,118,369409,1,8,2:0:0:0:
87,347,369581,2,0,L|97:293,2,43.86,8|8|10,2:0|2:0|2:0,2:0:0:0:
7,110,369924,1,8,2:0:0:0:
216,293,370095,85,14,2:0:0:0:
125,35,370267,1,8,2:0:0:0:
125,35,370352,1,8,2:0:0:0:
125,35,370438,1,8,2:0:0:0:
0,257,370609,1,8,2:0:0:0:
234,115,370781,1,10,2:3:0:0:
29,223,370952,1,4,2:3:0:0:
247,145,371124,1,4,2:3:0:0:
98,84,371295,1,4,2:3:0:0:
313,318,371467,37,6,1:2:0:0:
183,17,371636,2,0,B|158:59|123:83|123:83|173:131|182:207,1,223.863101301921,6|4,1:2|2:3,2:0:0:0:
341,123,372832,6,0,P|313:97|236:99,1,106.64,0|0,3:2|3:2,2:0:0:0:
247,93,373349,1,0,3:2:0:0:
444,62,373521,101,10,2:0:0:0:
182,201,373694,1,2,1:2:0:0:
182,201,374038,86,0,B|238:172|281:215|256:226|305:263|367:229,1,175.44,6|10,1:2|1:3,2:0:0:0:
503,147,374556,1,10,2:0:0:0:
319,61,374728,2,0,P|330:118|337:159,1,87.72,2|0,2:0|1:2,2:0:0:0:
239,309,375073,1,6,1:3:0:0:
433,187,375245,1,10,2:0:0:0:
238,113,375418,1,2,2:0:0:0:
401,309,375590,54,0,P|408:265|417:222,1,87.72,2|0,1:2|1:2,2:0:0:0:
346,82,375935,1,10,2:0:0:0:
512,155,376107,1,2,2:0:0:0:
291,258,376280,1,2,1:2:0:0:
475,143,376452,1,6,1:3:0:0:
278,37,376625,1,10,2:0:0:0:
417,222,376797,54,0,P|371:168|241:192,1,175.44,6|10,1:2|1:3,2:0:0:0:
418,329,377314,1,10,2:0:0:0:
163,138,377487,2,0,P|181:233|195:322,1,175.44,2|4,1:2|1:3,2:0:0:0:
272,166,378004,1,10,2:0:0:0:
103,267,378176,1,2,2:0:0:0:
312,334,378349,53,0,1:2:0:0:
163,138,378521,1,0,1:2:0:0:
79,370,378694,2,0,B|134:345|189:320|189:320|217:340|249:360,1,175.44,8|0,2:0|1:2,2:0:0:0:
356,169,379211,1,6,1:3:0:0:
194,278,379383,1,10,2:0:0:0:
427,384,379556,54,0,P|479:332|445:215,1,175.44,6|10,1:2|1:3,2:0:0:0:
235,119,380073,2,0,P|243:162|251:205,1,87.72,10|0,2:0|2:0,2:0:0:0:
167,369,380418,1,2,1:2:0:0:
365,282,380590,1,4,1:3:0:0:
163,179,380763,1,10,2:0:0:0:
319,384,380935,54,0,P|326:340|335:297,1,87.72,2|0,2:0|1:2,2:0:0:0:
300,108,381280,1,2,1:2:0:0:
445,315,381452,2,0,P|437:271|428:228,1,87.72,8|0,2:0|2:0,2:0:0:0:
512,78,381797,1,0,1:2:0:0:
299,206,381969,1,6,1:3:0:0:
493,117,382142,1,8,2:0:0:0:
275,27,382314,1,2,2:0:0:0:
401,255,382487,53,6,1:2:0:0:
303,40,382659,1,2,1:2:0:0:
201,269,382832,1,10,2:0:0:0:
411,135,383004,1,2,2:0:0:0:
188,66,383176,1,2,1:2:0:0:
385,156,383349,1,6,1:3:0:0:
174,296,383521,1,8,2:0:0:0:
286,147,383694,1,2,2:0:0:0:
355,332,383866,54,0,P|306:346|255:362,1,87.72,12|0,2:0|1:2,2:0:0:0:
205,319,384125,1,0,1:2:0:0:
205,319,384211,2,0,P|210:288|217:250,1,43.86,8|8,2:0|2:0,2:0:0:0:
286,147,384383,2,0,P|294:190|302:233,1,87.72,4|0,1:2|2:0,2:0:0:0:
133,193,384728,1,8,2:0:0:0:
118,166,384814,1,8,2:0:0:0:
115,135,384900,1,8,2:0:0:0:
125,107,384987,1,8,2:0:0:0:
145,84,385073,54,0,B|201:55|244:98|219:109|268:146|330:112,1,175.44,6|10,1:2|1:3,2:0:0:0:
447,18,385590,1,10,2:0:0:0:
346,224,385763,2,0,P|338:180|329:137,1,87.72,2|0,2:0|1:2,2:0:0:0:
464,275,386107,1,6,1:3:0:0:
221,181,386280,1,10,2:0:0:0:
430,57,386452,1,2,2:0:0:0:
236,270,386625,54,0,P|243:226|252:183,1,87.72,2|0,1:2|1:2,2:0:0:0:
168,42,386969,1,10,2:0:0:0:
370,125,387142,1,2,2:0:0:0:
137,244,387314,1,2,1:2:0:0:
353,148,387487,1,6,1:3:0:0:
143,54,387659,1,10,2:0:0:0:
377,260,387832,54,0,P|434:208|409:91,1,175.44,6|10,1:2|1:3,2:0:0:0:
299,0,388349,1,10,2:0:0:0:
182,213,388521,2,0,P|269:192|377:167,1,175.44,2|4,2:0|1:3,2:0:0:0:
190,78,389038,1,10,2:0:0:0:
298,300,389211,1,2,2:0:0:0:
322,33,389383,53,0,1:2:0:0:
182,213,389556,1,0,1:2:0:0:
404,150,389728,2,0,P|372:94|255:98,1,175.44,8|0,2:0|1:2,2:0:0:0:
149,286,390245,1,6,1:3:0:0:
323,165,390418,1,10,2:0:0:0:
153,18,390590,54,0,B|122:47|102:61|102:61|139:115|157:169,1,175.44,6|10,1:2|1:3,2:0:0:0:
301,281,391107,1,8,2:0:0:0:
215,88,391280,2,0,P|206:131|198:174,1,87.72,2|0,2:0|1:2,2:0:0:0:
122,307,391625,1,6,1:3:0:0:
299,182,391797,1,8,2:0:0:0:
105,62,391969,54,0,P|113:105|121:148,1,87.72,2|0,2:0|1:2,2:0:0:0:
100,329,392314,1,0,1:2:0:0:
215,88,392487,1,10,2:0:0:0:
78,306,392659,2,0,P|70:262|61:219,1,87.72,2|0,2:0|1:2,2:0:0:0:
205,329,393004,1,6,1:3:0:0:
28,221,393176,1,10,2:0:0:0:
215,88,393349,54,0,B|272:61|313:107|287:116|334:156|398:125,1,175.44,6|8,1:2|1:3,2:0:0:0:
298,0,393866,1,10,2:0:0:0:
446,208,394038,2,0,P|453:164|462:121,1,87.72,2|0,2:0|1:2,2:0:0:0:
305,212,394383,1,2,1:2:0:0:
424,16,394556,1,10,2:0:0:0:
471,249,394728,1,2,1:2:0:0:
321,100,394900,54,0,P|329:143|337:186,1,87.72,12|0,2:0|1:2,2:0:0:0:
297,275,395159,1,0,1:2:0:0:
297,275,395245,2,0,P|265:265|236:260,1,43.86,8|8,2:0|2:0,2:0:0:0:
134,175,395418,2,0,P|175:162|218:150,1,87.72,4|0,1:2|2:0,2:0:0:0:
182,324,395763,1,8,2:0:0:0:
165,338,395849,1,8,2:0:0:0:
145,347,395935,1,8,2:0:0:0:
123,350,396021,1,8,2:3:0:0:
102,347,396107,1,4,2:3:0:0:
82,338,396194,1,4,2:3:0:0:
65,324,396280,54,0,P|73:281|81:238,1,87.72,6|0,1:2|2:0,2:0:0:0:
209,113,396625,1,10,2:0:0:0:
0,188,396797,1,2,1:2:0:0:
208,295,396969,2,0,P|200:252|192:209,1,87.72,10|0,2:0|1:2,2:0:0:0:
86,25,397314,54,0,P|78:68|70:111,1,87.72,14|0,2:0|2:0,2:0:0:0:
240,306,397659,2,0,P|232:263|224:220,1,87.72,8|0,2:0|1:0,2:0:0:0:
310,69,398004,1,10,2:0:0:0:
118,177,398176,1,2,1:2:0:0:
345,269,398349,1,10,2:0:0:0:
197,53,398521,1,2,1:2:0:0:
141,310,398694,1,8,2:0:0:0:
366,128,398866,54,0,P|325:115|282:103,1,87.72,6|0,1:2|2:0,2:0:0:0:
366,305,399211,1,2,1:2:0:0:
445,81,399383,1,10,2:0:0:0:
251,204,399556,1,2,1:2:0:0:
469,340,399728,2,0,P|477:297|485:254,1,87.72,10|0,2:0|1:2,2:0:0:0:
356,78,400073,1,10,2:0:0:0:
291,299,400245,1,2,1:2:0:0:
459,133,400418,54,0,P|418:120|375:108,1,87.72,8|0,2:0|2:0,2:0:0:0:
220,295,400763,2,0,P|261:281|304:269,1,87.72,8|0,2:0|1:2,2:0:0:0:
182,138,401107,1,8,2:0:0:0:
304,369,401280,1,2,1:2:0:0:
201,111,401452,1,10,2:0:0:0:
120,380,401625,54,0,P|57:352|64:232,1,175.44,6|2,1:2|1:2,2:0:0:0:
165,88,402142,1,10,2:0:0:0:
222,319,402314,2,0,P|180:305|137:293,1,87.72,2|8,1:2|2:0,2:0:0:0:
282,145,402659,1,2,1:2:0:0:
338,371,402832,1,10,2:0:0:0:
165,206,403004,54,0,P|173:163|181:120,1,87.72,2|8,1:2|2:0,2:0:0:0:
323,245,403349,1,2,1:2:0:0:
107,333,403521,1,10,2:0:0:0:
265,58,403694,2,0,P|273:101|281:144,1,87.72,2|8,1:2|2:0,2:0:0:0:
118,45,404038,1,2,1:2:0:0:
366,108,404211,1,10,2:0:0:0:
143,234,404383,1,2,1:2:0:0:
143,234,404469,1,0,1:2:0:0:
143,234,404556,54,0,P|185:245|227:259,1,87.72,14|0,2:0|1:2,2:0:0:0:
92,96,404900,53,10,2:0:0:0:
175,334,405073,1,2,1:2:0:0:
171,56,405245,53,10,2:0:0:0:
88,294,405418,1,0,1:2:0:0:
104,17,405590,53,10,2:0:0:0:
187,255,405763,1,2,1:2:0:0:
187,255,405849,1,0,1:2:0:0:
187,255,405935,53,8,2:0:0:0:
336,40,406107,1,2,1:2:0:0:
102,160,406280,53,8,2:0:0:0:
360,255,406452,1,2,1:2:0:0:
227,30,406625,53,8,2:0:0:0:
129,313,406797,1,0,1:2:0:0:
136,0,406969,53,12,2:0:0:0:
234,283,407142,1,0,1:2:0:0:
336,112,407314,54,0,P|301:121|258:132,1,61.92,6|0,1:2|2:0,2:0:0:0:
125,182,407659,2,0,P|154:189|184:197,1,61.92,2|0,2:0|2:0,2:0:0:0:
303,292,408004,2,0,P|298:260|288:215,1,61.92,2|0,2:0|2:0,2:0:0:0:
409,153,408349,2,0,P|402:183|397:213,1,61.92,2|0,2:0|2:0,2:0:0:0:
483,310,408694,21,6,1:2:0:0:
301,207,409038,1,2,2:0:0:0:
219,306,409211,1,4,2:3:0:0:
219,306,409297,1,4,2:3:0:0:
219,306,409383,2,0,P|189:313|159:321,1,61.92,6|0,2:3|2:0,2:0:0:0:
50,233,409728,6,0,L|58:189,1,35.26,14|0,2:3|2:0,2:0:0:0:
115,86,409906,1,8,2:0:0:0:
117,99,409995,1,8,2:0:0:0:
119,113,410084,6,0,B|175:84|218:127|193:138|242:175|304:141,2,175.44,6|8|0,1:2|2:0|1:2,2:0:0:0:
284,59,410956,1,0,2:0:0:0:
133,206,411130,1,10,2:0:0:0:
311,57,411304,1,2,2:0:0:0:
233,258,411479,54,0,P|225:215|217:172,1,87.7200000000001,2|0,1:2|2:0,2:0:0:0:
406,60,411828,2,0,P|398:103|390:146,1,87.7200000000001,10|0,2:0|2:0,2:0:0:0:
472,268,412177,1,2,1:2:0:0:
302,185,412351,1,0,2:0:0:0:
491,99,412525,2,0,P|499:142|507:185,1,87.7200000000001,10|0,2:0|2:0,2:0:0:0:
309,24,412874,86,0,P|238:33|196:120,1,175.44,2|8,1:2|2:0,2:0:0:0:
297,306,413397,1,2,2:0:0:0:
101,95,413572,2,0,P|109:138|117:181,1,87.7200000000001,2|0,1:2|2:0,2:0:0:0:
0,329,413921,2,0,P|8:286|16:243,1,87.7200000000001,8|0,2:0|2:0,2:0:0:0:
195,119,414270,38,0,P|240:128|294:140,1,87.7200000000001,2|0,1:2|2:0,2:0:0:0:
427,265,414618,2,0,P|382:274|328:286,1,87.7200000000001,10|0,2:0|1:2,2:0:0:0:
257,236,414880,1,0,1:2:0:0:
257,236,414967,2,0,P|249:279|241:322,1,87.7200000000001,2|0,1:2|2:0,2:0:0:0:
371,172,415316,1,10,2:0:0:0:
163,277,415490,1,8,2:0:0:0:
161,264,415578,1,8,2:0:0:0:
159,250,415665,86,0,B|104:266|60:236|87:222|36:188|-26:222,1,175.44,6|8,1:2|2:0,2:0:0:0:
162,361,416188,1,2,2:0:0:0:
82,146,416363,2,0,P|90:103|98:60,1,87.7200000000001,2|0,1:2|2:0,2:0:0:0:
348,216,416711,2,0,P|340:173|332:130,1,87.7200000000001,8|0,2:0|1:2,2:0:0:0:
267,81,416973,1,0,1:2:0:0:
267,81,417060,70,0,P|312:35|424:82,1,175.44,2|8,1:2|2:0,2:0:0:0:
329,255,417584,1,2,2:0:0:0:
167,123,417758,2,0,P|175:80|183:37,1,87.7200000000001,2|0,1:2|2:0,2:0:0:0:
416,178,418107,2,0,P|408:135|400:92,1,87.7200000000001,8|0,2:0|2:0,2:0:0:0:
219,329,418456,54,0,B|158:305|114:288|114:288|89:308|63:327,1,175.44,6|8,1:2|2:0,2:0:0:0:
198,157,418979,1,2,2:0:0:0:
301,373,419153,2,0,P|343:363|386:355,1,87.7200000000001,2|0,1:2|1:2,2:0:0:0:
502,166,419502,2,0,P|459:156|416:148,1,87.7200000000001,12|0,2:0|2:0,2:0:0:0:
257,36,419851,85,2,1:2:0:0:
343,258,420025,1,0,1:2:0:0:
450,54,420200,2,0,P|406:62|364:71,1,87.7200000000001,14|8,2:0|2:0,2:0:0:0:
276,102,420461,1,8,2:0:0:0:
276,102,420549,2,0,L|287:43,3,43.86,10|0|0|0,2:0|1:2|1:2|1:2,2:0:0:0:
122,16,420897,2,0,L|130:59,3,43.86,10|0|0|0,2:0|1:2|1:2|1:2,2:0:0:0:
75,124,421246,38,0,P|67:167|59:210,1,87.7200000000001,6|0,1:2|2:0,2:0:0:0:
298,312,421595,2,0,P|290:269|282:226,1,87.7200000000001,8|0,2:0|2:0,2:0:0:0:
363,71,421944,1,2,1:2:0:0:
158,173,422118,1,2,2:0:0:0:
396,272,422293,1,10,2:0:0:0:
247,47,422467,1,2,1:2:0:0:
247,47,422554,1,0,1:2:0:0:
247,47,422642,86,0,P|203:55|161:64,1,87.7200000000001,0|0,1:2|2:0,2:0:0:0:
20,219,422990,2,0,P|63:226|106:236,1,87.7200000000001,8|0,2:0|2:0,2:0:0:0:
293,152,423339,1,2,1:2:0:0:
167,351,423514,1,2,1:2:0:0:
96,130,423688,1,10,2:0:0:0:
290,304,423863,1,2,1:2:0:0:
290,304,423950,1,0,1:2:0:0:
290,304,424037,70,0,P|282:261|274:218,1,87.7200000000001,4|8,1:2|2:0,2:0:0:0:
246,136,424299,1,8,2:0:0:0:
246,136,424386,2,0,L|309:148,1,43.86,8|8,2:0|2:0,2:0:0:0:
396,188,424560,2,0,L|333:200,1,43.86,2|0,1:2|1:2,2:0:0:0:
334,42,424735,1,10,2:0:0:0:
350,56,424822,1,0,1:2:0:0:
361,75,424909,1,2,1:2:0:0:
365,96,424996,1,0,1:2:0:0:
363,118,425084,2,0,L|319:109,3,43.86,10|4|6|4,2:3|2:3|2:3|2:3,2:0:0:0:
260,51,425432,53,12,2:0:0:0:
347,293,425607,1,0,1:2:0:0:
337,19,425781,85,8,2:0:0:0:
250,261,425956,1,0,1:2:0:0:
126,37,426130,37,10,2:0:0:0:
380,137,426304,1,0,1:2:0:0:
116,308,426479,85,10,2:0:0:0:
235,84,426653,1,2,1:2:0:0:
235,84,426740,1,0,1:2:0:0:
235,84,426828,70,0,P|291:139|263:256,1,175.44,4|8,1:2|2:0,2:0:0:0:
91,186,427351,1,0,1:2:0:0:
91,186,427438,1,0,1:2:0:0:
91,186,427525,2,0,P|133:176|177:168,1,87.7200000000001,2|0,1:2|2:0,2:0:0:0:
47,318,427874,1,10,2:0:0:0:
140,87,428049,1,2,2:0:0:0:
236,303,428223,54,0,P|193:293|149:285,1,87.7200000000001,0|0,1:2|2:0,2:0:0:0:
338,37,428572,2,0,P|346:80|354:123,1,87.7200000000001,8|0,2:0|1:2,2:0:0:0:
339,208,428834,1,0,1:2:0:0:
339,208,428921,2,0,P|381:198|425:190,1,87.7200000000001,2|0,1:2|2:0,2:0:0:0:
265,73,429270,1,10,2:0:0:0:
391,286,429444,1,2,2:0:0:0:
183,118,429618,86,0,P|175:161|167:204,1,87.7200000000001,4|0,1:2|2:0,2:0:0:0:
364,109,429967,2,0,P|356:66|348:23,1,87.7200000000001,8|0,2:0|2:0,2:0:0:0:
275,234,430316,2,0,P|318:241|360:251,1,87.7200000000001,2|0,1:2|2:0,2:0:0:0:
170,298,430665,1,10,2:0:0:0:
419,183,430839,1,2,2:0:0:0:
228,77,431014,37,10,2:0:0:0:
228,77,431101,1,0,1:2:0:0:
228,77,431188,2,0,P|234:111|242:150,1,43.86,0|0,1:2|1:2,2:0:0:0:
326,208,431363,1,10,2:0:0:0:
326,208,431450,1,0,1:2:0:0:
326,208,431537,2,0,P|332:174|340:135,1,43.86,0|0,1:2|1:2,2:0:0:0:
218,276,431711,2,0,P|196:271|174:268,3,43.86,10|0|0|0,2:0|1:2|1:2|1:2,2:0:0:0:
144,197,432060,1,10,2:0:0:0:
118,203,432147,1,8,2:0:0:0:
92,209,432235,1,8,2:0:0:0:
67,215,432322,1,8,2:0:0:0:
41,221,432409,86,0,P|49:178|57:135,1,87.7200000000001,6|0,1:2|2:0,2:0:0:0:
232,0,432758,2,0,P|240:43|248:86,1,87.7200000000001,8|0,2:0|1:2,2:0:0:0:
389,279,433107,1,10,2:0:0:0:
149,171,433281,1,2,1:2:0:0:
372,32,433456,1,10,2:0:0:0:
199,273,433630,1,2,1:2:0:0:
199,273,433717,1,0,1:2:0:0:
199,273,433804,70,0,P|191:230|183:187,1,87.7200000000001,8|0,2:0|1:2,2:0:0:0:
399,55,434153,2,0,P|391:98|383:141,1,87.7200000000001,8|0,2:0|1:2,2:0:0:0:
458,315,434502,1,10,2:0:0:0:
275,218,434677,1,2,1:2:0:0:
483,100,434851,1,10,2:0:0:0:
314,334,435025,1,2,1:2:0:0:
314,334,435113,1,0,1:2:0:0:
314,334,435200,54,0,P|306:291|298:248,1,87.7200000000001,12|0,2:0|1:2,2:0:0:0:
182,62,435549,2,0,P|174:105|166:148,1,87.7200000000001,8|2,2:0|1:2,2:0:0:0:
50,314,435897,1,10,2:0:0:0:
275,224,436072,1,2,1:2:0:0:
91,84,436246,1,10,2:0:0:0:
212,327,436421,1,2,1:2:0:0:
312,70,436595,86,0,P|268:77|226:87,1,87.7200000000001,10|0,2:0|1:2,2:0:0:0:
163,170,436857,1,0,1:2:0:0:
163,170,436944,2,0,P|206:177|248:187,1,87.7200000000001,14|0,2:0|1:2,2:0:0:0:
379,288,437293,1,10,2:0:0:0:
396,263,437380,1,8,2:3:0:0:
403,233,437467,1,8,2:3:0:0:
398,203,437554,1,8,2:3:0:0:
382,178,437642,2,0,P|357:186|335:194,3,43.86,6|4|4|4,2:3|2:3|2:3|2:3,2:0:0:0:
286,314,437990,37,14,2:0:0:0:
391,79,438165,1,0,1:2:0:0:
410,348,438339,85,8,2:0:0:0:
305,113,438514,1,0,1:2:0:0:
212,375,438688,69,10,2:0:0:0:
434,214,438863,1,0,1:2:0:0:
181,79,439037,53,10,2:0:0:0:
286,314,439211,1,2,1:2:0:0:
283,35,439386,85,8,2:0:0:0:
178,270,439560,1,0,1:2:0:0:
85,28,439735,37,8,2:0:0:0:
332,143,439909,1,0,1:2:0:0:
81,302,440084,85,10,2:0:0:0:
186,67,440258,1,0,1:2:0:0:
210,340,440432,69,10,2:0:0:0:
113,112,440607,1,2,1:2:0:0:
113,112,440694,1,0,1:2:0:0:
113,112,440781,54,0,P|105:155|97:198,1,87.7200000000001,12|0,2:0|2:0,2:0:0:0:
298,329,441130,1,8,1:2:0:0:
204,156,441304,1,8,1:2:0:0:
126,352,441479,1,8,1:2:0:0:
348,197,441653,1,8,1:2:0:0:
144,70,441828,1,8,1:2:0:0:
313,374,442002,1,8,1:2:0:0:
512,148,442177,86,0,L|500:91,3,43.86,10|0|0|0,1:2|1:2|1:2|1:2,1:2:0:0:
327,235,442525,2,0,L|339:178,3,43.86,10|0|0|0,1:2|1:2|1:2|1:2,1:2:0:0:
441,293,442874,1,10,1:2:0:0:
456,262,442961,1,8,1:2:0:0:
458,228,443049,1,8,1:2:0:0:
447,194,443136,1,8,1:2:0:0:
426,168,443223,1,8,1:2:0:0:
404,141,443310,1,8,1:2:0:0:
393,107,443397,1,8,1:2:0:0:
396,73,443485,1,8,1:2:0:0:
411,42,443572,1,12,1:2:0:0:
256,192,443659,12,4,447060,2:3:0:0:
