osu file format v14

[General]
AudioFilename: audio.mp3
AudioLeadIn: 0
PreviewTime: 525824
Countdown: 0
SampleSet: None
StackLeniency: 0.7
Mode: 0
LetterboxInBreaks: 0
EpilepsyWarning: 1
WidescreenStoryboard: 1

[Editor]
Bookmarks: 217962,262811
DistanceSpacing: 2
BeatDivisor: 4
GridSize: 4
TimelineZoom: 3.399999

[Metadata]
Title:Song Compilation
TitleUnicode:Song Compilation
Artist:Various Artists
ArtistUnicode:Various Artists
Creator:-C O N T R A L-
Version:God of Beats
Source:
Tags:waiting for the rain gakusen toshi asterisk kawaiwkyik Maaya Sakamoto Aoi Eir sword art online ii sao ignite misokkasu rising rainbow shokugeki no souma SawanoHiroyuki[nZk]:mizuki aliez AldNoah.Zero High Free Spirits TrySail high school fleet best friends fujijo seitokai shikkou-bu love lab
BeatmapID:1360123
BeatmapSetID:641432

[Difficulty]
HPDrainRate:7
CircleSize:4
OverallDifficulty:8.3
ApproachRate:9.3
SliderMultiplier:1.6
SliderTickRate:1

[Events]
//Background and Video events
0,0,"BG.jpg",0,0
//Break Periods
2,111487,120050
2,154358,161457
2,199026,209151
2,249601,259677
2,300430,306952
//Storyboard Layer 0 (Background)
//Storyboard Layer 1 (Fail)
//Storyboard Layer 2 (Pass)
//Storyboard Layer 3 (Foreground)
//Storyboard Sound Samples

[TimingPoints]
742,363.636363636364,4,2,1,20,1,0
742,-200,4,2,1,20,0,0
24014,-200,4,2,1,25,0,0
47287,-200,4,2,1,30,0,0
53832,-200,4,2,1,30,0,0
61105,-200,4,2,1,40,0,0
64014,-200,4,2,1,60,0,0
65651,-200,4,2,1,80,0,0
69832,-200,4,2,1,90,0,0
70560,-105.263157894737,4,2,1,100,0,1
70742,-100,4,2,1,80,0,1
71287,-100,4,2,1,80,0,1
96832,-100,4,2,1,40,0,0
103832,-200,4,2,1,40,0,0
104923,-200,4,2,1,30,0,0
108378,-200,4,2,1,25,0,0
109105,-200,4,2,1,20,0,0
109832,-200,4,2,1,15,0,0
110560,-200,4,2,1,10,0,0
111287,-200,4,2,1,5,0,0
120650,350.877192982456,4,2,1,80,1,0
120651,-90.9090909090909,4,2,1,80,0,1
151527,-90.9090909090909,4,2,1,80,0,0
162057,307.692307692308,4,2,2,30,1,0
162057,-83.3333333333333,4,2,2,30,0,0
162133,-83.3333333333333,4,2,2,32,0,0
162210,-83.3333333333333,4,2,2,34,0,0
162287,-83.3333333333333,4,2,2,36,0,0
162364,-83.3333333333333,4,2,2,38,0,0
162518,-83.3333333333333,4,2,2,40,0,0
162595,-83.3333333333333,4,2,2,42,0,0
162672,-83.3333333333333,4,2,2,44,0,0
162749,-83.3333333333333,4,2,2,46,0,0
162826,-83.3333333333333,4,2,2,48,0,0
162980,-83.3333333333333,4,2,2,50,0,0
163057,-83.3333333333333,4,2,2,52,0,0
163133,-83.3333333333333,4,2,2,54,0,0
163210,-83.3333333333333,4,2,2,56,0,0
163287,-83.3333333333333,4,2,2,58,0,0
163441,-83.3333333333333,4,2,2,60,0,0
163518,-83.3333333333333,4,2,2,62,0,0
163595,-83.3333333333333,4,2,2,64,0,0
163672,-83.3333333333333,4,2,2,66,0,0
163749,-83.3333333333333,4,2,2,68,0,0
163903,-83.3333333333333,4,2,2,70,0,0
163980,-83.3333333333333,4,2,2,73,0,0
164057,-83.3333333333333,4,2,2,76,0,0
164133,-83.3333333333333,4,2,2,79,0,0
164210,-100,4,2,2,80,0,0
164518,-83.3333333333333,4,2,2,80,0,0
166980,-83.3333333333333,4,2,2,80,0,1
186057,-111.111111111111,4,2,2,40,0,0
186672,-83.3333333333333,4,2,2,80,0,0
205766,303.030303030303,4,2,1,100,1,0
209705,-133.333333333333,4,2,5,45,0,0
210614,-80,4,2,5,80,0,1
249402,-80,4,2,5,90,0,0
260231,322.58064516129,4,2,1,70,1,0
260231,-83.3333333333333,4,2,1,70,0,0
262650,-83.3333333333333,4,2,1,80,0,1
297972,-83.3333333333333,4,2,1,60,0,0
298618,-83.3333333333333,4,2,1,40,0,0
299263,-83.3333333333333,4,2,1,20,0,0
299908,-83.3333333333333,4,2,1,10,0,0
300230,-83.3333333333333,4,2,1,5,0,0
306770,368.098159509202,4,2,1,60,1,0
307506,-111.111111111111,4,2,1,60,0,0
312475,-111.111111111111,4,2,1,75,0,0
315236,-76.9230769230769,4,2,1,75,0,0
315604,-111.111111111111,4,2,1,75,0,0
316708,-76.9230769230769,4,2,1,75,0,0
317076,-111.111111111111,4,2,1,75,0,0
334745,-111.111111111111,4,2,1,40,0,0
335297,-111.111111111111,4,2,1,50,0,0
335849,-111.111111111111,4,2,1,60,0,0
336217,-111.111111111111,4,2,1,65,0,0
336769,-111.111111111111,4,2,1,70,0,0
337322,-111.111111111111,4,2,1,75,0,0
337690,-111.111111111111,4,2,1,80,0,0
338242,-111.111111111111,4,2,1,85,0,0
363406,298.507462686567,4,2,1,100,1,0
410880,357.142857142857,4,2,1,100,1,0
462685,422.535211267606,4,2,1,100,1,0
514440,307.692307692308,4,2,1,100,1,0
567634,326.086956521739,4,2,1,100,1,0
619606,288.461538461538,4,2,1,60,1,0
619606,-76.9230769230769,4,2,1,60,0,0
620038,-100,4,2,1,60,0,0
620759,-90.9090909090909,4,2,1,60,0,0
623067,-83.3333333333333,4,2,1,60,0,0
626817,-100,4,2,1,60,0,0
627106,-83.3333333333333,4,2,1,60,0,0
627322,-83.3333333333333,4,2,1,5,0,0
627394,-83.3333333333333,4,2,1,60,0,0
627610,-83.3333333333333,4,2,1,5,0,0
627682,-83.3333333333333,4,2,1,60,0,0
632154,-71.4285714285714,4,2,1,80,0,1
636769,-71.4285714285714,4,2,1,80,0,0
638283,-71.4285714285714,4,2,1,5,0,0
638356,-71.4285714285714,4,2,1,80,0,0
638572,-71.4285714285714,4,2,1,5,0,0
638644,-71.4285714285714,4,2,1,80,0,0
639293,-71.4285714285714,4,2,1,5,0,0
639365,-71.4285714285714,4,2,1,80,0,0
641384,-71.4285714285714,4,2,1,80,0,1
646144,-71.4285714285714,4,2,1,80,0,0
647514,-71.4285714285714,4,2,1,5,0,0
647586,-71.4285714285714,4,2,1,80,0,0
650759,-66.6666666666667,4,2,1,80,0,1
655375,-66.6666666666667,4,2,1,80,0,0
656384,-100,4,2,1,80,0,1
659413,-100,4,2,1,5,0,1

[Colours]
Combo1 : 12,64,243
Combo2 : 128,6,0
Combo3 : 141,123,196
Combo4 : 253,255,255

[HitObjects]
40,88,742,6,0,L|82:118,1,40,2|0,0:0|0:0,0:0:0:0:
136,63,1105,2,0,L|163:109,1,40
227,82,1469,1,2,0:0:0:0:
207,151,1651,1,0,0:0:0:0:
155,201,1832,1,0,0:0:0:0:
87,226,2014,1,2,0:0:0:0:
63,128,2196,6,0,L|104:153,1,40,2|0,0:0|0:0,0:0:0:0:
145,284,2560,2,0,L|100:315,1,40
278,327,2923,1,2,0:0:0:0:
344,299,3105,1,0,0:0:0:0:
392,245,3287,1,0,0:0:0:0:
416,177,3469,1,2,0:0:0:0:
219,101,3651,6,0,L|256:116,1,40,2|0,0:0|0:0,0:0:0:0:
312,222,4014,2,0,L|272:227,1,40
111,102,4378,1,2,0:0:0:0:
157,47,4560,1,0,0:0:0:0:
223,18,4742,1,0,0:0:0:0:
297,27,4923,1,2,0:0:0:0:
405,171,5105,6,0,L|361:198,1,40,2|0,0:0|0:0,0:0:0:0:
220,181,5469,2,0,L|197:215,1,40
391,294,5832,1,2,0:0:0:0:
331,254,6014,1,0,0:0:0:0:
296,190,6196,1,0,0:0:0:0:
288,118,6378,1,2,0:0:0:0:
81,68,6560,6,0,L|131:92,1,40,2|0,0:0|0:0,0:0:0:0:
93,173,6923,2,0,L|113:216,1,40
64,306,7287,2,0,P|112:321|152:302,1,80,2|0,0:0|0:0,0:0:0:0:
138,312,7832,1,0,0:0:0:0:
128,232,8014,2,0,P|188:285|259:321,1,160,2|2,0:0|0:0,0:0:0:0:
358,131,9105,6,0,L|311:149,2,40,0|0|2,0:0|0:0|0:0,0:0:0:0:
429,150,9650,1,0,0:0:0:0:
496,174,9832,2,0,P|481:201|468:212,1,40
406,284,10195,2,0,P|376:279|362:270,1,40,2|0,0:0|0:0,0:0:0:0:
189,124,10559,1,0,0:0:0:0:
189,124,10741,1,2,0:0:0:0:
103,69,10923,6,0,L|119:115,1,40,2|0,0:0|0:0,0:0:0:0:
255,161,11286,2,0,L|241:208,1,40
297,247,11651,1,2,0:0:0:0:
245,297,11832,1,0,0:0:0:0:
176,319,12014,1,0,0:0:0:0:
104,327,12196,1,2,0:0:0:0:
105,228,12378,6,0,L|139:259,1,40,2|0,0:0|0:0,0:0:0:0:
284,364,12742,2,0,L|329:343,1,40
454,292,13105,2,0,P|415:269|374:259,1,80,2|0,0:0|0:0,0:0:0:0:
328,210,13651,1,0,0:0:0:0:
370,142,13832,2,0,P|294:134|245:196,1,160,2|2,0:0|0:0,0:0:0:0:
123,44,14923,2,0,L|160:78,1,40
224,67,15286,5,2,0:0:0:0:
264,126,15468,1,0,0:0:0:0:
322,167,15650,1,0,0:0:0:0:
391,187,15832,1,0,0:0:0:0:
473,47,16013,2,0,L|432:65,1,40,2|0,0:0|0:0,0:0:0:0:
207,70,16377,2,0,L|238:105,1,40,0|2,0:0|0:0,0:0:0:0:
204,166,16741,5,2,0:0:0:0:
225,234,16923,1,0,0:0:0:0:
277,283,17105,1,0,0:0:0:0:
344,307,17287,1,0,0:0:0:0:
415,312,17469,2,0,P|447:310|466:303,1,40,2|0,0:0|0:0,0:0:0:0:
152,228,17832,2,0,P|120:225|108:227,1,40,0|2,0:0|0:0,0:0:0:0:
358,199,18196,6,0,P|377:197|397:200,1,40,2|0,0:0|0:0,0:0:0:0:
327,129,18560,2,0,P|343:117|362:110,1,40
282,50,18923,2,0,P|269:65|260:83,1,40,2|0,0:0|0:0,0:0:0:0:
211,232,19287,1,0,0:0:0:0:
186,299,19469,1,2,0:0:0:0:
140,243,19651,6,0,P|113:230|100:214,1,40,2|0,0:0|0:0,0:0:0:0:
258,288,20014,2,0,P|287:288|306:297,1,40
453,205,20378,1,2,0:0:0:0:
394,163,20560,1,0,0:0:0:0:
324,142,20742,1,0,0:0:0:0:
252,151,20923,1,2,0:0:0:0:
26,182,21105,6,0,L|62:209,1,40,2|0,0:0|0:0,0:0:0:0:
95,304,21469,2,0,L|145:313,1,40
206,312,21832,1,2,0:0:0:0:
274,290,22014,1,0,0:0:0:0:
330,245,22196,1,0,0:0:0:0:
359,179,22378,1,2,0:0:0:0:
111,132,22560,5,2,0:0:0:0:
136,198,22742,1,0,0:0:0:0:
189,246,22923,1,0,0:0:0:0:
260,261,23105,1,0,0:0:0:0:
461,215,23287,5,2,0:0:0:0:
422,275,23469,1,0,0:0:0:0:
361,313,23651,1,0,0:0:0:0:
290,328,23832,1,2,0:0:0:0:
78,214,24014,5,2,0:0:0:0:
225,97,24196,1,0,0:0:0:0:
402,247,24378,1,2,0:0:0:0:
179,90,25287,5,0,0:0:0:0:
179,90,25469,2,0,P|240:77|292:104,1,120,2|0,0:0|0:0,0:0:0:0:
361,69,26196,2,0,P|333:118|353:179,1,120,2|0,0:0|0:0,0:0:0:0:
350,175,26923,2,0,P|252:191|317:265,1,240,2|0,0:0|0:0,0:0:0:0:
56,219,29105,6,0,B|83:197|83:197|102:227|214:215,1,160,2|2,0:0|0:0,0:0:0:0:
219,133,30014,5,0,0:0:0:0:
349,291,30196,1,2,0:0:0:0:
344,113,31105,1,0,0:0:0:0:
344,113,31287,2,0,P|312:160|237:173,1,120,2|0,0:0|0:0,0:0:0:0:
180,142,32014,2,0,P|175:199|229:247,1,120,2|0,0:0|0:0,0:0:0:0:
215,242,32742,6,0,P|142:235|82:170,1,160,2|0,0:0|0:0,0:0:0:0:
201,91,33832,1,0,0:0:0:0:
359,90,34196,2,0,B|276:112|280:73|199:91,1,160,2|2,0:0|0:0,0:0:0:0:
332,208,35651,5,2,0:0:0:0:
283,104,35832,1,0,0:0:0:0:
192,307,36014,1,2,0:0:0:0:
394,122,36923,1,0,0:0:0:0:
394,122,37105,2,0,P|339:162|284:147,1,120,2|0,0:0|0:0,0:0:0:0:
225,103,37832,2,0,P|251:161|239:218,1,120,2|0,0:0|0:0,0:0:0:0:
143,232,38560,6,0,B|214:222|276:258|293:357|413:286|459:275,1,320,2|0,0:0|0:0,0:0:0:0:
174,199,41105,1,2,0:0:0:0:
193,128,41287,1,0,0:0:0:0:
266,127,41469,6,0,P|206:58|176:200,1,320,2|0,0:0|0:0,0:0:0:0:
256,192,44378,12,0,47105,0:0:0:0:
125,275,47287,6,0,B|201:283|255:233|255:233|255:233|302:326|398:278|399:216,1,320,2|2,0:0|0:0,0:0:0:0:
421,62,50196,2,0,B|356:111|354:185|354:185|312:110|200:136,1,320,2|2,0:0|0:0,0:0:0:0:
182,138,52378,2,0,P|244:186|231:260,1,160,2|2,0:0|0:0,0:0:0:0:
159,218,53832,5,2,0:0:0:0:
381,189,54560,1,2,0:0:0:0:
244,11,55287,1,2,0:0:0:0:
70,154,56014,6,0,B|46:145|24:164|16:208|46:241|96:229|96:229|164:205|168:268|261:208,1,320,2|0,0:0|0:0,0:3:0:0:
227,105,58196,5,2,0:0:0:0:
313,152,58560,1,0,0:0:0:0:
369,221,58923,2,0,P|297:246|236:200,1,160,0|2,0:0|0:0,0:0:0:0:
135,231,61105,5,2,0:0:0:0:
69,140,61469,1,0,0:0:0:0:
165,83,61832,2,0,B|219:100|287:68|290:20|290:20|348:89|353:167,1,320,2|0,0:0|0:0,0:0:0:0:
354,227,64014,5,2,0:0:0:0:
245,295,64378,1,0,0:0:0:0:
140,220,64742,2,0,P|186:263|158:351,1,160,2|0,0:0|0:0,0:0:0:0:
109,290,65719,6,0,L|89:290,2,20,0|0|8,0:0|0:0|0:3,0:0:0:0:
263,271,66378,1,8,0:3:0:0:
149,113,66560,1,8,0:3:0:0:
252,255,66923,1,8,0:3:0:0:
59,259,67469,5,0,0:0:0:0:
59,259,67560,1,8,0:3:0:0:
59,259,67651,1,8,0:0:0:0:
112,318,67832,2,0,L|206:335,1,80,8|8,0:3|0:0,0:0:0:0:
405,253,68560,2,8,L|311:270,1,80,8|8,0:3|0:0,0:0:0:0:
259,223,69105,5,8,0:0:0:0:
155,85,69287,1,8,0:3:0:0:
398,121,69469,1,8,0:3:0:0:
253,251,69651,1,8,0:3:0:0:
74,349,69832,5,12,0:0:0:0:
375,279,70014,1,8,0:3:0:0:
69,212,70196,1,4,0:3:0:0:
430,112,70378,1,8,0:3:0:0:
210,207,70560,6,0,B|139:182|160:113|205:159|245:189|301:192|331:167,1,227.999993911743,4|0,0:1|0:0,0:0:0:0:
251,308,71287,1,8,0:0:0:0:
288,322,71378,1,0,0:0:0:0:
327,327,71469,1,2,0:0:0:0:
367,326,71560,1,0,0:0:0:0:
402,307,71651,2,0,B|425:278|458:262|458:262|391:243|351:220,1,160,6|0,0:0|0:0,0:0:0:0:
137,254,72378,5,0,0:0:0:0:
220,166,72560,1,0,0:0:0:0:
220,166,72651,1,0,0:0:0:0:
220,166,72742,2,0,L|236:73,1,80,8|0,0:0|0:0,0:0:0:0:
301,261,73105,2,0,L|259:329,1,80
481,187,73469,6,0,P|393:151|408:91,1,160,2|0,0:0|0:0,0:0:0:0:
355,35,74014,1,0,0:0:0:0:
220,111,74196,2,0,P|245:79|277:55,1,80,8|0,0:0|0:0,0:0:0:0:
126,39,74560,2,0,P|102:103|97:201,1,160,2|0,0:0|0:0,0:0:0:0:
397,149,75287,5,0,0:0:0:0:
289,52,75469,1,0,0:0:0:0:
236,186,75651,1,8,0:0:0:0:
399,225,75832,1,0,0:0:0:0:
364,79,76014,1,0,0:0:0:0:
123,159,76196,1,0,0:0:0:0:
353,223,76378,6,0,B|372:226|400:224|400:224|334:273|277:282,1,160,2|0,0:0|0:0,0:0:0:0:
238,332,76832,1,0,0:0:0:0:
238,332,76923,2,0,L|167:339,1,40
128,288,77105,1,8,0:0:0:0:
329,201,77287,1,8,0:3:0:0:
236,90,77469,1,0,0:0:0:0:
236,90,77560,1,0,0:0:0:0:
236,90,77651,1,0,0:0:0:0:
426,199,77832,6,0,P|369:286|245:256,1,240
329,201,78560,2,0,P|340:289|285:350,1,160,8|0,0:0|0:0,0:0:0:0:
200,237,79105,1,0,0:0:0:0:
105,128,79287,2,0,B|125:137|125:137|146:123|181:103|224:105|264:126,1,160,2|0,0:0|0:0,0:0:0:0:
399,113,79832,1,0,0:0:0:0:
399,113,80014,1,8,0:0:0:0:
128,191,80378,6,0,P|154:267|200:211,1,160,2|0,0:0|0:0,0:0:0:0:
217,340,80923,2,0,P|270:298|378:286,1,160,8|8,0:3|0:3,0:0:0:0:
433,329,81469,1,12,0:0:0:0:
207,233,81651,1,0,0:0:0:0:
390,174,81832,1,0,0:0:0:0:
98,100,82014,1,0,0:0:0:0:
292,105,82196,6,0,B|318:102|337:94|337:94|324:148|268:189,1,160,4|0,0:1|0:0,0:0:0:0:
241,208,82651,1,0,0:0:0:0:
216,239,82742,1,0,0:0:0:0:
206,277,82832,1,0,0:0:0:0:
219,314,82923,1,8,0:0:0:0:
253,334,83014,1,0,0:0:0:0:
292,340,83105,1,0,0:0:0:0:
330,329,83196,1,0,0:0:0:0:
363,307,83287,6,0,B|411:257|387:214|436:166,1,160,4|0,0:0|0:0,0:0:0:0:
128,114,84014,2,0,L|82:77,3,40,0|2|2|2,0:0|0:0|0:0|0:0,0:0:0:0:
143,126,84378,2,0,P|214:83|302:100,1,160,8|0,0:0|0:0,0:0:0:0:
350,337,85105,6,0,P|305:258|417:202,1,240,2|0,0:0|0:0,0:0:0:0:
382,268,85832,2,0,B|320:243|320:243|259:257|259:257|205:233,1,160,8|2,0:0|0:0,0:0:0:0:
68,184,86560,2,0,P|111:267|163:315,1,160
279,284,87105,5,0,0:0:0:0:
212,84,87287,1,8,0:0:0:0:
349,337,87469,1,0,0:0:0:0:
437,124,87651,1,0,0:0:0:0:
184,335,87832,1,0,0:0:0:0:
129,184,88014,6,0,P|115:120|65:27,1,160,6|0,0:1|0:0,0:0:0:0:
9,123,88560,1,0,0:0:0:0:
220,147,88742,1,8,0:0:0:0:
0,340,88923,1,0,0:0:0:0:
244,286,89105,2,0,B|330:247|300:210|396:165,2,160,6|0|0,0:0|0:0|0:0,0:0:0:0:
376,283,90196,2,0,B|427:203|381:188|437:98,1,160,8|0,0:0|0:0,0:0:0:0:
419,130,90923,6,0,P|305:122|414:31,1,320,6|8,0:0|0:0,0:0:0:0:
95,124,92378,2,0,P|118:198|184:241,1,160,2|0,0:1|0:0,0:0:0:0:
184,241,92923,1,0,0:0:0:0:
389,201,93105,1,8,0:0:0:0:
198,137,93287,1,0,0:0:0:0:
417,57,93469,1,0,0:0:0:0:
182,143,93651,1,0,0:0:0:0:
50,221,93832,6,0,P|106:304|170:338,1,160,6|0,0:1|0:0,0:0:0:0:
359,150,94560,1,8,0:0:0:0:
110,40,94923,1,8,0:3:0:0:
50,116,95105,1,8,0:3:0:0:
175,357,95469,1,0,0:0:0:0:
418,92,96014,5,8,0:0:0:0:
318,288,96378,1,0,0:0:0:0:
198,103,96742,1,4,0:0:0:0:
256,192,96832,12,0,102560,0:0:0:0:
122,151,103832,5,0,0:0:0:0:
122,151,104014,2,0,P|162:120|233:129,1,120,2|0,0:0|0:0,0:0:0:0:
247,287,104923,2,0,P|198:255|186:198,1,120,2|0,0:0|0:0,0:0:0:0:
267,208,105832,6,0,B|343:184|298:148|398:115,1,160,2|0,0:0|0:0,0:0:0:0:
256,192,106651,12,4,111287,0:0:0:0:
87,211,120650,6,0,L|156:267,1,80,4|0,0:0|0:0,0:0:0:0:
283,240,121000,1,8,0:0:0:0:
126,350,121176,1,0,0:0:0:0:
390,290,121351,2,0,L|353:208,1,88.000002685547
416,148,121701,1,8,0:0:0:0:
226,169,121877,1,0,0:0:0:0:
107,42,122053,6,0,P|113:100|149:134,1,88.000002685547
298,251,122404,2,0,P|262:278|213:279,1,88.000002685547,8|0,0:0|0:0,0:0:0:0:
91,204,122755,1,0,0:0:0:0:
203,64,122930,1,0,0:0:0:0:
367,143,123106,2,0,L|295:207,1,88.000002685547,8|0,0:0|0:0,0:0:0:0:
116,248,123457,2,0,P|166:309|267:315,1,176.000005371094,4|8,0:0|0:0,0:0:0:0:
255,93,123983,1,0,0:0:0:0:
118,69,124158,6,0,P|96:114|103:161,1,88.000002685547
189,270,124509,1,8,0:0:0:0:
359,217,124685,1,0,0:0:0:0:
271,96,124860,2,0,L|228:183,1,88.000002685547
7,151,125211,2,0,B|8:208|74:239,1,88.000002685547,8|0,0:0|0:0,0:0:0:0:
341,203,125562,1,0,0:0:0:0:
104,145,125737,1,0,0:0:0:0:
373,191,125913,1,8,0:0:0:0:
456,246,126088,5,0,0:0:0:0:
456,246,126176,1,0,0:0:0:0:
456,246,126264,2,0,P|418:280|370:289,1,88.000002685547,4|0,0:0|0:0,0:0:0:0:
246,348,126614,1,8,0:0:0:0:
169,218,126790,1,0,0:0:0:0:
22,245,126965,2,0,P|58:273|102:288,1,88.000002685547
285,243,127316,1,8,0:0:0:0:
169,100,127492,1,0,0:0:0:0:
313,64,127667,6,0,P|344:98|390:117,1,88.000002685547
452,247,128018,1,8,0:0:0:0:
251,276,128193,1,0,0:0:0:0:
111,216,128369,2,0,P|136:173|176:150,1,88.000002685547
292,236,128720,1,8,0:0:0:0:
306,262,128807,1,0,0:0:0:0:
330,280,128895,1,0,0:0:0:0:
359,288,128983,1,0,0:0:0:0:
389,285,129071,5,4,0:0:0:0:
412,101,129246,1,0,0:0:0:0:
182,350,129421,1,8,0:0:0:0:
387,53,129597,1,0,0:0:0:0:
178,159,129772,2,0,P|123:180|72:179,1,88.000002685547
358,270,130123,2,0,P|413:291|464:290,1,88.000002685547,8|0,0:0|0:0,0:0:0:0:
199,355,130474,5,0,0:0:0:0:
97,109,130650,1,0,0:0:0:0:
113,214,130825,1,8,0:0:0:0:
150,203,130912,1,8,0:0:0:0:
181,178,131000,1,8,0:0:0:0:
263,68,131176,5,4,0:3:0:0:
290,80,131263,1,4,0:3:0:0:
310,102,131351,1,2,0:0:0:0:
321,130,131439,1,0,0:0:0:0:
318,160,131527,1,8,0:0:0:0:
300,184,131614,1,8,0:0:0:0:
287,212,131702,1,8,0:0:0:0:
289,242,131790,1,8,0:0:0:0:
308,265,131878,6,0,P|368:298|439:230,1,176.000005371094,4|8,0:0|0:0,0:0:0:0:
290,43,132404,1,0,0:0:0:0:
366,222,132579,1,0,0:0:0:0:
130,188,132755,1,0,0:0:0:0:
392,301,132930,2,0,B|362:334|362:334|283:334,1,88.000002685547,8|0,0:0|0:0,0:0:0:0:
109,368,133281,1,0,0:0:0:0:
349,219,133457,1,0,0:0:0:0:
54,171,133632,6,0,P|94:220|139:231,1,88.000002685547,8|0,0:0|0:0,0:0:0:0:
437,227,133983,2,0,P|417:279|369:303,1,88.000002685547
171,346,134334,1,8,0:0:0:0:
335,97,134509,1,0,0:0:0:0:
162,110,134685,2,0,B|229:85|263:129|341:95,1,176.000005371094,4|8,0:0|0:0,0:0:0:0:
460,180,135211,1,0,0:0:0:0:
169,232,135386,6,0,L|252:270,1,88.000002685547
67,317,135737,1,8,0:0:0:0:
383,184,135913,1,0,0:0:0:0:
133,87,136088,2,0,L|216:125,1,88.000002685547
425,261,136439,2,0,P|379:290|336:293,1,88.000002685547,8|8,0:0|0:0,0:0:0:0:
121,298,136790,1,0,0:0:0:0:
336,146,136965,1,0,0:0:0:0:
86,59,137141,1,8,0:0:0:0:
233,229,137316,1,0,0:0:0:0:
233,229,137404,1,0,0:0:0:0:
233,229,137492,6,0,P|327:305|389:318,1,176.000005371094,4|8,0:0|0:0,0:0:0:0:
451,119,138018,1,0,0:0:0:0:
451,119,138106,1,0,0:0:0:0:
451,119,138193,2,0,P|401:147|335:144,1,88.000002685547
210,61,138544,2,0,P|161:98|146:137,1,88.000002685547,8|0,0:0|0:0,0:0:0:0:
0,279,138895,5,0,0:0:0:0:
237,143,139071,1,0,0:0:0:0:
192,352,139246,1,8,0:0:0:0:
127,258,139421,1,0,0:0:0:0:
389,180,139597,5,0,0:0:0:0:
401,208,139685,1,0,0:0:0:0:
400,238,139772,1,0,0:0:0:0:
383,263,139860,1,0,0:0:0:0:
357,280,139948,1,8,0:3:0:0:
327,287,140035,1,0,0:0:0:0:
296,283,140123,1,4,0:3:0:0:
267,271,140211,1,0,0:0:0:0:
236,267,140299,6,0,P|176:267|140:283,1,88.000002685547,4|0,0:0|0:0,0:0:0:0:
10,162,140650,1,8,0:0:0:0:
203,336,140825,2,0,P|255:361|308:357,1,88.000002685547
282,182,141176,1,0,0:0:0:0:
435,72,141351,2,0,P|389:103|340:113,1,88.000002685547,8|0,0:0|0:0,0:0:0:0:
358,111,141614,1,0,0:0:0:0:
358,111,141702,5,0,0:0:0:0:
145,55,141878,1,0,0:0:0:0:
463,222,142053,1,8,0:0:0:0:
145,162,142228,5,2,0:0:0:0:
119,179,142316,1,2,0:0:0:0:
100,203,142404,1,8,0:0:0:0:
92,232,142492,1,0,0:0:0:0:
92,262,142579,1,0,0:0:0:0:
112,285,142667,1,0,0:0:0:0:
140,297,142755,1,8,0:0:0:0:
170,297,142842,1,0,0:0:0:0:
198,285,142930,1,0,0:0:0:0:
220,263,143018,1,0,0:0:0:0:
230,233,143106,6,0,P|257:186|310:162,1,88.000002685547,4|0,0:0|0:0,0:0:0:0:
422,342,143457,1,8,0:0:0:0:
430,134,143632,2,0,P|377:103|311:95,1,88.000002685547
201,98,143983,1,0,0:0:0:0:
26,213,144158,1,8,0:0:0:0:
229,267,144334,1,0,0:0:0:0:
92,327,144509,5,0,0:0:0:0:
96,98,144685,1,0,0:0:0:0:
320,150,144860,1,8,0:0:0:0:
128,196,145035,2,0,L|208:252,1,88.000002685547
4,233,145386,1,0,0:0:0:0:
313,328,145562,1,8,0:0:0:0:
453,145,145737,1,0,0:0:0:0:
453,145,145825,1,0,0:0:0:0:
453,145,145913,6,0,B|411:187|411:187|349:165|286:176,1,176.000005371094,4|8,0:0|0:0,0:0:0:0:
54,97,146439,2,0,P|106:137|150:149,1,88.000002685547
98,273,146790,2,0,P|160:292|205:289,1,88.000002685547,0|8,0:0|0:0,2:0:0:0:
419,194,147141,1,0,0:0:0:0:
253,335,147316,1,0,0:0:0:0:
126,144,147492,1,0,0:0:0:0:
353,250,147667,1,8,0:0:0:0:
216,365,147842,2,0,L|120:365,1,88.000002685547
7,212,148193,5,0,0:0:0:0:
131,44,148369,2,0,L|230:71,1,88.000002685547,8|0,0:0|0:0,0:0:0:0:
138,195,148720,5,0,0:0:0:0:
339,345,148895,1,0,0:0:0:0:
222,192,149071,1,8,0:0:0:0:
406,50,149246,1,0,0:0:0:0:
281,266,149421,1,0,0:0:0:0:
418,132,149597,1,0,0:0:0:0:
153,240,149772,1,8,0:0:0:0:
402,260,149947,1,0,0:0:0:0:
222,192,150123,2,0,P|179:161|129:161,1,88.000002685547
38,51,150474,5,8,0:0:0:0:
251,99,150650,1,0,0:0:0:0:
213,19,150825,1,0,0:0:0:0:
350,188,151000,1,0,0:0:0:0:
104,264,151176,2,0,L|209:233,1,88.000002685547,8|0,0:0|0:0,0:0:0:0:
424,138,151527,6,0,P|441:187|425:236,2,88.000002685547,0|0|8,0:0|0:0|0:0,0:0:0:0:
88,246,152053,2,0,P|71:197|87:148,2,88.000002685547
162,196,152579,1,8,0:0:0:0:
374,77,152755,1,0,0:0:0:0:
205,171,152930,5,8,0:0:0:0:
401,251,153106,1,2,0:0:0:0:
226,369,153281,1,2,0:0:0:0:
114,237,153457,5,8,0:0:0:0:
194,41,153633,1,2,0:0:0:0:
312,216,153808,1,2,0:0:0:0:
61,103,153983,5,8,0:0:0:0:
342,230,154158,1,4,0:0:0:0:
74,151,162057,5,10,0:0:0:0:
98,122,162133,1,2,0:0:0:0:
134,110,162210,1,2,0:0:0:0:
171,117,162287,1,0,0:0:0:0:
202,138,162364,2,0,L|236:184,1,47.9999985351563,2|2,0:0|0:0,0:0:0:0:
305,144,162518,5,10,0:0:0:0:
314,182,162595,1,2,0:0:0:0:
302,215,162672,1,2,0:0:0:0:
278,245,162749,1,2,0:0:0:0:
242,259,162826,2,0,L|194:258,1,47.9999985351563,2|2,0:0|0:0,0:0:0:0:
143,189,162980,5,10,0:0:0:0:
126,154,163057,1,2,0:0:0:0:
128,116,163133,1,2,0:0:0:0:
148,83,163210,1,2,0:0:0:0:
179,61,163287,2,0,L|231:44,1,47.9999985351563,2|2,0:0|0:0,0:0:0:0:
208,139,163441,5,10,0:0:0:0:
241,158,163518,1,2,0:0:0:0:
261,190,163595,1,2,0:0:0:0:
255,228,163672,1,2,0:0:0:0:
231,258,163749,2,0,L|187:283,1,47.9999985351563,2|2,0:0|0:0,0:0:0:0:
105,276,163903,5,10,0:0:0:0:
78,247,163980,1,2,0:0:0:0:
69,209,164057,1,2,0:0:0:0:
84,174,164133,1,2,0:0:0:0:
110,155,164210,6,0,B|158:136|191:170|231:154,1,120,6|0,0:0|0:0,0:0:0:0:
299,123,164518,2,0,B|311:186|354:204|354:204|318:239|270:249,1,191.999994140625,4|0,0:0|0:0,0:0:0:0:
27,197,164980,2,0,P|61:258|174:260,1,191.999994140625,4|0,0:0|0:0,0:0:0:0:
119,179,165441,2,0,B|155:124|155:124|145:66|145:66|226:68,1,191.999994140625,4|0,0:0|0:0,0:0:0:0:
348,118,165903,2,0,B|383:111|383:111|322:199|255:191,1,191.999994140625,4|0,0:0|0:0,0:0:0:0:
145,163,166980,6,0,B|206:128|206:128|242:103|296:122,1,143.999995605469,4|0,0:0|0:0,0:0:0:0:
251,188,167287,2,0,P|301:214|362:210,1,95.9999970703126,8|0,0:0|0:0,0:0:0:0:
455,165,167595,1,0,0:0:0:0:
455,165,167749,1,0,0:0:0:0:
361,321,167903,1,8,0:0:0:0:
218,265,168057,2,0,P|161:246|112:257,1,95.9999970703126
148,128,168364,1,0,0:0:0:0:
257,68,168518,2,0,P|305:137|333:152,1,95.9999970703126,8|0,0:0|0:0,0:0:0:0:
419,269,168826,6,0,B|354:273|348:314|281:317,1,143.999995605469
194,311,169133,2,0,P|216:253|258:232,1,95.9999970703126,8|0,0:0|0:0,0:0:0:0:
185,75,169441,2,0,L|186:223,1,143.999995605469,4|0,0:0|0:0,0:0:0:0:
108,186,169749,2,0,P|68:233|31:248,1,95.9999970703126,8|0,0:0|0:0,0:0:0:0:
11,151,170057,1,0,0:0:0:0:
11,151,170210,1,0,0:0:0:0:
208,120,170364,2,0,P|269:136|324:131,1,95.9999970703126,8|0,0:0|0:0,0:0:0:0:
441,127,170672,2,0,P|411:193|352:248,1,143.999995605469,4|0,0:0|0:0,0:0:0:0:
301,189,170980,2,0,P|240:192|196:222,1,95.9999970703126,8|0,0:0|0:0,0:0:0:0:
287,306,171287,5,0,0:0:0:0:
287,306,171441,1,0,0:0:0:0:
234,113,171595,2,0,L|139:157,1,95.9999970703126,8|0,0:0|0:0,0:0:0:0:
75,311,171903,2,0,P|134:335|202:280,1,143.999995605469,4|0,0:0|0:0,0:0:0:0:
249,224,172210,2,0,P|209:250|196:295,1,95.9999970703126,8|0,0:0|0:0,0:0:0:0:
346,338,172518,6,0,P|387:293|404:237,1,95.9999970703126
105,187,172826,2,0,P|84:138|86:90,1,95.9999970703126,8|0,0:0|0:0,0:0:0:0:
262,104,173133,2,0,P|333:123|349:212,1,143.999995605469,4|0,0:0|0:0,0:0:0:0:
208,246,173441,2,0,B|252:240|274:182,1,95.9999970703126,8|0,0:0|0:0,0:0:0:0:
161,71,173749,1,0,0:0:0:0:
161,71,173903,1,0,0:0:0:0:
50,147,174057,2,0,P|46:202|80:241,1,95.9999970703126,8|0,0:0|0:0,0:0:0:0:
207,156,174364,6,0,B|238:134|253:109|253:109|285:128|331:128,1,143.999995605469,4|0,0:0|0:0,0:0:0:0:
367,128,174672,1,8,0:0:0:0:
197,286,174826,1,0,0:0:0:0:
428,243,174980,1,0,0:0:0:0:
127,159,175133,1,0,0:0:0:0:
283,208,175287,2,0,P|309:252|292:343,1,143.999995605469,8|0,0:0|0:0,0:0:0:0:
221,279,175595,2,0,P|189:228|197:173,1,95.9999970703126
67,53,175903,6,0,P|134:76|189:73,1,95.9999970703126,8|0,0:0|0:0,0:0:0:0:
358,89,176210,2,0,P|311:99|270:124,1,95.9999970703126,0|2,0:0|0:0,0:0:0:0:
272,162,176441,1,2,0:0:0:0:
298,189,176518,1,2,0:0:0:0:
310,225,176595,1,2,0:0:0:0:
340,248,176672,1,2,0:0:0:0:
353,283,176749,1,2,0:0:0:0:
377,312,176826,6,0,P|330:336|283:338,1,95.9999970703126,4|0,0:0|0:0,0:0:0:0:
108,280,177133,2,0,P|156:253|213:265,1,95.9999970703126,8|0,0:0|0:0,0:0:0:0:
120,163,177441,1,0,0:0:0:0:
120,163,177595,1,0,0:0:0:0:
261,65,177749,2,0,P|301:128|279:220,1,143.999995605469,8|0,0:0|0:0,0:0:0:0:
238,256,178057,2,0,P|260:318|317:345,1,95.9999970703126
445,211,178364,6,0,B|381:237|370:273|370:273|337:255|317:258,1,143.999995605469,8|0,0:0|0:0,0:0:0:0:
292,191,178672,2,0,P|230:173|177:196,1,95.9999970703126
77,99,178980,1,8,0:0:0:0:
238,256,179133,1,0,0:0:0:0:
104,250,179287,2,0,B|141:274|141:274|188:278|238:254,1,143.999995605469,4|0,0:0|0:0,0:0:0:0:
277,322,179595,2,0,P|321:298|393:292,1,95.9999970703126,8|0,0:0|0:0,0:0:0:0:
443,155,179903,1,0,0:0:0:0:
443,155,180057,1,0,0:0:0:0:
290,72,180210,6,0,P|243:91|177:165,1,143.999995605469,8|0,0:0|0:0,0:0:0:0:
86,150,180518,2,0,B|122:134|180:158,1,95.9999970703126
381,235,180826,2,0,L|275:254,1,95.9999970703126,8|0,0:0|0:0,0:0:0:0:
43,278,181133,2,0,L|196:321,1,143.999995605469
226,253,181441,2,0,P|271:230|294:189,1,95.9999970703126,8|0,0:0|0:0,0:0:0:0:
220,181,181749,2,0,P|258:243|309:266,1,95.9999970703126,4|0,0:0|0:0,0:0:0:0:
351,355,182057,5,8,0:0:0:0:
94,200,182210,1,0,0:0:0:0:
393,157,182364,2,0,P|333:104|292:93,1,95.9999970703126
112,229,182672,2,0,P|172:282|213:293,1,95.9999970703126,8|0,0:0|0:0,0:0:0:0:
315,354,182980,6,0,P|331:269|290:222,1,143.999995605469,4|0,0:0|0:0,0:0:0:0:
266,207,183287,1,8,0:0:0:0:
88,320,183441,1,0,0:0:0:0:
154,68,183595,1,0,0:0:0:0:
247,296,183749,1,0,0:0:0:0:
256,69,183903,2,0,P|308:87|367:160,1,143.999995605469,8|0,0:0|0:0,0:0:0:0:
387,185,184210,6,0,L|332:265,1,95.9999970703126,4|0,0:0|0:0,0:0:0:0:
302,48,184518,1,8,0:0:0:0:
291,293,184672,2,0,L|195:310,1,95.9999970703126
349,29,184980,1,0,0:0:0:0:
149,296,185133,2,0,L|69:241,1,95.9999970703126,8|0,0:0|0:0,0:0:0:0:
91,67,185441,5,2,0:0:0:0:
121,89,185518,1,0,0:0:0:0:
151,111,185595,1,0,0:0:0:0:
181,134,185672,1,0,0:0:0:0:
211,156,185749,1,0,0:0:0:0:
241,178,185826,1,0,0:0:0:0:
271,201,185903,1,0,0:0:0:0:
301,223,185980,1,0,0:0:0:0:
323,240,186057,2,0,B|375:265|409:316|409:316|446:271|446:215|446:215|416:168,1,251.999992309571,4|0,0:0|0:0,0:0:0:0:
444,77,186672,6,0,P|414:114|365:128,1,95.9999970703126,4|0,0:0|0:0,0:0:0:0:
275,58,186980,2,0,P|210:65|161:129,1,143.999995605469,8|0,0:0|0:0,0:0:0:0:
86,168,187287,2,0,P|31:149|11:107,1,95.9999970703126
281,218,187595,2,0,B|281:183|281:183|233:112,1,95.9999970703126,8|0,0:0|0:0,0:0:0:0:
100,78,187903,1,0,0:0:0:0:
396,160,188057,1,0,0:0:0:0:
161,270,188210,2,0,L|301:318,1,143.999995605469,8|0,0:0|0:0,0:0:0:0:
152,354,188518,6,0,P|103:338|80:276,1,95.9999970703126
41,148,188826,2,0,P|107:179|145:184,1,95.9999970703126,8|0,0:0|0:0,0:0:0:0:
230,69,189133,2,0,P|286:104|339:182,1,143.999995605469,4|0,0:0|0:0,0:0:0:0:
351,199,189441,1,8,0:0:0:0:
130,301,189595,1,0,0:0:0:0:
41,148,189749,1,0,0:0:0:0:
272,243,189903,1,0,0:0:0:0:
419,85,190057,2,0,B|369:110|320:105,1,95.9999970703126,8|0,0:0|0:0,0:0:0:0:
78,151,190364,6,0,P|132:162|180:159,1,95.9999970703126
434,193,190672,2,0,P|380:204|332:201,1,95.9999970703126,8|0,0:0|0:0,0:0:0:0:
119,292,190980,1,0,0:0:0:0:
119,292,191133,1,0,0:0:0:0:
26,114,191287,2,0,P|29:161|55:202,1,95.9999970703126,8|0,0:0|0:0,0:0:0:0:
263,292,191595,2,0,L|119:292,1,143.999995605469,4|0,0:0|0:0,0:0:0:0:
34,243,191903,6,0,P|63:189|104:158,1,95.9999970703126,8|0,0:0|0:0,0:0:0:0:
299,69,192210,1,0,0:0:0:0:
299,69,192364,1,0,0:0:0:0:
132,62,192518,2,0,L|32:61,1,95.9999970703126,8|0,0:0|0:0,0:0:0:0:
224,185,192826,2,0,L|337:188,1,95.9999970703126
78,200,193133,2,0,B|115:272|201:295,1,143.999995605469,8|0,0:0|0:0,0:0:0:0:
149,163,193441,2,0,P|149:211|179:251,1,95.9999970703126
417,153,193749,6,0,B|437:208|426:245|426:245|383:292,1,143.999995605469,8|0,0:0|0:0,0:0:0:0:
346,207,194057,2,0,P|310:151|266:127,1,95.9999970703126,4|0,0:0|0:0,0:0:0:0:
47,73,194364,2,0,L|166:102,1,95.9999970703126,8|0,0:0|0:0,0:0:0:0:
286,135,194672,1,0,0:0:0:0:
286,135,194826,1,0,0:0:0:0:
209,258,194980,2,0,L|115:280,1,95.9999970703126,8|0,0:0|0:0,0:0:0:0:
300,229,195287,6,0,L|440:192,1,143.999995605469,4|0,0:0|0:0,0:0:0:0:
476,180,195595,1,8,0:0:0:0:
362,50,195749,2,0,L|362:2,2,47.9999985351563,0|0|8,0:0|0:0|0:0,0:0:0:0:
217,145,196057,1,0,0:0:0:0:
232,168,196133,1,0,0:0:0:0:
236,196,196210,1,8,0:0:0:0:
225,222,196287,1,0,0:0:0:0:
202,240,196364,1,0,0:0:0:0:
175,251,196441,1,0,0:0:0:0:
146,254,196518,6,0,L|39:254,1,95.9999970703126,6|0,0:0|0:0,0:0:0:0:
343,154,196826,1,2,0:0:0:0:
174,328,196980,2,0,P|237:349|285:345,1,95.9999970703126,8|0,0:0|0:0,0:0:0:0:
376,133,197288,1,2,0:0:0:0:
115,178,197441,2,0,B|55:161|55:161|27:125,1,95.9999970703126,8|0,0:0|0:0,0:0:0:0:
409,112,197749,1,2,0:0:0:0:
227,247,197903,2,0,L|305:186,1,95.9999970703126,8|0,0:0|0:0,0:0:0:0:
442,91,198210,1,2,0:0:0:0:
442,91,198287,1,2,0:0:0:0:
442,91,198364,5,10,0:0:0:0:
252,113,198518,1,10,0:0:0:0:
444,229,198672,1,10,0:0:0:0:
132,301,198826,1,10,0:0:0:0:
122,96,209705,6,0,B|192:127|189:191,1,120.000004577637
237,271,210159,2,0,P|280:217|354:215,1,120.000004577637
326,300,210614,6,0,P|287:346|156:330,1,200,4|0,0:0|0:0,0:0:0:0:
327,207,211069,1,0,0:0:0:0:
262,131,211220,2,0,B|221:105|164:101,1,100,8|0,0:0|0:0,0:0:0:0:
25,218,211523,2,0,B|66:244|121:244,1,100
83,354,211826,1,0,0:0:0:0:
286,142,211978,1,0,0:0:0:0:
388,205,212129,6,0,B|427:241|479:248|479:248|443:303|386:314,1,200,0|8,0:0|0:0,0:0:0:0:
60,235,212584,2,0,B|124:169|124:169|148:226|209:229,1,200
392,108,213038,2,0,B|328:174|328:174|304:117|243:114,1,200,4|0,0:0|0:0,0:0:0:0:
16,114,213493,1,0,0:0:0:0:
151,49,213644,2,0,P|214:34|262:36,1,100,8|0,0:0|0:0,0:0:0:0:
512,189,213947,2,0,P|449:204|401:202,1,100
482,298,214250,1,0,0:0:0:0:
219,167,214402,1,0,0:0:0:0:
66,191,214553,6,0,B|96:240|76:276|76:276|87:322|128:327|128:327|147:267,1,200,0|8,0:0|0:0,0:0:0:0:
446,193,215008,2,0,B|415:143|435:107|435:107|424:61|383:56|383:56|364:116,1,200
267,244,215462,2,0,P|168:240|132:147,1,200,4|0,0:0|0:0,0:0:0:0:
348,97,215917,1,0,0:0:0:0:
159,231,216069,2,0,B|105:251|105:251|64:277,1,100,8|0,0:0|0:0,0:0:0:0:
168,68,216372,2,0,B|209:59|209:59|268:60,1,100
422,264,216826,1,0,0:0:0:0:
403,277,216978,6,0,B|368:294|368:294|329:275|329:275|298:289|283:313|283:313|254:292|222:292,1,200,0|8,0:0|0:0,0:0:0:0:
277,89,217432,2,0,B|250:118|250:118|184:138|184:138|202:166|171:227,1,200
171,224,217887,6,0,L|73:210,1,100,4|0,0:0|0:0,0:0:0:0:
193,317,218190,2,0,B|247:328|247:328|296:325,1,100
319,67,218493,2,0,B|265:56|265:56|216:59,1,100,8|0,0:0|0:0,0:0:0:0:
356,151,218796,2,0,P|371:201|422:246,1,100
203,170,219099,2,0,P|240:205|307:219,1,100,8|8,0:0|0:0,0:0:0:0:
186,283,219402,1,0,0:0:0:0:
410,96,219553,1,0,0:0:0:0:
280,65,219705,2,0,P|220:95|165:99,1,100,8|0,0:0|0:0,0:0:0:0:
21,30,220008,1,8,0:0:0:0:
367,218,220159,1,8,0:0:0:0:
308,307,220311,6,0,B|254:318|254:318|208:362|208:362|183:329|183:329|144:305,1,200,4|0,0:0|0:0,0:0:0:0:
35,221,220766,1,0,0:0:0:0:
124,113,220917,2,0,P|184:104|241:120,1,100,8|0,0:0|0:0,0:0:0:0:
385,183,221220,2,0,P|325:192|268:176,1,100
203,267,221523,1,0,0:0:0:0:
414,64,221675,1,0,0:0:0:0:
155,132,221826,6,0,B|96:134|96:134|138:78|138:78|173:61|222:62,1,200,0|8,0:0|0:0,0:0:0:0:
445,284,222281,2,0,B|406:241|359:234|359:234|316:264|254:273,1,200
123,256,222735,2,0,B|201:231|207:181|293:156,1,200,4|0,0:0|0:0,0:0:0:0:
234,45,223190,1,0,0:0:0:0:
398,167,223341,2,0,P|391:216|368:260,1,100,8|0,0:0|0:0,0:0:0:0:
212,342,223644,2,0,P|158:337|121:305,2,100
470,288,224099,1,0,0:0:0:0:
200,239,224250,6,0,P|150:214|127:173,1,100
278,78,224553,1,8,0:0:0:0:
363,124,224705,2,0,B|381:220|472:289,1,200
350,291,225159,2,0,P|254:226|160:195,1,200,4|0,0:0|0:0,0:0:0:0:
306,143,225614,1,0,0:0:0:0:
165,87,225766,2,0,L|58:86,1,100,8|0,0:0|0:0,0:0:0:0:
359,217,226069,2,0,L|466:217,2,100
198,304,226523,1,0,0:0:0:0:
139,86,226675,6,0,B|198:70|198:70|231:34|231:34|314:103,1,200,0|8,0:0|0:0,0:0:0:0:
448,238,227130,2,0,B|389:254|389:254|356:290|356:290|275:221,1,200
124,93,227584,6,0,P|102:143|111:188,1,100,4|0,0:0|0:0,0:0:0:0:
184,215,227887,2,0,P|206:265|197:310,1,100
438,79,228190,2,0,P|388:56|343:65,1,100,8|0,0:0|0:0,0:0:0:0:
316,138,228493,2,0,P|266:160|221:151,1,100
209,144,228720,1,0,0:0:0:0:
209,144,228796,1,8,0:0:0:0:
111,266,228947,5,0,0:0:0:0:
258,63,229099,1,8,0:0:0:0:
405,266,229250,1,8,0:0:0:0:
257,44,229402,1,8,0:0:0:0:
92,274,229553,1,8,0:0:0:0:
256,23,229705,1,8,0:0:0:0:
424,274,229856,1,8,0:0:0:0:
283,343,230008,6,0,B|211:343|186:306|186:306|200:246|158:207,1,200,4|0,0:0|0:0,0:0:0:0:
74,81,230462,1,0,0:0:0:0:
179,127,230614,2,0,P|233:140|279:178,1,100,8|0,0:0|0:0,0:0:0:0:
436,102,230917,1,0,0:0:0:0:
352,184,231069,2,0,P|335:236|346:283,1,100
190,185,231372,1,0,0:0:0:0:
264,269,231523,2,0,P|308:304|361:319,1,100
200,343,231826,1,8,0:0:0:0:
57,327,231978,6,0,P|136:272|193:175,1,200
250,131,232357,1,0,0:0:0:0:
250,131,232433,2,0,L|354:131,1,100,4|0,0:0|0:0,0:0:0:0:
457,39,232736,1,0,0:0:0:0:
408,232,232887,2,0,P|453:218|494:182,2,100,0|8|0,0:0|0:0|0:0,0:0:0:0:
206,337,233341,1,0,0:0:0:0:
328,190,233493,2,0,P|282:146|230:124,1,100
56,207,233796,2,0,P|119:215|171:189,1,100,8|0,0:0|0:0,0:0:0:0:
412,274,234099,1,0,0:0:0:0:
99,128,234250,1,8,0:0:0:0:
297,37,234402,6,0,P|191:49|115:108,1,200
286,140,234856,2,0,P|199:198|245:253,1,200,4|0,0:0|0:0,0:0:0:0:
181,130,235311,1,0,0:0:0:0:
264,333,235462,2,0,B|315:345|315:345|377:333,1,100,8|0,0:0|0:0,0:0:0:0:
146,258,235766,2,0,B|90:253|90:253|56:223,1,100
209,108,236069,1,0,0:0:0:0:
333,68,236220,2,0,P|384:90|419:131,1,100
281,196,236523,1,0,0:0:0:0:
177,258,236675,2,0,P|220:289|276:304,1,100,8|0,0:0|0:0,0:0:0:0:
451,232,236978,1,0,0:0:0:0:
181,70,237281,6,0,P|146:112|76:125,1,100
331,314,237584,2,0,P|366:272|436:259,1,100
331,70,237887,2,0,P|366:112|436:125,1,100,8|0,0:0|0:0,0:0:0:0:
181,314,238190,2,0,P|146:272|76:259,1,100
206,209,238493,2,0,P|269:219|338:203,2,100,0|8|0,0:0|0:0|0:0,0:0:0:0:
106,69,238947,1,0,0:0:0:0:
204,259,239099,5,8,0:0:0:0:
439,50,239250,1,8,0:0:0:0:
107,127,239402,5,8,0:0:0:0:
461,242,239553,1,0,0:0:0:0:
120,260,239705,6,0,P|143:313|273:306,1,200,4|0,0:0|0:0,0:0:0:0:
250,127,240159,1,0,0:0:0:0:
310,251,240311,2,0,P|356:282|413:288,1,100,8|0,0:0|0:0,0:0:0:0:
343,112,240614,2,0,P|315:61|258:37,2,100
471,37,241069,1,0,0:0:0:0:
279,40,241220,2,0,B|215:70|215:70|171:50|171:50|132:86|129:135,1,200,0|8,0:0|0:0,0:0:0:0:
52,126,241675,2,0,B|79:179|56:222|56:222|114:235|162:208,1,200
353,137,242129,6,0,B|412:115|412:115|364:221|382:274,1,200,4|0,0:0|0:0,0:0:0:0:
501,150,242584,1,0,0:0:0:0:
423,313,242735,2,0,B|364:334|364:334|315:329,1,100,8|0,0:0|0:0,0:0:0:0:
178,207,243038,2,0,B|215:203|215:203|274:224,1,100
177,287,243341,1,0,0:0:0:0:
417,118,243493,1,8,0:0:0:0:
303,33,243644,6,0,P|240:38|184:59,1,100
94,133,243947,1,8,0:0:0:0:
137,259,244099,2,0,P|183:283|254:276,2,100
204,192,244553,6,0,P|265:192|375:276,1,200,4|0,0:0|0:0,0:0:0:0:
429,143,245008,1,0,0:0:0:0:
285,304,245159,2,0,P|236:322|176:323,1,100,8|0,0:0|0:0,0:0:0:0:
40,242,245462,1,0,0:0:0:0:
134,139,245614,2,0,P|179:109|254:117,1,100
407,87,245917,2,0,P|380:146|327:176,1,100,8|0,0:0|0:0,0:0:0:0:
314,85,246220,1,0,0:0:0:0:
399,237,246372,1,8,0:0:0:0:
147,236,246523,1,0,0:0:0:0:
232,302,246675,2,0,L|335:320,1,100,8|0,0:0|0:0,0:0:0:0:
218,210,246978,5,8,0:0:0:0:
392,89,247129,1,0,0:0:0:0:
392,89,247205,1,0,0:0:0:0:
392,89,247281,1,8,0:0:0:0:
148,68,247432,1,0,0:0:0:0:
101,191,247584,2,0,P|137:234|148:280,1,100,8|0,0:0|0:0,0:0:0:0:
327,302,247887,2,0,P|277:307|231:291,1,100,8|0,0:0|0:0,0:0:0:0:
303,165,248190,6,0,P|245:183|208:232,1,100,8|8,0:0|0:0,0:0:0:0:
146,84,248493,1,8,0:0:0:0:
388,259,248644,1,8,0:0:0:0:
101,193,248796,1,8,0:0:0:0:
396,146,248947,1,8,0:0:0:0:
148,302,249099,1,8,0:0:0:0:
323,60,249250,2,0,L|430:60,1,100,8|4,0:0|1:0,0:0:0:0:
215,148,260231,5,8,0:0:0:0:
502,325,260392,1,8,0:0:0:0:
80,202,260714,5,8,0:0:0:0:
392,82,260875,1,8,0:0:0:0:
321,309,261198,5,8,0:0:0:0:
73,80,261359,1,8,0:0:0:0:
347,143,261843,6,0,L|385:122,5,31.9999990234375,0|2|2|2|2|2,0:0|0:0|0:0|0:0|0:0|0:0,0:0:0:0:
404,112,262166,5,0,0:0:0:0:
75,288,262327,1,0,0:0:0:0:
244,198,262650,6,0,B|308:216|303:293|407:280,1,191.999994140625,4|0,0:0|0:0,0:0:0:0:
418,87,263134,1,8,0:0:0:0:
137,31,263295,1,0,0:0:0:0:
165,220,263456,2,0,P|136:265|95:290,1,95.9999970703126,2|0,0:0|0:0,0:0:0:0:
285,201,263779,1,8,0:0:0:0:
351,100,263940,6,0,B|412:184|522:194,1,191.999994140625
232,66,264424,2,0,P|188:82|155:117,1,95.9999970703126,8|0,0:0|0:0,0:0:0:0:
46,328,264747,1,2,0:0:0:0:
242,153,264908,1,0,0:0:0:0:
66,76,265069,1,8,0:0:0:0:
203,234,265231,6,0,B|260:241|301:277|301:277|339:256|365:217,1,191.999994140625,4|0,0:0|0:0,0:0:0:0:
193,81,265714,2,0,L|78:81,1,95.9999970703126,8|0,0:0|0:0,0:0:0:0:
331,147,266037,2,0,P|372:181|436:181,1,95.9999970703126,2|0,0:0|0:0,0:0:0:0:
201,238,266360,1,0,0:0:0:0:
410,95,266521,6,0,P|411:195|358:280,1,191.999994140625
130,295,267005,2,0,P|176:325|240:321,1,95.9999970703126,8|0,0:0|0:0,0:0:0:0:
131,155,267327,1,2,0:0:0:0:
397,68,267489,1,0,0:0:0:0:
243,17,267650,1,8,0:0:0:0:
153,57,267811,6,0,P|200:89|201:219,1,191.999994140625,4|0,0:0|0:0,0:0:0:0:
16,171,268295,1,8,0:0:0:0:
102,293,268456,1,0,0:0:0:0:
357,215,268618,2,0,P|404:259|458:267,1,95.9999970703126,2|0,0:0|0:0,0:0:0:0:
248,317,268940,1,8,0:0:0:0:
126,126,269101,1,4,0:0:0:0:
126,126,269263,6,0,P|197:144|228:168,1,95.9999970703126
405,177,269585,2,0,P|341:217|302:222,1,95.9999970703126,8|0,0:0|0:0,0:0:0:0:
130,199,269908,1,2,0:0:0:0:
251,84,270069,1,0,0:0:0:0:
389,334,270231,1,8,0:0:0:0:
229,283,270392,1,0,0:0:0:0:
229,283,270472,1,0,0:0:0:0:
229,283,270553,5,4,0:0:0:0:
345,131,270714,1,0,0:0:0:0:
80,159,270876,5,8,0:0:0:0:
412,225,271037,1,0,0:0:0:0:
229,283,271198,2,0,P|181:316|139:318,1,95.9999970703126,10|0,0:0|0:0,0:0:0:0:
123,318,271440,1,0,0:0:0:0:
123,318,271521,5,8,0:0:0:0:
182,194,271682,2,0,P|276:252|373:274,1,191.999994140625,8|8,0:0|0:0,0:0:0:0:
383,279,272085,1,0,0:0:0:0:
383,279,272166,1,8,0:0:0:0:
491,121,272327,1,8,0:0:0:0:
226,258,272489,1,8,0:0:0:0:
74,165,272650,1,8,0:0:0:0:
74,165,272972,6,0,B|134:136|128:95|128:95|181:122|231:122,1,191.999994140625,4|0,0:0|0:0,0:0:0:0:
407,170,273456,2,0,P|348:211|306:219,1,95.9999970703126,8|0,0:0|0:0,0:0:0:0:
148,140,273779,1,2,0:0:0:0:
72,284,273940,1,0,0:0:0:0:
354,261,274101,1,8,0:0:0:0:
488,112,274263,6,0,B|440:80|386:79|386:79|351:106|310:122,1,191.999994140625
125,159,274747,2,0,L|236:187,1,95.9999970703126,8|0,0:0|0:0,0:0:0:0:
447,237,275069,2,0,L|336:265,1,95.9999970703126,2|0,0:0|0:0,0:0:0:0:
184,353,275392,1,8,0:0:0:0:
310,148,275553,1,0,0:0:0:0:
374,277,275714,2,0,P|324:294|264:280,1,95.9999970703126,4|0,0:0|0:0,0:0:0:0:
95,291,276037,2,0,P|170:269|206:243,1,95.9999970703126,8|0,0:0|0:0,0:0:0:0:
386,191,276360,1,2,0:0:0:0:
205,123,276521,1,0,0:0:0:0:
20,173,276682,6,0,P|95:198|132:200,1,95.9999970703126,8|0,0:0|0:0,0:0:0:0:
287,122,277005,1,0,0:0:0:0:
165,270,277166,1,0,0:0:0:0:
228,53,277327,1,8,0:0:0:0:
390,221,277489,1,0,0:0:0:0:
116,284,277650,6,0,L|228:292,1,95.9999970703126,2|0,0:0|0:0,0:0:0:0:
190,156,277972,1,8,0:0:0:0:
393,335,278134,5,4,0:0:0:0:
86,66,278456,1,0,0:0:0:0:
356,155,278618,1,8,0:0:0:0:
66,272,278779,1,0,0:0:0:0:
222,56,278940,5,8,0:0:0:0:
481,203,279101,1,0,0:0:0:0:
481,203,279182,1,0,0:0:0:0:
481,203,279263,1,8,0:0:0:0:
205,283,279424,1,0,0:0:0:0:
118,129,279585,5,8,0:0:0:0:
404,268,279747,1,0,0:0:0:0:
79,266,279908,5,8,0:0:0:0:
348,100,280069,1,0,0:0:0:0:
202,49,280231,5,8,0:0:0:0:
306,350,280393,1,0,0:0:0:0:
78,119,280554,5,8,0:0:0:0:
386,192,280715,1,0,0:0:0:0:
80,286,280876,5,12,0:0:0:0:
384,95,281037,1,0,0:0:0:0:
128,95,281198,5,0,0:0:0:0:
432,286,281360,1,8,0:0:0:0:
308,50,281521,5,0,0:0:0:0:
452,314,281682,1,0,0:0:0:0:
210,217,281843,1,8,0:0:0:0:
332,9,282005,1,4,0:0:0:0:
122,87,282166,5,8,0:0:0:0:
113,114,282247,1,8,0:0:0:0:
116,142,282327,1,8,0:0:0:0:
134,165,282408,1,8,0:0:0:0:
160,178,282489,1,8,0:0:0:0:
179,199,282569,1,8,0:0:0:0:
186,227,282650,6,0,P|184:253|166:281,1,47.9999985351563,8|8,0:0|0:0,0:0:0:0:
302,182,282811,1,0,0:0:0:0:
324,164,282892,1,0,0:0:0:0:
351,157,282972,1,0,0:0:0:0:
379,162,283053,1,8,0:0:0:0:
404,175,283134,2,0,P|424:193|434:220,1,47.9999985351563,8|0,0:0|0:0,0:0:0:0:
356,246,283295,6,0,P|321:284|161:311,1,191.999994140625,4|0,0:0|0:0,0:0:0:0:
45,185,283779,2,0,P|104:202|147:202,1,95.9999970703126,8|0,0:0|0:0,0:0:0:0:
308,115,284101,1,0,0:0:0:0:
454,185,284263,2,0,P|390:216|334:221,1,95.9999970703126,0|8,0:0|0:0,0:0:0:0:
191,299,284585,6,0,P|285:266|388:274,1,191.999994140625,2|0,0:0|0:0,0:0:0:0:
492,157,285069,1,8,0:0:0:0:
293,57,285231,1,2,0:0:0:0:
376,270,285392,1,0,0:0:0:0:
439,89,285553,1,0,0:0:0:0:
439,89,285714,6,0,P|383:135|337:143,1,95.9999970703126,8|0,0:0|0:0,0:0:0:0:
111,98,286037,5,6,0:0:0:0:
335,228,286198,1,0,0:0:0:0:
42,201,286360,5,8,0:0:0:0:
304,83,286521,1,0,0:0:0:0:
290,293,286682,5,2,0:0:0:0:
239,40,286843,1,0,0:0:0:0:
437,137,287005,5,8,0:0:0:0:
155,182,287166,1,0,0:0:0:0:
58,294,287327,6,0,B|110:326|110:326|255:326,1,191.999994140625,4|8,0:0|0:0,0:0:0:0:
409,231,287811,1,0,0:0:0:0:
258,111,287972,2,0,B|202:125|202:125|156:162,1,95.9999970703126
168,294,288295,2,0,B|224:280|224:280|270:243,1,95.9999970703126,8|0,0:0|0:0,0:0:0:0:
387,116,288618,5,8,0:0:0:0:
57,216,288779,1,8,0:0:0:0:
434,282,289101,5,8,0:0:0:0:
147,86,289263,1,8,0:0:0:0:
193,323,289585,5,8,0:0:0:0:
375,27,289747,1,8,0:0:0:0:
99,105,290069,6,0,P|151:142|230:158,1,143.999995605469,12|0,0:0|0:0,0:0:0:0:
242,161,290392,1,8,0:0:0:0:
347,251,290553,6,0,P|404:208|440:146,2,143.999995605469,8|8|8,0:0|0:0|0:0,0:0:0:0:
160,203,291198,5,0,0:0:0:0:
11,273,291360,2,0,P|49:300|95:313,1,95.9999970703126,8|0,0:0|0:0,0:0:0:0:
350,313,291682,1,8,0:0:0:0:
160,203,291843,1,8,0:0:0:0:
421,132,292005,6,0,L|461:176,1,47.9999985351563,8|8,0:0|0:0,0:0:0:0:
357,182,292166,2,0,L|324:146,1,47.9999985351563,8|8,0:0|0:0,0:0:0:0:
190,50,292327,2,0,L|249:49,1,47.9999985351563,8|8,0:0|0:0,0:0:0:0:
184,131,292488,2,0,L|136:131,1,47.9999985351563,8|0,0:0|0:0,0:0:0:0:
34,248,292811,6,0,L|138:248,1,95.9999970703126,2|0,0:0|0:0,0:0:0:0:
432,300,293295,2,0,L|240:300,1,191.999994140625
226,300,293698,1,0,0:0:0:0:
211,300,293779,5,8,0:0:0:0:
301,84,293940,1,8,0:0:0:0:
134,242,294263,5,8,0:0:0:0:
378,142,294424,1,8,0:0:0:0:
116,134,294747,5,8,0:0:0:0:
396,250,294908,1,8,0:0:0:0:
197,41,295231,5,8,0:0:0:0:
315,343,295392,1,8,0:0:0:0:
139,192,295714,5,0,0:0:0:0:
256,258,295876,1,8,0:0:0:0:
256,258,295956,1,8,0:0:0:0:
256,258,296037,2,0,L|328:258,1,47.9999985351563,8|0,0:0|0:0,0:0:0:0:
142,324,296198,1,0,0:0:0:0:
305,88,296360,5,8,0:0:0:0:
307,338,296521,1,8,0:0:0:0:
441,174,296844,5,8,0:0:0:0:
173,176,297005,1,8,0:0:0:0:
86,54,297327,5,8,0:0:0:0:
306,175,297489,1,12,0:0:0:0:
256,192,297569,12,0,300230,0:0:0:0:
103,225,307506,5,10,0:0:0:0:
103,225,307690,1,0,0:0:0:0:
172,142,307874,2,0,P|207:122|252:113,1,71.9999978027344,8|0,0:0|0:0,0:0:0:0:
103,225,308242,5,0,0:0:0:0:
103,225,308426,1,0,0:0:0:0:
324,194,308610,2,0,P|291:208|256:216,1,71.9999978027344,8|0,0:0|0:0,0:0:0:0:
422,72,308978,5,0,0:0:0:0:
422,72,309162,1,0,0:0:0:0:
424,179,309346,2,0,P|401:234|384:255,1,71.9999978027344,8|0,0:0|0:0,0:0:0:0:
422,72,309714,5,0,0:0:0:0:
422,72,309898,1,0,0:0:0:0:
207,138,310082,2,0,P|243:135|276:120,1,71.9999978027344,8|0,0:0|0:0,0:0:0:0:
422,72,310451,5,0,0:0:0:0:
209,38,310635,1,8,0:0:0:0:
361,217,310819,1,8,0:0:0:0:
361,217,311003,6,0,P|306:255|215:263,1,143.999995605469,12|8,0:0|0:0,0:0:0:0:
116,221,311555,1,8,0:0:0:0:
253,140,311739,1,8,0:0:0:0:
63,117,311923,1,8,0:0:0:0:
175,165,312107,1,8,0:0:0:0:
293,60,312291,1,8,0:0:0:0:
264,252,312475,5,10,0:0:0:0:
264,252,312567,1,10,0:0:0:0:
264,252,312659,1,10,0:0:0:0:
293,31,312843,1,10,0:0:0:0:
483,151,313395,5,8,0:0:0:0:
353,264,313579,1,8,0:0:0:0:
261,176,313763,1,8,0:0:0:0:
238,193,313855,1,8,0:0:0:0:
211,204,313947,1,8,0:0:0:0:
182,206,314039,1,8,0:0:0:0:
153,208,314131,6,0,P|77:228|32:280,1,143.999995605469,4|8,0:0|0:0,0:0:0:0:
148,341,314684,1,10,0:0:0:0:
291,286,314868,2,0,P|338:250|360:197,1,107.999996704102,2|0,0:0|0:0,0:0:0:0:
359,156,315236,6,0,P|296:166|249:157,1,103.999995239258,10|0,0:0|0:0,0:0:0:0:
53,162,315604,2,0,P|138:119|196:113,1,143.999995605469,2|8,0:0|0:0,0:0:0:0:
327,158,316156,1,10,0:0:0:0:
152,159,316340,2,0,P|151:211|180:260,1,107.999996704102,2|0,0:0|0:0,0:0:0:0:
222,281,316708,6,0,P|289:285|328:309,1,103.999995239258,10|0,0:0|0:0,0:0:0:0:
457,218,317076,6,0,P|418:237|364:237,1,71.9999978027344,2|0,0:0|0:0,0:0:0:0:
393,118,317444,1,10,0:0:0:0:
257,259,317628,5,8,0:0:0:0:
126,159,317812,2,0,L|208:178,1,71.9999978027344,2|0,0:0|0:0,0:0:0:0:
306,121,318181,1,10,0:0:0:0:
177,242,318365,1,0,0:0:0:0:
380,180,318549,5,2,0:0:0:0:
151,135,318733,1,2,0:0:0:0:
337,282,318917,1,8,0:0:0:0:
222,86,319101,1,10,0:0:0:0:
345,172,319285,2,0,P|310:201|266:214,1,71.9999978027344,2|0,0:0|0:0,0:0:0:0:
164,299,319653,5,10,0:0:0:0:
78,185,319837,1,0,0:0:0:0:
207,210,320021,2,0,P|280:245|350:253,1,143.999995605469,2|8,0:0|0:0,0:0:0:0:
460,174,320573,1,10,0:0:0:0:
375,85,320757,6,0,P|334:122|294:135,1,71.9999978027344,2|0,0:0|0:0,0:0:0:0:
186,62,321125,1,10,0:0:0:0:
249,202,321309,1,0,0:0:0:0:
127,126,321493,2,0,P|123:167|133:204,1,71.9999978027344,2|0,0:0|0:0,0:0:0:0:
76,291,321862,1,8,0:0:0:0:
223,153,322046,2,0,P|276:134|365:167,1,143.999995605469,10|0,0:0|0:0,0:0:0:0:
280,254,322598,1,10,0:0:0:0:
149,319,322782,1,0,0:0:0:0:
68,227,322966,6,0,L|68:132,1,71.9999978027344,2|0,0:0|0:0,0:0:0:0:
4,62,323334,1,8,0:0:0:0:
122,93,323518,2,0,P|164:115|202:118,1,71.9999978027344,10|0,0:0|0:0,0:0:0:0:
302,64,323886,2,0,P|337:71|367:89,1,71.9999978027344,10|0,0:0|0:0,0:0:0:0:
290,178,324254,6,0,P|337:208|437:197,1,143.999995605469,4|0,0:0|0:0,0:0:0:0:
250,261,324806,2,0,P|192:264|164:250,1,71.9999978027344,10|0,0:0|0:0,0:0:0:0:
18,254,325174,1,10,0:0:0:0:
114,109,325358,1,0,0:0:0:0:
350,165,325543,1,10,0:0:0:0:
223,92,325727,5,8,0:0:0:0:
223,92,325819,1,8,0:0:0:0:
223,92,325911,2,0,P|197:161|226:227,2,143.999995605469,2|8|2,0:0|0:0|0:0,0:0:0:0:
339,54,326831,1,0,0:0:0:0:
439,124,327015,2,0,P|446:176|438:203,1,71.9999978027344,8|0,0:0|0:0,0:0:0:0:
308,271,327383,5,2,0:0:0:0:
187,116,327567,1,0,0:0:0:0:
359,159,327751,1,8,0:0:0:0:
112,213,327935,1,8,0:0:0:0:
345,269,328119,5,2,0:0:0:0:
369,73,328303,1,0,0:0:0:0:
460,225,328487,1,8,0:0:0:0:
247,89,328671,1,0,0:0:0:0:
81,229,328855,6,0,P|163:212|235:229,1,143.999995605469,2|8,0:0|0:0,0:0:0:0:
284,343,329408,1,8,0:0:0:0:
164,192,329592,2,0,P|161:156|169:114,1,71.9999978027344,2|0,0:0|0:0,0:0:0:0:
67,49,329960,1,8,0:0:0:0:
246,107,330144,1,2,0:0:0:0:
345,204,330328,6,0,P|384:225|416:232,1,71.9999978027344,2|0,0:0|0:0,0:0:0:0:
421,109,330696,1,10,0:0:0:0:
265,234,330880,1,8,0:0:0:0:
212,303,331064,2,0,P|157:271|137:243,1,71.9999978027344
26,160,331432,1,8,0:0:0:0:
207,100,331616,1,8,0:0:0:0:
207,100,331708,1,8,0:0:0:0:
207,100,331800,6,0,P|232:125|246:163,1,71.9999978027344,4|0,0:0|0:0,0:0:0:0:
372,203,332168,1,8,0:0:0:0:
155,165,332352,1,10,0:0:0:0:
48,224,332536,2,0,P|104:278|179:290,1,143.999995605469,2|8,0:0|0:0,0:0:0:0:
61,128,333089,1,0,0:0:0:0:
249,276,333273,5,2,0:0:0:0:
155,165,333457,1,0,0:0:0:0:
313,200,333641,1,8,0:0:0:0:
451,133,333825,2,0,P|374:96|311:101,1,143.999995605469,10|0,0:0|0:0,0:0:0:0:
387,199,334377,6,0,P|331:221|290:219,1,71.9999978027344,8|0,0:0|0:0,0:0:0:0:
201,254,334745,1,10,0:0:0:0:
127,156,334929,1,8,0:0:0:0:
314,141,335113,1,8,0:0:0:0:
112,242,335297,1,10,0:0:0:0:
201,79,335481,1,8,0:0:0:0:
395,184,335665,1,8,0:0:0:0:
191,288,335849,1,10,0:0:0:0:
289,82,336033,1,8,0:0:0:0:
289,82,336125,1,8,0:0:0:0:
289,82,336217,5,10,0:0:0:0:
91,133,336401,1,8,0:0:0:0:
347,253,336585,1,8,0:0:0:0:
200,54,336769,1,10,0:0:0:0:
5,194,336954,1,8,0:0:0:0:
323,197,337138,1,8,0:0:0:0:
91,133,337322,1,10,0:0:0:0:
246,318,337506,1,8,0:0:0:0:
386,80,337690,5,10,0:0:0:0:
128,136,337874,1,8,0:0:0:0:
439,263,338058,1,8,0:0:0:0:
133,293,338242,1,10,0:0:0:0:
389,178,338426,1,8,0:0:0:0:
174,36,338610,1,8,0:0:0:0:
344,259,338794,1,8,0:0:0:0:
41,177,338978,1,12,0:0:0:0:
