osu file format v14

[General]
AudioFilename: BPM100 - NAGISA.mp3
AudioLeadIn: 0
PreviewTime: 75710
Countdown: 0
SampleSet: None
StackLeniency: 0.2
Mode: 0
LetterboxInBreaks: 1
WidescreenStoryboard: 1

[Editor]
DistanceSpacing: 1.2
BeatDivisor: 4
GridSize: 16
TimelineZoom: 1

[Metadata]
Title:Slow Stream Practice Maps
TitleUnicode:Slow Stream Practice Maps
Artist:Various Artists
ArtistUnicode:Various Artists
Creator:RaneFire
Version:Nagisa BPM100
Source:
Tags:
BeatmapID:860627
BeatmapSetID:395444

[Difficulty]
HPDrainRate:4
CircleSize:4
OverallDifficulty:5
ApproachRate:7
SliderMultiplier:1.4
SliderTickRate:1

[Events]
//Background and Video events
0,0,"nagisa.jpg",0,0
//Break Periods
2,115517,133615
//Storyboard Layer 0 (Background)
//Storyboard Layer 1 (Fail)
//Storyboard Layer 2 (Pass)
//Storyboard Layer 3 (Foreground)
//Storyboard Sound Samples

[TimingPoints]
19324,599.958002939794,4,2,1,50,1,0
55321,-100,4,2,1,35,0,0
56521,-100,4,2,1,42,0,0
57721,-100,4,2,1,50,0,0
74520,-100,4,2,1,35,0,0
75720,-100,4,2,1,50,0,1
76919,-100,4,2,1,70,0,1
91318,-100,4,2,1,70,0,0
92518,-100,4,2,1,50,0,0
93118,-100,4,2,1,35,0,0
94918,-100,4,2,1,50,0,0
95518,-100,4,2,1,70,0,0
96118,-100,4,2,1,70,0,1
110517,-100,4,2,1,70,0,0
112317,-100,4,2,1,50,0,0
114117,-100,4,2,1,35,0,0
114717,-100,4,2,1,20,0,0
115317,-100,4,2,1,5,0,0
134515,-100,4,2,1,50,0,0
153714,-100,4,2,1,50,0,0
172913,-100,4,2,1,50,0,0
192111,-100,4,2,1,50,0,0
201711,-100,4,2,1,45,0,0
204111,-100,4,2,1,40,0,0
206510,-100,4,2,2,35,0,0
208910,-100,4,2,2,30,0,0
211310,-100,4,2,2,25,0,0
213710,-100,4,2,2,5,0,0

[HitObjects]
128,64,125,5,2,0:0:0:0:
144,64,275,1,0,0:0:0:0:
160,64,425,1,0,0:0:0:0:
176,64,575,1,0,0:0:0:0:
192,64,725,1,2,0:0:0:0:
208,64,875,1,0,0:0:0:0:
224,64,1025,1,0,0:0:0:0:
240,64,1175,1,0,0:0:0:0:
256,64,1325,5,2,0:0:0:0:
272,64,1475,1,0,0:0:0:0:
288,64,1625,1,0,0:0:0:0:
304,64,1775,1,0,0:0:0:0:
320,64,1925,1,2,0:0:0:0:
336,64,2075,1,0,0:0:0:0:
352,64,2225,1,0,0:0:0:0:
368,64,2375,1,0,0:0:0:0:
384,64,2525,5,2,0:0:0:0:
384,80,2675,1,0,0:0:0:0:
384,96,2825,1,0,0:0:0:0:
384,112,2975,1,0,0:0:0:0:
384,128,3125,1,2,0:0:0:0:
384,144,3275,1,0,0:0:0:0:
384,160,3425,1,0,0:0:0:0:
384,176,3575,1,0,0:0:0:0:
384,192,3725,5,2,0:0:0:0:
384,208,3875,1,0,0:0:0:0:
384,224,4025,1,0,0:0:0:0:
384,240,4175,1,0,0:0:0:0:
384,256,4325,1,2,0:0:0:0:
384,272,4475,1,0,0:0:0:0:
384,288,4625,1,0,0:0:0:0:
384,304,4775,1,0,0:0:0:0:
384,320,4925,5,2,0:0:0:0:
368,320,5074,1,0,0:0:0:0:
352,320,5224,1,0,0:0:0:0:
336,320,5374,1,0,0:0:0:0:
320,320,5524,1,2,0:0:0:0:
304,320,5674,1,0,0:0:0:0:
288,320,5824,1,0,0:0:0:0:
272,320,5974,1,0,0:0:0:0:
256,320,6124,5,2,0:0:0:0:
240,320,6274,1,0,0:0:0:0:
224,320,6424,1,0,0:0:0:0:
208,320,6574,1,0,0:0:0:0:
192,320,6724,1,2,0:0:0:0:
176,320,6874,1,0,0:0:0:0:
160,320,7024,1,0,0:0:0:0:
144,320,7174,1,0,0:0:0:0:
128,320,7324,5,2,0:0:0:0:
128,304,7474,1,0,0:0:0:0:
128,288,7624,1,0,0:0:0:0:
128,272,7774,1,0,0:0:0:0:
128,256,7924,1,2,0:0:0:0:
128,240,8074,1,0,0:0:0:0:
128,224,8224,1,0,0:0:0:0:
128,208,8374,1,0,0:0:0:0:
128,192,8524,5,2,0:0:0:0:
128,176,8674,1,0,0:0:0:0:
128,160,8824,1,0,0:0:0:0:
128,144,8974,1,0,0:0:0:0:
128,128,9124,1,2,0:0:0:0:
128,112,9274,1,0,0:0:0:0:
128,96,9424,1,0,0:0:0:0:
128,80,9574,1,0,0:0:0:0:
128,64,9724,5,2,0:0:0:0:
144,64,9874,1,0,0:0:0:0:
160,64,10024,1,0,0:0:0:0:
176,64,10174,1,0,0:0:0:0:
192,64,10324,1,2,0:0:0:0:
208,64,10474,1,0,0:0:0:0:
224,64,10624,1,0,0:0:0:0:
240,64,10774,1,0,0:0:0:0:
256,64,10924,5,2,0:0:0:0:
272,64,11074,1,0,0:0:0:0:
288,64,11224,1,0,0:0:0:0:
304,64,11374,1,0,0:0:0:0:
320,64,11524,1,2,0:0:0:0:
336,64,11674,1,0,0:0:0:0:
352,64,11824,1,0,0:0:0:0:
368,64,11974,1,0,0:0:0:0:
384,64,12124,5,2,0:0:0:0:
384,80,12274,1,0,0:0:0:0:
384,96,12424,1,0,0:0:0:0:
384,112,12574,1,0,0:0:0:0:
384,128,12724,1,2,0:0:0:0:
384,144,12874,1,0,0:0:0:0:
384,160,13024,1,0,0:0:0:0:
384,176,13174,1,0,0:0:0:0:
384,192,13324,5,2,0:0:0:0:
384,208,13474,1,0,0:0:0:0:
384,224,13624,1,0,0:0:0:0:
384,240,13774,1,0,0:0:0:0:
384,256,13924,1,2,0:0:0:0:
384,272,14074,1,0,0:0:0:0:
384,288,14224,1,0,0:0:0:0:
384,304,14374,1,0,0:0:0:0:
384,320,14524,5,2,0:0:0:0:
368,320,14673,1,0,0:0:0:0:
352,320,14823,1,0,0:0:0:0:
336,320,14973,1,0,0:0:0:0:
320,320,15123,1,2,0:0:0:0:
304,320,15273,1,0,0:0:0:0:
288,320,15423,1,0,0:0:0:0:
272,320,15573,1,0,0:0:0:0:
256,320,15723,5,2,0:0:0:0:
240,320,15873,1,0,0:0:0:0:
224,320,16023,1,0,0:0:0:0:
208,320,16173,1,0,0:0:0:0:
192,320,16323,1,2,0:0:0:0:
176,320,16473,1,0,0:0:0:0:
160,320,16623,1,0,0:0:0:0:
144,320,16773,1,0,0:0:0:0:
128,320,16923,5,2,0:0:0:0:
128,304,17073,1,0,0:0:0:0:
128,288,17223,1,0,0:0:0:0:
128,272,17373,1,0,0:0:0:0:
128,256,17523,1,2,0:0:0:0:
128,240,17673,1,0,0:0:0:0:
128,224,17823,1,0,0:0:0:0:
128,208,17973,1,0,0:0:0:0:
128,192,18123,5,2,0:0:0:0:
128,176,18273,1,0,0:0:0:0:
128,160,18423,1,0,0:0:0:0:
128,144,18573,1,0,0:0:0:0:
128,128,18723,1,2,0:0:0:0:
128,112,18873,1,0,0:0:0:0:
128,96,19023,1,0,0:0:0:0:
128,80,19173,1,0,0:0:0:0:
128,64,19323,5,2,0:0:0:0:
144,64,19473,1,0,0:0:0:0:
160,64,19623,1,0,0:0:0:0:
176,64,19773,1,0,0:0:0:0:
192,64,19923,1,2,0:0:0:0:
208,64,20073,1,0,0:0:0:0:
224,64,20223,1,0,0:0:0:0:
240,64,20373,1,0,0:0:0:0:
256,64,20523,5,2,0:0:0:0:
272,64,20673,1,0,0:0:0:0:
288,64,20823,1,0,0:0:0:0:
304,64,20973,1,0,0:0:0:0:
320,64,21123,1,2,0:0:0:0:
336,64,21273,1,0,0:0:0:0:
352,64,21423,1,0,0:0:0:0:
368,64,21573,1,0,0:0:0:0:
384,64,21723,5,2,0:0:0:0:
384,80,21873,1,0,0:0:0:0:
384,96,22023,1,0,0:0:0:0:
384,112,22173,1,0,0:0:0:0:
384,128,22323,1,2,0:0:0:0:
384,144,22473,1,0,0:0:0:0:
384,160,22623,1,0,0:0:0:0:
384,176,22773,1,0,0:0:0:0:
384,192,22923,5,2,0:0:0:0:
384,208,23073,1,0,0:0:0:0:
384,224,23223,1,0,0:0:0:0:
384,240,23373,1,0,0:0:0:0:
384,256,23523,1,2,0:0:0:0:
384,272,23673,1,0,0:0:0:0:
384,288,23823,1,0,0:0:0:0:
384,304,23973,1,0,0:0:0:0:
384,320,24123,5,2,0:0:0:0:
368,320,24272,1,0,0:0:0:0:
352,320,24422,1,0,0:0:0:0:
336,320,24572,1,0,0:0:0:0:
320,320,24722,1,2,0:0:0:0:
304,320,24872,1,0,0:0:0:0:
288,320,25022,1,0,0:0:0:0:
272,320,25172,1,0,0:0:0:0:
256,320,25322,5,2,0:0:0:0:
240,320,25472,1,0,0:0:0:0:
224,320,25622,1,0,0:0:0:0:
208,320,25772,1,0,0:0:0:0:
192,320,25922,1,2,0:0:0:0:
176,320,26072,1,0,0:0:0:0:
160,320,26222,1,0,0:0:0:0:
144,320,26372,1,0,0:0:0:0:
128,320,26522,5,2,0:0:0:0:
128,304,26672,1,0,0:0:0:0:
128,288,26822,1,0,0:0:0:0:
128,272,26972,1,0,0:0:0:0:
128,256,27122,1,2,0:0:0:0:
128,240,27272,1,0,0:0:0:0:
128,224,27422,1,0,0:0:0:0:
128,208,27572,1,0,0:0:0:0:
128,192,27722,5,2,0:0:0:0:
128,176,27872,1,0,0:0:0:0:
128,160,28022,1,0,0:0:0:0:
128,144,28172,1,0,0:0:0:0:
128,128,28322,1,2,0:0:0:0:
128,112,28472,1,0,0:0:0:0:
128,96,28622,1,0,0:0:0:0:
128,80,28772,1,0,0:0:0:0:
128,64,28923,5,2,0:0:0:0:
144,64,29073,1,0,0:0:0:0:
160,64,29223,1,0,0:0:0:0:
176,64,29373,1,0,0:0:0:0:
192,64,29523,1,2,0:0:0:0:
208,64,29673,1,0,0:0:0:0:
224,64,29823,1,0,0:0:0:0:
240,64,29973,1,0,0:0:0:0:
256,64,30123,5,2,0:0:0:0:
272,64,30273,1,0,0:0:0:0:
288,64,30423,1,0,0:0:0:0:
304,64,30573,1,0,0:0:0:0:
320,64,30723,1,2,0:0:0:0:
336,64,30873,1,0,0:0:0:0:
352,64,31023,1,0,0:0:0:0:
368,64,31173,1,0,0:0:0:0:
384,64,31323,5,2,0:0:0:0:
384,80,31473,1,0,0:0:0:0:
384,96,31623,1,0,0:0:0:0:
384,112,31773,1,0,0:0:0:0:
384,128,31923,1,2,0:0:0:0:
384,144,32073,1,0,0:0:0:0:
384,160,32223,1,0,0:0:0:0:
384,176,32373,1,0,0:0:0:0:
384,192,32523,5,2,0:0:0:0:
384,208,32673,1,0,0:0:0:0:
384,224,32823,1,0,0:0:0:0:
384,240,32973,1,0,0:0:0:0:
384,256,33123,1,2,0:0:0:0:
384,272,33273,1,0,0:0:0:0:
384,288,33423,1,0,0:0:0:0:
384,304,33573,1,0,0:0:0:0:
384,320,33723,5,2,0:0:0:0:
368,320,33872,1,0,0:0:0:0:
352,320,34022,1,0,0:0:0:0:
336,320,34172,1,0,0:0:0:0:
320,320,34322,1,2,0:0:0:0:
304,320,34472,1,0,0:0:0:0:
288,320,34622,1,0,0:0:0:0:
272,320,34772,1,0,0:0:0:0:
256,320,34922,5,2,0:0:0:0:
240,320,35072,1,0,0:0:0:0:
224,320,35222,1,0,0:0:0:0:
208,320,35372,1,0,0:0:0:0:
192,320,35522,1,2,0:0:0:0:
176,320,35672,1,0,0:0:0:0:
160,320,35822,1,0,0:0:0:0:
144,320,35972,1,0,0:0:0:0:
128,320,36122,5,2,0:0:0:0:
128,304,36272,1,0,0:0:0:0:
128,288,36422,1,0,0:0:0:0:
128,272,36572,1,0,0:0:0:0:
128,256,36722,1,2,0:0:0:0:
128,240,36872,1,0,0:0:0:0:
128,224,37022,1,0,0:0:0:0:
128,208,37172,1,0,0:0:0:0:
128,192,37322,5,2,0:0:0:0:
128,176,37472,1,0,0:0:0:0:
128,160,37622,1,0,0:0:0:0:
128,144,37772,1,0,0:0:0:0:
128,128,37922,1,2,0:0:0:0:
128,112,38072,1,0,0:0:0:0:
128,96,38222,1,0,0:0:0:0:
128,80,38372,1,0,0:0:0:0:
128,64,38522,5,2,0:0:0:0:
144,64,38672,1,0,0:0:0:0:
160,64,38822,1,0,0:0:0:0:
176,64,38972,1,0,0:0:0:0:
192,64,39122,1,2,0:0:0:0:
208,64,39272,1,0,0:0:0:0:
224,64,39422,1,0,0:0:0:0:
240,64,39572,1,0,0:0:0:0:
256,64,39722,5,2,0:0:0:0:
272,64,39872,1,0,0:0:0:0:
288,64,40022,1,0,0:0:0:0:
304,64,40172,1,0,0:0:0:0:
320,64,40322,1,2,0:0:0:0:
336,64,40472,1,0,0:0:0:0:
352,64,40622,1,0,0:0:0:0:
368,64,40772,1,0,0:0:0:0:
384,64,40922,5,2,0:0:0:0:
384,80,41072,1,0,0:0:0:0:
384,96,41222,1,0,0:0:0:0:
384,112,41372,1,0,0:0:0:0:
384,128,41522,1,2,0:0:0:0:
384,144,41672,1,0,0:0:0:0:
384,160,41822,1,0,0:0:0:0:
384,176,41972,1,0,0:0:0:0:
384,192,42122,5,2,0:0:0:0:
384,208,42272,1,0,0:0:0:0:
384,224,42422,1,0,0:0:0:0:
384,240,42572,1,0,0:0:0:0:
384,256,42722,1,2,0:0:0:0:
384,272,42872,1,0,0:0:0:0:
384,288,43022,1,0,0:0:0:0:
384,304,43172,1,0,0:0:0:0:
384,320,43322,5,2,0:0:0:0:
368,320,43471,1,0,0:0:0:0:
352,320,43621,1,0,0:0:0:0:
336,320,43771,1,0,0:0:0:0:
320,320,43921,1,2,0:0:0:0:
304,320,44071,1,0,0:0:0:0:
288,320,44221,1,0,0:0:0:0:
272,320,44371,1,0,0:0:0:0:
256,320,44521,5,2,0:0:0:0:
240,320,44671,1,0,0:0:0:0:
224,320,44821,1,0,0:0:0:0:
208,320,44971,1,0,0:0:0:0:
192,320,45121,1,2,0:0:0:0:
176,320,45271,1,0,0:0:0:0:
160,320,45421,1,0,0:0:0:0:
144,320,45571,1,0,0:0:0:0:
128,320,45721,5,2,0:0:0:0:
128,304,45871,1,0,0:0:0:0:
128,288,46021,1,0,0:0:0:0:
128,272,46171,1,0,0:0:0:0:
128,256,46321,1,2,0:0:0:0:
128,240,46471,1,0,0:0:0:0:
128,224,46621,1,0,0:0:0:0:
128,208,46771,1,0,0:0:0:0:
128,192,46921,5,2,0:0:0:0:
128,176,47071,1,0,0:0:0:0:
128,160,47221,1,0,0:0:0:0:
128,144,47371,1,0,0:0:0:0:
128,128,47521,1,2,0:0:0:0:
128,112,47671,1,0,0:0:0:0:
128,96,47821,1,0,0:0:0:0:
128,80,47971,1,0,0:0:0:0:
128,64,48121,5,2,0:0:0:0:
144,64,48271,1,0,0:0:0:0:
160,64,48421,1,0,0:0:0:0:
176,64,48571,1,0,0:0:0:0:
192,64,48721,1,2,0:0:0:0:
208,64,48871,1,0,0:0:0:0:
224,64,49021,1,0,0:0:0:0:
240,64,49171,1,0,0:0:0:0:
256,64,49321,5,2,0:0:0:0:
272,64,49471,1,0,0:0:0:0:
288,64,49621,1,0,0:0:0:0:
304,64,49771,1,0,0:0:0:0:
320,64,49921,1,2,0:0:0:0:
336,64,50071,1,0,0:0:0:0:
352,64,50221,1,0,0:0:0:0:
368,64,50371,1,0,0:0:0:0:
384,64,50521,5,2,0:0:0:0:
384,80,50671,1,0,0:0:0:0:
384,96,50821,1,0,0:0:0:0:
384,112,50971,1,0,0:0:0:0:
384,128,51121,1,2,0:0:0:0:
384,144,51271,1,0,0:0:0:0:
384,160,51421,1,0,0:0:0:0:
384,176,51571,1,0,0:0:0:0:
384,192,51721,5,2,0:0:0:0:
384,208,51871,1,0,0:0:0:0:
384,224,52021,1,0,0:0:0:0:
384,240,52171,1,0,0:0:0:0:
384,256,52321,1,2,0:0:0:0:
384,272,52471,1,0,0:0:0:0:
384,288,52621,1,0,0:0:0:0:
384,304,52771,1,0,0:0:0:0:
384,320,52921,5,2,0:0:0:0:
368,320,53070,1,0,0:0:0:0:
352,320,53220,1,0,0:0:0:0:
336,320,53370,1,0,0:0:0:0:
320,320,53520,1,2,0:0:0:0:
304,320,53670,1,0,0:0:0:0:
288,320,53820,1,0,0:0:0:0:
272,320,53970,1,0,0:0:0:0:
256,320,54120,5,2,0:0:0:0:
240,320,54270,1,0,0:0:0:0:
224,320,54420,1,0,0:0:0:0:
208,320,54570,1,0,0:0:0:0:
192,320,54720,1,2,0:0:0:0:
176,320,54870,1,0,0:0:0:0:
160,320,55020,1,0,0:0:0:0:
144,320,55170,1,0,0:0:0:0:
128,320,55320,5,2,0:0:0:0:
128,304,55470,1,0,0:0:0:0:
128,288,55620,1,0,0:0:0:0:
128,272,55770,1,0,0:0:0:0:
128,256,55920,1,2,0:0:0:0:
128,240,56070,1,0,0:0:0:0:
128,224,56220,1,0,0:0:0:0:
128,208,56370,1,0,0:0:0:0:
128,192,56520,5,2,0:0:0:0:
128,176,56670,1,0,0:0:0:0:
128,160,56820,1,0,0:0:0:0:
128,144,56970,1,0,0:0:0:0:
128,128,57120,1,2,0:0:0:0:
128,112,57270,1,0,0:0:0:0:
128,96,57420,1,0,0:0:0:0:
128,80,57570,1,0,0:0:0:0:
128,64,57721,5,2,0:0:0:0:
144,64,57871,1,0,0:0:0:0:
160,64,58021,1,0,0:0:0:0:
176,64,58171,1,0,0:0:0:0:
192,64,58321,1,2,0:0:0:0:
208,64,58471,1,0,0:0:0:0:
224,64,58621,1,0,0:0:0:0:
240,64,58771,1,0,0:0:0:0:
256,64,58921,5,2,0:0:0:0:
272,64,59071,1,0,0:0:0:0:
288,64,59221,1,0,0:0:0:0:
304,64,59371,1,0,0:0:0:0:
320,64,59521,1,2,0:0:0:0:
336,64,59671,1,0,0:0:0:0:
352,64,59821,1,0,0:0:0:0:
368,64,59971,1,0,0:0:0:0:
384,64,60121,5,2,0:0:0:0:
384,80,60271,1,0,0:0:0:0:
384,96,60421,1,0,0:0:0:0:
384,112,60571,1,0,0:0:0:0:
384,128,60721,1,2,0:0:0:0:
384,144,60871,1,0,0:0:0:0:
384,160,61021,1,0,0:0:0:0:
384,176,61171,1,0,0:0:0:0:
384,192,61321,5,2,0:0:0:0:
384,208,61471,1,0,0:0:0:0:
384,224,61621,1,0,0:0:0:0:
384,240,61771,1,0,0:0:0:0:
384,256,61921,1,2,0:0:0:0:
384,272,62071,1,0,0:0:0:0:
384,288,62221,1,0,0:0:0:0:
384,304,62371,1,0,0:0:0:0:
384,320,62521,5,2,0:0:0:0:
368,320,62670,1,0,0:0:0:0:
352,320,62820,1,0,0:0:0:0:
336,320,62970,1,0,0:0:0:0:
320,320,63120,1,2,0:0:0:0:
304,320,63270,1,0,0:0:0:0:
288,320,63420,1,0,0:0:0:0:
272,320,63570,1,0,0:0:0:0:
256,320,63720,5,2,0:0:0:0:
240,320,63870,1,0,0:0:0:0:
224,320,64020,1,0,0:0:0:0:
208,320,64170,1,0,0:0:0:0:
192,320,64320,1,2,0:0:0:0:
176,320,64470,1,0,0:0:0:0:
160,320,64620,1,0,0:0:0:0:
144,320,64770,1,0,0:0:0:0:
128,320,64920,5,2,0:0:0:0:
128,304,65070,1,0,0:0:0:0:
128,288,65220,1,0,0:0:0:0:
128,272,65370,1,0,0:0:0:0:
128,256,65520,1,2,0:0:0:0:
128,240,65670,1,0,0:0:0:0:
128,224,65820,1,0,0:0:0:0:
128,208,65970,1,0,0:0:0:0:
128,192,66120,5,2,0:0:0:0:
128,176,66270,1,0,0:0:0:0:
128,160,66420,1,0,0:0:0:0:
128,144,66570,1,0,0:0:0:0:
128,128,66720,1,2,0:0:0:0:
128,112,66870,1,0,0:0:0:0:
128,96,67020,1,0,0:0:0:0:
128,80,67170,1,0,0:0:0:0:
128,64,67320,5,2,0:0:0:0:
144,64,67470,1,0,0:0:0:0:
160,64,67620,1,0,0:0:0:0:
176,64,67770,1,0,0:0:0:0:
192,64,67920,1,2,0:0:0:0:
208,64,68070,1,0,0:0:0:0:
224,64,68220,1,0,0:0:0:0:
240,64,68370,1,0,0:0:0:0:
256,64,68520,5,2,0:0:0:0:
272,64,68670,1,0,0:0:0:0:
288,64,68820,1,0,0:0:0:0:
304,64,68970,1,0,0:0:0:0:
320,64,69120,1,2,0:0:0:0:
336,64,69270,1,0,0:0:0:0:
352,64,69420,1,0,0:0:0:0:
368,64,69570,1,0,0:0:0:0:
384,64,69720,5,2,0:0:0:0:
384,80,69870,1,0,0:0:0:0:
384,96,70020,1,0,0:0:0:0:
384,112,70170,1,0,0:0:0:0:
384,128,70320,1,2,0:0:0:0:
384,144,70470,1,0,0:0:0:0:
384,160,70620,1,0,0:0:0:0:
384,176,70770,1,0,0:0:0:0:
384,192,70920,5,2,0:0:0:0:
384,208,71070,1,0,0:0:0:0:
384,224,71220,1,0,0:0:0:0:
384,240,71370,1,0,0:0:0:0:
384,256,71520,1,2,0:0:0:0:
384,272,71670,1,0,0:0:0:0:
384,288,71820,1,0,0:0:0:0:
384,304,71970,1,0,0:0:0:0:
384,320,72120,5,2,0:0:0:0:
368,320,72269,1,0,0:0:0:0:
352,320,72419,1,0,0:0:0:0:
336,320,72569,1,0,0:0:0:0:
320,320,72719,1,2,0:0:0:0:
304,320,72869,1,0,0:0:0:0:
288,320,73019,1,0,0:0:0:0:
272,320,73169,1,0,0:0:0:0:
256,320,73319,5,2,0:0:0:0:
240,320,73469,1,0,0:0:0:0:
224,320,73619,1,0,0:0:0:0:
208,320,73769,1,0,0:0:0:0:
192,320,73919,1,2,0:0:0:0:
176,320,74069,1,0,0:0:0:0:
160,320,74219,1,0,0:0:0:0:
144,320,74369,1,0,0:0:0:0:
128,320,74519,5,2,0:0:0:0:
128,304,74669,1,0,0:0:0:0:
128,288,74819,1,0,0:0:0:0:
128,272,74969,1,0,0:0:0:0:
128,256,75119,1,2,0:0:0:0:
128,240,75269,1,0,0:0:0:0:
128,224,75419,1,0,0:0:0:0:
128,208,75569,1,0,0:0:0:0:
128,192,75719,5,2,0:0:0:0:
128,176,75869,1,0,0:0:0:0:
128,160,76019,1,0,0:0:0:0:
128,144,76169,1,0,0:0:0:0:
128,128,76319,1,2,0:0:0:0:
128,112,76469,1,0,0:0:0:0:
128,96,76619,1,0,0:0:0:0:
128,80,76769,1,0,0:0:0:0:
128,64,76919,5,2,0:0:0:0:
144,64,77069,1,0,0:0:0:0:
160,64,77219,1,0,0:0:0:0:
176,64,77369,1,0,0:0:0:0:
192,64,77519,1,2,0:0:0:0:
208,64,77669,1,0,0:0:0:0:
224,64,77819,1,0,0:0:0:0:
240,64,77969,1,0,0:0:0:0:
256,64,78119,5,2,0:0:0:0:
272,64,78269,1,0,0:0:0:0:
288,64,78419,1,0,0:0:0:0:
304,64,78569,1,0,0:0:0:0:
320,64,78719,1,2,0:0:0:0:
336,64,78869,1,0,0:0:0:0:
352,64,79019,1,0,0:0:0:0:
368,64,79169,1,0,0:0:0:0:
384,64,79319,5,2,0:0:0:0:
384,80,79469,1,0,0:0:0:0:
384,96,79619,1,0,0:0:0:0:
384,112,79769,1,0,0:0:0:0:
384,128,79919,1,2,0:0:0:0:
384,144,80069,1,0,0:0:0:0:
384,160,80219,1,0,0:0:0:0:
384,176,80369,1,0,0:0:0:0:
384,192,80519,5,2,0:0:0:0:
384,208,80669,1,0,0:0:0:0:
384,224,80819,1,0,0:0:0:0:
384,240,80969,1,0,0:0:0:0:
384,256,81119,1,2,0:0:0:0:
384,272,81269,1,0,0:0:0:0:
384,288,81419,1,0,0:0:0:0:
384,304,81569,1,0,0:0:0:0:
384,320,81719,5,2,0:0:0:0:
368,320,81868,1,0,0:0:0:0:
352,320,82018,1,0,0:0:0:0:
336,320,82168,1,0,0:0:0:0:
320,320,82318,1,2,0:0:0:0:
304,320,82468,1,0,0:0:0:0:
288,320,82618,1,0,0:0:0:0:
272,320,82768,1,0,0:0:0:0:
256,320,82918,5,2,0:0:0:0:
240,320,83068,1,0,0:0:0:0:
224,320,83218,1,0,0:0:0:0:
208,320,83368,1,0,0:0:0:0:
192,320,83518,1,2,0:0:0:0:
176,320,83668,1,0,0:0:0:0:
160,320,83818,1,0,0:0:0:0:
144,320,83968,1,0,0:0:0:0:
128,320,84118,5,2,0:0:0:0:
128,304,84268,1,0,0:0:0:0:
128,288,84418,1,0,0:0:0:0:
128,272,84568,1,0,0:0:0:0:
128,256,84718,1,2,0:0:0:0:
128,240,84868,1,0,0:0:0:0:
128,224,85018,1,0,0:0:0:0:
128,208,85168,1,0,0:0:0:0:
128,192,85318,5,2,0:0:0:0:
128,176,85468,1,0,0:0:0:0:
128,160,85618,1,0,0:0:0:0:
128,144,85768,1,0,0:0:0:0:
128,128,85918,1,2,0:0:0:0:
128,112,86068,1,0,0:0:0:0:
128,96,86218,1,0,0:0:0:0:
128,80,86368,1,0,0:0:0:0:
128,64,86519,5,2,0:0:0:0:
144,64,86669,1,0,0:0:0:0:
160,64,86819,1,0,0:0:0:0:
176,64,86969,1,0,0:0:0:0:
192,64,87119,1,2,0:0:0:0:
208,64,87269,1,0,0:0:0:0:
224,64,87419,1,0,0:0:0:0:
240,64,87569,1,0,0:0:0:0:
256,64,87719,5,2,0:0:0:0:
272,64,87869,1,0,0:0:0:0:
288,64,88019,1,0,0:0:0:0:
304,64,88169,1,0,0:0:0:0:
320,64,88319,1,2,0:0:0:0:
336,64,88469,1,0,0:0:0:0:
352,64,88619,1,0,0:0:0:0:
368,64,88769,1,0,0:0:0:0:
384,64,88919,5,2,0:0:0:0:
384,80,89069,1,0,0:0:0:0:
384,96,89219,1,0,0:0:0:0:
384,112,89369,1,0,0:0:0:0:
384,128,89519,1,2,0:0:0:0:
384,144,89669,1,0,0:0:0:0:
384,160,89819,1,0,0:0:0:0:
384,176,89969,1,0,0:0:0:0:
384,192,90119,5,2,0:0:0:0:
384,208,90269,1,0,0:0:0:0:
384,224,90419,1,0,0:0:0:0:
384,240,90569,1,0,0:0:0:0:
384,256,90719,1,2,0:0:0:0:
384,272,90869,1,0,0:0:0:0:
384,288,91019,1,0,0:0:0:0:
384,304,91169,1,0,0:0:0:0:
384,320,91319,5,2,0:0:0:0:
368,320,91468,1,0,0:0:0:0:
352,320,91618,1,0,0:0:0:0:
336,320,91768,1,0,0:0:0:0:
320,320,91918,1,2,0:0:0:0:
304,320,92068,1,0,0:0:0:0:
288,320,92218,1,0,0:0:0:0:
272,320,92368,1,0,0:0:0:0:
256,320,92518,5,2,0:0:0:0:
240,320,92668,1,0,0:0:0:0:
224,320,92818,1,0,0:0:0:0:
208,320,92968,1,0,0:0:0:0:
192,320,93118,1,2,0:0:0:0:
176,320,93268,1,0,0:0:0:0:
160,320,93418,1,0,0:0:0:0:
144,320,93568,1,0,0:0:0:0:
128,320,93718,5,2,0:0:0:0:
128,304,93868,1,0,0:0:0:0:
128,288,94018,1,0,0:0:0:0:
128,272,94168,1,0,0:0:0:0:
128,256,94318,1,2,0:0:0:0:
128,240,94468,1,0,0:0:0:0:
128,224,94618,1,0,0:0:0:0:
128,208,94768,1,0,0:0:0:0:
128,192,94918,5,2,0:0:0:0:
128,176,95068,1,0,0:0:0:0:
128,160,95218,1,0,0:0:0:0:
128,144,95368,1,0,0:0:0:0:
128,128,95518,1,2,0:0:0:0:
128,112,95668,1,0,0:0:0:0:
128,96,95818,1,0,0:0:0:0:
128,80,95968,1,0,0:0:0:0:
128,64,96118,5,2,0:0:0:0:
144,64,96268,1,0,0:0:0:0:
160,64,96418,1,0,0:0:0:0:
176,64,96568,1,0,0:0:0:0:
192,64,96718,1,2,0:0:0:0:
208,64,96868,1,0,0:0:0:0:
224,64,97018,1,0,0:0:0:0:
240,64,97168,1,0,0:0:0:0:
256,64,97318,5,2,0:0:0:0:
272,64,97468,1,0,0:0:0:0:
288,64,97618,1,0,0:0:0:0:
304,64,97768,1,0,0:0:0:0:
320,64,97918,1,2,0:0:0:0:
336,64,98068,1,0,0:0:0:0:
352,64,98218,1,0,0:0:0:0:
368,64,98368,1,0,0:0:0:0:
384,64,98518,5,2,0:0:0:0:
384,80,98668,1,0,0:0:0:0:
384,96,98818,1,0,0:0:0:0:
384,112,98968,1,0,0:0:0:0:
384,128,99118,1,2,0:0:0:0:
384,144,99268,1,0,0:0:0:0:
384,160,99418,1,0,0:0:0:0:
384,176,99568,1,0,0:0:0:0:
384,192,99718,5,2,0:0:0:0:
384,208,99868,1,0,0:0:0:0:
384,224,100018,1,0,0:0:0:0:
384,240,100168,1,0,0:0:0:0:
384,256,100318,1,2,0:0:0:0:
384,272,100468,1,0,0:0:0:0:
384,288,100618,1,0,0:0:0:0:
384,304,100768,1,0,0:0:0:0:
384,320,100918,5,2,0:0:0:0:
368,320,101067,1,0,0:0:0:0:
352,320,101217,1,0,0:0:0:0:
336,320,101367,1,0,0:0:0:0:
320,320,101517,1,2,0:0:0:0:
304,320,101667,1,0,0:0:0:0:
288,320,101817,1,0,0:0:0:0:
272,320,101967,1,0,0:0:0:0:
256,320,102117,5,2,0:0:0:0:
240,320,102267,1,0,0:0:0:0:
224,320,102417,1,0,0:0:0:0:
208,320,102567,1,0,0:0:0:0:
192,320,102717,1,2,0:0:0:0:
176,320,102867,1,0,0:0:0:0:
160,320,103017,1,0,0:0:0:0:
144,320,103167,1,0,0:0:0:0:
128,320,103317,5,2,0:0:0:0:
128,304,103467,1,0,0:0:0:0:
128,288,103617,1,0,0:0:0:0:
128,272,103767,1,0,0:0:0:0:
128,256,103917,1,2,0:0:0:0:
128,240,104067,1,0,0:0:0:0:
128,224,104217,1,0,0:0:0:0:
128,208,104367,1,0,0:0:0:0:
128,192,104517,5,2,0:0:0:0:
128,176,104667,1,0,0:0:0:0:
128,160,104817,1,0,0:0:0:0:
128,144,104967,1,0,0:0:0:0:
128,128,105117,1,2,0:0:0:0:
128,112,105267,1,0,0:0:0:0:
128,96,105417,1,0,0:0:0:0:
128,80,105567,1,0,0:0:0:0:
128,64,105717,5,2,0:0:0:0:
144,64,105867,1,0,0:0:0:0:
160,64,106017,1,0,0:0:0:0:
176,64,106167,1,0,0:0:0:0:
192,64,106317,1,2,0:0:0:0:
208,64,106467,1,0,0:0:0:0:
224,64,106617,1,0,0:0:0:0:
240,64,106767,1,0,0:0:0:0:
256,64,106917,5,2,0:0:0:0:
272,64,107067,1,0,0:0:0:0:
288,64,107217,1,0,0:0:0:0:
304,64,107367,1,0,0:0:0:0:
320,64,107517,1,2,0:0:0:0:
336,64,107667,1,0,0:0:0:0:
352,64,107817,1,0,0:0:0:0:
368,64,107967,1,0,0:0:0:0:
384,64,108117,5,2,0:0:0:0:
384,80,108267,1,0,0:0:0:0:
384,96,108417,1,0,0:0:0:0:
384,112,108567,1,0,0:0:0:0:
384,128,108717,1,2,0:0:0:0:
384,144,108867,1,0,0:0:0:0:
384,160,109017,1,0,0:0:0:0:
384,176,109167,1,0,0:0:0:0:
384,192,109317,5,2,0:0:0:0:
384,208,109467,1,0,0:0:0:0:
384,224,109617,1,0,0:0:0:0:
384,240,109767,1,0,0:0:0:0:
384,256,109917,1,2,0:0:0:0:
384,272,110067,1,0,0:0:0:0:
384,288,110217,1,0,0:0:0:0:
384,304,110367,1,0,0:0:0:0:
384,320,110517,5,2,0:0:0:0:
368,320,110666,1,0,0:0:0:0:
352,320,110816,1,0,0:0:0:0:
336,320,110966,1,0,0:0:0:0:
320,320,111116,1,2,0:0:0:0:
304,320,111266,1,0,0:0:0:0:
288,320,111416,1,0,0:0:0:0:
272,320,111566,1,0,0:0:0:0:
256,320,111716,5,2,0:0:0:0:
240,320,111866,1,0,0:0:0:0:
224,320,112016,1,0,0:0:0:0:
208,320,112166,1,0,0:0:0:0:
192,320,112316,1,2,0:0:0:0:
176,320,112466,1,0,0:0:0:0:
160,320,112616,1,0,0:0:0:0:
144,320,112766,1,0,0:0:0:0:
128,320,112916,5,2,0:0:0:0:
128,304,113066,1,0,0:0:0:0:
128,288,113216,1,0,0:0:0:0:
128,272,113366,1,0,0:0:0:0:
128,256,113516,1,2,0:0:0:0:
128,240,113666,1,0,0:0:0:0:
128,224,113816,1,0,0:0:0:0:
128,208,113966,1,0,0:0:0:0:
128,192,114116,5,2,0:0:0:0:
128,176,114266,1,0,0:0:0:0:
128,160,114416,1,0,0:0:0:0:
128,144,114566,1,0,0:0:0:0:
128,128,114716,1,2,0:0:0:0:
128,112,114866,1,0,0:0:0:0:
128,96,115016,1,0,0:0:0:0:
128,80,115166,1,0,0:0:0:0:
128,64,115317,1,4,0:0:0:0:
128,64,134515,5,2,0:0:0:0:
144,64,134665,1,0,0:0:0:0:
160,64,134815,1,0,0:0:0:0:
176,64,134965,1,0,0:0:0:0:
192,64,135115,1,2,0:0:0:0:
208,64,135265,1,0,0:0:0:0:
224,64,135415,1,0,0:0:0:0:
240,64,135565,1,0,0:0:0:0:
256,64,135715,5,2,0:0:0:0:
272,64,135865,1,0,0:0:0:0:
288,64,136015,1,0,0:0:0:0:
304,64,136165,1,0,0:0:0:0:
320,64,136315,1,2,0:0:0:0:
336,64,136465,1,0,0:0:0:0:
352,64,136615,1,0,0:0:0:0:
368,64,136765,1,0,0:0:0:0:
384,64,136915,5,2,0:0:0:0:
384,80,137065,1,0,0:0:0:0:
384,96,137215,1,0,0:0:0:0:
384,112,137365,1,0,0:0:0:0:
384,128,137515,1,2,0:0:0:0:
384,144,137665,1,0,0:0:0:0:
384,160,137815,1,0,0:0:0:0:
384,176,137965,1,0,0:0:0:0:
384,192,138115,5,2,0:0:0:0:
384,208,138265,1,0,0:0:0:0:
384,224,138415,1,0,0:0:0:0:
384,240,138565,1,0,0:0:0:0:
384,256,138715,1,2,0:0:0:0:
384,272,138865,1,0,0:0:0:0:
384,288,139015,1,0,0:0:0:0:
384,304,139165,1,0,0:0:0:0:
384,320,139315,5,2,0:0:0:0:
368,320,139464,1,0,0:0:0:0:
352,320,139614,1,0,0:0:0:0:
336,320,139764,1,0,0:0:0:0:
320,320,139914,1,2,0:0:0:0:
304,320,140064,1,0,0:0:0:0:
288,320,140214,1,0,0:0:0:0:
272,320,140364,1,0,0:0:0:0:
256,320,140514,5,2,0:0:0:0:
240,320,140664,1,0,0:0:0:0:
224,320,140814,1,0,0:0:0:0:
208,320,140964,1,0,0:0:0:0:
192,320,141114,1,2,0:0:0:0:
176,320,141264,1,0,0:0:0:0:
160,320,141414,1,0,0:0:0:0:
144,320,141564,1,0,0:0:0:0:
128,320,141714,5,2,0:0:0:0:
128,304,141864,1,0,0:0:0:0:
128,288,142014,1,0,0:0:0:0:
128,272,142164,1,0,0:0:0:0:
128,256,142314,1,2,0:0:0:0:
128,240,142464,1,0,0:0:0:0:
128,224,142614,1,0,0:0:0:0:
128,208,142764,1,0,0:0:0:0:
128,192,142914,5,2,0:0:0:0:
128,176,143064,1,0,0:0:0:0:
128,160,143214,1,0,0:0:0:0:
128,144,143364,1,0,0:0:0:0:
128,128,143514,1,2,0:0:0:0:
128,112,143664,1,0,0:0:0:0:
128,96,143814,1,0,0:0:0:0:
128,80,143964,1,0,0:0:0:0:
128,64,144114,5,2,0:0:0:0:
144,64,144264,1,0,0:0:0:0:
160,64,144414,1,0,0:0:0:0:
176,64,144564,1,0,0:0:0:0:
192,64,144714,1,2,0:0:0:0:
208,64,144864,1,0,0:0:0:0:
224,64,145014,1,0,0:0:0:0:
240,64,145164,1,0,0:0:0:0:
256,64,145314,5,2,0:0:0:0:
272,64,145464,1,0,0:0:0:0:
288,64,145614,1,0,0:0:0:0:
304,64,145764,1,0,0:0:0:0:
320,64,145914,1,2,0:0:0:0:
336,64,146064,1,0,0:0:0:0:
352,64,146214,1,0,0:0:0:0:
368,64,146364,1,0,0:0:0:0:
384,64,146514,5,2,0:0:0:0:
384,80,146664,1,0,0:0:0:0:
384,96,146814,1,0,0:0:0:0:
384,112,146964,1,0,0:0:0:0:
384,128,147114,1,2,0:0:0:0:
384,144,147264,1,0,0:0:0:0:
384,160,147414,1,0,0:0:0:0:
384,176,147564,1,0,0:0:0:0:
384,192,147714,5,2,0:0:0:0:
384,208,147864,1,0,0:0:0:0:
384,224,148014,1,0,0:0:0:0:
384,240,148164,1,0,0:0:0:0:
384,256,148314,1,2,0:0:0:0:
384,272,148464,1,0,0:0:0:0:
384,288,148614,1,0,0:0:0:0:
384,304,148764,1,0,0:0:0:0:
384,320,148914,5,2,0:0:0:0:
368,320,149063,1,0,0:0:0:0:
352,320,149213,1,0,0:0:0:0:
336,320,149363,1,0,0:0:0:0:
320,320,149513,1,2,0:0:0:0:
304,320,149663,1,0,0:0:0:0:
288,320,149813,1,0,0:0:0:0:
272,320,149963,1,0,0:0:0:0:
256,320,150113,5,2,0:0:0:0:
240,320,150263,1,0,0:0:0:0:
224,320,150413,1,0,0:0:0:0:
208,320,150563,1,0,0:0:0:0:
192,320,150713,1,2,0:0:0:0:
176,320,150863,1,0,0:0:0:0:
160,320,151013,1,0,0:0:0:0:
144,320,151163,1,0,0:0:0:0:
128,320,151313,5,2,0:0:0:0:
128,304,151463,1,0,0:0:0:0:
128,288,151613,1,0,0:0:0:0:
128,272,151763,1,0,0:0:0:0:
128,256,151913,1,2,0:0:0:0:
128,240,152063,1,0,0:0:0:0:
128,224,152213,1,0,0:0:0:0:
128,208,152363,1,0,0:0:0:0:
128,192,152513,5,2,0:0:0:0:
128,176,152663,1,0,0:0:0:0:
128,160,152813,1,0,0:0:0:0:
128,144,152963,1,0,0:0:0:0:
128,128,153113,1,2,0:0:0:0:
128,112,153263,1,0,0:0:0:0:
128,96,153413,1,0,0:0:0:0:
128,80,153563,1,0,0:0:0:0:
128,64,153713,5,2,0:0:0:0:
144,64,153863,1,0,0:0:0:0:
160,64,154013,1,0,0:0:0:0:
176,64,154163,1,0,0:0:0:0:
192,64,154313,1,2,0:0:0:0:
208,64,154463,1,0,0:0:0:0:
224,64,154613,1,0,0:0:0:0:
240,64,154763,1,0,0:0:0:0:
256,64,154913,5,2,0:0:0:0:
272,64,155063,1,0,0:0:0:0:
288,64,155213,1,0,0:0:0:0:
304,64,155363,1,0,0:0:0:0:
320,64,155513,1,2,0:0:0:0:
336,64,155663,1,0,0:0:0:0:
352,64,155813,1,0,0:0:0:0:
368,64,155963,1,0,0:0:0:0:
384,64,156113,5,2,0:0:0:0:
384,80,156263,1,0,0:0:0:0:
384,96,156413,1,0,0:0:0:0:
384,112,156563,1,0,0:0:0:0:
384,128,156713,1,2,0:0:0:0:
384,144,156863,1,0,0:0:0:0:
384,160,157013,1,0,0:0:0:0:
384,176,157163,1,0,0:0:0:0:
384,192,157313,5,2,0:0:0:0:
384,208,157463,1,0,0:0:0:0:
384,224,157613,1,0,0:0:0:0:
384,240,157763,1,0,0:0:0:0:
384,256,157913,1,2,0:0:0:0:
384,272,158063,1,0,0:0:0:0:
384,288,158213,1,0,0:0:0:0:
384,304,158363,1,0,0:0:0:0:
384,320,158513,5,2,0:0:0:0:
368,320,158662,1,0,0:0:0:0:
352,320,158812,1,0,0:0:0:0:
336,320,158962,1,0,0:0:0:0:
320,320,159112,1,2,0:0:0:0:
304,320,159262,1,0,0:0:0:0:
288,320,159412,1,0,0:0:0:0:
272,320,159562,1,0,0:0:0:0:
256,320,159712,5,2,0:0:0:0:
240,320,159862,1,0,0:0:0:0:
224,320,160012,1,0,0:0:0:0:
208,320,160162,1,0,0:0:0:0:
192,320,160312,1,2,0:0:0:0:
176,320,160462,1,0,0:0:0:0:
160,320,160612,1,0,0:0:0:0:
144,320,160762,1,0,0:0:0:0:
128,320,160912,5,2,0:0:0:0:
128,304,161062,1,0,0:0:0:0:
128,288,161212,1,0,0:0:0:0:
128,272,161362,1,0,0:0:0:0:
128,256,161512,1,2,0:0:0:0:
128,240,161662,1,0,0:0:0:0:
128,224,161812,1,0,0:0:0:0:
128,208,161962,1,0,0:0:0:0:
128,192,162112,5,2,0:0:0:0:
128,176,162262,1,0,0:0:0:0:
128,160,162412,1,0,0:0:0:0:
128,144,162562,1,0,0:0:0:0:
128,128,162712,1,2,0:0:0:0:
128,112,162862,1,0,0:0:0:0:
128,96,163012,1,0,0:0:0:0:
128,80,163162,1,0,0:0:0:0:
128,64,163313,5,2,0:0:0:0:
144,64,163463,1,0,0:0:0:0:
160,64,163613,1,0,0:0:0:0:
176,64,163763,1,0,0:0:0:0:
192,64,163913,1,2,0:0:0:0:
208,64,164063,1,0,0:0:0:0:
224,64,164213,1,0,0:0:0:0:
240,64,164363,1,0,0:0:0:0:
256,64,164513,5,2,0:0:0:0:
272,64,164663,1,0,0:0:0:0:
288,64,164813,1,0,0:0:0:0:
304,64,164963,1,0,0:0:0:0:
320,64,165113,1,2,0:0:0:0:
336,64,165263,1,0,0:0:0:0:
352,64,165413,1,0,0:0:0:0:
368,64,165563,1,0,0:0:0:0:
384,64,165713,5,2,0:0:0:0:
384,80,165863,1,0,0:0:0:0:
384,96,166013,1,0,0:0:0:0:
384,112,166163,1,0,0:0:0:0:
384,128,166313,1,2,0:0:0:0:
384,144,166463,1,0,0:0:0:0:
384,160,166613,1,0,0:0:0:0:
384,176,166763,1,0,0:0:0:0:
384,192,166913,5,2,0:0:0:0:
384,208,167063,1,0,0:0:0:0:
384,224,167213,1,0,0:0:0:0:
384,240,167363,1,0,0:0:0:0:
384,256,167513,1,2,0:0:0:0:
384,272,167663,1,0,0:0:0:0:
384,288,167813,1,0,0:0:0:0:
384,304,167963,1,0,0:0:0:0:
384,320,168113,5,2,0:0:0:0:
368,320,168262,1,0,0:0:0:0:
352,320,168412,1,0,0:0:0:0:
336,320,168562,1,0,0:0:0:0:
320,320,168712,1,2,0:0:0:0:
304,320,168862,1,0,0:0:0:0:
288,320,169012,1,0,0:0:0:0:
272,320,169162,1,0,0:0:0:0:
256,320,169312,5,2,0:0:0:0:
240,320,169462,1,0,0:0:0:0:
224,320,169612,1,0,0:0:0:0:
208,320,169762,1,0,0:0:0:0:
192,320,169912,1,2,0:0:0:0:
176,320,170062,1,0,0:0:0:0:
160,320,170212,1,0,0:0:0:0:
144,320,170362,1,0,0:0:0:0:
128,320,170512,5,2,0:0:0:0:
128,304,170662,1,0,0:0:0:0:
128,288,170812,1,0,0:0:0:0:
128,272,170962,1,0,0:0:0:0:
128,256,171112,1,2,0:0:0:0:
128,240,171262,1,0,0:0:0:0:
128,224,171412,1,0,0:0:0:0:
128,208,171562,1,0,0:0:0:0:
128,192,171712,5,2,0:0:0:0:
128,176,171862,1,0,0:0:0:0:
128,160,172012,1,0,0:0:0:0:
128,144,172162,1,0,0:0:0:0:
128,128,172312,1,2,0:0:0:0:
128,112,172462,1,0,0:0:0:0:
128,96,172612,1,0,0:0:0:0:
128,80,172762,1,0,0:0:0:0:
128,64,172912,5,2,0:0:0:0:
144,64,173062,1,0,0:0:0:0:
160,64,173212,1,0,0:0:0:0:
176,64,173362,1,0,0:0:0:0:
192,64,173512,1,2,0:0:0:0:
208,64,173662,1,0,0:0:0:0:
224,64,173812,1,0,0:0:0:0:
240,64,173962,1,0,0:0:0:0:
256,64,174112,5,2,0:0:0:0:
272,64,174262,1,0,0:0:0:0:
288,64,174412,1,0,0:0:0:0:
304,64,174562,1,0,0:0:0:0:
320,64,174712,1,2,0:0:0:0:
336,64,174862,1,0,0:0:0:0:
352,64,175012,1,0,0:0:0:0:
368,64,175162,1,0,0:0:0:0:
384,64,175312,5,2,0:0:0:0:
384,80,175462,1,0,0:0:0:0:
384,96,175612,1,0,0:0:0:0:
384,112,175762,1,0,0:0:0:0:
384,128,175912,1,2,0:0:0:0:
384,144,176062,1,0,0:0:0:0:
384,160,176212,1,0,0:0:0:0:
384,176,176362,1,0,0:0:0:0:
384,192,176512,5,2,0:0:0:0:
384,208,176662,1,0,0:0:0:0:
384,224,176812,1,0,0:0:0:0:
384,240,176962,1,0,0:0:0:0:
384,256,177112,1,2,0:0:0:0:
384,272,177262,1,0,0:0:0:0:
384,288,177412,1,0,0:0:0:0:
384,304,177562,1,0,0:0:0:0:
384,320,177712,5,2,0:0:0:0:
368,320,177861,1,0,0:0:0:0:
352,320,178011,1,0,0:0:0:0:
336,320,178161,1,0,0:0:0:0:
320,320,178311,1,2,0:0:0:0:
304,320,178461,1,0,0:0:0:0:
288,320,178611,1,0,0:0:0:0:
272,320,178761,1,0,0:0:0:0:
256,320,178911,5,2,0:0:0:0:
240,320,179061,1,0,0:0:0:0:
224,320,179211,1,0,0:0:0:0:
208,320,179361,1,0,0:0:0:0:
192,320,179511,1,2,0:0:0:0:
176,320,179661,1,0,0:0:0:0:
160,320,179811,1,0,0:0:0:0:
144,320,179961,1,0,0:0:0:0:
128,320,180111,5,2,0:0:0:0:
128,304,180261,1,0,0:0:0:0:
128,288,180411,1,0,0:0:0:0:
128,272,180561,1,0,0:0:0:0:
128,256,180711,1,2,0:0:0:0:
128,240,180861,1,0,0:0:0:0:
128,224,181011,1,0,0:0:0:0:
128,208,181161,1,0,0:0:0:0:
128,192,181311,5,2,0:0:0:0:
128,176,181461,1,0,0:0:0:0:
128,160,181611,1,0,0:0:0:0:
128,144,181761,1,0,0:0:0:0:
128,128,181911,1,2,0:0:0:0:
128,112,182061,1,0,0:0:0:0:
128,96,182211,1,0,0:0:0:0:
128,80,182361,1,0,0:0:0:0:
128,64,182511,5,2,0:0:0:0:
144,64,182661,1,0,0:0:0:0:
160,64,182811,1,0,0:0:0:0:
176,64,182961,1,0,0:0:0:0:
192,64,183111,1,2,0:0:0:0:
208,64,183261,1,0,0:0:0:0:
224,64,183411,1,0,0:0:0:0:
240,64,183561,1,0,0:0:0:0:
256,64,183711,5,2,0:0:0:0:
272,64,183861,1,0,0:0:0:0:
288,64,184011,1,0,0:0:0:0:
304,64,184161,1,0,0:0:0:0:
320,64,184311,1,2,0:0:0:0:
336,64,184461,1,0,0:0:0:0:
352,64,184611,1,0,0:0:0:0:
368,64,184761,1,0,0:0:0:0:
384,64,184911,5,2,0:0:0:0:
384,80,185061,1,0,0:0:0:0:
384,96,185211,1,0,0:0:0:0:
384,112,185361,1,0,0:0:0:0:
384,128,185511,1,2,0:0:0:0:
384,144,185661,1,0,0:0:0:0:
384,160,185811,1,0,0:0:0:0:
384,176,185961,1,0,0:0:0:0:
384,192,186111,5,2,0:0:0:0:
384,208,186261,1,0,0:0:0:0:
384,224,186411,1,0,0:0:0:0:
384,240,186561,1,0,0:0:0:0:
384,256,186711,1,2,0:0:0:0:
384,272,186861,1,0,0:0:0:0:
384,288,187011,1,0,0:0:0:0:
384,304,187161,1,0,0:0:0:0:
384,320,187311,5,2,0:0:0:0:
368,320,187460,1,0,0:0:0:0:
352,320,187610,1,0,0:0:0:0:
336,320,187760,1,0,0:0:0:0:
320,320,187910,1,2,0:0:0:0:
304,320,188060,1,0,0:0:0:0:
288,320,188210,1,0,0:0:0:0:
272,320,188360,1,0,0:0:0:0:
256,320,188510,5,2,0:0:0:0:
240,320,188660,1,0,0:0:0:0:
224,320,188810,1,0,0:0:0:0:
208,320,188960,1,0,0:0:0:0:
192,320,189110,1,2,0:0:0:0:
176,320,189260,1,0,0:0:0:0:
160,320,189410,1,0,0:0:0:0:
144,320,189560,1,0,0:0:0:0:
128,320,189710,5,2,0:0:0:0:
128,304,189860,1,0,0:0:0:0:
128,288,190010,1,0,0:0:0:0:
128,272,190160,1,0,0:0:0:0:
128,256,190310,1,2,0:0:0:0:
128,240,190460,1,0,0:0:0:0:
128,224,190610,1,0,0:0:0:0:
128,208,190760,1,0,0:0:0:0:
128,192,190910,5,2,0:0:0:0:
128,176,191060,1,0,0:0:0:0:
128,160,191210,1,0,0:0:0:0:
128,144,191360,1,0,0:0:0:0:
128,128,191510,1,2,0:0:0:0:
128,112,191660,1,0,0:0:0:0:
128,96,191810,1,0,0:0:0:0:
128,80,191960,1,0,0:0:0:0:
128,64,192111,5,2,0:0:0:0:
144,64,192261,1,0,0:0:0:0:
160,64,192411,1,0,0:0:0:0:
176,64,192561,1,0,0:0:0:0:
192,64,192711,1,2,0:0:0:0:
208,64,192861,1,0,0:0:0:0:
224,64,193011,1,0,0:0:0:0:
240,64,193161,1,0,0:0:0:0:
256,64,193311,5,2,0:0:0:0:
272,64,193461,1,0,0:0:0:0:
288,64,193611,1,0,0:0:0:0:
304,64,193761,1,0,0:0:0:0:
320,64,193911,1,2,0:0:0:0:
336,64,194061,1,0,0:0:0:0:
352,64,194211,1,0,0:0:0:0:
368,64,194361,1,0,0:0:0:0:
384,64,194511,5,2,0:0:0:0:
384,80,194661,1,0,0:0:0:0:
384,96,194811,1,0,0:0:0:0:
384,112,194961,1,0,0:0:0:0:
384,128,195111,1,2,0:0:0:0:
384,144,195261,1,0,0:0:0:0:
384,160,195411,1,0,0:0:0:0:
384,176,195561,1,0,0:0:0:0:
384,192,195711,5,2,0:0:0:0:
384,208,195861,1,0,0:0:0:0:
384,224,196011,1,0,0:0:0:0:
384,240,196161,1,0,0:0:0:0:
384,256,196311,1,2,0:0:0:0:
384,272,196461,1,0,0:0:0:0:
384,288,196611,1,0,0:0:0:0:
384,304,196761,1,0,0:0:0:0:
384,320,196911,5,2,0:0:0:0:
368,320,197060,1,0,0:0:0:0:
352,320,197210,1,0,0:0:0:0:
336,320,197360,1,0,0:0:0:0:
320,320,197510,1,2,0:0:0:0:
304,320,197660,1,0,0:0:0:0:
288,320,197810,1,0,0:0:0:0:
272,320,197960,1,0,0:0:0:0:
256,320,198110,5,2,0:0:0:0:
240,320,198260,1,0,0:0:0:0:
224,320,198410,1,0,0:0:0:0:
208,320,198560,1,0,0:0:0:0:
192,320,198710,1,2,0:0:0:0:
176,320,198860,1,0,0:0:0:0:
160,320,199010,1,0,0:0:0:0:
144,320,199160,1,0,0:0:0:0:
128,320,199310,5,2,0:0:0:0:
128,304,199460,1,0,0:0:0:0:
128,288,199610,1,0,0:0:0:0:
128,272,199760,1,0,0:0:0:0:
128,256,199910,1,2,0:0:0:0:
128,240,200060,1,0,0:0:0:0:
128,224,200210,1,0,0:0:0:0:
128,208,200360,1,0,0:0:0:0:
128,192,200510,5,2,0:0:0:0:
128,176,200660,1,0,0:0:0:0:
128,160,200810,1,0,0:0:0:0:
128,144,200960,1,0,0:0:0:0:
128,128,201110,1,2,0:0:0:0:
128,112,201260,1,0,0:0:0:0:
128,96,201410,1,0,0:0:0:0:
128,80,201560,1,0,0:0:0:0:
128,64,201711,5,2,0:0:0:0:
144,64,201861,1,0,0:0:0:0:
160,64,202011,1,0,0:0:0:0:
176,64,202161,1,0,0:0:0:0:
192,64,202311,1,2,0:0:0:0:
208,64,202461,1,0,0:0:0:0:
224,64,202611,1,0,0:0:0:0:
240,64,202761,1,0,0:0:0:0:
256,64,202911,5,2,0:0:0:0:
272,64,203061,1,0,0:0:0:0:
288,64,203211,1,0,0:0:0:0:
304,64,203361,1,0,0:0:0:0:
320,64,203511,1,2,0:0:0:0:
336,64,203661,1,0,0:0:0:0:
352,64,203811,1,0,0:0:0:0:
368,64,203961,1,0,0:0:0:0:
384,64,204111,5,2,0:0:0:0:
384,80,204261,1,0,0:0:0:0:
384,96,204411,1,0,0:0:0:0:
384,112,204561,1,0,0:0:0:0:
384,128,204711,1,2,0:0:0:0:
384,144,204861,1,0,0:0:0:0:
384,160,205011,1,0,0:0:0:0:
384,176,205161,1,0,0:0:0:0:
384,192,205311,5,2,0:0:0:0:
384,208,205461,1,0,0:0:0:0:
384,224,205611,1,0,0:0:0:0:
384,240,205761,1,0,0:0:0:0:
384,256,205911,1,2,0:0:0:0:
384,272,206061,1,0,0:0:0:0:
384,288,206211,1,0,0:0:0:0:
384,304,206361,1,0,0:0:0:0:
384,320,206511,5,2,0:0:0:0:
