osu file format v14

[General]
AudioFilename: BPM110 - FAIRY TAIL.mp3
AudioLeadIn: 2500
PreviewTime: 9366
Countdown: 0
SampleSet: None
StackLeniency: 0.2
Mode: 0
LetterboxInBreaks: 1
WidescreenStoryboard: 1

[Editor]
DistanceSpacing: 1.2
BeatDivisor: 4
GridSize: 8
TimelineZoom: 1

[Metadata]
Title:Slow Stream Practice Maps
TitleUnicode:Slow Stream Practice Maps
Artist:Various Artists
ArtistUnicode:Various Artists
Creator:RaneFire
Version:Fairy Tail BPM110
Source:
Tags:
BeatmapID:860626
BeatmapSetID:395444

[Difficulty]
HPDrainRate:4
CircleSize:4
OverallDifficulty:5
ApproachRate:7
SliderMultiplier:1.4
SliderTickRate:1

[Events]
//Background and Video events
0,0,"fairy tail.jpg",0,0
//Break Periods
//Storyboard Layer 0 (Background)
//Storyboard Layer 1 (Fail)
//Storyboard Layer 2 (Pass)
//Storyboard Layer 3 (Foreground)
//Storyboard Sound Samples

[TimingPoints]
629,545.454545454546,4,2,0,80,1,0
9356,-100,4,2,0,80,0,1
26810,-100,4,2,0,80,0,0
35538,-100,4,2,0,80,0,0
52992,-100,4,2,0,80,0,0
57356,-100,4,2,0,80,0,0
74810,-100,4,2,0,80,0,0
83538,-100,4,2,0,80,0,0
100992,-100,4,2,0,80,0,0
118447,-100,4,2,0,80,0,1
135901,-100,4,2,0,80,0,0
136038,-100,4,2,0,5,0,0
140265,-100,4,2,0,5,0,0

[HitObjects]
128,64,9356,5,2,0:0:0:0:
144,64,9492,1,0,0:0:0:0:
160,64,9629,1,0,0:0:0:0:
176,64,9765,1,0,0:0:0:0:
192,64,9901,1,2,0:0:0:0:
208,64,10038,1,0,0:0:0:0:
224,64,10174,1,0,0:0:0:0:
240,64,10310,1,0,0:0:0:0:
256,64,10447,5,2,0:0:0:0:
272,64,10583,1,0,0:0:0:0:
288,64,10720,1,0,0:0:0:0:
304,64,10856,1,0,0:0:0:0:
320,64,10992,1,2,0:0:0:0:
336,64,11129,1,0,0:0:0:0:
352,64,11265,1,0,0:0:0:0:
368,64,11401,1,0,0:0:0:0:
384,64,11538,5,2,0:0:0:0:
384,80,11674,1,0,0:0:0:0:
384,96,11810,1,0,0:0:0:0:
384,112,11947,1,0,0:0:0:0:
384,128,12083,1,2,0:0:0:0:
384,144,12220,1,0,0:0:0:0:
384,160,12356,1,0,0:0:0:0:
384,176,12492,1,0,0:0:0:0:
384,192,12629,5,2,0:0:0:0:
384,208,12765,1,0,0:0:0:0:
384,224,12901,1,0,0:0:0:0:
384,240,13038,1,0,0:0:0:0:
384,256,13174,1,2,0:0:0:0:
384,272,13311,1,0,0:0:0:0:
384,288,13447,1,0,0:0:0:0:
384,304,13583,1,0,0:0:0:0:
384,320,13719,5,2,0:0:0:0:
368,320,13856,1,0,0:0:0:0:
352,320,13992,1,0,0:0:0:0:
336,320,14129,1,0,0:0:0:0:
320,320,14265,1,2,0:0:0:0:
304,320,14401,1,0,0:0:0:0:
288,320,14538,1,0,0:0:0:0:
272,320,14674,1,0,0:0:0:0:
256,320,14810,5,2,0:0:0:0:
240,320,14947,1,0,0:0:0:0:
224,320,15083,1,0,0:0:0:0:
208,320,15220,1,0,0:0:0:0:
192,320,15356,1,2,0:0:0:0:
176,320,15492,1,0,0:0:0:0:
160,320,15629,1,0,0:0:0:0:
144,320,15765,1,0,0:0:0:0:
128,320,15901,5,2,0:0:0:0:
128,304,16038,1,0,0:0:0:0:
128,288,16174,1,0,0:0:0:0:
128,272,16310,1,0,0:0:0:0:
128,256,16447,1,2,0:0:0:0:
128,240,16583,1,0,0:0:0:0:
128,224,16719,1,0,0:0:0:0:
128,208,16856,1,0,0:0:0:0:
128,192,16992,5,2,0:0:0:0:
128,176,17129,1,0,0:0:0:0:
128,160,17265,1,0,0:0:0:0:
128,144,17401,1,0,0:0:0:0:
128,128,17538,1,2,0:0:0:0:
128,112,17674,1,0,0:0:0:0:
128,96,17810,1,0,0:0:0:0:
128,80,17947,1,0,0:0:0:0:
128,64,18083,5,2,0:0:0:0:
144,64,18219,1,0,0:0:0:0:
160,64,18356,1,0,0:0:0:0:
176,64,18492,1,0,0:0:0:0:
192,64,18628,1,2,0:0:0:0:
208,64,18765,1,0,0:0:0:0:
224,64,18901,1,0,0:0:0:0:
240,64,19037,1,0,0:0:0:0:
256,64,19174,5,2,0:0:0:0:
272,64,19310,1,0,0:0:0:0:
288,64,19447,1,0,0:0:0:0:
304,64,19583,1,0,0:0:0:0:
320,64,19719,1,2,0:0:0:0:
336,64,19856,1,0,0:0:0:0:
352,64,19992,1,0,0:0:0:0:
368,64,20128,1,0,0:0:0:0:
384,64,20265,5,2,0:0:0:0:
384,80,20401,1,0,0:0:0:0:
384,96,20537,1,0,0:0:0:0:
384,112,20674,1,0,0:0:0:0:
384,128,20810,1,2,0:0:0:0:
384,144,20947,1,0,0:0:0:0:
384,160,21083,1,0,0:0:0:0:
384,176,21219,1,0,0:0:0:0:
384,192,21356,5,2,0:0:0:0:
384,208,21492,1,0,0:0:0:0:
384,224,21628,1,0,0:0:0:0:
384,240,21765,1,0,0:0:0:0:
384,256,21901,1,2,0:0:0:0:
384,272,22038,1,0,0:0:0:0:
384,288,22174,1,0,0:0:0:0:
384,304,22310,1,0,0:0:0:0:
384,320,22446,5,2,0:0:0:0:
368,320,22583,1,0,0:0:0:0:
352,320,22719,1,0,0:0:0:0:
336,320,22856,1,0,0:0:0:0:
320,320,22992,1,2,0:0:0:0:
304,320,23128,1,0,0:0:0:0:
288,320,23265,1,0,0:0:0:0:
272,320,23401,1,0,0:0:0:0:
256,320,23537,5,2,0:0:0:0:
240,320,23674,1,0,0:0:0:0:
224,320,23810,1,0,0:0:0:0:
208,320,23947,1,0,0:0:0:0:
192,320,24083,1,2,0:0:0:0:
176,320,24219,1,0,0:0:0:0:
160,320,24356,1,0,0:0:0:0:
144,320,24492,1,0,0:0:0:0:
128,320,24628,5,2,0:0:0:0:
128,304,24765,1,0,0:0:0:0:
128,288,24901,1,0,0:0:0:0:
128,272,25037,1,0,0:0:0:0:
128,256,25174,1,2,0:0:0:0:
128,240,25310,1,0,0:0:0:0:
128,224,25446,1,0,0:0:0:0:
128,208,25583,1,0,0:0:0:0:
128,192,25719,5,2,0:0:0:0:
128,176,25856,1,0,0:0:0:0:
128,160,25992,1,0,0:0:0:0:
128,144,26128,1,0,0:0:0:0:
128,128,26265,1,2,0:0:0:0:
128,112,26401,1,0,0:0:0:0:
128,96,26537,1,0,0:0:0:0:
128,80,26674,1,0,0:0:0:0:
128,64,26810,5,2,0:0:0:0:
144,64,26946,1,0,0:0:0:0:
160,64,27083,1,0,0:0:0:0:
176,64,27219,1,0,0:0:0:0:
192,64,27355,1,2,0:0:0:0:
208,64,27492,1,0,0:0:0:0:
224,64,27628,1,0,0:0:0:0:
240,64,27764,1,0,0:0:0:0:
256,64,27901,5,2,0:0:0:0:
272,64,28037,1,0,0:0:0:0:
288,64,28174,1,0,0:0:0:0:
304,64,28310,1,0,0:0:0:0:
320,64,28446,1,2,0:0:0:0:
336,64,28583,1,0,0:0:0:0:
352,64,28719,1,0,0:0:0:0:
368,64,28855,1,0,0:0:0:0:
384,64,28992,5,2,0:0:0:0:
384,80,29128,1,0,0:0:0:0:
384,96,29264,1,0,0:0:0:0:
384,112,29401,1,0,0:0:0:0:
384,128,29537,1,2,0:0:0:0:
384,144,29674,1,0,0:0:0:0:
384,160,29810,1,0,0:0:0:0:
384,176,29946,1,0,0:0:0:0:
384,192,30083,5,2,0:0:0:0:
384,208,30219,1,0,0:0:0:0:
384,224,30355,1,0,0:0:0:0:
384,240,30492,1,0,0:0:0:0:
384,256,30628,1,2,0:0:0:0:
384,272,30765,1,0,0:0:0:0:
384,288,30901,1,0,0:0:0:0:
384,304,31037,1,0,0:0:0:0:
384,320,31173,5,2,0:0:0:0:
368,320,31310,1,0,0:0:0:0:
352,320,31446,1,0,0:0:0:0:
336,320,31583,1,0,0:0:0:0:
320,320,31719,1,2,0:0:0:0:
304,320,31855,1,0,0:0:0:0:
288,320,31992,1,0,0:0:0:0:
272,320,32128,1,0,0:0:0:0:
256,320,32264,5,2,0:0:0:0:
240,320,32401,1,0,0:0:0:0:
224,320,32537,1,0,0:0:0:0:
208,320,32674,1,0,0:0:0:0:
192,320,32810,1,2,0:0:0:0:
176,320,32946,1,0,0:0:0:0:
160,320,33083,1,0,0:0:0:0:
144,320,33219,1,0,0:0:0:0:
128,320,33355,5,2,0:0:0:0:
128,304,33492,1,0,0:0:0:0:
128,288,33628,1,0,0:0:0:0:
128,272,33764,1,0,0:0:0:0:
128,256,33901,1,2,0:0:0:0:
128,240,34037,1,0,0:0:0:0:
128,224,34173,1,0,0:0:0:0:
128,208,34310,1,0,0:0:0:0:
128,192,34446,5,2,0:0:0:0:
128,176,34583,1,0,0:0:0:0:
128,160,34719,1,0,0:0:0:0:
128,144,34855,1,0,0:0:0:0:
128,128,34992,1,2,0:0:0:0:
128,112,35128,1,0,0:0:0:0:
128,96,35264,1,0,0:0:0:0:
128,80,35401,1,0,0:0:0:0:
128,64,35538,5,2,0:0:0:0:
144,64,35674,1,0,0:0:0:0:
160,64,35811,1,0,0:0:0:0:
176,64,35947,1,0,0:0:0:0:
192,64,36083,1,2,0:0:0:0:
208,64,36220,1,0,0:0:0:0:
224,64,36356,1,0,0:0:0:0:
240,64,36492,1,0,0:0:0:0:
256,64,36629,5,2,0:0:0:0:
272,64,36765,1,0,0:0:0:0:
288,64,36902,1,0,0:0:0:0:
304,64,37038,1,0,0:0:0:0:
320,64,37174,1,2,0:0:0:0:
336,64,37311,1,0,0:0:0:0:
352,64,37447,1,0,0:0:0:0:
368,64,37583,1,0,0:0:0:0:
384,64,37720,5,2,0:0:0:0:
384,80,37856,1,0,0:0:0:0:
384,96,37992,1,0,0:0:0:0:
384,112,38129,1,0,0:0:0:0:
384,128,38265,1,2,0:0:0:0:
384,144,38402,1,0,0:0:0:0:
384,160,38538,1,0,0:0:0:0:
384,176,38674,1,0,0:0:0:0:
384,192,38811,5,2,0:0:0:0:
384,208,38947,1,0,0:0:0:0:
384,224,39083,1,0,0:0:0:0:
384,240,39220,1,0,0:0:0:0:
384,256,39356,1,2,0:0:0:0:
384,272,39493,1,0,0:0:0:0:
384,288,39629,1,0,0:0:0:0:
384,304,39765,1,0,0:0:0:0:
384,320,39901,5,2,0:0:0:0:
368,320,40038,1,0,0:0:0:0:
352,320,40174,1,0,0:0:0:0:
336,320,40311,1,0,0:0:0:0:
320,320,40447,1,2,0:0:0:0:
304,320,40583,1,0,0:0:0:0:
288,320,40720,1,0,0:0:0:0:
272,320,40856,1,0,0:0:0:0:
256,320,40992,5,2,0:0:0:0:
240,320,41129,1,0,0:0:0:0:
224,320,41265,1,0,0:0:0:0:
208,320,41402,1,0,0:0:0:0:
192,320,41538,1,2,0:0:0:0:
176,320,41674,1,0,0:0:0:0:
160,320,41811,1,0,0:0:0:0:
144,320,41947,1,0,0:0:0:0:
128,320,42083,5,2,0:0:0:0:
128,304,42220,1,0,0:0:0:0:
128,288,42356,1,0,0:0:0:0:
128,272,42492,1,0,0:0:0:0:
128,256,42629,1,2,0:0:0:0:
128,240,42765,1,0,0:0:0:0:
128,224,42901,1,0,0:0:0:0:
128,208,43038,1,0,0:0:0:0:
128,192,43174,5,2,0:0:0:0:
128,176,43311,1,0,0:0:0:0:
128,160,43447,1,0,0:0:0:0:
128,144,43583,1,0,0:0:0:0:
128,128,43720,1,2,0:0:0:0:
128,112,43856,1,0,0:0:0:0:
128,96,43992,1,0,0:0:0:0:
128,80,44129,1,0,0:0:0:0:
128,64,44265,5,2,0:0:0:0:
144,64,44401,1,0,0:0:0:0:
160,64,44538,1,0,0:0:0:0:
176,64,44674,1,0,0:0:0:0:
192,64,44810,1,2,0:0:0:0:
208,64,44947,1,0,0:0:0:0:
224,64,45083,1,0,0:0:0:0:
240,64,45219,1,0,0:0:0:0:
256,64,45356,5,2,0:0:0:0:
272,64,45492,1,0,0:0:0:0:
288,64,45629,1,0,0:0:0:0:
304,64,45765,1,0,0:0:0:0:
320,64,45901,1,2,0:0:0:0:
336,64,46038,1,0,0:0:0:0:
352,64,46174,1,0,0:0:0:0:
368,64,46310,1,0,0:0:0:0:
384,64,46447,5,2,0:0:0:0:
384,80,46583,1,0,0:0:0:0:
384,96,46719,1,0,0:0:0:0:
384,112,46856,1,0,0:0:0:0:
384,128,46992,1,2,0:0:0:0:
384,144,47129,1,0,0:0:0:0:
384,160,47265,1,0,0:0:0:0:
384,176,47401,1,0,0:0:0:0:
384,192,47538,5,2,0:0:0:0:
384,208,47674,1,0,0:0:0:0:
384,224,47810,1,0,0:0:0:0:
384,240,47947,1,0,0:0:0:0:
384,256,48083,1,2,0:0:0:0:
384,272,48220,1,0,0:0:0:0:
384,288,48356,1,0,0:0:0:0:
384,304,48492,1,0,0:0:0:0:
384,320,48628,5,2,0:0:0:0:
368,320,48765,1,0,0:0:0:0:
352,320,48901,1,0,0:0:0:0:
336,320,49038,1,0,0:0:0:0:
320,320,49174,1,2,0:0:0:0:
304,320,49310,1,0,0:0:0:0:
288,320,49447,1,0,0:0:0:0:
272,320,49583,1,0,0:0:0:0:
256,320,49719,5,2,0:0:0:0:
240,320,49856,1,0,0:0:0:0:
224,320,49992,1,0,0:0:0:0:
208,320,50129,1,0,0:0:0:0:
192,320,50265,1,2,0:0:0:0:
176,320,50401,1,0,0:0:0:0:
160,320,50538,1,0,0:0:0:0:
144,320,50674,1,0,0:0:0:0:
128,320,50810,5,2,0:0:0:0:
128,304,50947,1,0,0:0:0:0:
128,288,51083,1,0,0:0:0:0:
128,272,51219,1,0,0:0:0:0:
128,256,51356,1,2,0:0:0:0:
128,240,51492,1,0,0:0:0:0:
128,224,51628,1,0,0:0:0:0:
128,208,51765,1,0,0:0:0:0:
128,192,51901,5,2,0:0:0:0:
128,176,52038,1,0,0:0:0:0:
128,160,52174,1,0,0:0:0:0:
128,144,52310,1,0,0:0:0:0:
128,128,52447,1,2,0:0:0:0:
128,112,52583,1,0,0:0:0:0:
128,96,52719,1,0,0:0:0:0:
128,80,52856,1,0,0:0:0:0:
128,64,52992,5,2,0:0:0:0:
144,64,53128,1,0,0:0:0:0:
160,64,53265,1,0,0:0:0:0:
176,64,53401,1,0,0:0:0:0:
192,64,53537,1,2,0:0:0:0:
208,64,53674,1,0,0:0:0:0:
224,64,53810,1,0,0:0:0:0:
240,64,53946,1,0,0:0:0:0:
256,64,54083,5,2,0:0:0:0:
272,64,54219,1,0,0:0:0:0:
288,64,54356,1,0,0:0:0:0:
304,64,54492,1,0,0:0:0:0:
320,64,54628,1,2,0:0:0:0:
336,64,54765,1,0,0:0:0:0:
352,64,54901,1,0,0:0:0:0:
368,64,55037,1,0,0:0:0:0:
384,64,55174,5,2,0:0:0:0:
384,80,55310,1,0,0:0:0:0:
384,96,55446,1,0,0:0:0:0:
384,112,55583,1,0,0:0:0:0:
384,128,55719,1,2,0:0:0:0:
384,144,55856,1,0,0:0:0:0:
384,160,55992,1,0,0:0:0:0:
384,176,56128,1,0,0:0:0:0:
384,192,56265,5,2,0:0:0:0:
384,208,56401,1,0,0:0:0:0:
384,224,56537,1,0,0:0:0:0:
384,240,56674,1,0,0:0:0:0:
384,256,56810,1,2,0:0:0:0:
384,272,56947,1,0,0:0:0:0:
384,288,57083,1,0,0:0:0:0:
384,304,57219,1,0,0:0:0:0:
384,320,57355,5,2,0:0:0:0:
368,320,57492,1,0,0:0:0:0:
352,320,57628,1,0,0:0:0:0:
336,320,57765,1,0,0:0:0:0:
320,320,57901,1,2,0:0:0:0:
304,320,58037,1,0,0:0:0:0:
288,320,58174,1,0,0:0:0:0:
272,320,58310,1,0,0:0:0:0:
256,320,58446,5,2,0:0:0:0:
240,320,58583,1,0,0:0:0:0:
224,320,58719,1,0,0:0:0:0:
208,320,58856,1,0,0:0:0:0:
192,320,58992,1,2,0:0:0:0:
176,320,59128,1,0,0:0:0:0:
160,320,59265,1,0,0:0:0:0:
144,320,59401,1,0,0:0:0:0:
128,320,59537,5,2,0:0:0:0:
128,304,59674,1,0,0:0:0:0:
128,288,59810,1,0,0:0:0:0:
128,272,59946,1,0,0:0:0:0:
128,256,60083,1,2,0:0:0:0:
128,240,60219,1,0,0:0:0:0:
128,224,60355,1,0,0:0:0:0:
128,208,60492,1,0,0:0:0:0:
128,192,60628,5,2,0:0:0:0:
128,176,60765,1,0,0:0:0:0:
128,160,60901,1,0,0:0:0:0:
128,144,61037,1,0,0:0:0:0:
128,128,61174,1,2,0:0:0:0:
128,112,61310,1,0,0:0:0:0:
128,96,61446,1,0,0:0:0:0:
128,80,61583,1,0,0:0:0:0:
128,64,61719,5,2,0:0:0:0:
144,64,61855,1,0,0:0:0:0:
160,64,61992,1,0,0:0:0:0:
176,64,62128,1,0,0:0:0:0:
192,64,62264,1,2,0:0:0:0:
208,64,62401,1,0,0:0:0:0:
224,64,62537,1,0,0:0:0:0:
240,64,62673,1,0,0:0:0:0:
256,64,62810,5,2,0:0:0:0:
272,64,62946,1,0,0:0:0:0:
288,64,63083,1,0,0:0:0:0:
304,64,63219,1,0,0:0:0:0:
320,64,63355,1,2,0:0:0:0:
336,64,63492,1,0,0:0:0:0:
352,64,63628,1,0,0:0:0:0:
368,64,63764,1,0,0:0:0:0:
384,64,63901,5,2,0:0:0:0:
384,80,64037,1,0,0:0:0:0:
384,96,64173,1,0,0:0:0:0:
384,112,64310,1,0,0:0:0:0:
384,128,64446,1,2,0:0:0:0:
384,144,64583,1,0,0:0:0:0:
384,160,64719,1,0,0:0:0:0:
384,176,64855,1,0,0:0:0:0:
384,192,64992,5,2,0:0:0:0:
384,208,65128,1,0,0:0:0:0:
384,224,65264,1,0,0:0:0:0:
384,240,65401,1,0,0:0:0:0:
384,256,65537,1,2,0:0:0:0:
384,272,65674,1,0,0:0:0:0:
384,288,65810,1,0,0:0:0:0:
384,304,65946,1,0,0:0:0:0:
384,320,66082,5,2,0:0:0:0:
368,320,66219,1,0,0:0:0:0:
352,320,66355,1,0,0:0:0:0:
336,320,66492,1,0,0:0:0:0:
320,320,66628,1,2,0:0:0:0:
304,320,66764,1,0,0:0:0:0:
288,320,66901,1,0,0:0:0:0:
272,320,67037,1,0,0:0:0:0:
256,320,67173,5,2,0:0:0:0:
240,320,67310,1,0,0:0:0:0:
224,320,67446,1,0,0:0:0:0:
208,320,67583,1,0,0:0:0:0:
192,320,67719,1,2,0:0:0:0:
176,320,67855,1,0,0:0:0:0:
160,320,67992,1,0,0:0:0:0:
144,320,68128,1,0,0:0:0:0:
128,320,68264,5,2,0:0:0:0:
128,304,68401,1,0,0:0:0:0:
128,288,68537,1,0,0:0:0:0:
128,272,68673,1,0,0:0:0:0:
128,256,68810,1,2,0:0:0:0:
128,240,68946,1,0,0:0:0:0:
128,224,69082,1,0,0:0:0:0:
128,208,69219,1,0,0:0:0:0:
128,192,69355,5,2,0:0:0:0:
128,176,69492,1,0,0:0:0:0:
128,160,69628,1,0,0:0:0:0:
128,144,69764,1,0,0:0:0:0:
128,128,69901,1,2,0:0:0:0:
128,112,70037,1,0,0:0:0:0:
128,96,70173,1,0,0:0:0:0:
128,80,70310,1,0,0:0:0:0:
128,64,70447,5,2,0:0:0:0:
144,64,70583,1,0,0:0:0:0:
160,64,70720,1,0,0:0:0:0:
176,64,70856,1,0,0:0:0:0:
192,64,70992,1,2,0:0:0:0:
208,64,71129,1,0,0:0:0:0:
224,64,71265,1,0,0:0:0:0:
240,64,71401,1,0,0:0:0:0:
256,64,71538,5,2,0:0:0:0:
272,64,71674,1,0,0:0:0:0:
288,64,71811,1,0,0:0:0:0:
304,64,71947,1,0,0:0:0:0:
320,64,72083,1,2,0:0:0:0:
336,64,72220,1,0,0:0:0:0:
352,64,72356,1,0,0:0:0:0:
368,64,72492,1,0,0:0:0:0:
384,64,72629,5,2,0:0:0:0:
384,80,72765,1,0,0:0:0:0:
384,96,72901,1,0,0:0:0:0:
384,112,73038,1,0,0:0:0:0:
384,128,73174,1,2,0:0:0:0:
384,144,73311,1,0,0:0:0:0:
384,160,73447,1,0,0:0:0:0:
384,176,73583,1,0,0:0:0:0:
384,192,73720,5,2,0:0:0:0:
384,208,73856,1,0,0:0:0:0:
384,224,73992,1,0,0:0:0:0:
384,240,74129,1,0,0:0:0:0:
384,256,74265,1,2,0:0:0:0:
384,272,74402,1,0,0:0:0:0:
384,288,74538,1,0,0:0:0:0:
384,304,74674,1,0,0:0:0:0:
384,320,74810,5,2,0:0:0:0:
368,320,74947,1,0,0:0:0:0:
352,320,75083,1,0,0:0:0:0:
336,320,75220,1,0,0:0:0:0:
320,320,75356,1,2,0:0:0:0:
304,320,75492,1,0,0:0:0:0:
288,320,75629,1,0,0:0:0:0:
272,320,75765,1,0,0:0:0:0:
256,320,75901,5,2,0:0:0:0:
240,320,76038,1,0,0:0:0:0:
224,320,76174,1,0,0:0:0:0:
208,320,76311,1,0,0:0:0:0:
192,320,76447,1,2,0:0:0:0:
176,320,76583,1,0,0:0:0:0:
160,320,76720,1,0,0:0:0:0:
144,320,76856,1,0,0:0:0:0:
128,320,76992,5,2,0:0:0:0:
128,304,77129,1,0,0:0:0:0:
128,288,77265,1,0,0:0:0:0:
128,272,77401,1,0,0:0:0:0:
128,256,77538,1,2,0:0:0:0:
128,240,77674,1,0,0:0:0:0:
128,224,77810,1,0,0:0:0:0:
128,208,77947,1,0,0:0:0:0:
128,192,78083,5,2,0:0:0:0:
128,176,78220,1,0,0:0:0:0:
128,160,78356,1,0,0:0:0:0:
128,144,78492,1,0,0:0:0:0:
128,128,78629,1,2,0:0:0:0:
128,112,78765,1,0,0:0:0:0:
128,96,78901,1,0,0:0:0:0:
128,80,79038,1,0,0:0:0:0:
128,64,79174,5,2,0:0:0:0:
144,64,79310,1,0,0:0:0:0:
160,64,79447,1,0,0:0:0:0:
176,64,79583,1,0,0:0:0:0:
192,64,79719,1,2,0:0:0:0:
208,64,79856,1,0,0:0:0:0:
224,64,79992,1,0,0:0:0:0:
240,64,80128,1,0,0:0:0:0:
256,64,80265,5,2,0:0:0:0:
272,64,80401,1,0,0:0:0:0:
288,64,80538,1,0,0:0:0:0:
304,64,80674,1,0,0:0:0:0:
320,64,80810,1,2,0:0:0:0:
336,64,80947,1,0,0:0:0:0:
352,64,81083,1,0,0:0:0:0:
368,64,81219,1,0,0:0:0:0:
384,64,81356,5,2,0:0:0:0:
384,80,81492,1,0,0:0:0:0:
384,96,81628,1,0,0:0:0:0:
384,112,81765,1,0,0:0:0:0:
384,128,81901,1,2,0:0:0:0:
384,144,82038,1,0,0:0:0:0:
384,160,82174,1,0,0:0:0:0:
384,176,82310,1,0,0:0:0:0:
384,192,82447,5,2,0:0:0:0:
384,208,82583,1,0,0:0:0:0:
384,224,82719,1,0,0:0:0:0:
384,240,82856,1,0,0:0:0:0:
384,256,82992,1,2,0:0:0:0:
384,272,83129,1,0,0:0:0:0:
384,288,83265,1,0,0:0:0:0:
384,304,83401,1,0,0:0:0:0:
384,320,83537,5,2,0:0:0:0:
368,320,83674,1,0,0:0:0:0:
352,320,83810,1,0,0:0:0:0:
336,320,83947,1,0,0:0:0:0:
320,320,84083,1,2,0:0:0:0:
304,320,84219,1,0,0:0:0:0:
288,320,84356,1,0,0:0:0:0:
272,320,84492,1,0,0:0:0:0:
256,320,84628,5,2,0:0:0:0:
240,320,84765,1,0,0:0:0:0:
224,320,84901,1,0,0:0:0:0:
208,320,85038,1,0,0:0:0:0:
192,320,85174,1,2,0:0:0:0:
176,320,85310,1,0,0:0:0:0:
160,320,85447,1,0,0:0:0:0:
144,320,85583,1,0,0:0:0:0:
128,320,85719,5,2,0:0:0:0:
128,304,85856,1,0,0:0:0:0:
128,288,85992,1,0,0:0:0:0:
128,272,86128,1,0,0:0:0:0:
128,256,86265,1,2,0:0:0:0:
128,240,86401,1,0,0:0:0:0:
128,224,86537,1,0,0:0:0:0:
128,208,86674,1,0,0:0:0:0:
128,192,86810,5,2,0:0:0:0:
128,176,86947,1,0,0:0:0:0:
128,160,87083,1,0,0:0:0:0:
128,144,87219,1,0,0:0:0:0:
128,128,87356,1,2,0:0:0:0:
128,112,87492,1,0,0:0:0:0:
128,96,87628,1,0,0:0:0:0:
128,80,87765,1,0,0:0:0:0:
128,64,87901,5,2,0:0:0:0:
144,64,88037,1,0,0:0:0:0:
160,64,88174,1,0,0:0:0:0:
176,64,88310,1,0,0:0:0:0:
192,64,88446,1,2,0:0:0:0:
208,64,88583,1,0,0:0:0:0:
224,64,88719,1,0,0:0:0:0:
240,64,88855,1,0,0:0:0:0:
256,64,88992,5,2,0:0:0:0:
272,64,89128,1,0,0:0:0:0:
288,64,89265,1,0,0:0:0:0:
304,64,89401,1,0,0:0:0:0:
320,64,89537,1,2,0:0:0:0:
336,64,89674,1,0,0:0:0:0:
352,64,89810,1,0,0:0:0:0:
368,64,89946,1,0,0:0:0:0:
384,64,90083,5,2,0:0:0:0:
384,80,90219,1,0,0:0:0:0:
384,96,90355,1,0,0:0:0:0:
384,112,90492,1,0,0:0:0:0:
384,128,90628,1,2,0:0:0:0:
384,144,90765,1,0,0:0:0:0:
384,160,90901,1,0,0:0:0:0:
384,176,91037,1,0,0:0:0:0:
384,192,91174,5,2,0:0:0:0:
384,208,91310,1,0,0:0:0:0:
384,224,91446,1,0,0:0:0:0:
384,240,91583,1,0,0:0:0:0:
384,256,91719,1,2,0:0:0:0:
384,272,91856,1,0,0:0:0:0:
384,288,91992,1,0,0:0:0:0:
384,304,92128,1,0,0:0:0:0:
384,320,92264,5,2,0:0:0:0:
368,320,92401,1,0,0:0:0:0:
352,320,92537,1,0,0:0:0:0:
336,320,92674,1,0,0:0:0:0:
320,320,92810,1,2,0:0:0:0:
304,320,92946,1,0,0:0:0:0:
288,320,93083,1,0,0:0:0:0:
272,320,93219,1,0,0:0:0:0:
256,320,93355,5,2,0:0:0:0:
240,320,93492,1,0,0:0:0:0:
224,320,93628,1,0,0:0:0:0:
208,320,93765,1,0,0:0:0:0:
192,320,93901,1,2,0:0:0:0:
176,320,94037,1,0,0:0:0:0:
160,320,94174,1,0,0:0:0:0:
144,320,94310,1,0,0:0:0:0:
128,320,94446,5,2,0:0:0:0:
128,304,94583,1,0,0:0:0:0:
128,288,94719,1,0,0:0:0:0:
128,272,94855,1,0,0:0:0:0:
128,256,94992,1,2,0:0:0:0:
128,240,95128,1,0,0:0:0:0:
128,224,95264,1,0,0:0:0:0:
128,208,95401,1,0,0:0:0:0:
128,192,95537,5,2,0:0:0:0:
128,176,95674,1,0,0:0:0:0:
128,160,95810,1,0,0:0:0:0:
128,144,95946,1,0,0:0:0:0:
128,128,96083,1,2,0:0:0:0:
128,112,96219,1,0,0:0:0:0:
128,96,96355,1,0,0:0:0:0:
128,80,96492,1,0,0:0:0:0:
128,64,96628,5,2,0:0:0:0:
144,64,96764,1,0,0:0:0:0:
160,64,96901,1,0,0:0:0:0:
176,64,97037,1,0,0:0:0:0:
192,64,97173,1,2,0:0:0:0:
208,64,97310,1,0,0:0:0:0:
224,64,97446,1,0,0:0:0:0:
240,64,97582,1,0,0:0:0:0:
256,64,97719,5,2,0:0:0:0:
272,64,97855,1,0,0:0:0:0:
288,64,97992,1,0,0:0:0:0:
304,64,98128,1,0,0:0:0:0:
320,64,98264,1,2,0:0:0:0:
336,64,98401,1,0,0:0:0:0:
352,64,98537,1,0,0:0:0:0:
368,64,98673,1,0,0:0:0:0:
384,64,98810,5,2,0:0:0:0:
384,80,98946,1,0,0:0:0:0:
384,96,99082,1,0,0:0:0:0:
384,112,99219,1,0,0:0:0:0:
384,128,99355,1,2,0:0:0:0:
384,144,99492,1,0,0:0:0:0:
384,160,99628,1,0,0:0:0:0:
384,176,99764,1,0,0:0:0:0:
384,192,99901,5,2,0:0:0:0:
384,208,100037,1,0,0:0:0:0:
384,224,100173,1,0,0:0:0:0:
384,240,100310,1,0,0:0:0:0:
384,256,100446,1,2,0:0:0:0:
384,272,100583,1,0,0:0:0:0:
384,288,100719,1,0,0:0:0:0:
384,304,100855,1,0,0:0:0:0:
384,320,100991,5,2,0:0:0:0:
368,320,101128,1,0,0:0:0:0:
352,320,101264,1,0,0:0:0:0:
336,320,101401,1,0,0:0:0:0:
320,320,101537,1,2,0:0:0:0:
304,320,101673,1,0,0:0:0:0:
288,320,101810,1,0,0:0:0:0:
272,320,101946,1,0,0:0:0:0:
256,320,102082,5,2,0:0:0:0:
240,320,102219,1,0,0:0:0:0:
224,320,102355,1,0,0:0:0:0:
208,320,102492,1,0,0:0:0:0:
192,320,102628,1,2,0:0:0:0:
176,320,102764,1,0,0:0:0:0:
160,320,102901,1,0,0:0:0:0:
144,320,103037,1,0,0:0:0:0:
128,320,103173,5,2,0:0:0:0:
128,304,103310,1,0,0:0:0:0:
128,288,103446,1,0,0:0:0:0:
128,272,103582,1,0,0:0:0:0:
128,256,103719,1,2,0:0:0:0:
128,240,103855,1,0,0:0:0:0:
128,224,103991,1,0,0:0:0:0:
128,208,104128,1,0,0:0:0:0:
128,192,104264,5,2,0:0:0:0:
128,176,104401,1,0,0:0:0:0:
128,160,104537,1,0,0:0:0:0:
128,144,104673,1,0,0:0:0:0:
128,128,104810,1,2,0:0:0:0:
128,112,104946,1,0,0:0:0:0:
128,96,105082,1,0,0:0:0:0:
128,80,105219,1,0,0:0:0:0:
128,64,105356,5,2,0:0:0:0:
144,64,105492,1,0,0:0:0:0:
160,64,105629,1,0,0:0:0:0:
176,64,105765,1,0,0:0:0:0:
192,64,105901,1,2,0:0:0:0:
208,64,106038,1,0,0:0:0:0:
224,64,106174,1,0,0:0:0:0:
240,64,106310,1,0,0:0:0:0:
256,64,106447,5,2,0:0:0:0:
272,64,106583,1,0,0:0:0:0:
288,64,106720,1,0,0:0:0:0:
304,64,106856,1,0,0:0:0:0:
320,64,106992,1,2,0:0:0:0:
336,64,107129,1,0,0:0:0:0:
352,64,107265,1,0,0:0:0:0:
368,64,107401,1,0,0:0:0:0:
384,64,107538,5,2,0:0:0:0:
384,80,107674,1,0,0:0:0:0:
384,96,107810,1,0,0:0:0:0:
384,112,107947,1,0,0:0:0:0:
384,128,108083,1,2,0:0:0:0:
384,144,108220,1,0,0:0:0:0:
384,160,108356,1,0,0:0:0:0:
384,176,108492,1,0,0:0:0:0:
384,192,108629,5,2,0:0:0:0:
384,208,108765,1,0,0:0:0:0:
384,224,108901,1,0,0:0:0:0:
384,240,109038,1,0,0:0:0:0:
384,256,109174,1,2,0:0:0:0:
384,272,109311,1,0,0:0:0:0:
384,288,109447,1,0,0:0:0:0:
384,304,109583,1,0,0:0:0:0:
384,320,109719,5,2,0:0:0:0:
368,320,109856,1,0,0:0:0:0:
352,320,109992,1,0,0:0:0:0:
336,320,110129,1,0,0:0:0:0:
320,320,110265,1,2,0:0:0:0:
304,320,110401,1,0,0:0:0:0:
288,320,110538,1,0,0:0:0:0:
272,320,110674,1,0,0:0:0:0:
256,320,110810,5,2,0:0:0:0:
240,320,110947,1,0,0:0:0:0:
224,320,111083,1,0,0:0:0:0:
208,320,111220,1,0,0:0:0:0:
192,320,111356,1,2,0:0:0:0:
176,320,111492,1,0,0:0:0:0:
160,320,111629,1,0,0:0:0:0:
144,320,111765,1,0,0:0:0:0:
128,320,111901,5,2,0:0:0:0:
128,304,112038,1,0,0:0:0:0:
128,288,112174,1,0,0:0:0:0:
128,272,112310,1,0,0:0:0:0:
128,256,112447,1,2,0:0:0:0:
128,240,112583,1,0,0:0:0:0:
128,224,112719,1,0,0:0:0:0:
128,208,112856,1,0,0:0:0:0:
128,192,112992,5,2,0:0:0:0:
128,176,113129,1,0,0:0:0:0:
128,160,113265,1,0,0:0:0:0:
128,144,113401,1,0,0:0:0:0:
128,128,113538,1,2,0:0:0:0:
128,112,113674,1,0,0:0:0:0:
128,96,113810,1,0,0:0:0:0:
128,80,113947,1,0,0:0:0:0:
128,64,114083,5,2,0:0:0:0:
144,64,114219,1,0,0:0:0:0:
160,64,114356,1,0,0:0:0:0:
176,64,114492,1,0,0:0:0:0:
192,64,114628,1,2,0:0:0:0:
208,64,114765,1,0,0:0:0:0:
224,64,114901,1,0,0:0:0:0:
240,64,115037,1,0,0:0:0:0:
256,64,115174,5,2,0:0:0:0:
272,64,115310,1,0,0:0:0:0:
288,64,115447,1,0,0:0:0:0:
304,64,115583,1,0,0:0:0:0:
320,64,115719,1,2,0:0:0:0:
336,64,115856,1,0,0:0:0:0:
352,64,115992,1,0,0:0:0:0:
368,64,116128,1,0,0:0:0:0:
384,64,116265,5,2,0:0:0:0:
384,80,116401,1,0,0:0:0:0:
384,96,116537,1,0,0:0:0:0:
384,112,116674,1,0,0:0:0:0:
384,128,116810,1,2,0:0:0:0:
384,144,116947,1,0,0:0:0:0:
384,160,117083,1,0,0:0:0:0:
384,176,117219,1,0,0:0:0:0:
384,192,117356,5,2,0:0:0:0:
384,208,117492,1,0,0:0:0:0:
384,224,117628,1,0,0:0:0:0:
384,240,117765,1,0,0:0:0:0:
384,256,117901,1,2,0:0:0:0:
384,272,118038,1,0,0:0:0:0:
384,288,118174,1,0,0:0:0:0:
384,304,118310,1,0,0:0:0:0:
384,320,118446,5,2,0:0:0:0:
368,320,118583,1,0,0:0:0:0:
352,320,118719,1,0,0:0:0:0:
336,320,118856,1,0,0:0:0:0:
320,320,118992,1,2,0:0:0:0:
304,320,119128,1,0,0:0:0:0:
288,320,119265,1,0,0:0:0:0:
272,320,119401,1,0,0:0:0:0:
256,320,119537,5,2,0:0:0:0:
240,320,119674,1,0,0:0:0:0:
224,320,119810,1,0,0:0:0:0:
208,320,119947,1,0,0:0:0:0:
192,320,120083,1,2,0:0:0:0:
176,320,120219,1,0,0:0:0:0:
160,320,120356,1,0,0:0:0:0:
144,320,120492,1,0,0:0:0:0:
128,320,120628,5,2,0:0:0:0:
128,304,120765,1,0,0:0:0:0:
128,288,120901,1,0,0:0:0:0:
128,272,121037,1,0,0:0:0:0:
128,256,121174,1,2,0:0:0:0:
128,240,121310,1,0,0:0:0:0:
128,224,121446,1,0,0:0:0:0:
128,208,121583,1,0,0:0:0:0:
128,192,121719,5,2,0:0:0:0:
128,176,121856,1,0,0:0:0:0:
128,160,121992,1,0,0:0:0:0:
128,144,122128,1,0,0:0:0:0:
128,128,122265,1,2,0:0:0:0:
128,112,122401,1,0,0:0:0:0:
128,96,122537,1,0,0:0:0:0:
128,80,122674,1,0,0:0:0:0:
128,64,122810,5,2,0:0:0:0:
144,64,122946,1,0,0:0:0:0:
160,64,123083,1,0,0:0:0:0:
176,64,123219,1,0,0:0:0:0:
192,64,123355,1,2,0:0:0:0:
208,64,123492,1,0,0:0:0:0:
224,64,123628,1,0,0:0:0:0:
240,64,123764,1,0,0:0:0:0:
256,64,123901,5,2,0:0:0:0:
272,64,124037,1,0,0:0:0:0:
288,64,124174,1,0,0:0:0:0:
304,64,124310,1,0,0:0:0:0:
320,64,124446,1,2,0:0:0:0:
336,64,124583,1,0,0:0:0:0:
352,64,124719,1,0,0:0:0:0:
368,64,124855,1,0,0:0:0:0:
384,64,124992,5,2,0:0:0:0:
384,80,125128,1,0,0:0:0:0:
384,96,125264,1,0,0:0:0:0:
384,112,125401,1,0,0:0:0:0:
384,128,125537,1,2,0:0:0:0:
384,144,125674,1,0,0:0:0:0:
384,160,125810,1,0,0:0:0:0:
384,176,125946,1,0,0:0:0:0:
384,192,126083,5,2,0:0:0:0:
384,208,126219,1,0,0:0:0:0:
384,224,126355,1,0,0:0:0:0:
384,240,126492,1,0,0:0:0:0:
384,256,126628,1,2,0:0:0:0:
384,272,126765,1,0,0:0:0:0:
384,288,126901,1,0,0:0:0:0:
384,304,127037,1,0,0:0:0:0:
384,320,127173,5,2,0:0:0:0:
368,320,127310,1,0,0:0:0:0:
352,320,127446,1,0,0:0:0:0:
336,320,127583,1,0,0:0:0:0:
320,320,127719,1,2,0:0:0:0:
304,320,127855,1,0,0:0:0:0:
288,320,127992,1,0,0:0:0:0:
272,320,128128,1,0,0:0:0:0:
256,320,128264,5,2,0:0:0:0:
240,320,128401,1,0,0:0:0:0:
224,320,128537,1,0,0:0:0:0:
208,320,128674,1,0,0:0:0:0:
192,320,128810,1,2,0:0:0:0:
176,320,128946,1,0,0:0:0:0:
160,320,129083,1,0,0:0:0:0:
144,320,129219,1,0,0:0:0:0:
128,320,129355,5,2,0:0:0:0:
128,304,129492,1,0,0:0:0:0:
128,288,129628,1,0,0:0:0:0:
128,272,129764,1,0,0:0:0:0:
128,256,129901,1,2,0:0:0:0:
128,240,130037,1,0,0:0:0:0:
128,224,130173,1,0,0:0:0:0:
128,208,130310,1,0,0:0:0:0:
128,192,130446,5,2,0:0:0:0:
128,176,130583,1,0,0:0:0:0:
128,160,130719,1,0,0:0:0:0:
128,144,130855,1,0,0:0:0:0:
128,128,130992,1,2,0:0:0:0:
128,112,131128,1,0,0:0:0:0:
128,96,131264,1,0,0:0:0:0:
128,80,131401,1,0,0:0:0:0:
128,64,131538,5,2,0:0:0:0:
144,64,131674,1,0,0:0:0:0:
160,64,131811,1,0,0:0:0:0:
176,64,131947,1,0,0:0:0:0:
192,64,132083,1,2,0:0:0:0:
208,64,132220,1,0,0:0:0:0:
224,64,132356,1,0,0:0:0:0:
240,64,132492,1,0,0:0:0:0:
256,64,132629,5,2,0:0:0:0:
272,64,132765,1,0,0:0:0:0:
288,64,132902,1,0,0:0:0:0:
304,64,133038,1,0,0:0:0:0:
320,64,133174,1,2,0:0:0:0:
336,64,133311,1,0,0:0:0:0:
352,64,133447,1,0,0:0:0:0:
368,64,133583,1,0,0:0:0:0:
384,64,133720,5,2,0:0:0:0:
384,80,133856,1,0,0:0:0:0:
384,96,133992,1,0,0:0:0:0:
384,112,134129,1,0,0:0:0:0:
384,128,134265,1,2,0:0:0:0:
384,144,134402,1,0,0:0:0:0:
384,160,134538,1,0,0:0:0:0:
384,176,134674,1,0,0:0:0:0:
384,192,134811,5,2,0:0:0:0:
384,208,134947,1,0,0:0:0:0:
384,224,135083,1,0,0:0:0:0:
384,240,135220,1,0,0:0:0:0:
384,256,135356,1,2,0:0:0:0:
384,272,135493,1,0,0:0:0:0:
384,288,135629,1,0,0:0:0:0:
384,304,135765,1,0,0:0:0:0:
384,320,135901,5,4,0:0:0:0:
256,192,136038,12,0,140265,0:0:0:0:
