osu file format v14

[General]
AudioFilename: The Glory Days.mp3
AudioLeadIn: 0
PreviewTime: 65541
Countdown: 1
SampleSet: Normal
StackLeniency: 0.7
Mode: 3
LetterboxInBreaks: 0
SpecialStyle: 0
WidescreenStoryboard: 0

[Editor]
DistanceSpacing: 1
BeatDivisor: 4
GridSize: 32
TimelineZoom: 2.4

[Metadata]
Title:Sizuka's 4k Practice Pack
TitleUnicode:Sizuka's 4k Practice Pack
Artist:Various Artists
ArtistUnicode:Various Artists
Creator:_Sizuka_
Version:The Glory Days
Source:
Tags:
BeatmapID:969802
BeatmapSetID:452109

[Difficulty]
HPDrainRate:8
CircleSize:4
OverallDifficulty:8
ApproachRate:5
SliderMultiplier:1.4
SliderTickRate:1

[Events]
//Background and Video events
0,0,"91d5LLZuwnL._SL1417_.jpg",0,0
//Break Periods
//Storyboard Layer 0 (Background)
//Storyboard Layer 1 (Fail)
//Storyboard Layer 2 (Pass)
//Storyboard Layer 3 (Foreground)
//Storyboard Sound Samples

[TimingPoints]
3150,326.086956521739,4,1,0,25,1,0

[HitObjects]
448,192,3150,128,0,7063:0:0:0:0:
192,192,3150,1,0,0:0:0:0:
320,192,3150,1,0,0:0:0:0:
192,192,4454,1,0,0:0:0:0:
64,192,4617,1,0,0:0:0:0:
192,192,4780,1,0,0:0:0:0:
320,192,4943,1,0,0:0:0:0:
192,192,5106,1,0,0:0:0:0:
64,192,5595,1,0,0:0:0:0:
320,192,5758,1,0,0:0:0:0:
192,192,5758,1,0,0:0:0:0:
64,192,7715,1,0,0:0:0:0:
192,192,8041,1,0,0:0:0:0:
448,192,8367,1,0,0:0:0:0:
320,192,8367,128,0,9997:0:0:0:0:
64,192,9590,1,0,0:0:0:0:
192,192,9671,1,0,0:0:0:0:
448,192,9834,1,0,0:0:0:0:
192,192,9997,1,0,0:0:0:0:
192,192,10160,1,0,0:0:0:0:
64,192,10323,1,0,0:0:0:0:
192,192,10649,1,0,0:0:0:0:
192,192,10976,128,0,12932:0:0:0:0:
64,192,13584,1,0,0:0:0:0:
448,192,13584,1,0,0:0:0:0:
320,192,13910,1,0,0:0:0:0:
448,192,13910,1,0,0:0:0:0:
192,192,14236,1,0,0:0:0:0:
320,192,14236,1,0,0:0:0:0:
64,192,14563,1,0,0:0:0:0:
192,192,14563,1,0,0:0:0:0:
320,192,14889,1,0,0:0:0:0:
448,192,14889,1,0,0:0:0:0:
192,192,15215,1,0,0:0:0:0:
64,192,15215,1,0,0:0:0:0:
64,192,15541,1,0,0:0:0:0:
320,192,15541,1,0,0:0:0:0:
320,192,15867,1,0,0:0:0:0:
448,192,15867,1,0,0:0:0:0:
64,192,16193,1,0,0:0:0:0:
448,192,16193,1,0,0:0:0:0:
192,192,16519,1,0,0:0:0:0:
320,192,16519,1,0,0:0:0:0:
448,192,16845,1,0,0:0:0:0:
320,192,16845,1,0,0:0:0:0:
64,192,17171,1,0,0:0:0:0:
320,192,17171,1,0,0:0:0:0:
64,192,17497,1,0,0:0:0:0:
192,192,17497,1,0,0:0:0:0:
192,192,17823,1,0,0:0:0:0:
448,192,17823,1,0,0:0:0:0:
320,192,18149,1,0,0:0:0:0:
448,192,18149,1,0,0:0:0:0:
192,192,18476,1,0,0:0:0:0:
320,192,18476,1,0,0:0:0:0:
64,192,18802,1,0,0:0:0:0:
192,192,18802,1,0,0:0:0:0:
64,192,19128,1,0,0:0:0:0:
320,192,19128,1,0,0:0:0:0:
192,192,19454,1,0,0:0:0:0:
320,192,19454,1,0,0:0:0:0:
448,192,19780,1,0,0:0:0:0:
192,192,19780,1,0,0:0:0:0:
320,192,20106,1,0,0:0:0:0:
448,192,20106,1,0,0:0:0:0:
64,192,20432,1,0,0:0:0:0:
192,192,20432,1,0,0:0:0:0:
320,192,20432,1,0,0:0:0:0:
64,192,20595,1,0,0:0:0:0:
192,192,20758,1,0,0:0:0:0:
320,192,20758,1,0,0:0:0:0:
320,192,21084,1,0,0:0:0:0:
448,192,21084,1,0,0:0:0:0:
192,192,21410,1,0,0:0:0:0:
320,192,21410,1,0,0:0:0:0:
448,192,21410,1,0,0:0:0:0:
320,192,21573,1,0,0:0:0:0:
192,192,21736,1,0,0:0:0:0:
64,192,21736,1,0,0:0:0:0:
192,192,21899,1,0,0:0:0:0:
320,192,22063,1,0,0:0:0:0:
448,192,22063,1,0,0:0:0:0:
64,192,22063,1,0,0:0:0:0:
192,192,22226,1,0,0:0:0:0:
64,192,22389,1,0,0:0:0:0:
320,192,22389,1,0,0:0:0:0:
192,192,22552,1,0,0:0:0:0:
448,192,22552,1,0,0:0:0:0:
320,192,22552,1,0,0:0:0:0:
64,192,22715,1,0,0:0:0:0:
320,192,22715,1,0,0:0:0:0:
64,192,22878,1,0,0:0:0:0:
192,192,22878,1,0,0:0:0:0:
448,192,22878,1,0,0:0:0:0:
64,192,23041,1,0,0:0:0:0:
320,192,23041,1,0,0:0:0:0:
64,192,23204,1,0,0:0:0:0:
192,192,23204,1,0,0:0:0:0:
320,192,23285,1,0,0:0:0:0:
448,192,23367,1,0,0:0:0:0:
192,192,23367,1,0,0:0:0:0:
320,192,23530,1,0,0:0:0:0:
448,192,23530,1,0,0:0:0:0:
192,192,23693,1,0,0:0:0:0:
448,192,23693,1,0,0:0:0:0:
320,192,23693,1,0,0:0:0:0:
192,192,23856,1,0,0:0:0:0:
448,192,23856,1,0,0:0:0:0:
64,192,24019,1,0,0:0:0:0:
192,192,24019,1,0,0:0:0:0:
320,192,24345,1,0,0:0:0:0:
192,192,24508,1,0,0:0:0:0:
320,192,24671,1,0,0:0:0:0:
448,192,24997,1,0,0:0:0:0:
320,192,25160,1,0,0:0:0:0:
192,192,25323,1,0,0:0:0:0:
64,192,25649,1,0,0:0:0:0:
192,192,25813,1,0,0:0:0:0:
320,192,25976,1,0,0:0:0:0:
64,192,26139,1,0,0:0:0:0:
320,192,26302,1,0,0:0:0:0:
192,192,26465,1,0,0:0:0:0:
64,192,26628,1,0,0:0:0:0:
448,192,26628,128,0,27851:0:0:0:0:
192,192,29073,1,0,0:0:0:0:
192,192,29236,1,0,0:0:0:0:
320,192,29399,1,0,0:0:0:0:
448,192,29563,1,0,0:0:0:0:
320,192,29726,1,0,0:0:0:0:
64,192,29889,1,0,0:0:0:0:
192,192,30052,1,0,0:0:0:0:
320,192,30215,1,0,0:0:0:0:
448,192,30378,1,0,0:0:0:0:
192,192,30541,1,0,0:0:0:0:
320,192,30704,1,0,0:0:0:0:
448,192,30867,1,0,0:0:0:0:
192,192,31030,1,0,0:0:0:0:
64,192,31193,1,0,0:0:0:0:
320,192,31356,1,0,0:0:0:0:
64,192,31519,1,0,0:0:0:0:
448,192,31682,1,0,0:0:0:0:
192,192,31845,1,0,0:0:0:0:
320,192,31845,1,0,0:0:0:0:
64,192,31845,128,0,32660:0:0:0:0:
192,192,32986,1,0,0:0:0:0:
448,192,33149,128,0,33802:0:0:0:0:
320,192,34291,1,0,0:0:0:0:
192,192,34454,1,0,0:0:0:0:
64,192,34454,1,0,0:0:0:0:
192,192,34617,1,0,0:0:0:0:
320,192,34617,1,0,0:0:0:0:
448,192,34780,1,0,0:0:0:0:
64,192,34780,1,0,0:0:0:0:
320,192,34943,1,0,0:0:0:0:
64,192,34943,1,0,0:0:0:0:
192,192,35106,1,0,0:0:0:0:
320,192,35106,1,0,0:0:0:0:
192,192,35269,1,0,0:0:0:0:
448,192,35269,1,0,0:0:0:0:
320,192,35432,1,0,0:0:0:0:
448,192,35432,1,0,0:0:0:0:
64,192,35595,1,0,0:0:0:0:
320,192,35595,1,0,0:0:0:0:
192,192,35758,1,0,0:0:0:0:
448,192,35758,1,0,0:0:0:0:
320,192,35921,1,0,0:0:0:0:
448,192,35921,1,0,0:0:0:0:
64,192,36084,1,0,0:0:0:0:
192,192,36084,1,0,0:0:0:0:
192,192,36247,1,0,0:0:0:0:
448,192,36247,1,0,0:0:0:0:
320,192,36410,1,0,0:0:0:0:
448,192,36410,1,0,0:0:0:0:
64,192,36410,1,0,0:0:0:0:
192,192,36573,1,0,0:0:0:0:
320,192,36573,1,0,0:0:0:0:
192,192,36736,1,0,0:0:0:0:
448,192,36736,1,0,0:0:0:0:
64,192,36899,1,0,0:0:0:0:
320,192,36899,1,0,0:0:0:0:
64,192,37063,1,0,0:0:0:0:
192,192,37063,1,0,0:0:0:0:
320,192,37063,1,0,0:0:0:0:
192,192,37226,1,0,0:0:0:0:
320,192,37389,1,0,0:0:0:0:
448,192,37552,1,0,0:0:0:0:
320,192,37715,1,0,0:0:0:0:
192,192,37878,1,0,0:0:0:0:
64,192,38041,1,0,0:0:0:0:
320,192,38204,1,0,0:0:0:0:
192,192,38367,1,0,0:0:0:0:
64,192,38530,1,0,0:0:0:0:
192,192,38693,1,0,0:0:0:0:
320,192,38856,1,0,0:0:0:0:
448,192,39019,1,0,0:0:0:0:
192,192,39182,1,0,0:0:0:0:
320,192,39345,1,0,0:0:0:0:
64,192,39345,1,0,0:0:0:0:
448,192,39508,1,0,0:0:0:0:
192,192,39671,1,0,0:0:0:0:
320,192,39671,1,0,0:0:0:0:
448,192,39671,1,0,0:0:0:0:
64,192,39834,1,0,0:0:0:0:
320,192,39834,1,0,0:0:0:0:
64,192,39997,1,0,0:0:0:0:
192,192,39997,1,0,0:0:0:0:
320,192,40160,1,0,0:0:0:0:
448,192,40160,1,0,0:0:0:0:
192,192,40323,1,0,0:0:0:0:
448,192,40323,1,0,0:0:0:0:
320,192,40486,1,0,0:0:0:0:
192,192,40486,1,0,0:0:0:0:
64,192,40649,1,0,0:0:0:0:
192,192,40649,1,0,0:0:0:0:
192,192,40813,1,0,0:0:0:0:
448,192,40813,1,0,0:0:0:0:
64,192,40976,1,0,0:0:0:0:
320,192,40976,1,0,0:0:0:0:
64,192,41139,1,0,0:0:0:0:
192,192,41139,1,0,0:0:0:0:
192,192,41302,1,0,0:0:0:0:
448,192,41302,1,0,0:0:0:0:
320,192,41465,1,0,0:0:0:0:
448,192,41465,1,0,0:0:0:0:
192,192,41628,1,0,0:0:0:0:
320,192,41628,1,0,0:0:0:0:
192,192,41791,1,0,0:0:0:0:
320,192,41791,1,0,0:0:0:0:
64,192,41954,1,0,0:0:0:0:
320,192,41954,1,0,0:0:0:0:
64,192,42117,1,0,0:0:0:0:
192,192,42117,1,0,0:0:0:0:
192,192,42280,1,0,0:0:0:0:
320,192,42280,1,0,0:0:0:0:
448,192,42280,1,0,0:0:0:0:
64,192,42443,1,0,0:0:0:0:
320,192,42443,1,0,0:0:0:0:
192,192,42606,1,0,0:0:0:0:
448,192,42606,1,0,0:0:0:0:
64,192,42606,1,0,0:0:0:0:
320,192,42769,1,0,0:0:0:0:
448,192,42769,1,0,0:0:0:0:
192,192,42932,1,0,0:0:0:0:
448,192,42932,1,0,0:0:0:0:
192,192,43095,1,0,0:0:0:0:
448,192,43095,1,0,0:0:0:0:
64,192,43258,1,0,0:0:0:0:
320,192,43258,1,0,0:0:0:0:
64,192,43421,1,0,0:0:0:0:
192,192,43421,1,0,0:0:0:0:
320,192,43421,1,0,0:0:0:0:
192,192,43584,1,0,0:0:0:0:
448,192,43584,1,0,0:0:0:0:
64,192,43747,1,0,0:0:0:0:
192,192,43747,1,0,0:0:0:0:
64,192,43910,1,0,0:0:0:0:
320,192,43910,1,0,0:0:0:0:
448,192,43910,1,0,0:0:0:0:
192,192,44073,1,0,0:0:0:0:
320,192,44073,1,0,0:0:0:0:
64,192,44155,1,0,0:0:0:0:
192,192,44236,1,0,0:0:0:0:
448,192,44236,1,0,0:0:0:0:
320,192,44318,1,0,0:0:0:0:
448,192,44399,1,0,0:0:0:0:
64,192,44399,1,0,0:0:0:0:
192,192,44563,1,0,0:0:0:0:
320,192,44563,1,0,0:0:0:0:
64,192,44726,1,0,0:0:0:0:
192,192,44726,1,0,0:0:0:0:
320,192,44889,1,0,0:0:0:0:
448,192,45052,1,0,0:0:0:0:
320,192,45215,1,0,0:0:0:0:
192,192,45378,1,0,0:0:0:0:
64,192,45704,1,0,0:0:0:0:
192,192,45867,1,0,0:0:0:0:
320,192,45867,1,0,0:0:0:0:
448,192,46519,128,0,46845:0:0:0:0:
320,192,46845,128,0,47171:0:0:0:0:
192,192,47171,128,0,47497:0:0:0:0:
448,192,47497,1,0,0:0:0:0:
320,192,47660,1,0,0:0:0:0:
192,192,47823,1,0,0:0:0:0:
64,192,47986,1,0,0:0:0:0:
192,192,48313,1,0,0:0:0:0:
320,192,48476,1,0,0:0:0:0:
64,192,49128,128,0,49454:0:0:0:0:
192,192,49454,128,0,49780:0:0:0:0:
320,192,49780,128,0,50106:0:0:0:0:
64,192,50106,1,0,0:0:0:0:
192,192,50269,1,0,0:0:0:0:
320,192,50432,1,0,0:0:0:0:
448,192,50595,1,0,0:0:0:0:
320,192,50921,1,0,0:0:0:0:
192,192,51084,1,0,0:0:0:0:
192,192,51736,128,0,52063:0:0:0:0:
320,192,52063,128,0,52389:0:0:0:0:
192,192,52389,128,0,52715:0:0:0:0:
320,192,52715,1,0,0:0:0:0:
448,192,52878,1,0,0:0:0:0:
320,192,53041,1,0,0:0:0:0:
448,192,53204,1,0,0:0:0:0:
320,192,53530,1,0,0:0:0:0:
64,192,53693,1,0,0:0:0:0:
192,192,54345,128,0,54671:0:0:0:0:
64,192,54671,128,0,54997:0:0:0:0:
448,192,54997,128,0,55323:0:0:0:0:
64,192,55323,1,0,0:0:0:0:
192,192,55323,1,0,0:0:0:0:
320,192,55486,1,0,0:0:0:0:
448,192,55486,1,0,0:0:0:0:
192,192,55649,1,0,0:0:0:0:
320,192,55649,1,0,0:0:0:0:
64,192,55813,1,0,0:0:0:0:
448,192,55813,1,0,0:0:0:0:
192,192,55976,1,0,0:0:0:0:
320,192,55976,1,0,0:0:0:0:
64,192,56139,1,0,0:0:0:0:
192,192,56139,1,0,0:0:0:0:
320,192,56302,1,0,0:0:0:0:
448,192,56302,1,0,0:0:0:0:
192,192,56465,1,0,0:0:0:0:
448,192,56465,1,0,0:0:0:0:
320,192,56546,1,0,0:0:0:0:
192,192,56628,1,0,0:0:0:0:
448,192,56628,1,0,0:0:0:0:
64,192,56791,1,0,0:0:0:0:
192,192,56791,1,0,0:0:0:0:
320,192,56872,1,0,0:0:0:0:
448,192,56954,1,0,0:0:0:0:
64,192,57117,1,0,0:0:0:0:
192,192,57117,1,0,0:0:0:0:
320,192,57198,1,0,0:0:0:0:
448,192,57280,1,0,0:0:0:0:
64,192,57443,1,0,0:0:0:0:
192,192,57443,1,0,0:0:0:0:
448,192,57524,1,0,0:0:0:0:
320,192,57606,1,0,0:0:0:0:
192,192,57606,1,0,0:0:0:0:
64,192,57769,1,0,0:0:0:0:
320,192,57769,1,0,0:0:0:0:
64,192,57932,1,0,0:0:0:0:
192,192,57932,1,0,0:0:0:0:
448,192,57932,1,0,0:0:0:0:
320,192,58095,1,0,0:0:0:0:
448,192,58095,1,0,0:0:0:0:
192,192,58177,1,0,0:0:0:0:
64,192,58258,1,0,0:0:0:0:
320,192,58258,1,0,0:0:0:0:
192,192,58421,1,0,0:0:0:0:
320,192,58421,1,0,0:0:0:0:
448,192,58503,1,0,0:0:0:0:
64,192,58584,1,0,0:0:0:0:
320,192,58584,1,0,0:0:0:0:
192,192,58747,1,0,0:0:0:0:
64,192,58747,1,0,0:0:0:0:
320,192,58829,1,0,0:0:0:0:
448,192,58910,1,0,0:0:0:0:
192,192,58910,1,0,0:0:0:0:
320,192,59073,1,0,0:0:0:0:
448,192,59073,1,0,0:0:0:0:
192,192,59155,1,0,0:0:0:0:
64,192,59236,1,0,0:0:0:0:
448,192,59236,1,0,0:0:0:0:
320,192,59236,1,0,0:0:0:0:
192,192,59399,1,0,0:0:0:0:
64,192,59399,1,0,0:0:0:0:
320,192,59563,1,0,0:0:0:0:
448,192,59563,1,0,0:0:0:0:
192,192,59644,1,0,0:0:0:0:
64,192,59726,1,0,0:0:0:0:
448,192,59726,1,0,0:0:0:0:
320,192,59889,1,0,0:0:0:0:
192,192,59889,1,0,0:0:0:0:
448,192,59970,1,0,0:0:0:0:
64,192,60052,1,0,0:0:0:0:
64,192,60215,1,0,0:0:0:0:
192,192,60215,1,0,0:0:0:0:
320,192,60215,1,0,0:0:0:0:
448,192,60296,1,0,0:0:0:0:
320,192,60378,1,0,0:0:0:0:
64,192,60541,1,0,0:0:0:0:
192,192,60541,1,0,0:0:0:0:
448,192,60541,1,0,0:0:0:0:
320,192,60704,1,0,0:0:0:0:
448,192,60704,1,0,0:0:0:0:
192,192,60785,1,0,0:0:0:0:
192,192,60867,1,0,0:0:0:0:
448,192,60867,1,0,0:0:0:0:
64,192,61030,1,0,0:0:0:0:
192,192,61030,1,0,0:0:0:0:
64,192,61111,1,0,0:0:0:0:
320,192,61193,1,0,0:0:0:0:
448,192,61193,1,0,0:0:0:0:
192,192,61356,1,0,0:0:0:0:
320,192,61356,1,0,0:0:0:0:
64,192,61519,1,0,0:0:0:0:
192,192,61519,1,0,0:0:0:0:
448,192,61519,1,0,0:0:0:0:
320,192,61682,1,0,0:0:0:0:
448,192,61682,1,0,0:0:0:0:
192,192,61764,1,0,0:0:0:0:
192,192,61845,1,0,0:0:0:0:
320,192,61845,1,0,0:0:0:0:
64,192,62008,1,0,0:0:0:0:
320,192,62008,1,0,0:0:0:0:
64,192,62090,1,0,0:0:0:0:
192,192,62090,1,0,0:0:0:0:
320,192,62171,1,0,0:0:0:0:
192,192,62334,1,0,0:0:0:0:
448,192,62334,1,0,0:0:0:0:
320,192,62497,1,0,0:0:0:0:
448,192,62497,1,0,0:0:0:0:
64,192,62497,1,0,0:0:0:0:
64,192,62660,1,0,0:0:0:0:
320,192,62660,1,0,0:0:0:0:
192,192,62823,1,0,0:0:0:0:
320,192,62823,1,0,0:0:0:0:
192,192,62986,1,0,0:0:0:0:
448,192,62986,1,0,0:0:0:0:
448,192,63149,128,0,64128:0:0:0:0:
320,192,64128,128,0,64454:0:0:0:0:
192,192,64454,128,0,65432:0:0:0:0:
64,192,65432,1,0,0:0:0:0:
320,192,65758,5,0,0:0:0:0:
448,192,65758,1,0,0:0:0:0:
64,192,65758,1,0,0:0:0:0:
192,192,65813,1,0,0:0:0:0:
320,192,65867,1,0,0:0:0:0:
448,192,65921,1,0,0:0:0:0:
192,192,65976,1,0,0:0:0:0:
64,192,66030,1,0,0:0:0:0:
320,192,66084,1,0,0:0:0:0:
448,192,66084,1,0,0:0:0:0:
192,192,66084,1,0,0:0:0:0:
64,192,66139,1,0,0:0:0:0:
192,192,66193,1,0,0:0:0:0:
320,192,66247,1,0,0:0:0:0:
448,192,66247,1,0,0:0:0:0:
192,192,66302,1,0,0:0:0:0:
64,192,66356,1,0,0:0:0:0:
448,192,66356,1,0,0:0:0:0:
320,192,66410,1,0,0:0:0:0:
192,192,66465,1,0,0:0:0:0:
64,192,66465,1,0,0:0:0:0:
448,192,66519,1,0,0:0:0:0:
320,192,66573,1,0,0:0:0:0:
192,192,66628,1,0,0:0:0:0:
64,192,66682,1,0,0:0:0:0:
448,192,66736,1,0,0:0:0:0:
320,192,66736,1,0,0:0:0:0:
64,192,66791,1,0,0:0:0:0:
448,192,66845,1,0,0:0:0:0:
320,192,66899,1,0,0:0:0:0:
192,192,66899,1,0,0:0:0:0:
64,192,66954,1,0,0:0:0:0:
448,192,67008,1,0,0:0:0:0:
320,192,67063,1,0,0:0:0:0:
64,192,67063,1,0,0:0:0:0:
448,192,67117,1,0,0:0:0:0:
320,192,67171,1,0,0:0:0:0:
192,192,67226,1,0,0:0:0:0:
64,192,67280,1,0,0:0:0:0:
320,192,67334,1,0,0:0:0:0:
448,192,67389,1,0,0:0:0:0:
192,192,67389,1,0,0:0:0:0:
64,192,67443,1,0,0:0:0:0:
448,192,67497,1,0,0:0:0:0:
320,192,67552,1,0,0:0:0:0:
64,192,67552,1,0,0:0:0:0:
192,192,67606,1,0,0:0:0:0:
448,192,67660,1,0,0:0:0:0:
320,192,67715,1,0,0:0:0:0:
192,192,67715,1,0,0:0:0:0:
448,192,67769,1,0,0:0:0:0:
64,192,67823,1,0,0:0:0:0:
192,192,67878,1,0,0:0:0:0:
320,192,67932,1,0,0:0:0:0:
448,192,67986,1,0,0:0:0:0:
64,192,67986,1,0,0:0:0:0:
192,192,68041,1,0,0:0:0:0:
320,192,68041,1,0,0:0:0:0:
448,192,68095,1,0,0:0:0:0:
320,192,68149,1,0,0:0:0:0:
192,192,68204,1,0,0:0:0:0:
64,192,68204,1,0,0:0:0:0:
448,192,68258,1,0,0:0:0:0:
64,192,68313,1,0,0:0:0:0:
192,192,68367,1,0,0:0:0:0:
320,192,68367,1,0,0:0:0:0:
64,192,68421,1,0,0:0:0:0:
192,192,68476,1,0,0:0:0:0:
320,192,68530,1,0,0:0:0:0:
448,192,68584,1,0,0:0:0:0:
64,192,68639,1,0,0:0:0:0:
448,192,68693,1,0,0:0:0:0:
192,192,68693,1,0,0:0:0:0:
320,192,68747,1,0,0:0:0:0:
192,192,68802,1,0,0:0:0:0:
64,192,68856,1,0,0:0:0:0:
448,192,68910,1,0,0:0:0:0:
64,192,68965,1,0,0:0:0:0:
320,192,68965,1,0,0:0:0:0:
192,192,69019,1,0,0:0:0:0:
320,192,69073,1,0,0:0:0:0:
448,192,69128,1,0,0:0:0:0:
64,192,69182,1,0,0:0:0:0:
448,192,69236,1,0,0:0:0:0:
192,192,69236,1,0,0:0:0:0:
320,192,69291,1,0,0:0:0:0:
192,192,69345,1,0,0:0:0:0:
64,192,69399,1,0,0:0:0:0:
448,192,69454,1,0,0:0:0:0:
64,192,69508,1,0,0:0:0:0:
320,192,69508,1,0,0:0:0:0:
192,192,69563,1,0,0:0:0:0:
320,192,69617,1,0,0:0:0:0:
448,192,69671,1,0,0:0:0:0:
64,192,69671,1,0,0:0:0:0:
192,192,69726,1,0,0:0:0:0:
320,192,69780,1,0,0:0:0:0:
448,192,69834,1,0,0:0:0:0:
64,192,69834,1,0,0:0:0:0:
320,192,69889,1,0,0:0:0:0:
192,192,69943,1,0,0:0:0:0:
64,192,69997,1,0,0:0:0:0:
448,192,70052,1,0,0:0:0:0:
320,192,70052,1,0,0:0:0:0:
192,192,70106,1,0,0:0:0:0:
64,192,70160,1,0,0:0:0:0:
448,192,70160,1,0,0:0:0:0:
320,192,70215,1,0,0:0:0:0:
192,192,70269,1,0,0:0:0:0:
64,192,70269,1,0,0:0:0:0:
448,192,70323,1,0,0:0:0:0:
320,192,70378,1,0,0:0:0:0:
192,192,70432,1,0,0:0:0:0:
448,192,70486,1,0,0:0:0:0:
320,192,70486,1,0,0:0:0:0:
192,192,70541,1,0,0:0:0:0:
64,192,70595,1,0,0:0:0:0:
320,192,70649,1,0,0:0:0:0:
448,192,70649,1,0,0:0:0:0:
192,192,70649,1,0,0:0:0:0:
64,192,70704,1,0,0:0:0:0:
192,192,70758,1,0,0:0:0:0:
320,192,70813,1,0,0:0:0:0:
448,192,70867,1,0,0:0:0:0:
64,192,70921,1,0,0:0:0:0:
192,192,70976,1,0,0:0:0:0:
320,192,70976,1,0,0:0:0:0:
448,192,70976,1,0,0:0:0:0:
64,192,71030,1,0,0:0:0:0:
448,192,71084,1,0,0:0:0:0:
320,192,71139,1,0,0:0:0:0:
192,192,71139,1,0,0:0:0:0:
64,192,71193,1,0,0:0:0:0:
320,192,71247,1,0,0:0:0:0:
448,192,71302,1,0,0:0:0:0:
192,192,71302,1,0,0:0:0:0:
64,192,71356,1,0,0:0:0:0:
448,192,71410,1,0,0:0:0:0:
320,192,71465,1,0,0:0:0:0:
192,192,71465,1,0,0:0:0:0:
64,192,71519,1,0,0:0:0:0:
448,192,71573,1,0,0:0:0:0:
192,192,71628,1,0,0:0:0:0:
320,192,71682,1,0,0:0:0:0:
448,192,71736,1,0,0:0:0:0:
64,192,71791,1,0,0:0:0:0:
192,192,71791,1,0,0:0:0:0:
320,192,71845,1,0,0:0:0:0:
448,192,71899,1,0,0:0:0:0:
64,192,71954,1,0,0:0:0:0:
192,192,71954,1,0,0:0:0:0:
320,192,72008,1,0,0:0:0:0:
64,192,72063,1,0,0:0:0:0:
448,192,72063,1,0,0:0:0:0:
192,192,72117,1,0,0:0:0:0:
320,192,72171,1,0,0:0:0:0:
448,192,72171,1,0,0:0:0:0:
64,192,72226,1,0,0:0:0:0:
192,192,72280,1,0,0:0:0:0:
320,192,72280,1,0,0:0:0:0:
448,192,72280,1,0,0:0:0:0:
64,192,72334,1,0,0:0:0:0:
192,192,72389,1,0,0:0:0:0:
320,192,72443,1,0,0:0:0:0:
448,192,72443,1,0,0:0:0:0:
64,192,72497,1,0,0:0:0:0:
448,192,72552,1,0,0:0:0:0:
320,192,72606,1,0,0:0:0:0:
192,192,72606,1,0,0:0:0:0:
64,192,72660,1,0,0:0:0:0:
448,192,72715,1,0,0:0:0:0:
64,192,72769,1,0,0:0:0:0:
192,192,72769,1,0,0:0:0:0:
320,192,72823,1,0,0:0:0:0:
448,192,72878,1,0,0:0:0:0:
64,192,72932,1,0,0:0:0:0:
192,192,72932,1,0,0:0:0:0:
320,192,72932,1,0,0:0:0:0:
448,192,72986,1,0,0:0:0:0:
320,192,73041,1,0,0:0:0:0:
192,192,73095,1,0,0:0:0:0:
64,192,73149,1,0,0:0:0:0:
320,192,73204,1,0,0:0:0:0:
448,192,73258,1,0,0:0:0:0:
64,192,73258,1,0,0:0:0:0:
192,192,73313,1,0,0:0:0:0:
320,192,73367,1,0,0:0:0:0:
448,192,73367,1,0,0:0:0:0:
64,192,73421,1,0,0:0:0:0:
448,192,73476,1,0,0:0:0:0:
192,192,73530,1,0,0:0:0:0:
64,192,73584,1,0,0:0:0:0:
320,192,73584,1,0,0:0:0:0:
448,192,73639,1,0,0:0:0:0:
64,192,73693,1,0,0:0:0:0:
192,192,73747,1,0,0:0:0:0:
448,192,73747,1,0,0:0:0:0:
320,192,73802,1,0,0:0:0:0:
192,192,73856,1,0,0:0:0:0:
64,192,73910,1,0,0:0:0:0:
448,192,73910,1,0,0:0:0:0:
320,192,73965,1,0,0:0:0:0:
192,192,74019,1,0,0:0:0:0:
64,192,74019,1,0,0:0:0:0:
448,192,74073,1,0,0:0:0:0:
192,192,74128,1,0,0:0:0:0:
320,192,74182,1,0,0:0:0:0:
448,192,74236,1,0,0:0:0:0:
64,192,74236,1,0,0:0:0:0:
192,192,74291,1,0,0:0:0:0:
320,192,74345,1,0,0:0:0:0:
448,192,74345,1,0,0:0:0:0:
64,192,74399,1,0,0:0:0:0:
192,192,74454,1,0,0:0:0:0:
320,192,74508,1,0,0:0:0:0:
448,192,74563,1,0,0:0:0:0:
64,192,74617,1,0,0:0:0:0:
192,192,74671,1,0,0:0:0:0:
320,192,74726,1,0,0:0:0:0:
448,192,74780,1,0,0:0:0:0:
192,192,74834,1,0,0:0:0:0:
64,192,74889,1,0,0:0:0:0:
320,192,74889,1,0,0:0:0:0:
448,192,74943,1,0,0:0:0:0:
64,192,74997,1,0,0:0:0:0:
192,192,75052,1,0,0:0:0:0:
320,192,75052,1,0,0:0:0:0:
448,192,75106,1,0,0:0:0:0:
320,192,75160,1,0,0:0:0:0:
64,192,75215,1,0,0:0:0:0:
192,192,75215,1,0,0:0:0:0:
448,192,75269,1,0,0:0:0:0:
320,192,75323,1,0,0:0:0:0:
192,192,75378,1,0,0:0:0:0:
64,192,75432,1,0,0:0:0:0:
448,192,75486,1,0,0:0:0:0:
192,192,75541,1,0,0:0:0:0:
64,192,75541,1,0,0:0:0:0:
320,192,75595,1,0,0:0:0:0:
448,192,75595,1,0,0:0:0:0:
192,192,75649,1,0,0:0:0:0:
64,192,75649,1,0,0:0:0:0:
320,192,75704,1,0,0:0:0:0:
448,192,75704,1,0,0:0:0:0:
64,192,75758,1,0,0:0:0:0:
192,192,75758,1,0,0:0:0:0:
320,192,75813,1,0,0:0:0:0:
448,192,75813,1,0,0:0:0:0:
448,192,76084,1,0,0:0:0:0:
320,192,76139,1,0,0:0:0:0:
64,192,76193,1,0,0:0:0:0:
192,192,76193,1,0,0:0:0:0:
448,192,76247,1,0,0:0:0:0:
320,192,76302,1,0,0:0:0:0:
192,192,76356,1,0,0:0:0:0:
448,192,76356,1,0,0:0:0:0:
64,192,76410,1,0,0:0:0:0:
320,192,76465,1,0,0:0:0:0:
192,192,76519,1,0,0:0:0:0:
64,192,76519,1,0,0:0:0:0:
448,192,76573,1,0,0:0:0:0:
320,192,76628,1,0,0:0:0:0:
64,192,76682,1,0,0:0:0:0:
192,192,76736,1,0,0:0:0:0:
448,192,76791,1,0,0:0:0:0:
320,192,76845,1,0,0:0:0:0:
192,192,76845,1,0,0:0:0:0:
64,192,76899,1,0,0:0:0:0:
448,192,76954,1,0,0:0:0:0:
320,192,77008,1,0,0:0:0:0:
64,192,77008,1,0,0:0:0:0:
192,192,77063,1,0,0:0:0:0:
448,192,77117,1,0,0:0:0:0:
320,192,77171,1,0,0:0:0:0:
64,192,77171,1,0,0:0:0:0:
192,192,77226,1,0,0:0:0:0:
320,192,77280,1,0,0:0:0:0:
448,192,77280,1,0,0:0:0:0:
64,192,77334,1,0,0:0:0:0:
192,192,77389,1,0,0:0:0:0:
448,192,77389,1,0,0:0:0:0:
320,192,77443,1,0,0:0:0:0:
64,192,77497,1,0,0:0:0:0:
192,192,77552,1,0,0:0:0:0:
320,192,77606,1,0,0:0:0:0:
448,192,77660,1,0,0:0:0:0:
64,192,77660,1,0,0:0:0:0:
192,192,77715,1,0,0:0:0:0:
320,192,77769,1,0,0:0:0:0:
448,192,77769,1,0,0:0:0:0:
192,192,77823,1,0,0:0:0:0:
64,192,77878,1,0,0:0:0:0:
448,192,77932,1,0,0:0:0:0:
320,192,77986,1,0,0:0:0:0:
192,192,77986,1,0,0:0:0:0:
64,192,78041,1,0,0:0:0:0:
448,192,78041,1,0,0:0:0:0:
320,192,78095,1,0,0:0:0:0:
192,192,78149,1,0,0:0:0:0:
64,192,78204,1,0,0:0:0:0:
320,192,78258,1,0,0:0:0:0:
448,192,78313,1,0,0:0:0:0:
192,192,78313,1,0,0:0:0:0:
64,192,78367,1,0,0:0:0:0:
320,192,78421,1,0,0:0:0:0:
448,192,78421,1,0,0:0:0:0:
192,192,78476,1,0,0:0:0:0:
64,192,78476,1,0,0:0:0:0:
320,192,78530,1,0,0:0:0:0:
448,192,78584,1,0,0:0:0:0:
64,192,78584,1,0,0:0:0:0:
192,192,78639,1,0,0:0:0:0:
320,192,78693,1,0,0:0:0:0:
448,192,78693,1,0,0:0:0:0:
64,192,78747,1,0,0:0:0:0:
192,192,78802,1,0,0:0:0:0:
320,192,78856,1,0,0:0:0:0:
448,192,78910,1,0,0:0:0:0:
64,192,78965,1,0,0:0:0:0:
448,192,79019,1,0,0:0:0:0:
192,192,79019,1,0,0:0:0:0:
320,192,79073,1,0,0:0:0:0:
192,192,79128,1,0,0:0:0:0:
64,192,79182,1,0,0:0:0:0:
448,192,79236,1,0,0:0:0:0:
64,192,79291,1,0,0:0:0:0:
320,192,79291,1,0,0:0:0:0:
192,192,79345,1,0,0:0:0:0:
320,192,79399,1,0,0:0:0:0:
448,192,79454,1,0,0:0:0:0:
64,192,79508,1,0,0:0:0:0:
448,192,79563,1,0,0:0:0:0:
192,192,79563,1,0,0:0:0:0:
320,192,79617,1,0,0:0:0:0:
192,192,79671,1,0,0:0:0:0:
64,192,79726,1,0,0:0:0:0:
448,192,79780,1,0,0:0:0:0:
64,192,79834,1,0,0:0:0:0:
320,192,79834,1,0,0:0:0:0:
192,192,79889,1,0,0:0:0:0:
320,192,79943,1,0,0:0:0:0:
448,192,79997,1,0,0:0:0:0:
64,192,80052,1,0,0:0:0:0:
192,192,80106,1,0,0:0:0:0:
448,192,80106,1,0,0:0:0:0:
320,192,80160,1,0,0:0:0:0:
64,192,80215,1,0,0:0:0:0:
448,192,80269,1,0,0:0:0:0:
192,192,80269,1,0,0:0:0:0:
320,192,80323,1,0,0:0:0:0:
192,192,80378,1,0,0:0:0:0:
64,192,80432,1,0,0:0:0:0:
448,192,80486,1,0,0:0:0:0:
64,192,80541,1,0,0:0:0:0:
320,192,80541,1,0,0:0:0:0:
192,192,80595,1,0,0:0:0:0:
320,192,80649,1,0,0:0:0:0:
448,192,80704,1,0,0:0:0:0:
64,192,80758,1,0,0:0:0:0:
192,192,80813,1,0,0:0:0:0:
320,192,80813,1,0,0:0:0:0:
448,192,80867,1,0,0:0:0:0:
64,192,80921,1,0,0:0:0:0:
192,192,80976,1,0,0:0:0:0:
448,192,80976,1,0,0:0:0:0:
320,192,81030,1,0,0:0:0:0:
64,192,81084,1,0,0:0:0:0:
192,192,81084,1,0,0:0:0:0:
448,192,81084,1,0,0:0:0:0:
320,192,81410,1,0,0:0:0:0:
448,192,81410,1,0,0:0:0:0:
192,192,81465,1,0,0:0:0:0:
64,192,81519,1,0,0:0:0:0:
448,192,81519,1,0,0:0:0:0:
320,192,81573,1,0,0:0:0:0:
192,192,81628,1,0,0:0:0:0:
64,192,81628,1,0,0:0:0:0:
448,192,81682,1,0,0:0:0:0:
320,192,81736,1,0,0:0:0:0:
192,192,81791,1,0,0:0:0:0:
64,192,81845,1,0,0:0:0:0:
448,192,81845,1,0,0:0:0:0:
320,192,81899,1,0,0:0:0:0:
64,192,81954,1,0,0:0:0:0:
192,192,82008,1,0,0:0:0:0:
448,192,82008,1,0,0:0:0:0:
320,192,82063,1,0,0:0:0:0:
448,192,82117,1,0,0:0:0:0:
64,192,82171,1,0,0:0:0:0:
448,192,82226,1,0,0:0:0:0:
192,192,82226,1,0,0:0:0:0:
320,192,82280,1,0,0:0:0:0:
192,192,82334,1,0,0:0:0:0:
64,192,82389,1,0,0:0:0:0:
448,192,82389,1,0,0:0:0:0:
320,192,82443,1,0,0:0:0:0:
192,192,82497,1,0,0:0:0:0:
64,192,82497,1,0,0:0:0:0:
448,192,82552,1,0,0:0:0:0:
192,192,82606,1,0,0:0:0:0:
320,192,82660,1,0,0:0:0:0:
448,192,82715,1,0,0:0:0:0:
64,192,82715,1,0,0:0:0:0:
192,192,82769,1,0,0:0:0:0:
320,192,82823,1,0,0:0:0:0:
448,192,82878,1,0,0:0:0:0:
64,192,82878,1,0,0:0:0:0:
192,192,82932,1,0,0:0:0:0:
448,192,82986,1,0,0:0:0:0:
320,192,83041,1,0,0:0:0:0:
64,192,83041,1,0,0:0:0:0:
192,192,83095,1,0,0:0:0:0:
64,192,83149,1,0,0:0:0:0:
320,192,83204,1,0,0:0:0:0:
448,192,83204,1,0,0:0:0:0:
192,192,83258,1,0,0:0:0:0:
64,192,83313,1,0,0:0:0:0:
448,192,83313,1,0,0:0:0:0:
192,192,83367,1,0,0:0:0:0:
320,192,83421,1,0,0:0:0:0:
448,192,83476,1,0,0:0:0:0:
64,192,83476,1,0,0:0:0:0:
192,192,83530,1,0,0:0:0:0:
320,192,83530,1,0,0:0:0:0:
448,192,83584,1,0,0:0:0:0:
64,192,83639,1,0,0:0:0:0:
320,192,83693,1,0,0:0:0:0:
192,192,83747,1,0,0:0:0:0:
448,192,83747,1,0,0:0:0:0:
64,192,83802,1,0,0:0:0:0:
320,192,83856,1,0,0:0:0:0:
192,192,83910,1,0,0:0:0:0:
448,192,83910,1,0,0:0:0:0:
64,192,83965,1,0,0:0:0:0:
320,192,84019,1,0,0:0:0:0:
448,192,84019,1,0,0:0:0:0:
192,192,84182,1,0,0:0:0:0:
320,192,84345,1,0,0:0:0:0:
64,192,84671,1,0,0:0:0:0:
192,192,84834,1,0,0:0:0:0:
320,192,84997,1,0,0:0:0:0:
192,192,85323,1,0,0:0:0:0:
320,192,85486,1,0,0:0:0:0:
192,192,85649,1,0,0:0:0:0:
64,192,85813,1,0,0:0:0:0:
192,192,85976,1,0,0:0:0:0:
320,192,85976,1,0,0:0:0:0:
64,192,86628,1,0,0:0:0:0:
320,192,86628,1,0,0:0:0:0:
192,192,86791,1,0,0:0:0:0:
320,192,86954,1,0,0:0:0:0:
192,192,87280,1,0,0:0:0:0:
64,192,87280,1,0,0:0:0:0:
320,192,87443,1,0,0:0:0:0:
448,192,87606,1,0,0:0:0:0:
448,192,87932,1,0,0:0:0:0:
192,192,87932,1,0,0:0:0:0:
320,192,88095,1,0,0:0:0:0:
64,192,88258,1,0,0:0:0:0:
64,192,88584,1,0,0:0:0:0:
320,192,88584,1,0,0:0:0:0:
192,192,88747,1,0,0:0:0:0:
64,192,88910,1,0,0:0:0:0:
192,192,89236,1,0,0:0:0:0:
320,192,89236,1,0,0:0:0:0:
448,192,89236,1,0,0:0:0:0:
320,192,89399,1,0,0:0:0:0:
448,192,89563,1,0,0:0:0:0:
64,192,89889,1,0,0:0:0:0:
192,192,89889,1,0,0:0:0:0:
320,192,90052,1,0,0:0:0:0:
448,192,90215,1,0,0:0:0:0:
448,192,90541,1,0,0:0:0:0:
320,192,90541,1,0,0:0:0:0:
192,192,90704,1,0,0:0:0:0:
64,192,90867,1,0,0:0:0:0:
64,192,91193,1,0,0:0:0:0:
320,192,91193,1,0,0:0:0:0:
192,192,91356,1,0,0:0:0:0:
320,192,91519,1,0,0:0:0:0:
448,192,91845,1,0,0:0:0:0:
192,192,91845,1,0,0:0:0:0:
320,192,92008,1,0,0:0:0:0:
192,192,92171,1,0,0:0:0:0:
64,192,92497,1,0,0:0:0:0:
192,192,92497,1,0,0:0:0:0:
64,192,92660,1,0,0:0:0:0:
192,192,92823,1,0,0:0:0:0:
448,192,93149,1,0,0:0:0:0:
320,192,93149,1,0,0:0:0:0:
448,192,93313,1,0,0:0:0:0:
320,192,93476,1,0,0:0:0:0:
64,192,93802,1,0,0:0:0:0:
320,192,93802,1,0,0:0:0:0:
192,192,93965,1,0,0:0:0:0:
64,192,94128,1,0,0:0:0:0:
192,192,94454,1,0,0:0:0:0:
448,192,94454,1,0,0:0:0:0:
320,192,94617,1,0,0:0:0:0:
448,192,94780,1,0,0:0:0:0:
192,192,95106,1,0,0:0:0:0:
320,192,95106,1,0,0:0:0:0:
192,192,95269,1,0,0:0:0:0:
64,192,95432,1,0,0:0:0:0:
320,192,95758,1,0,0:0:0:0:
448,192,95758,1,0,0:0:0:0:
320,192,95921,1,0,0:0:0:0:
448,192,96084,1,0,0:0:0:0:
64,192,96410,1,0,0:0:0:0:
320,192,96410,1,0,0:0:0:0:
192,192,96573,1,0,0:0:0:0:
448,192,96736,1,0,0:0:0:0:
64,192,97063,1,0,0:0:0:0:
192,192,97063,1,0,0:0:0:0:
320,192,97063,1,0,0:0:0:0:
448,192,97063,128,0,97552:0:0:0:0:
320,192,97552,128,0,98041:0:0:0:0:
64,192,98041,128,0,98530:0:0:0:0:
320,192,98530,128,0,98693:0:0:0:0:
448,192,98693,128,0,99019:0:0:0:0:
64,192,99019,128,0,99182:0:0:0:0:
192,192,99182,128,0,99345:0:0:0:0:
64,192,99345,128,0,99508:0:0:0:0:
192,192,99508,128,0,99671:0:0:0:0:
320,192,99671,128,0,100160:0:0:0:0:
448,192,100160,128,0,100649:0:0:0:0:
192,192,100649,128,0,100976:0:0:0:0:
320,192,100976,128,0,101139:0:0:0:0:
448,192,101139,128,0,101302:0:0:0:0:
320,192,101302,128,0,101628:0:0:0:0:
192,192,101628,128,0,101791:0:0:0:0:
320,192,101791,128,0,101954:0:0:0:0:
192,192,101954,128,0,102117:0:0:0:0:
320,192,102117,128,0,102280:0:0:0:0:
64,192,102280,128,0,102769:0:0:0:0:
320,192,102769,128,0,103258:0:0:0:0:
192,192,103258,128,0,103747:0:0:0:0:
320,192,103747,128,0,103910:0:0:0:0:
64,192,103910,128,0,104236:0:0:0:0:
192,192,104236,128,0,104399:0:0:0:0:
448,192,104399,128,0,104563:0:0:0:0:
192,192,104563,128,0,104726:0:0:0:0:
448,192,104726,128,0,104889:0:0:0:0:
64,192,104889,1,0,0:0:0:0:
192,192,104889,1,0,0:0:0:0:
320,192,104889,128,0,105378:0:0:0:0:
64,192,105378,128,0,105867:0:0:0:0:
320,192,105867,128,0,106356:0:0:0:0:
448,192,106356,128,0,106845:0:0:0:0:
64,192,106845,1,0,0:0:0:0:
192,192,107008,1,0,0:0:0:0:
320,192,107171,1,0,0:0:0:0:
448,192,107334,1,0,0:0:0:0:
64,192,107334,1,0,0:0:0:0:
64,192,107497,1,0,0:0:0:0:
192,192,107497,1,0,0:0:0:0:
320,192,107823,1,0,0:0:0:0:
448,192,107823,1,0,0:0:0:0:
320,192,107986,1,0,0:0:0:0:
64,192,107986,1,0,0:0:0:0:
192,192,108149,1,0,0:0:0:0:
192,192,108476,1,0,0:0:0:0:
64,192,108476,1,0,0:0:0:0:
320,192,108639,1,0,0:0:0:0:
448,192,108639,1,0,0:0:0:0:
448,192,108802,1,0,0:0:0:0:
192,192,108802,1,0,0:0:0:0:
192,192,109128,1,0,0:0:0:0:
320,192,109128,1,0,0:0:0:0:
64,192,109291,1,0,0:0:0:0:
448,192,109291,1,0,0:0:0:0:
64,192,109454,1,0,0:0:0:0:
192,192,109454,1,0,0:0:0:0:
192,192,109617,1,0,0:0:0:0:
448,192,109617,1,0,0:0:0:0:
320,192,109780,1,0,0:0:0:0:
448,192,109780,1,0,0:0:0:0:
192,192,109943,1,0,0:0:0:0:
64,192,110106,1,0,0:0:0:0:
192,192,110106,1,0,0:0:0:0:
448,192,110269,1,0,0:0:0:0:
320,192,110432,1,0,0:0:0:0:
192,192,110595,1,0,0:0:0:0:
320,192,110758,1,0,0:0:0:0:
64,192,110921,1,0,0:0:0:0:
192,192,111084,1,0,0:0:0:0:
320,192,111247,1,0,0:0:0:0:
320,192,111410,1,0,0:0:0:0:
448,192,111410,1,0,0:0:0:0:
192,192,111573,1,0,0:0:0:0:
64,192,111736,1,0,0:0:0:0:
320,192,111899,1,0,0:0:0:0:
448,192,112063,1,0,0:0:0:0:
320,192,112226,1,0,0:0:0:0:
192,192,112389,1,0,0:0:0:0:
64,192,112552,1,0,0:0:0:0:
320,192,112552,1,0,0:0:0:0:
64,192,112715,1,0,0:0:0:0:
192,192,112715,1,0,0:0:0:0:
320,192,112878,1,0,0:0:0:0:
448,192,112878,1,0,0:0:0:0:
192,192,113041,1,0,0:0:0:0:
64,192,113041,1,0,0:0:0:0:
64,192,113204,1,0,0:0:0:0:
320,192,113204,1,0,0:0:0:0:
192,192,113367,1,0,0:0:0:0:
320,192,113530,1,0,0:0:0:0:
192,192,113693,1,0,0:0:0:0:
64,192,113856,1,0,0:0:0:0:
192,192,113856,1,0,0:0:0:0:
64,192,114019,1,0,0:0:0:0:
320,192,114019,1,0,0:0:0:0:
192,192,114182,1,0,0:0:0:0:
320,192,114345,1,0,0:0:0:0:
448,192,114345,1,0,0:0:0:0:
192,192,114508,1,0,0:0:0:0:
448,192,114508,1,0,0:0:0:0:
64,192,114671,1,0,0:0:0:0:
192,192,114671,1,0,0:0:0:0:
192,192,114834,1,0,0:0:0:0:
448,192,114834,1,0,0:0:0:0:
320,192,114997,1,0,0:0:0:0:
192,192,114997,1,0,0:0:0:0:
64,192,115160,1,0,0:0:0:0:
320,192,115160,1,0,0:0:0:0:
192,192,115323,1,0,0:0:0:0:
448,192,115323,1,0,0:0:0:0:
320,192,115486,1,0,0:0:0:0:
192,192,115649,1,0,0:0:0:0:
64,192,115813,1,0,0:0:0:0:
192,192,115976,1,0,0:0:0:0:
320,192,116139,1,0,0:0:0:0:
64,192,116139,1,0,0:0:0:0:
448,192,116302,1,0,0:0:0:0:
192,192,116465,1,0,0:0:0:0:
320,192,116465,1,0,0:0:0:0:
64,192,116628,1,0,0:0:0:0:
320,192,116791,1,0,0:0:0:0:
192,192,116954,1,0,0:0:0:0:
64,192,117117,1,0,0:0:0:0:
320,192,117280,1,0,0:0:0:0:
448,192,117443,1,0,0:0:0:0:
192,192,117606,1,0,0:0:0:0:
320,192,117769,1,0,0:0:0:0:
64,192,117769,1,0,0:0:0:0:
448,192,117932,1,0,0:0:0:0:
192,192,117932,1,0,0:0:0:0:
64,192,117932,1,0,0:0:0:0:
320,192,118258,1,0,0:0:0:0:
448,192,118258,1,0,0:0:0:0:
64,192,118584,1,0,0:0:0:0:
192,192,118584,1,0,0:0:0:0:
192,192,118910,1,0,0:0:0:0:
448,192,118910,1,0,0:0:0:0:
192,192,119236,1,0,0:0:0:0:
448,192,119236,1,0,0:0:0:0:
64,192,119563,1,0,0:0:0:0:
192,192,119563,1,0,0:0:0:0:
192,192,119889,1,0,0:0:0:0:
448,192,119889,1,0,0:0:0:0:
320,192,120215,1,0,0:0:0:0:
192,192,120215,1,0,0:0:0:0:
64,192,120541,1,0,0:0:0:0:
192,192,120541,1,0,0:0:0:0:
192,192,120867,1,0,0:0:0:0:
448,192,120867,1,0,0:0:0:0:
320,192,121193,1,0,0:0:0:0:
448,192,121193,1,0,0:0:0:0:
64,192,121519,1,0,0:0:0:0:
320,192,121519,1,0,0:0:0:0:
64,192,121845,1,0,0:0:0:0:
192,192,121845,1,0,0:0:0:0:
320,192,122171,1,0,0:0:0:0:
448,192,122171,1,0,0:0:0:0:
192,192,122497,1,0,0:0:0:0:
320,192,122497,1,0,0:0:0:0:
64,192,122823,1,0,0:0:0:0:
320,192,122823,1,0,0:0:0:0:
64,192,123149,1,0,0:0:0:0:
192,192,123149,1,0,0:0:0:0:
192,192,123476,1,0,0:0:0:0:
448,192,123476,1,0,0:0:0:0:
320,192,123802,1,0,0:0:0:0:
448,192,123802,1,0,0:0:0:0:
64,192,124128,1,0,0:0:0:0:
320,192,124128,1,0,0:0:0:0:
192,192,124454,1,0,0:0:0:0:
448,192,124454,1,0,0:0:0:0:
320,192,124780,1,0,0:0:0:0:
448,192,124780,1,0,0:0:0:0:
64,192,125106,1,0,0:0:0:0:
192,192,125106,1,0,0:0:0:0:
192,192,125432,1,0,0:0:0:0:
320,192,125432,1,0,0:0:0:0:
192,192,125758,1,0,0:0:0:0:
448,192,125758,1,0,0:0:0:0:
320,192,126084,1,0,0:0:0:0:
448,192,126084,1,0,0:0:0:0:
64,192,126084,1,0,0:0:0:0:
64,192,126410,1,0,0:0:0:0:
192,192,126410,1,0,0:0:0:0:
320,192,126410,1,0,0:0:0:0:
192,192,126573,1,0,0:0:0:0:
448,192,126736,1,0,0:0:0:0:
320,192,126736,1,0,0:0:0:0:
64,192,126736,1,0,0:0:0:0:
192,192,126899,1,0,0:0:0:0:
320,192,126899,1,0,0:0:0:0:
320,192,127063,1,0,0:0:0:0:
64,192,127063,1,0,0:0:0:0:
192,192,127063,1,0,0:0:0:0:
64,192,127226,1,0,0:0:0:0:
320,192,127226,1,0,0:0:0:0:
192,192,127389,1,0,0:0:0:0:
448,192,127389,1,0,0:0:0:0:
64,192,127470,1,0,0:0:0:0:
320,192,127552,1,0,0:0:0:0:
448,192,127552,1,0,0:0:0:0:
64,192,127715,1,0,0:0:0:0:
192,192,127715,1,0,0:0:0:0:
448,192,127715,1,0,0:0:0:0:
320,192,127878,1,0,0:0:0:0:
448,192,127878,1,0,0:0:0:0:
320,192,128041,1,0,0:0:0:0:
448,192,128041,1,0,0:0:0:0:
64,192,128041,1,0,0:0:0:0:
64,192,128204,1,0,0:0:0:0:
448,192,128367,1,0,0:0:0:0:
320,192,128530,1,0,0:0:0:0:
192,192,128693,1,0,0:0:0:0:
64,192,128856,1,0,0:0:0:0:
192,192,129182,1,0,0:0:0:0:
320,192,129345,1,0,0:0:0:0:
64,192,129997,128,0,130323:0:0:0:0:
192,192,130323,128,0,130649:0:0:0:0:
320,192,130649,128,0,130976:0:0:0:0:
64,192,130976,1,0,0:0:0:0:
192,192,131139,1,0,0:0:0:0:
320,192,131302,1,0,0:0:0:0:
448,192,131465,1,0,0:0:0:0:
320,192,131791,1,0,0:0:0:0:
192,192,131954,1,0,0:0:0:0:
448,192,132606,128,0,132932:0:0:0:0:
320,192,132932,128,0,133258:0:0:0:0:
192,192,133258,128,0,133584:0:0:0:0:
448,192,133584,1,0,0:0:0:0:
320,192,133747,1,0,0:0:0:0:
192,192,133910,1,0,0:0:0:0:
64,192,134073,1,0,0:0:0:0:
192,192,134399,1,0,0:0:0:0:
320,192,134563,1,0,0:0:0:0:
192,192,135215,128,0,135541:0:0:0:0:
320,192,135541,128,0,135867:0:0:0:0:
448,192,135867,128,0,136193:0:0:0:0:
64,192,136193,1,0,0:0:0:0:
192,192,136356,1,0,0:0:0:0:
320,192,136519,1,0,0:0:0:0:
448,192,136682,1,0,0:0:0:0:
320,192,137008,1,0,0:0:0:0:
192,192,137171,1,0,0:0:0:0:
64,192,137823,128,0,138149:0:0:0:0:
448,192,138149,128,0,138476:0:0:0:0:
192,192,138476,128,0,138802:0:0:0:0:
320,192,138802,1,0,0:0:0:0:
448,192,138802,1,0,0:0:0:0:
320,192,138965,1,0,0:0:0:0:
64,192,138965,1,0,0:0:0:0:
320,192,139046,1,0,0:0:0:0:
192,192,139128,1,0,0:0:0:0:
448,192,139128,1,0,0:0:0:0:
64,192,139291,1,0,0:0:0:0:
320,192,139291,1,0,0:0:0:0:
448,192,139291,1,0,0:0:0:0:
64,192,139454,1,0,0:0:0:0:
192,192,139454,1,0,0:0:0:0:
192,192,139617,1,0,0:0:0:0:
448,192,139617,1,0,0:0:0:0:
320,192,139780,1,0,0:0:0:0:
448,192,139780,1,0,0:0:0:0:
64,192,139943,1,0,0:0:0:0:
192,192,139943,1,0,0:0:0:0:
320,192,140024,1,0,0:0:0:0:
64,192,140106,1,0,0:0:0:0:
448,192,140106,1,0,0:0:0:0:
320,192,140106,1,0,0:0:0:0:
192,192,140269,1,0,0:0:0:0:
320,192,140269,1,0,0:0:0:0:
64,192,140432,1,0,0:0:0:0:
320,192,140432,1,0,0:0:0:0:
320,192,140514,1,0,0:0:0:0:
192,192,140595,1,0,0:0:0:0:
448,192,140595,1,0,0:0:0:0:
320,192,140758,1,0,0:0:0:0:
448,192,140758,1,0,0:0:0:0:
320,192,140840,1,0,0:0:0:0:
192,192,140921,1,0,0:0:0:0:
448,192,140921,1,0,0:0:0:0:
64,192,141084,1,0,0:0:0:0:
192,192,141084,1,0,0:0:0:0:
320,192,141247,1,0,0:0:0:0:
448,192,141247,1,0,0:0:0:0:
192,192,141410,1,0,0:0:0:0:
320,192,141410,1,0,0:0:0:0:
448,192,141410,1,0,0:0:0:0:
64,192,141573,1,0,0:0:0:0:
448,192,141573,1,0,0:0:0:0:
448,192,141655,1,0,0:0:0:0:
64,192,141736,1,0,0:0:0:0:
192,192,141736,1,0,0:0:0:0:
320,192,141899,1,0,0:0:0:0:
448,192,141899,1,0,0:0:0:0:
320,192,141981,1,0,0:0:0:0:
64,192,142063,1,0,0:0:0:0:
448,192,142063,1,0,0:0:0:0:
64,192,142226,1,0,0:0:0:0:
192,192,142226,1,0,0:0:0:0:
192,192,142389,1,0,0:0:0:0:
448,192,142389,1,0,0:0:0:0:
192,192,142470,1,0,0:0:0:0:
320,192,142552,1,0,0:0:0:0:
448,192,142552,1,0,0:0:0:0:
64,192,142715,1,0,0:0:0:0:
192,192,142715,1,0,0:0:0:0:
192,192,142878,1,0,0:0:0:0:
448,192,142878,1,0,0:0:0:0:
448,192,142959,1,0,0:0:0:0:
192,192,143041,1,0,0:0:0:0:
320,192,143041,1,0,0:0:0:0:
64,192,143204,1,0,0:0:0:0:
320,192,143204,1,0,0:0:0:0:
64,192,143285,1,0,0:0:0:0:
192,192,143367,1,0,0:0:0:0:
448,192,143367,1,0,0:0:0:0:
448,192,143448,1,0,0:0:0:0:
192,192,143530,1,0,0:0:0:0:
320,192,143530,1,0,0:0:0:0:
64,192,143693,1,0,0:0:0:0:
320,192,143693,1,0,0:0:0:0:
192,192,143856,1,0,0:0:0:0:
448,192,143856,1,0,0:0:0:0:
320,192,144019,1,0,0:0:0:0:
448,192,144019,1,0,0:0:0:0:
192,192,144182,1,0,0:0:0:0:
320,192,144182,1,0,0:0:0:0:
320,192,144264,1,0,0:0:0:0:
64,192,144345,1,0,0:0:0:0:
192,192,144345,1,0,0:0:0:0:
320,192,144508,1,0,0:0:0:0:
448,192,144508,1,0,0:0:0:0:
448,192,144590,1,0,0:0:0:0:
64,192,144671,1,0,0:0:0:0:
192,192,144671,1,0,0:0:0:0:
192,192,144834,1,0,0:0:0:0:
448,192,144834,1,0,0:0:0:0:
192,192,144916,1,0,0:0:0:0:
320,192,144997,1,0,0:0:0:0:
448,192,144997,1,0,0:0:0:0:
64,192,145160,1,0,0:0:0:0:
192,192,145160,1,0,0:0:0:0:
64,192,145242,1,0,0:0:0:0:
192,192,145323,1,0,0:0:0:0:
320,192,145323,1,0,0:0:0:0:
448,192,145323,1,0,0:0:0:0:
192,192,145486,1,0,0:0:0:0:
448,192,145486,1,0,0:0:0:0:
448,192,145568,1,0,0:0:0:0:
64,192,145649,1,0,0:0:0:0:
320,192,145649,1,0,0:0:0:0:
192,192,145813,1,0,0:0:0:0:
320,192,145813,1,0,0:0:0:0:
192,192,145894,1,0,0:0:0:0:
64,192,145976,1,0,0:0:0:0:
448,192,145976,1,0,0:0:0:0:
320,192,146139,1,0,0:0:0:0:
448,192,146139,1,0,0:0:0:0:
320,192,146220,1,0,0:0:0:0:
64,192,146302,1,0,0:0:0:0:
192,192,146302,1,0,0:0:0:0:
192,192,146465,1,0,0:0:0:0:
448,192,146465,1,0,0:0:0:0:
320,192,146628,128,0,147606:0:0:0:0:
192,192,147606,1,0,0:0:0:0:
320,192,147769,128,0,148584:0:0:0:0:
320,192,148910,1,0,0:0:0:0:
64,192,149236,1,0,0:0:0:0:
192,192,149236,1,0,0:0:0:0:
320,192,149236,1,0,0:0:0:0:
448,192,149291,1,0,0:0:0:0:
320,192,149345,1,0,0:0:0:0:
192,192,149399,1,0,0:0:0:0:
64,192,149454,1,0,0:0:0:0:
448,192,149454,1,0,0:0:0:0:
320,192,149508,1,0,0:0:0:0:
192,192,149563,1,0,0:0:0:0:
64,192,149563,1,0,0:0:0:0:
448,192,149617,1,0,0:0:0:0:
192,192,149671,1,0,0:0:0:0:
320,192,149726,1,0,0:0:0:0:
448,192,149780,1,0,0:0:0:0:
64,192,149834,1,0,0:0:0:0:
192,192,149889,1,0,0:0:0:0:
448,192,149889,1,0,0:0:0:0:
320,192,149943,1,0,0:0:0:0:
192,192,149997,1,0,0:0:0:0:
64,192,150052,1,0,0:0:0:0:
448,192,150052,1,0,0:0:0:0:
320,192,150106,1,0,0:0:0:0:
64,192,150160,1,0,0:0:0:0:
192,192,150215,1,0,0:0:0:0:
448,192,150215,1,0,0:0:0:0:
320,192,150269,1,0,0:0:0:0:
64,192,150323,1,0,0:0:0:0:
192,192,150378,1,0,0:0:0:0:
320,192,150378,1,0,0:0:0:0:
448,192,150432,1,0,0:0:0:0:
64,192,150486,1,0,0:0:0:0:
320,192,150541,1,0,0:0:0:0:
448,192,150541,1,0,0:0:0:0:
64,192,150595,1,0,0:0:0:0:
192,192,150649,1,0,0:0:0:0:
320,192,150704,1,0,0:0:0:0:
448,192,150704,1,0,0:0:0:0:
64,192,150758,1,0,0:0:0:0:
320,192,150867,1,0,0:0:0:0:
448,192,150867,1,0,0:0:0:0:
192,192,150921,1,0,0:0:0:0:
320,192,151030,1,0,0:0:0:0:
448,192,151030,1,0,0:0:0:0:
64,192,151030,1,0,0:0:0:0:
192,192,151084,1,0,0:0:0:0:
320,192,151139,1,0,0:0:0:0:
448,192,151193,1,0,0:0:0:0:
192,192,151247,1,0,0:0:0:0:
64,192,151302,1,0,0:0:0:0:
448,192,151356,1,0,0:0:0:0:
320,192,151356,1,0,0:0:0:0:
192,192,151410,1,0,0:0:0:0:
64,192,151465,1,0,0:0:0:0:
448,192,151519,1,0,0:0:0:0:
192,192,151519,1,0,0:0:0:0:
320,192,151573,1,0,0:0:0:0:
192,192,151628,1,0,0:0:0:0:
64,192,151682,1,0,0:0:0:0:
448,192,151736,1,0,0:0:0:0:
64,192,151791,1,0,0:0:0:0:
320,192,151791,1,0,0:0:0:0:
192,192,151845,1,0,0:0:0:0:
320,192,151899,1,0,0:0:0:0:
448,192,151954,1,0,0:0:0:0:
64,192,152008,1,0,0:0:0:0:
448,192,152063,1,0,0:0:0:0:
192,192,152063,1,0,0:0:0:0:
320,192,152117,1,0,0:0:0:0:
192,192,152171,1,0,0:0:0:0:
64,192,152226,1,0,0:0:0:0:
448,192,152280,1,0,0:0:0:0:
64,192,152334,1,0,0:0:0:0:
320,192,152334,1,0,0:0:0:0:
192,192,152389,1,0,0:0:0:0:
320,192,152443,1,0,0:0:0:0:
448,192,152497,1,0,0:0:0:0:
64,192,152552,1,0,0:0:0:0:
448,192,152606,1,0,0:0:0:0:
192,192,152606,1,0,0:0:0:0:
320,192,152660,1,0,0:0:0:0:
192,192,152715,1,0,0:0:0:0:
64,192,152769,1,0,0:0:0:0:
448,192,152823,1,0,0:0:0:0:
64,192,152878,1,0,0:0:0:0:
320,192,152878,1,0,0:0:0:0:
192,192,152932,1,0,0:0:0:0:
320,192,152986,1,0,0:0:0:0:
448,192,153041,1,0,0:0:0:0:
64,192,153095,1,0,0:0:0:0:
192,192,153149,1,0,0:0:0:0:
320,192,153149,1,0,0:0:0:0:
448,192,153204,1,0,0:0:0:0:
64,192,153258,1,0,0:0:0:0:
320,192,153258,1,0,0:0:0:0:
192,192,153313,1,0,0:0:0:0:
448,192,153367,1,0,0:0:0:0:
320,192,153421,1,0,0:0:0:0:
192,192,153476,1,0,0:0:0:0:
64,192,153476,1,0,0:0:0:0:
448,192,153530,1,0,0:0:0:0:
64,192,153584,1,0,0:0:0:0:
320,192,153584,1,0,0:0:0:0:
192,192,153639,1,0,0:0:0:0:
448,192,153693,1,0,0:0:0:0:
64,192,153747,1,0,0:0:0:0:
192,192,153802,1,0,0:0:0:0:
320,192,153802,1,0,0:0:0:0:
448,192,153856,1,0,0:0:0:0:
64,192,153910,1,0,0:0:0:0:
192,192,153965,1,0,0:0:0:0:
320,192,154019,1,0,0:0:0:0:
448,192,154073,1,0,0:0:0:0:
64,192,154128,1,0,0:0:0:0:
192,192,154128,1,0,0:0:0:0:
320,192,154128,1,0,0:0:0:0:
448,192,154454,1,0,0:0:0:0:
320,192,154454,1,0,0:0:0:0:
64,192,154454,1,0,0:0:0:0:
192,192,154508,1,0,0:0:0:0:
320,192,154563,1,0,0:0:0:0:
448,192,154617,1,0,0:0:0:0:
64,192,154617,1,0,0:0:0:0:
192,192,154671,1,0,0:0:0:0:
448,192,154726,1,0,0:0:0:0:
320,192,154780,1,0,0:0:0:0:
192,192,154834,1,0,0:0:0:0:
64,192,154889,1,0,0:0:0:0:
448,192,154889,1,0,0:0:0:0:
320,192,154943,1,0,0:0:0:0:
192,192,154997,1,0,0:0:0:0:
64,192,154997,1,0,0:0:0:0:
448,192,155052,1,0,0:0:0:0:
320,192,155106,1,0,0:0:0:0:
192,192,155160,1,0,0:0:0:0:
64,192,155215,1,0,0:0:0:0:
448,192,155269,1,0,0:0:0:0:
320,192,155269,1,0,0:0:0:0:
64,192,155323,1,0,0:0:0:0:
192,192,155378,1,0,0:0:0:0:
320,192,155432,1,0,0:0:0:0:
448,192,155432,1,0,0:0:0:0:
64,192,155486,1,0,0:0:0:0:
448,192,155541,1,0,0:0:0:0:
192,192,155595,1,0,0:0:0:0:
64,192,155595,1,0,0:0:0:0:
320,192,155649,1,0,0:0:0:0:
448,192,155704,1,0,0:0:0:0:
192,192,155758,1,0,0:0:0:0:
64,192,155758,1,0,0:0:0:0:
320,192,155813,1,0,0:0:0:0:
448,192,155867,1,0,0:0:0:0:
64,192,155921,1,0,0:0:0:0:
448,192,155976,1,0,0:0:0:0:
192,192,155976,1,0,0:0:0:0:
320,192,156030,1,0,0:0:0:0:
192,192,156084,1,0,0:0:0:0:
64,192,156139,1,0,0:0:0:0:
320,192,156193,1,0,0:0:0:0:
448,192,156247,1,0,0:0:0:0:
64,192,156247,1,0,0:0:0:0:
192,192,156302,1,0,0:0:0:0:
320,192,156356,1,0,0:0:0:0:
448,192,156410,1,0,0:0:0:0:
64,192,156410,1,0,0:0:0:0:
192,192,156465,1,0,0:0:0:0:
448,192,156519,1,0,0:0:0:0:
64,192,156573,1,0,0:0:0:0:
320,192,156628,1,0,0:0:0:0:
192,192,156682,1,0,0:0:0:0:
64,192,156736,1,0,0:0:0:0:
448,192,156736,1,0,0:0:0:0:
320,192,156791,1,0,0:0:0:0:
192,192,156845,1,0,0:0:0:0:
64,192,156899,1,0,0:0:0:0:
448,192,156954,1,0,0:0:0:0:
64,192,157008,1,0,0:0:0:0:
320,192,157008,1,0,0:0:0:0:
192,192,157063,1,0,0:0:0:0:
448,192,157117,1,0,0:0:0:0:
320,192,157171,1,0,0:0:0:0:
192,192,157226,1,0,0:0:0:0:
64,192,157226,1,0,0:0:0:0:
320,192,157280,1,0,0:0:0:0:
448,192,157280,1,0,0:0:0:0:
64,192,157334,1,0,0:0:0:0:
192,192,157389,1,0,0:0:0:0:
448,192,157389,1,0,0:0:0:0:
320,192,157443,1,0,0:0:0:0:
448,192,157497,1,0,0:0:0:0:
64,192,157497,1,0,0:0:0:0:
192,192,157552,1,0,0:0:0:0:
320,192,157606,1,0,0:0:0:0:
448,192,157660,1,0,0:0:0:0:
64,192,157715,1,0,0:0:0:0:
320,192,157769,1,0,0:0:0:0:
192,192,157823,1,0,0:0:0:0:
448,192,157823,1,0,0:0:0:0:
64,192,157878,1,0,0:0:0:0:
320,192,157878,1,0,0:0:0:0:
192,192,157932,1,0,0:0:0:0:
64,192,157986,1,0,0:0:0:0:
320,192,158041,1,0,0:0:0:0:
448,192,158041,1,0,0:0:0:0:
192,192,158095,1,0,0:0:0:0:
320,192,158149,1,0,0:0:0:0:
448,192,158204,1,0,0:0:0:0:
64,192,158204,1,0,0:0:0:0:
192,192,158258,1,0,0:0:0:0:
320,192,158313,1,0,0:0:0:0:
448,192,158367,1,0,0:0:0:0:
64,192,158367,1,0,0:0:0:0:
192,192,158421,1,0,0:0:0:0:
448,192,158476,1,0,0:0:0:0:
320,192,158530,1,0,0:0:0:0:
192,192,158584,1,0,0:0:0:0:
64,192,158639,1,0,0:0:0:0:
320,192,158693,1,0,0:0:0:0:
448,192,158693,1,0,0:0:0:0:
192,192,158747,1,0,0:0:0:0:
64,192,158802,1,0,0:0:0:0:
448,192,158856,1,0,0:0:0:0:
192,192,158856,1,0,0:0:0:0:
320,192,158910,1,0,0:0:0:0:
64,192,158965,1,0,0:0:0:0:
320,192,159019,1,0,0:0:0:0:
448,192,159019,1,0,0:0:0:0:
192,192,159073,1,0,0:0:0:0:
64,192,159073,1,0,0:0:0:0:
320,192,159128,1,0,0:0:0:0:
448,192,159128,1,0,0:0:0:0:
192,192,159182,1,0,0:0:0:0:
64,192,159182,1,0,0:0:0:0:
320,192,159236,1,0,0:0:0:0:
448,192,159236,1,0,0:0:0:0:
64,192,159291,1,0,0:0:0:0:
192,192,159291,1,0,0:0:0:0:
320,192,159345,1,0,0:0:0:0:
448,192,159345,1,0,0:0:0:0:
64,192,159508,1,0,0:0:0:0:
192,192,159563,1,0,0:0:0:0:
448,192,159617,1,0,0:0:0:0:
64,192,159671,1,0,0:0:0:0:
320,192,159671,1,0,0:0:0:0:
192,192,159671,1,0,0:0:0:0:
448,192,159726,1,0,0:0:0:0:
320,192,159780,1,0,0:0:0:0:
192,192,159834,1,0,0:0:0:0:
64,192,159889,1,0,0:0:0:0:
320,192,159943,1,0,0:0:0:0:
448,192,159997,1,0,0:0:0:0:
64,192,159997,1,0,0:0:0:0:
192,192,160052,1,0,0:0:0:0:
448,192,160106,1,0,0:0:0:0:
320,192,160160,1,0,0:0:0:0:
192,192,160215,1,0,0:0:0:0:
64,192,160269,1,0,0:0:0:0:
448,192,160323,1,0,0:0:0:0:
320,192,160323,1,0,0:0:0:0:
192,192,160378,1,0,0:0:0:0:
64,192,160432,1,0,0:0:0:0:
448,192,160432,1,0,0:0:0:0:
320,192,160486,1,0,0:0:0:0:
192,192,160541,1,0,0:0:0:0:
64,192,160541,1,0,0:0:0:0:
320,192,160595,1,0,0:0:0:0:
448,192,160649,1,0,0:0:0:0:
64,192,160649,1,0,0:0:0:0:
192,192,160704,1,0,0:0:0:0:
320,192,160758,1,0,0:0:0:0:
448,192,160758,1,0,0:0:0:0:
64,192,160813,1,0,0:0:0:0:
192,192,160867,1,0,0:0:0:0:
320,192,160921,1,0,0:0:0:0:
448,192,160976,1,0,0:0:0:0:
64,192,161030,1,0,0:0:0:0:
448,192,161084,1,0,0:0:0:0:
192,192,161084,1,0,0:0:0:0:
320,192,161139,1,0,0:0:0:0:
192,192,161193,1,0,0:0:0:0:
64,192,161247,1,0,0:0:0:0:
448,192,161302,1,0,0:0:0:0:
64,192,161356,1,0,0:0:0:0:
320,192,161356,1,0,0:0:0:0:
192,192,161410,1,0,0:0:0:0:
320,192,161465,1,0,0:0:0:0:
448,192,161519,1,0,0:0:0:0:
64,192,161573,1,0,0:0:0:0:
192,192,161628,1,0,0:0:0:0:
448,192,161628,1,0,0:0:0:0:
320,192,161682,1,0,0:0:0:0:
192,192,161736,1,0,0:0:0:0:
64,192,161791,1,0,0:0:0:0:
448,192,161791,1,0,0:0:0:0:
320,192,161845,1,0,0:0:0:0:
192,192,161899,1,0,0:0:0:0:
64,192,161954,1,0,0:0:0:0:
320,192,161954,1,0,0:0:0:0:
448,192,162008,1,0,0:0:0:0:
64,192,162063,1,0,0:0:0:0:
192,192,162117,1,0,0:0:0:0:
320,192,162117,1,0,0:0:0:0:
448,192,162171,1,0,0:0:0:0:
320,192,162226,1,0,0:0:0:0:
64,192,162280,1,0,0:0:0:0:
448,192,162334,1,0,0:0:0:0:
192,192,162334,1,0,0:0:0:0:
320,192,162389,1,0,0:0:0:0:
192,192,162443,1,0,0:0:0:0:
64,192,162497,1,0,0:0:0:0:
448,192,162552,1,0,0:0:0:0:
64,192,162606,1,0,0:0:0:0:
320,192,162606,1,0,0:0:0:0:
192,192,162660,1,0,0:0:0:0:
320,192,162715,1,0,0:0:0:0:
448,192,162769,1,0,0:0:0:0:
64,192,162823,1,0,0:0:0:0:
448,192,162878,1,0,0:0:0:0:
192,192,162878,1,0,0:0:0:0:
320,192,162932,1,0,0:0:0:0:
192,192,162986,1,0,0:0:0:0:
64,192,163041,1,0,0:0:0:0:
448,192,163095,1,0,0:0:0:0:
64,192,163149,1,0,0:0:0:0:
320,192,163149,1,0,0:0:0:0:
192,192,163204,1,0,0:0:0:0:
320,192,163258,1,0,0:0:0:0:
448,192,163313,1,0,0:0:0:0:
64,192,163367,1,0,0:0:0:0:
448,192,163421,1,0,0:0:0:0:
192,192,163421,1,0,0:0:0:0:
320,192,163476,1,0,0:0:0:0:
192,192,163530,1,0,0:0:0:0:
64,192,163584,1,0,0:0:0:0:
448,192,163639,1,0,0:0:0:0:
64,192,163693,1,0,0:0:0:0:
320,192,163693,1,0,0:0:0:0:
192,192,163747,1,0,0:0:0:0:
320,192,163802,1,0,0:0:0:0:
448,192,163856,1,0,0:0:0:0:
64,192,163910,1,0,0:0:0:0:
448,192,163965,1,0,0:0:0:0:
192,192,163965,1,0,0:0:0:0:
320,192,164019,1,0,0:0:0:0:
192,192,164073,1,0,0:0:0:0:
64,192,164128,1,0,0:0:0:0:
448,192,164128,1,0,0:0:0:0:
320,192,164182,1,0,0:0:0:0:
192,192,164236,1,0,0:0:0:0:
64,192,164236,1,0,0:0:0:0:
448,192,164291,1,0,0:0:0:0:
192,192,164345,1,0,0:0:0:0:
320,192,164399,1,0,0:0:0:0:
448,192,164454,1,0,0:0:0:0:
64,192,164454,1,0,0:0:0:0:
192,192,164508,1,0,0:0:0:0:
320,192,164563,1,0,0:0:0:0:
448,192,164563,1,0,0:0:0:0:
64,192,164889,1,0,0:0:0:0:
192,192,164889,1,0,0:0:0:0:
320,192,164889,1,0,0:0:0:0:
448,192,164943,1,0,0:0:0:0:
64,192,164997,1,0,0:0:0:0:
320,192,165052,1,0,0:0:0:0:
192,192,165052,1,0,0:0:0:0:
448,192,165106,1,0,0:0:0:0:
64,192,165160,1,0,0:0:0:0:
320,192,165215,1,0,0:0:0:0:
448,192,165269,1,0,0:0:0:0:
192,192,165269,1,0,0:0:0:0:
64,192,165323,1,0,0:0:0:0:
448,192,165378,1,0,0:0:0:0:
320,192,165378,1,0,0:0:0:0:
192,192,165432,1,0,0:0:0:0:
64,192,165486,1,0,0:0:0:0:
448,192,165541,1,0,0:0:0:0:
320,192,165595,1,0,0:0:0:0:
192,192,165649,1,0,0:0:0:0:
64,192,165704,1,0,0:0:0:0:
448,192,165704,1,0,0:0:0:0:
320,192,165758,1,0,0:0:0:0:
64,192,165813,1,0,0:0:0:0:
192,192,165867,1,0,0:0:0:0:
320,192,165921,1,0,0:0:0:0:
448,192,165976,1,0,0:0:0:0:
64,192,166030,1,0,0:0:0:0:
192,192,166030,1,0,0:0:0:0:
320,192,166084,1,0,0:0:0:0:
448,192,166139,1,0,0:0:0:0:
64,192,166193,1,0,0:0:0:0:
192,192,166247,1,0,0:0:0:0:
320,192,166302,1,0,0:0:0:0:
448,192,166356,1,0,0:0:0:0:
64,192,166410,1,0,0:0:0:0:
448,192,166465,1,0,0:0:0:0:
192,192,166465,1,0,0:0:0:0:
320,192,166519,1,0,0:0:0:0:
192,192,166573,1,0,0:0:0:0:
64,192,166628,1,0,0:0:0:0:
448,192,166682,1,0,0:0:0:0:
320,192,166682,1,0,0:0:0:0:
192,192,166736,1,0,0:0:0:0:
64,192,166791,1,0,0:0:0:0:
448,192,166791,1,0,0:0:0:0:
320,192,166845,1,0,0:0:0:0:
192,192,166845,1,0,0:0:0:0:
64,192,166899,1,0,0:0:0:0:
448,192,166954,1,0,0:0:0:0:
192,192,167008,1,0,0:0:0:0:
320,192,167063,1,0,0:0:0:0:
448,192,167117,1,0,0:0:0:0:
64,192,167117,1,0,0:0:0:0:
192,192,167171,1,0,0:0:0:0:
320,192,167171,1,0,0:0:0:0:
448,192,167226,1,0,0:0:0:0:
320,192,167280,1,0,0:0:0:0:
192,192,167334,1,0,0:0:0:0:
64,192,167389,1,0,0:0:0:0:
448,192,167443,1,0,0:0:0:0:
320,192,167497,1,0,0:0:0:0:
192,192,167497,1,0,0:0:0:0:
64,192,167660,1,0,0:0:0:0:
192,192,167823,1,0,0:0:0:0:
448,192,167823,1,0,0:0:0:0:
320,192,168149,1,0,0:0:0:0:
64,192,168149,1,0,0:0:0:0:
192,192,168313,1,0,0:0:0:0:
448,192,168313,1,0,0:0:0:0:
64,192,168476,1,0,0:0:0:0:
192,192,168639,1,0,0:0:0:0:
448,192,168639,1,0,0:0:0:0:
320,192,168802,1,0,0:0:0:0:
448,192,168802,1,0,0:0:0:0:
192,192,168965,1,0,0:0:0:0:
320,192,168965,1,0,0:0:0:0:
64,192,169128,1,0,0:0:0:0:
192,192,169128,1,0,0:0:0:0:
448,192,169209,1,0,0:0:0:0:
320,192,169291,1,0,0:0:0:0:
192,192,169291,1,0,0:0:0:0:
64,192,169372,1,0,0:0:0:0:
320,192,169454,1,0,0:0:0:0:
448,192,169454,1,0,0:0:0:0:
192,192,169617,1,0,0:0:0:0:
320,192,169617,1,0,0:0:0:0:
64,192,169780,1,0,0:0:0:0:
320,192,169780,1,0,0:0:0:0:
192,192,169780,1,0,0:0:0:0:
448,192,170106,1,0,0:0:0:0:
448,192,170269,1,0,0:0:0:0:
448,192,170432,1,0,0:0:0:0:
192,192,170758,1,0,0:0:0:0:
320,192,170921,1,0,0:0:0:0:
448,192,171084,1,0,0:0:0:0:
320,192,171247,1,0,0:0:0:0:
64,192,171410,1,0,0:0:0:0:
64,192,171573,1,0,0:0:0:0:
64,192,171736,1,0,0:0:0:0:
64,192,171899,1,0,0:0:0:0:
192,192,172389,1,0,0:0:0:0:
448,192,172715,1,0,0:0:0:0:
448,192,172878,1,0,0:0:0:0:
320,192,173041,1,0,0:0:0:0:
64,192,173367,1,0,0:0:0:0:
64,192,173530,1,0,0:0:0:0:
192,192,173693,1,0,0:0:0:0:
320,192,174019,1,0,0:0:0:0:
192,192,174345,1,0,0:0:0:0:
64,192,174671,1,0,0:0:0:0:
192,192,174671,1,0,0:0:0:0:
320,192,174671,1,0,0:0:0:0:
192,192,175323,1,0,0:0:0:0:
320,192,175486,1,0,0:0:0:0:
448,192,175649,1,0,0:0:0:0:
192,192,175976,1,0,0:0:0:0:
192,192,176139,1,0,0:0:0:0:
192,192,176302,1,0,0:0:0:0:
320,192,176465,1,0,0:0:0:0:
64,192,176628,1,0,0:0:0:0:
320,192,176791,1,0,0:0:0:0:
64,192,176954,1,0,0:0:0:0:
320,192,177117,1,0,0:0:0:0:
320,192,177606,1,0,0:0:0:0:
192,192,177932,1,0,0:0:0:0:
192,192,178095,1,0,0:0:0:0:
320,192,178258,1,0,0:0:0:0:
448,192,178584,1,0,0:0:0:0:
448,192,178747,1,0,0:0:0:0:
320,192,178910,1,0,0:0:0:0:
64,192,179236,1,0,0:0:0:0:
192,192,179563,1,0,0:0:0:0:
320,192,179889,1,0,0:0:0:0:
448,192,179889,1,0,0:0:0:0:
192,192,179889,1,0,0:0:0:0:
320,192,180215,1,0,0:0:0:0:
64,192,180215,128,0,180541:0:0:0:0:
448,192,180215,1,0,0:0:0:0:
320,192,180541,128,0,182497:0:0:0:0:
448,192,180541,1,0,0:0:0:0:
192,192,180704,1,0,0:0:0:0:
64,192,180867,1,0,0:0:0:0:
192,192,181030,1,0,0:0:0:0:
64,192,181111,1,0,0:0:0:0:
192,192,181193,1,0,0:0:0:0:
448,192,181356,1,0,0:0:0:0:
192,192,181519,1,0,0:0:0:0:
64,192,181682,1,0,0:0:0:0:
192,192,181845,1,0,0:0:0:0:
448,192,181845,1,0,0:0:0:0:
64,192,181927,1,0,0:0:0:0:
192,192,182008,1,0,0:0:0:0:
64,192,182171,1,0,0:0:0:0:
448,192,182171,1,0,0:0:0:0:
192,192,182334,1,0,0:0:0:0:
192,192,182497,1,0,0:0:0:0:
448,192,182497,1,0,0:0:0:0:
64,192,182660,1,0,0:0:0:0:
320,192,182660,1,0,0:0:0:0:
64,192,182823,1,0,0:0:0:0:
192,192,182823,1,0,0:0:0:0:
320,192,182823,128,0,183149:0:0:0:0:
64,192,182986,1,0,0:0:0:0:
192,192,183149,1,0,0:0:0:0:
448,192,183149,1,0,0:0:0:0:
64,192,183149,128,0,184454:0:0:0:0:
320,192,183313,1,0,0:0:0:0:
192,192,183476,1,0,0:0:0:0:
448,192,183476,1,0,0:0:0:0:
320,192,183802,1,0,0:0:0:0:
192,192,183802,1,0,0:0:0:0:
448,192,183965,1,0,0:0:0:0:
320,192,183965,1,0,0:0:0:0:
192,192,184128,1,0,0:0:0:0:
320,192,184291,1,0,0:0:0:0:
448,192,184291,1,0,0:0:0:0:
192,192,184454,1,0,0:0:0:0:
448,192,184454,1,0,0:0:0:0:
320,192,184617,1,0,0:0:0:0:
192,192,184617,1,0,0:0:0:0:
64,192,184780,1,0,0:0:0:0:
320,192,184780,1,0,0:0:0:0:
192,192,184943,1,0,0:0:0:0:
64,192,185106,1,0,0:0:0:0:
320,192,185106,1,0,0:0:0:0:
64,192,185269,1,0,0:0:0:0:
192,192,185269,1,0,0:0:0:0:
64,192,185432,1,0,0:0:0:0:
320,192,185432,1,0,0:0:0:0:
448,192,185432,128,0,185758:0:0:0:0:
192,192,185595,1,0,0:0:0:0:
320,192,185595,1,0,0:0:0:0:
320,192,185758,128,0,187878:0:0:0:0:
192,192,185758,1,0,0:0:0:0:
64,192,185758,1,0,0:0:0:0:
64,192,186084,1,0,0:0:0:0:
192,192,186084,1,0,0:0:0:0:
448,192,186410,1,0,0:0:0:0:
192,192,186573,1,0,0:0:0:0:
64,192,186736,1,0,0:0:0:0:
192,192,186899,1,0,0:0:0:0:
448,192,186899,1,0,0:0:0:0:
64,192,187063,1,0,0:0:0:0:
448,192,187226,1,0,0:0:0:0:
192,192,187389,1,0,0:0:0:0:
448,192,187470,1,0,0:0:0:0:
64,192,187552,1,0,0:0:0:0:
448,192,187633,1,0,0:0:0:0:
192,192,187715,1,0,0:0:0:0:
64,192,187878,128,0,188367:0:0:0:0:
320,192,188041,1,0,0:0:0:0:
448,192,188041,1,0,0:0:0:0:
320,192,188367,128,0,190323:0:0:0:0:
192,192,188367,1,0,0:0:0:0:
448,192,188367,1,0,0:0:0:0:
192,192,188693,1,0,0:0:0:0:
448,192,188693,1,0,0:0:0:0:
64,192,188693,1,0,0:0:0:0:
64,192,189019,1,0,0:0:0:0:
192,192,189019,1,0,0:0:0:0:
448,192,189019,1,0,0:0:0:0:
64,192,189345,1,0,0:0:0:0:
192,192,189345,1,0,0:0:0:0:
448,192,189345,1,0,0:0:0:0:
64,192,189508,1,0,0:0:0:0:
64,192,189590,1,0,0:0:0:0:
448,192,189671,1,0,0:0:0:0:
192,192,189671,1,0,0:0:0:0:
64,192,189671,1,0,0:0:0:0:
448,192,189834,1,0,0:0:0:0:
448,192,189916,1,0,0:0:0:0:
448,192,189997,1,0,0:0:0:0:
192,192,189997,1,0,0:0:0:0:
64,192,189997,1,0,0:0:0:0:
64,192,190323,1,0,0:0:0:0:
448,192,190323,1,0,0:0:0:0:
192,192,190323,1,0,0:0:0:0:
64,192,190649,1,0,0:0:0:0:
192,192,190649,1,0,0:0:0:0:
448,192,190649,1,0,0:0:0:0:
320,192,190649,1,0,0:0:0:0:
64,192,190976,1,0,0:0:0:0:
192,192,190976,1,0,0:0:0:0:
320,192,190976,1,0,0:0:0:0:
448,192,190976,1,0,0:0:0:0:
320,192,191139,1,0,0:0:0:0:
192,192,191220,1,0,0:0:0:0:
64,192,191302,1,0,0:0:0:0:
320,192,191302,1,0,0:0:0:0:
448,192,191302,1,0,0:0:0:0:
192,192,191302,1,0,0:0:0:0:
320,192,191465,1,0,0:0:0:0:
64,192,191628,1,0,0:0:0:0:
192,192,191628,1,0,0:0:0:0:
320,192,191628,1,0,0:0:0:0:
448,192,191628,1,0,0:0:0:0:
192,192,191709,1,0,0:0:0:0:
64,192,191791,1,0,0:0:0:0:
320,192,191872,1,0,0:0:0:0:
192,192,191954,1,0,0:0:0:0:
320,192,191954,1,0,0:0:0:0:
448,192,191954,1,0,0:0:0:0:
64,192,191954,1,0,0:0:0:0:
192,192,192117,1,0,0:0:0:0:
64,192,192198,1,0,0:0:0:0:
192,192,192280,1,0,0:0:0:0:
448,192,192280,1,0,0:0:0:0:
320,192,192280,1,0,0:0:0:0:
64,192,192280,1,0,0:0:0:0:
320,192,192443,1,0,0:0:0:0:
448,192,192524,1,0,0:0:0:0:
320,192,192606,1,0,0:0:0:0:
448,192,192606,1,0,0:0:0:0:
192,192,192606,1,0,0:0:0:0:
64,192,192606,1,0,0:0:0:0:
192,192,192769,1,0,0:0:0:0:
64,192,192932,1,0,0:0:0:0:
192,192,192932,1,0,0:0:0:0:
320,192,192932,1,0,0:0:0:0:
448,192,192932,1,0,0:0:0:0:
320,192,193014,1,0,0:0:0:0:
320,192,193095,1,0,0:0:0:0:
192,192,193258,1,0,0:0:0:0:
320,192,193258,1,0,0:0:0:0:
448,192,193258,1,0,0:0:0:0:
64,192,193258,1,0,0:0:0:0:
192,192,193421,1,0,0:0:0:0:
64,192,193584,1,0,0:0:0:0:
192,192,193584,1,0,0:0:0:0:
320,192,193584,1,0,0:0:0:0:
448,192,193584,1,0,0:0:0:0:
448,192,193666,1,0,0:0:0:0:
320,192,193747,1,0,0:0:0:0:
64,192,193910,1,0,0:0:0:0:
192,192,193910,1,0,0:0:0:0:
320,192,193910,1,0,0:0:0:0:
448,192,193910,1,0,0:0:0:0:
192,192,194073,1,0,0:0:0:0:
64,192,194236,1,0,0:0:0:0:
192,192,194236,1,0,0:0:0:0:
320,192,194236,1,0,0:0:0:0:
448,192,194236,1,0,0:0:0:0:
320,192,194318,1,0,0:0:0:0:
192,192,194399,1,0,0:0:0:0:
64,192,194563,1,0,0:0:0:0:
192,192,194563,1,0,0:0:0:0:
320,192,194563,1,0,0:0:0:0:
448,192,194563,1,0,0:0:0:0:
192,192,194726,1,0,0:0:0:0:
64,192,194889,1,0,0:0:0:0:
192,192,194889,1,0,0:0:0:0:
320,192,194889,1,0,0:0:0:0:
448,192,194889,1,0,0:0:0:0:
64,192,194970,1,0,0:0:0:0:
192,192,195052,1,0,0:0:0:0:
64,192,195215,1,0,0:0:0:0:
192,192,195215,1,0,0:0:0:0:
320,192,195215,1,0,0:0:0:0:
448,192,195215,1,0,0:0:0:0:
320,192,195378,1,0,0:0:0:0:
448,192,195541,1,0,0:0:0:0:
320,192,195541,1,0,0:0:0:0:
192,192,195541,1,0,0:0:0:0:
64,192,195541,1,0,0:0:0:0:
320,192,195622,1,0,0:0:0:0:
64,192,195704,1,0,0:0:0:0:
192,192,195867,1,0,0:0:0:0:
320,192,195867,1,0,0:0:0:0:
448,192,195867,1,0,0:0:0:0:
64,192,195867,1,0,0:0:0:0:
192,192,196030,1,0,0:0:0:0:
192,192,196193,1,0,0:0:0:0:
64,192,196193,1,0,0:0:0:0:
320,192,196193,1,0,0:0:0:0:
448,192,196193,1,0,0:0:0:0:
448,192,196274,1,0,0:0:0:0:
320,192,196356,1,0,0:0:0:0:
64,192,196356,1,0,0:0:0:0:
192,192,196438,1,0,0:0:0:0:
320,192,196519,1,0,0:0:0:0:
448,192,196519,1,0,0:0:0:0:
64,192,196601,1,0,0:0:0:0:
448,192,196682,1,0,0:0:0:0:
192,192,196682,1,0,0:0:0:0:
320,192,196764,1,0,0:0:0:0:
192,192,196845,1,0,0:0:0:0:
64,192,196845,1,0,0:0:0:0:
448,192,196927,1,0,0:0:0:0:
64,192,197008,1,0,0:0:0:0:
320,192,197008,1,0,0:0:0:0:
192,192,197090,1,0,0:0:0:0:
320,192,197171,1,0,0:0:0:0:
448,192,197171,1,0,0:0:0:0:
64,192,197253,1,0,0:0:0:0:
448,192,197334,1,0,0:0:0:0:
192,192,197334,1,0,0:0:0:0:
320,192,197416,1,0,0:0:0:0:
192,192,197497,1,0,0:0:0:0:
64,192,197497,1,0,0:0:0:0:
448,192,197538,1,0,0:0:0:0:
320,192,197579,1,0,0:0:0:0:
192,192,197620,1,0,0:0:0:0:
64,192,197660,1,0,0:0:0:0:
448,192,197701,1,0,0:0:0:0:
320,192,197742,1,0,0:0:0:0:
192,192,197783,1,0,0:0:0:0:
64,192,197823,1,0,0:0:0:0:
448,192,197864,1,0,0:0:0:0:
320,192,197905,1,0,0:0:0:0:
192,192,197946,1,0,0:0:0:0:
64,192,197986,1,0,0:0:0:0:
448,192,198027,1,0,0:0:0:0:
320,192,198068,1,0,0:0:0:0:
192,192,198109,1,0,0:0:0:0:
64,192,198149,1,0,0:0:0:0:
448,192,198190,1,0,0:0:0:0:
320,192,198231,1,0,0:0:0:0:
192,192,198272,1,0,0:0:0:0:
64,192,198313,1,0,0:0:0:0:
448,192,198353,1,0,0:0:0:0:
320,192,198394,1,0,0:0:0:0:
192,192,198435,1,0,0:0:0:0:
64,192,198476,1,0,0:0:0:0:
320,192,198802,1,0,0:0:0:0:
448,192,198802,1,0,0:0:0:0:
192,192,198802,1,0,0:0:0:0:
64,192,198856,1,0,0:0:0:0:
448,192,198910,1,0,0:0:0:0:
320,192,198965,1,0,0:0:0:0:
192,192,199019,1,0,0:0:0:0:
64,192,199073,1,0,0:0:0:0:
448,192,199128,1,0,0:0:0:0:
192,192,199182,1,0,0:0:0:0:
320,192,199236,1,0,0:0:0:0:
448,192,199291,1,0,0:0:0:0:
64,192,199291,1,0,0:0:0:0:
192,192,199345,1,0,0:0:0:0:
448,192,199399,1,0,0:0:0:0:
320,192,199454,1,0,0:0:0:0:
192,192,199508,1,0,0:0:0:0:
64,192,199563,1,0,0:0:0:0:
320,192,199617,1,0,0:0:0:0:
448,192,199617,1,0,0:0:0:0:
192,192,199671,1,0,0:0:0:0:
64,192,199726,1,0,0:0:0:0:
320,192,199780,1,0,0:0:0:0:
448,192,199780,1,0,0:0:0:0:
64,192,199834,1,0,0:0:0:0:
448,192,199889,1,0,0:0:0:0:
192,192,199943,1,0,0:0:0:0:
320,192,199997,1,0,0:0:0:0:
448,192,200052,1,0,0:0:0:0:
64,192,200106,1,0,0:0:0:0:
320,192,200106,1,0,0:0:0:0:
192,192,200160,1,0,0:0:0:0:
64,192,200215,1,0,0:0:0:0:
320,192,200269,1,0,0:0:0:0:
448,192,200269,1,0,0:0:0:0:
64,192,200323,1,0,0:0:0:0:
320,192,200378,1,0,0:0:0:0:
192,192,200432,1,0,0:0:0:0:
64,192,200486,1,0,0:0:0:0:
448,192,200486,1,0,0:0:0:0:
320,192,200541,1,0,0:0:0:0:
192,192,200595,1,0,0:0:0:0:
64,192,200595,1,0,0:0:0:0:
448,192,200649,1,0,0:0:0:0:
192,192,200704,1,0,0:0:0:0:
320,192,200758,1,0,0:0:0:0:
448,192,200813,1,0,0:0:0:0:
64,192,200813,1,0,0:0:0:0:
192,192,200867,1,0,0:0:0:0:
320,192,200921,1,0,0:0:0:0:
448,192,200921,1,0,0:0:0:0:
64,192,200976,1,0,0:0:0:0:
192,192,201030,1,0,0:0:0:0:
320,192,201084,1,0,0:0:0:0:
448,192,201139,1,0,0:0:0:0:
64,192,201193,1,0,0:0:0:0:
448,192,201247,1,0,0:0:0:0:
192,192,201247,1,0,0:0:0:0:
320,192,201302,1,0,0:0:0:0:
192,192,201356,1,0,0:0:0:0:
64,192,201410,1,0,0:0:0:0:
448,192,201465,1,0,0:0:0:0:
64,192,201519,1,0,0:0:0:0:
320,192,201519,1,0,0:0:0:0:
192,192,201573,1,0,0:0:0:0:
320,192,201628,1,0,0:0:0:0:
448,192,201682,1,0,0:0:0:0:
64,192,201736,1,0,0:0:0:0:
448,192,201791,1,0,0:0:0:0:
192,192,201791,1,0,0:0:0:0:
320,192,201845,1,0,0:0:0:0:
192,192,201899,1,0,0:0:0:0:
64,192,201954,1,0,0:0:0:0:
448,192,202008,1,0,0:0:0:0:
64,192,202063,1,0,0:0:0:0:
320,192,202063,1,0,0:0:0:0:
192,192,202117,1,0,0:0:0:0:
320,192,202171,1,0,0:0:0:0:
448,192,202226,1,0,0:0:0:0:
64,192,202280,1,0,0:0:0:0:
448,192,202334,1,0,0:0:0:0:
192,192,202334,1,0,0:0:0:0:
320,192,202389,1,0,0:0:0:0:
192,192,202443,1,0,0:0:0:0:
64,192,202497,1,0,0:0:0:0:
448,192,202497,1,0,0:0:0:0:
320,192,202552,1,0,0:0:0:0:
192,192,202606,1,0,0:0:0:0:
64,192,202606,1,0,0:0:0:0:
448,192,202660,1,0,0:0:0:0:
320,192,202715,1,0,0:0:0:0:
192,192,202715,1,0,0:0:0:0:
64,192,202715,1,0,0:0:0:0:
448,192,202769,1,0,0:0:0:0:
192,192,202823,1,0,0:0:0:0:
320,192,202878,1,0,0:0:0:0:
448,192,202932,1,0,0:0:0:0:
64,192,202932,1,0,0:0:0:0:
192,192,202986,1,0,0:0:0:0:
320,192,203041,1,0,0:0:0:0:
448,192,203041,1,0,0:0:0:0:
64,192,203095,1,0,0:0:0:0:
448,192,203149,1,0,0:0:0:0:
320,192,203204,1,0,0:0:0:0:
192,192,203204,1,0,0:0:0:0:
64,192,203258,1,0,0:0:0:0:
320,192,203313,1,0,0:0:0:0:
448,192,203367,1,0,0:0:0:0:
192,192,203367,1,0,0:0:0:0:
64,192,203421,1,0,0:0:0:0:
320,192,203476,1,0,0:0:0:0:
192,192,203530,1,0,0:0:0:0:
64,192,203530,1,0,0:0:0:0:
448,192,203584,1,0,0:0:0:0:
320,192,203639,1,0,0:0:0:0:
192,192,203693,1,0,0:0:0:0:
64,192,203693,1,0,0:0:0:0:
448,192,203693,1,0,0:0:0:0:
192,192,204019,1,0,0:0:0:0:
320,192,204019,1,0,0:0:0:0:
448,192,204019,1,0,0:0:0:0:
64,192,204073,1,0,0:0:0:0:
192,192,204128,1,0,0:0:0:0:
320,192,204182,1,0,0:0:0:0:
448,192,204236,1,0,0:0:0:0:
64,192,204291,1,0,0:0:0:0:
320,192,204345,1,0,0:0:0:0:
192,192,204399,1,0,0:0:0:0:
64,192,204454,1,0,0:0:0:0:
448,192,204454,1,0,0:0:0:0:
320,192,204508,1,0,0:0:0:0:
192,192,204508,1,0,0:0:0:0:
64,192,204563,1,0,0:0:0:0:
448,192,204617,1,0,0:0:0:0:
192,192,204671,1,0,0:0:0:0:
320,192,204726,1,0,0:0:0:0:
448,192,204780,1,0,0:0:0:0:
64,192,204780,1,0,0:0:0:0:
192,192,204834,1,0,0:0:0:0:
448,192,204889,1,0,0:0:0:0:
64,192,204889,1,0,0:0:0:0:
320,192,204943,1,0,0:0:0:0:
192,192,204997,1,0,0:0:0:0:
64,192,204997,1,0,0:0:0:0:
448,192,205052,1,0,0:0:0:0:
320,192,205106,1,0,0:0:0:0:
192,192,205160,1,0,0:0:0:0:
64,192,205215,1,0,0:0:0:0:
448,192,205215,1,0,0:0:0:0:
320,192,205269,1,0,0:0:0:0:
192,192,205323,1,0,0:0:0:0:
64,192,205323,1,0,0:0:0:0:
448,192,205378,1,0,0:0:0:0:
320,192,205432,1,0,0:0:0:0:
64,192,205486,1,0,0:0:0:0:
320,192,205541,1,0,0:0:0:0:
192,192,205595,1,0,0:0:0:0:
64,192,205649,1,0,0:0:0:0:
448,192,205649,1,0,0:0:0:0:
320,192,205704,1,0,0:0:0:0:
192,192,205758,1,0,0:0:0:0:
64,192,205758,1,0,0:0:0:0:
448,192,205813,1,0,0:0:0:0:
320,192,205867,1,0,0:0:0:0:
64,192,205921,1,0,0:0:0:0:
192,192,205976,1,0,0:0:0:0:
320,192,206030,1,0,0:0:0:0:
448,192,206084,1,0,0:0:0:0:
192,192,206139,1,0,0:0:0:0:
64,192,206193,1,0,0:0:0:0:
320,192,206193,1,0,0:0:0:0:
448,192,206247,1,0,0:0:0:0:
64,192,206302,1,0,0:0:0:0:
192,192,206356,1,0,0:0:0:0:
320,192,206410,1,0,0:0:0:0:
448,192,206465,1,0,0:0:0:0:
64,192,206519,1,0,0:0:0:0:
448,192,206573,1,0,0:0:0:0:
192,192,206573,1,0,0:0:0:0:
320,192,206628,1,0,0:0:0:0:
192,192,206682,1,0,0:0:0:0:
64,192,206736,1,0,0:0:0:0:
448,192,206791,1,0,0:0:0:0:
64,192,206845,1,0,0:0:0:0:
320,192,206845,1,0,0:0:0:0:
192,192,206899,1,0,0:0:0:0:
320,192,206954,1,0,0:0:0:0:
448,192,207008,1,0,0:0:0:0:
64,192,207063,1,0,0:0:0:0:
448,192,207117,1,0,0:0:0:0:
192,192,207117,1,0,0:0:0:0:
320,192,207171,1,0,0:0:0:0:
192,192,207226,1,0,0:0:0:0:
64,192,207280,1,0,0:0:0:0:
448,192,207280,1,0,0:0:0:0:
320,192,207334,1,0,0:0:0:0:
192,192,207389,1,0,0:0:0:0:
64,192,207389,1,0,0:0:0:0:
320,192,207443,1,0,0:0:0:0:
448,192,207443,1,0,0:0:0:0:
64,192,207497,1,0,0:0:0:0:
192,192,207552,1,0,0:0:0:0:
320,192,207606,1,0,0:0:0:0:
448,192,207660,1,0,0:0:0:0:
64,192,207715,1,0,0:0:0:0:
320,192,207769,1,0,0:0:0:0:
192,192,207823,1,0,0:0:0:0:
448,192,207823,1,0,0:0:0:0:
64,192,207878,1,0,0:0:0:0:
320,192,207878,1,0,0:0:0:0:
192,192,207932,1,0,0:0:0:0:
64,192,207986,1,0,0:0:0:0:
448,192,207986,1,0,0:0:0:0:
320,192,208041,1,0,0:0:0:0:
192,192,208095,1,0,0:0:0:0:
64,192,208095,1,0,0:0:0:0:
448,192,208149,1,0,0:0:0:0:
192,192,208204,1,0,0:0:0:0:
320,192,208258,1,0,0:0:0:0:
448,192,208313,1,0,0:0:0:0:
64,192,208313,1,0,0:0:0:0:
192,192,208367,1,0,0:0:0:0:
320,192,208421,1,0,0:0:0:0:
448,192,208421,1,0,0:0:0:0:
64,192,208476,1,0,0:0:0:0:
192,192,208530,1,0,0:0:0:0:
320,192,208584,1,0,0:0:0:0:
448,192,208584,1,0,0:0:0:0:
64,192,208639,1,0,0:0:0:0:
192,192,208639,1,0,0:0:0:0:
320,192,208693,1,0,0:0:0:0:
448,192,208693,1,0,0:0:0:0:
192,192,208747,1,0,0:0:0:0:
64,192,208747,1,0,0:0:0:0:
320,192,208802,1,0,0:0:0:0:
448,192,208802,1,0,0:0:0:0:
192,192,208856,1,0,0:0:0:0:
64,192,208856,1,0,0:0:0:0:
320,192,208910,1,0,0:0:0:0:
448,192,208910,1,0,0:0:0:0:
64,192,209128,1,0,0:0:0:0:
192,192,209182,1,0,0:0:0:0:
64,192,209236,1,0,0:0:0:0:
320,192,209236,1,0,0:0:0:0:
448,192,209291,1,0,0:0:0:0:
64,192,209345,1,0,0:0:0:0:
192,192,209345,1,0,0:0:0:0:
320,192,209399,1,0,0:0:0:0:
448,192,209454,1,0,0:0:0:0:
192,192,209508,1,0,0:0:0:0:
64,192,209563,1,0,0:0:0:0:
448,192,209563,1,0,0:0:0:0:
320,192,209617,1,0,0:0:0:0:
192,192,209671,1,0,0:0:0:0:
64,192,209726,1,0,0:0:0:0:
448,192,209726,1,0,0:0:0:0:
320,192,209780,1,0,0:0:0:0:
64,192,209834,1,0,0:0:0:0:
192,192,209889,1,0,0:0:0:0:
448,192,209889,1,0,0:0:0:0:
320,192,209943,1,0,0:0:0:0:
448,192,209997,1,0,0:0:0:0:
64,192,210052,1,0,0:0:0:0:
448,192,210106,1,0,0:0:0:0:
192,192,210106,1,0,0:0:0:0:
320,192,210160,1,0,0:0:0:0:
192,192,210215,1,0,0:0:0:0:
64,192,210269,1,0,0:0:0:0:
448,192,210323,1,0,0:0:0:0:
64,192,210378,1,0,0:0:0:0:
320,192,210378,1,0,0:0:0:0:
192,192,210432,1,0,0:0:0:0:
320,192,210486,1,0,0:0:0:0:
448,192,210541,1,0,0:0:0:0:
64,192,210541,1,0,0:0:0:0:
192,192,210595,1,0,0:0:0:0:
448,192,210649,1,0,0:0:0:0:
64,192,210704,1,0,0:0:0:0:
192,192,210704,1,0,0:0:0:0:
320,192,210758,1,0,0:0:0:0:
448,192,210813,1,0,0:0:0:0:
192,192,210867,1,0,0:0:0:0:
64,192,210867,1,0,0:0:0:0:
448,192,210921,1,0,0:0:0:0:
320,192,210976,1,0,0:0:0:0:
192,192,211030,1,0,0:0:0:0:
64,192,211030,1,0,0:0:0:0:
448,192,211084,1,0,0:0:0:0:
320,192,211139,1,0,0:0:0:0:
192,192,211193,1,0,0:0:0:0:
64,192,211247,1,0,0:0:0:0:
320,192,211302,1,0,0:0:0:0:
448,192,211356,1,0,0:0:0:0:
64,192,211356,1,0,0:0:0:0:
192,192,211410,1,0,0:0:0:0:
320,192,211465,1,0,0:0:0:0:
448,192,211519,1,0,0:0:0:0:
64,192,211519,1,0,0:0:0:0:
192,192,211573,1,0,0:0:0:0:
320,192,211628,1,0,0:0:0:0:
448,192,211628,1,0,0:0:0:0:
64,192,211682,1,0,0:0:0:0:
448,192,211736,1,0,0:0:0:0:
192,192,211736,1,0,0:0:0:0:
320,192,211791,1,0,0:0:0:0:
192,192,211845,1,0,0:0:0:0:
64,192,211899,1,0,0:0:0:0:
448,192,211954,1,0,0:0:0:0:
64,192,212008,1,0,0:0:0:0:
320,192,212008,1,0,0:0:0:0:
192,192,212063,1,0,0:0:0:0:
320,192,212117,1,0,0:0:0:0:
448,192,212171,1,0,0:0:0:0:
64,192,212226,1,0,0:0:0:0:
448,192,212280,1,0,0:0:0:0:
192,192,212280,1,0,0:0:0:0:
320,192,212334,1,0,0:0:0:0:
192,192,212389,1,0,0:0:0:0:
64,192,212443,1,0,0:0:0:0:
448,192,212497,1,0,0:0:0:0:
64,192,212552,1,0,0:0:0:0:
320,192,212552,1,0,0:0:0:0:
192,192,212606,1,0,0:0:0:0:
320,192,212660,1,0,0:0:0:0:
448,192,212715,1,0,0:0:0:0:
64,192,212769,1,0,0:0:0:0:
448,192,212823,1,0,0:0:0:0:
192,192,212823,1,0,0:0:0:0:
320,192,212878,1,0,0:0:0:0:
192,192,212932,1,0,0:0:0:0:
64,192,212986,1,0,0:0:0:0:
448,192,213041,1,0,0:0:0:0:
64,192,213095,1,0,0:0:0:0:
320,192,213095,1,0,0:0:0:0:
192,192,213149,1,0,0:0:0:0:
320,192,213204,1,0,0:0:0:0:
448,192,213258,1,0,0:0:0:0:
64,192,213258,1,0,0:0:0:0:
192,192,213313,1,0,0:0:0:0:
320,192,213367,1,0,0:0:0:0:
448,192,213367,1,0,0:0:0:0:
192,192,213421,1,0,0:0:0:0:
64,192,213476,1,0,0:0:0:0:
448,192,213476,1,0,0:0:0:0:
320,192,213530,1,0,0:0:0:0:
192,192,213584,1,0,0:0:0:0:
64,192,213639,1,0,0:0:0:0:
448,192,213639,1,0,0:0:0:0:
320,192,213693,1,0,0:0:0:0:
192,192,213747,1,0,0:0:0:0:
64,192,213747,1,0,0:0:0:0:
320,192,213802,1,0,0:0:0:0:
448,192,213802,1,0,0:0:0:0:
64,192,213856,1,0,0:0:0:0:
192,192,213910,1,0,0:0:0:0:
320,192,213965,1,0,0:0:0:0:
448,192,213965,1,0,0:0:0:0:
64,192,214019,1,0,0:0:0:0:
192,192,214019,1,0,0:0:0:0:
320,192,214073,1,0,0:0:0:0:
448,192,214073,1,0,0:0:0:0:
192,192,214128,1,0,0:0:0:0:
64,192,214128,1,0,0:0:0:0:
64,192,214454,1,0,0:0:0:0:
320,192,214454,1,0,0:0:0:0:
192,192,214508,1,0,0:0:0:0:
320,192,214563,1,0,0:0:0:0:
448,192,214617,1,0,0:0:0:0:
64,192,214671,1,0,0:0:0:0:
320,192,214726,1,0,0:0:0:0:
192,192,214780,1,0,0:0:0:0:
448,192,214780,1,0,0:0:0:0:
64,192,214834,1,0,0:0:0:0:
320,192,214889,1,0,0:0:0:0:
192,192,214943,1,0,0:0:0:0:
64,192,214943,1,0,0:0:0:0:
448,192,214997,1,0,0:0:0:0:
192,192,215052,1,0,0:0:0:0:
320,192,215106,1,0,0:0:0:0:
448,192,215160,1,0,0:0:0:0:
64,192,215160,1,0,0:0:0:0:
192,192,215215,1,0,0:0:0:0:
320,192,215269,1,0,0:0:0:0:
448,192,215269,1,0,0:0:0:0:
64,192,215323,1,0,0:0:0:0:
192,192,215378,1,0,0:0:0:0:
320,192,215432,1,0,0:0:0:0:
448,192,215486,1,0,0:0:0:0:
64,192,215541,1,0,0:0:0:0:
320,192,215595,1,0,0:0:0:0:
192,192,215649,1,0,0:0:0:0:
64,192,215704,1,0,0:0:0:0:
448,192,215704,1,0,0:0:0:0:
320,192,215758,1,0,0:0:0:0:
192,192,215758,1,0,0:0:0:0:
64,192,215813,1,0,0:0:0:0:
448,192,215867,1,0,0:0:0:0:
192,192,215921,1,0,0:0:0:0:
320,192,215921,1,0,0:0:0:0:
64,192,215976,1,0,0:0:0:0:
192,192,216030,1,0,0:0:0:0:
320,192,216084,1,0,0:0:0:0:
448,192,216139,1,0,0:0:0:0:
192,192,216193,1,0,0:0:0:0:
64,192,216247,1,0,0:0:0:0:
448,192,216247,1,0,0:0:0:0:
320,192,216302,1,0,0:0:0:0:
192,192,216356,1,0,0:0:0:0:
64,192,216410,1,0,0:0:0:0:
448,192,216410,1,0,0:0:0:0:
320,192,216465,1,0,0:0:0:0:
64,192,216519,1,0,0:0:0:0:
192,192,216573,1,0,0:0:0:0:
448,192,216573,1,0,0:0:0:0:
64,192,216628,1,0,0:0:0:0:
320,192,216682,1,0,0:0:0:0:
448,192,216736,1,0,0:0:0:0:
192,192,216736,1,0,0:0:0:0:
64,192,216791,1,0,0:0:0:0:
448,192,216845,1,0,0:0:0:0:
320,192,216845,1,0,0:0:0:0:
192,192,216899,1,0,0:0:0:0:
64,192,216899,1,0,0:0:0:0:
448,192,216954,1,0,0:0:0:0:
320,192,217008,1,0,0:0:0:0:
192,192,217063,1,0,0:0:0:0:
64,192,217063,1,0,0:0:0:0:
192,192,217226,1,0,0:0:0:0:
320,192,217389,1,0,0:0:0:0:
192,192,217552,1,0,0:0:0:0:
192,192,217715,1,0,0:0:0:0:
64,192,217878,1,0,0:0:0:0:
192,192,218041,1,0,0:0:0:0:
320,192,218204,1,0,0:0:0:0:
448,192,218367,1,0,0:0:0:0:
320,192,218693,1,0,0:0:0:0:
64,192,218965,1,0,0:0:0:0:
320,192,218965,1,0,0:0:0:0:
192,192,219019,1,0,0:0:0:0:
192,192,219182,1,0,0:0:0:0:
192,192,219345,1,0,0:0:0:0:
192,192,219508,1,0,0:0:0:0:
320,192,219671,1,0,0:0:0:0:
448,192,219671,1,0,0:0:0:0:
64,192,219671,1,0,0:0:0:0:
192,192,219753,1,0,0:0:0:0:
320,192,219834,1,0,0:0:0:0:
448,192,219834,1,0,0:0:0:0:
192,192,219916,1,0,0:0:0:0:
64,192,219997,1,0,0:0:0:0:
448,192,219997,1,0,0:0:0:0:
320,192,220079,1,0,0:0:0:0:
192,192,220160,1,0,0:0:0:0:
64,192,220160,1,0,0:0:0:0:
320,192,220242,1,0,0:0:0:0:
448,192,220323,1,0,0:0:0:0:
64,192,220323,1,0,0:0:0:0:
192,192,220405,1,0,0:0:0:0:
320,192,220486,1,0,0:0:0:0:
448,192,220486,1,0,0:0:0:0:
64,192,220568,1,0,0:0:0:0:
320,192,220649,1,0,0:0:0:0:
192,192,220649,1,0,0:0:0:0:
448,192,220731,1,0,0:0:0:0:
320,192,220813,1,0,0:0:0:0:
64,192,220813,1,0,0:0:0:0:
192,192,220894,1,0,0:0:0:0:
320,192,220976,1,0,0:0:0:0:
448,192,220976,1,0,0:0:0:0:
64,192,221057,1,0,0:0:0:0:
192,192,221139,1,0,0:0:0:0:
448,192,221139,1,0,0:0:0:0:
320,192,221220,1,0,0:0:0:0:
192,192,221302,1,0,0:0:0:0:
64,192,221302,1,0,0:0:0:0:
448,192,221383,1,0,0:0:0:0:
192,192,221465,1,0,0:0:0:0:
320,192,221465,1,0,0:0:0:0:
64,192,221546,1,0,0:0:0:0:
192,192,221628,1,0,0:0:0:0:
448,192,221628,1,0,0:0:0:0:
320,192,221709,1,0,0:0:0:0:
192,192,221791,1,0,0:0:0:0:
64,192,221791,1,0,0:0:0:0:
448,192,221872,1,0,0:0:0:0:
192,192,221954,1,0,0:0:0:0:
64,192,221954,1,0,0:0:0:0:
320,192,222035,1,0,0:0:0:0:
192,192,222117,1,0,0:0:0:0:
64,192,222117,1,0,0:0:0:0:
448,192,222198,1,0,0:0:0:0:
64,192,222280,1,0,0:0:0:0:
192,192,222280,1,0,0:0:0:0:
320,192,222280,1,0,0:0:0:0:
448,192,222361,1,0,0:0:0:0:
64,192,222443,1,0,0:0:0:0:
320,192,222443,1,0,0:0:0:0:
192,192,222524,1,0,0:0:0:0:
320,192,222606,1,0,0:0:0:0:
448,192,222606,1,0,0:0:0:0:
192,192,222688,1,0,0:0:0:0:
64,192,222769,1,0,0:0:0:0:
448,192,222769,1,0,0:0:0:0:
320,192,222851,1,0,0:0:0:0:
192,192,222932,1,0,0:0:0:0:
64,192,222932,1,0,0:0:0:0:
448,192,223014,1,0,0:0:0:0:
64,192,223095,1,0,0:0:0:0:
320,192,223095,1,0,0:0:0:0:
192,192,223177,1,0,0:0:0:0:
320,192,223258,1,0,0:0:0:0:
448,192,223258,1,0,0:0:0:0:
192,192,223340,1,0,0:0:0:0:
64,192,223421,1,0,0:0:0:0:
320,192,223421,1,0,0:0:0:0:
448,192,223503,1,0,0:0:0:0:
64,192,223584,1,0,0:0:0:0:
320,192,223584,1,0,0:0:0:0:
192,192,223666,1,0,0:0:0:0:
320,192,223747,1,0,0:0:0:0:
448,192,223747,1,0,0:0:0:0:
64,192,223829,1,0,0:0:0:0:
192,192,223910,1,0,0:0:0:0:
448,192,223910,1,0,0:0:0:0:
64,192,223992,1,0,0:0:0:0:
320,192,224073,1,0,0:0:0:0:
448,192,224073,1,0,0:0:0:0:
192,192,224155,1,0,0:0:0:0:
64,192,224236,1,0,0:0:0:0:
448,192,224236,1,0,0:0:0:0:
320,192,224318,1,0,0:0:0:0:
192,192,224399,1,0,0:0:0:0:
64,192,224399,1,0,0:0:0:0:
448,192,224481,1,0,0:0:0:0:
192,192,224563,1,0,0:0:0:0:
64,192,224563,1,0,0:0:0:0:
320,192,224644,1,0,0:0:0:0:
192,192,224726,1,0,0:0:0:0:
64,192,224726,1,0,0:0:0:0:
448,192,224807,1,0,0:0:0:0:
320,192,224889,1,0,0:0:0:0:
192,192,224889,1,0,0:0:0:0:
64,192,224889,1,0,0:0:0:0:
448,192,224970,1,0,0:0:0:0:
64,192,225052,1,0,0:0:0:0:
320,192,225052,1,0,0:0:0:0:
192,192,225133,1,0,0:0:0:0:
64,192,225215,1,0,0:0:0:0:
448,192,225215,1,0,0:0:0:0:
320,192,225296,1,0,0:0:0:0:
192,192,225378,1,0,0:0:0:0:
64,192,225378,1,0,0:0:0:0:
448,192,225459,1,0,0:0:0:0:
192,192,225541,1,0,0:0:0:0:
320,192,225541,1,0,0:0:0:0:
64,192,225622,1,0,0:0:0:0:
192,192,225704,1,0,0:0:0:0:
448,192,225704,1,0,0:0:0:0:
320,192,225785,1,0,0:0:0:0:
192,192,225867,1,0,0:0:0:0:
64,192,225867,1,0,0:0:0:0:
320,192,225948,1,0,0:0:0:0:
448,192,226030,1,0,0:0:0:0:
64,192,226030,1,0,0:0:0:0:
192,192,226111,1,0,0:0:0:0:
320,192,226193,1,0,0:0:0:0:
448,192,226193,1,0,0:0:0:0:
192,192,226274,1,0,0:0:0:0:
64,192,226356,1,0,0:0:0:0:
320,192,226356,1,0,0:0:0:0:
448,192,226438,1,0,0:0:0:0:
64,192,226519,1,0,0:0:0:0:
192,192,226519,1,0,0:0:0:0:
320,192,226601,1,0,0:0:0:0:
448,192,226682,1,0,0:0:0:0:
64,192,226682,1,0,0:0:0:0:
192,192,226764,1,0,0:0:0:0:
320,192,226845,1,0,0:0:0:0:
448,192,226845,1,0,0:0:0:0:
192,192,226927,1,0,0:0:0:0:
320,192,227008,1,0,0:0:0:0:
448,192,227008,1,0,0:0:0:0:
192,192,227090,1,0,0:0:0:0:
320,192,227171,1,0,0:0:0:0:
448,192,227171,1,0,0:0:0:0:
64,192,227253,1,0,0:0:0:0:
192,192,227334,1,0,0:0:0:0:
320,192,227334,1,0,0:0:0:0:
448,192,227334,1,0,0:0:0:0:
64,192,227416,1,0,0:0:0:0:
192,192,227497,1,0,0:0:0:0:
448,192,227497,1,0,0:0:0:0:
320,192,227579,1,0,0:0:0:0:
192,192,227660,1,0,0:0:0:0:
64,192,227742,1,0,0:0:0:0:
448,192,227742,1,0,0:0:0:0:
192,192,227823,1,0,0:0:0:0:
320,192,227823,1,0,0:0:0:0:
64,192,227905,1,0,0:0:0:0:
192,192,227986,1,0,0:0:0:0:
448,192,227986,1,0,0:0:0:0:
320,192,228068,1,0,0:0:0:0:
192,192,228149,1,0,0:0:0:0:
64,192,228149,1,0,0:0:0:0:
320,192,228231,1,0,0:0:0:0:
448,192,228313,1,0,0:0:0:0:
64,192,228313,1,0,0:0:0:0:
192,192,228394,1,0,0:0:0:0:
320,192,228476,1,0,0:0:0:0:
448,192,228476,1,0,0:0:0:0:
64,192,228557,1,0,0:0:0:0:
320,192,228639,1,0,0:0:0:0:
192,192,228639,1,0,0:0:0:0:
448,192,228720,1,0,0:0:0:0:
64,192,228802,1,0,0:0:0:0:
320,192,228802,1,0,0:0:0:0:
192,192,228883,1,0,0:0:0:0:
320,192,228965,1,0,0:0:0:0:
448,192,228965,1,0,0:0:0:0:
192,192,229046,1,0,0:0:0:0:
64,192,229128,1,0,0:0:0:0:
320,192,229128,1,0,0:0:0:0:
448,192,229128,1,0,0:0:0:0:
192,192,229209,1,0,0:0:0:0:
64,192,229291,1,0,0:0:0:0:
448,192,229291,1,0,0:0:0:0:
320,192,229372,1,0,0:0:0:0:
192,192,229454,1,0,0:0:0:0:
64,192,229454,1,0,0:0:0:0:
320,192,229508,1,0,0:0:0:0:
448,192,229508,1,0,0:0:0:0:
192,192,229563,1,0,0:0:0:0:
64,192,229563,1,0,0:0:0:0:
320,192,229617,1,0,0:0:0:0:
448,192,229617,1,0,0:0:0:0:
64,192,229671,1,0,0:0:0:0:
192,192,229671,1,0,0:0:0:0:
320,192,229726,1,0,0:0:0:0:
448,192,229726,1,0,0:0:0:0:
64,192,229780,1,0,0:0:0:0:
192,192,229780,1,0,0:0:0:0:
448,192,230065,1,0,0:0:0:0:
320,192,230106,1,0,0:0:0:0:
192,192,230106,1,0,0:0:0:0:
64,192,230106,1,0,0:0:0:0:
448,192,230188,1,0,0:0:0:0:
64,192,230269,1,0,0:0:0:0:
320,192,230269,1,0,0:0:0:0:
192,192,230351,1,0,0:0:0:0:
320,192,230432,1,0,0:0:0:0:
448,192,230432,1,0,0:0:0:0:
192,192,230514,1,0,0:0:0:0:
64,192,230595,1,0,0:0:0:0:
448,192,230595,1,0,0:0:0:0:
192,192,230677,1,0,0:0:0:0:
320,192,230758,1,0,0:0:0:0:
448,192,230758,1,0,0:0:0:0:
64,192,230840,1,0,0:0:0:0:
192,192,230921,1,0,0:0:0:0:
448,192,230921,1,0,0:0:0:0:
320,192,231003,1,0,0:0:0:0:
192,192,231084,1,0,0:0:0:0:
64,192,231084,1,0,0:0:0:0:
320,192,231166,1,0,0:0:0:0:
448,192,231247,1,0,0:0:0:0:
64,192,231247,1,0,0:0:0:0:
192,192,231329,1,0,0:0:0:0:
320,192,231410,1,0,0:0:0:0:
448,192,231410,1,0,0:0:0:0:
192,192,231492,1,0,0:0:0:0:
64,192,231573,1,0,0:0:0:0:
320,192,231573,1,0,0:0:0:0:
448,192,231655,1,0,0:0:0:0:
320,192,231736,1,0,0:0:0:0:
192,192,231736,1,0,0:0:0:0:
64,192,231818,1,0,0:0:0:0:
448,192,231899,1,0,0:0:0:0:
192,192,231899,1,0,0:0:0:0:
320,192,231981,1,0,0:0:0:0:
192,192,232063,1,0,0:0:0:0:
64,192,232063,1,0,0:0:0:0:
448,192,232144,1,0,0:0:0:0:
192,192,232226,1,0,0:0:0:0:
64,192,232226,1,0,0:0:0:0:
320,192,232307,1,0,0:0:0:0:
64,192,232389,1,0,0:0:0:0:
192,192,232389,1,0,0:0:0:0:
448,192,232470,1,0,0:0:0:0:
64,192,232552,1,0,0:0:0:0:
192,192,232552,1,0,0:0:0:0:
320,192,232633,1,0,0:0:0:0:
64,192,232715,1,0,0:0:0:0:
192,192,232715,1,0,0:0:0:0:
448,192,232715,1,0,0:0:0:0:
320,192,232796,1,0,0:0:0:0:
448,192,232878,1,0,0:0:0:0:
64,192,232878,1,0,0:0:0:0:
192,192,232959,1,0,0:0:0:0:
320,192,233041,1,0,0:0:0:0:
448,192,233041,1,0,0:0:0:0:
64,192,233122,1,0,0:0:0:0:
448,192,233204,1,0,0:0:0:0:
192,192,233204,1,0,0:0:0:0:
320,192,233285,1,0,0:0:0:0:
64,192,233367,1,0,0:0:0:0:
448,192,233367,1,0,0:0:0:0:
192,192,233448,1,0,0:0:0:0:
320,192,233530,1,0,0:0:0:0:
448,192,233530,1,0,0:0:0:0:
192,192,233611,1,0,0:0:0:0:
64,192,233693,1,0,0:0:0:0:
448,192,233693,1,0,0:0:0:0:
320,192,233774,1,0,0:0:0:0:
192,192,233856,1,0,0:0:0:0:
64,192,233856,1,0,0:0:0:0:
320,192,233938,1,0,0:0:0:0:
448,192,234019,1,0,0:0:0:0:
64,192,234019,1,0,0:0:0:0:
192,192,234101,1,0,0:0:0:0:
320,192,234182,1,0,0:0:0:0:
448,192,234182,1,0,0:0:0:0:
192,192,234264,1,0,0:0:0:0:
64,192,234345,1,0,0:0:0:0:
320,192,234345,1,0,0:0:0:0:
448,192,234427,1,0,0:0:0:0:
320,192,234508,1,0,0:0:0:0:
192,192,234508,1,0,0:0:0:0:
64,192,234590,1,0,0:0:0:0:
448,192,234671,1,0,0:0:0:0:
320,192,234671,1,0,0:0:0:0:
192,192,234753,1,0,0:0:0:0:
320,192,234834,1,0,0:0:0:0:
448,192,234834,1,0,0:0:0:0:
64,192,234916,1,0,0:0:0:0:
320,192,234997,1,0,0:0:0:0:
448,192,234997,1,0,0:0:0:0:
192,192,235079,1,0,0:0:0:0:
320,192,235160,1,0,0:0:0:0:
448,192,235160,1,0,0:0:0:0:
192,192,235242,1,0,0:0:0:0:
64,192,235323,1,0,0:0:0:0:
320,192,235323,1,0,0:0:0:0:
448,192,235323,1,0,0:0:0:0:
192,192,235405,1,0,0:0:0:0:
64,192,235486,1,0,0:0:0:0:
448,192,235486,1,0,0:0:0:0:
320,192,235568,1,0,0:0:0:0:
192,192,235649,1,0,0:0:0:0:
64,192,235649,1,0,0:0:0:0:
320,192,235731,1,0,0:0:0:0:
192,192,235813,1,0,0:0:0:0:
448,192,235813,1,0,0:0:0:0:
64,192,235894,1,0,0:0:0:0:
320,192,235976,1,0,0:0:0:0:
448,192,235976,1,0,0:0:0:0:
192,192,236057,1,0,0:0:0:0:
64,192,236139,1,0,0:0:0:0:
448,192,236139,1,0,0:0:0:0:
320,192,236220,1,0,0:0:0:0:
192,192,236302,1,0,0:0:0:0:
64,192,236302,1,0,0:0:0:0:
448,192,236383,1,0,0:0:0:0:
64,192,236465,1,0,0:0:0:0:
320,192,236465,1,0,0:0:0:0:
192,192,236546,1,0,0:0:0:0:
320,192,236628,1,0,0:0:0:0:
448,192,236628,1,0,0:0:0:0:
64,192,236709,1,0,0:0:0:0:
192,192,236791,1,0,0:0:0:0:
448,192,236791,1,0,0:0:0:0:
320,192,236872,1,0,0:0:0:0:
192,192,236954,1,0,0:0:0:0:
64,192,236954,1,0,0:0:0:0:
448,192,237035,1,0,0:0:0:0:
64,192,237117,1,0,0:0:0:0:
320,192,237117,1,0,0:0:0:0:
192,192,237198,1,0,0:0:0:0:
320,192,237280,1,0,0:0:0:0:
448,192,237280,1,0,0:0:0:0:
192,192,237361,1,0,0:0:0:0:
320,192,237443,1,0,0:0:0:0:
64,192,237443,1,0,0:0:0:0:
448,192,237524,1,0,0:0:0:0:
192,192,237606,1,0,0:0:0:0:
320,192,237606,1,0,0:0:0:0:
64,192,237688,1,0,0:0:0:0:
448,192,237769,1,0,0:0:0:0:
320,192,237769,1,0,0:0:0:0:
192,192,237851,1,0,0:0:0:0:
64,192,237932,1,0,0:0:0:0:
448,192,237932,1,0,0:0:0:0:
320,192,238014,1,0,0:0:0:0:
64,192,238095,1,0,0:0:0:0:
192,192,238095,1,0,0:0:0:0:
448,192,238177,1,0,0:0:0:0:
320,192,238177,1,0,0:0:0:0:
192,192,238258,1,0,0:0:0:0:
64,192,238258,1,0,0:0:0:0:
320,192,238340,1,0,0:0:0:0:
448,192,238421,1,0,0:0:0:0:
64,192,238421,1,0,0:0:0:0:
192,192,238503,1,0,0:0:0:0:
320,192,238503,1,0,0:0:0:0:
448,192,238584,1,0,0:0:0:0:
64,192,238584,1,0,0:0:0:0:
320,192,238666,1,0,0:0:0:0:
192,192,238747,1,0,0:0:0:0:
64,192,238747,1,0,0:0:0:0:
320,192,238829,1,0,0:0:0:0:
448,192,238829,1,0,0:0:0:0:
64,192,238910,1,0,0:0:0:0:
192,192,238910,1,0,0:0:0:0:
320,192,238992,1,0,0:0:0:0:
64,192,239073,1,0,0:0:0:0:
448,192,239073,1,0,0:0:0:0:
192,192,239155,1,0,0:0:0:0:
320,192,239155,1,0,0:0:0:0:
448,192,239236,1,0,0:0:0:0:
64,192,239236,1,0,0:0:0:0:
192,192,239318,1,0,0:0:0:0:
320,192,239318,1,0,0:0:0:0:
448,192,239399,1,0,0:0:0:0:
320,192,239481,1,0,0:0:0:0:
64,192,239481,1,0,0:0:0:0:
192,192,239563,1,0,0:0:0:0:
64,192,239563,1,0,0:0:0:0:
448,192,239563,1,0,0:0:0:0:
320,192,239644,1,0,0:0:0:0:
448,192,239726,1,0,0:0:0:0:
64,192,239726,1,0,0:0:0:0:
448,192,239807,1,0,0:0:0:0:
192,192,239807,1,0,0:0:0:0:
320,192,239889,1,0,0:0:0:0:
192,192,239889,1,0,0:0:0:0:
448,192,239970,1,0,0:0:0:0:
64,192,240052,1,0,0:0:0:0:
192,192,240052,1,0,0:0:0:0:
320,192,240133,1,0,0:0:0:0:
192,192,240215,1,0,0:0:0:0:
320,192,240215,1,0,0:0:0:0:
448,192,240215,1,0,0:0:0:0:
64,192,240296,1,0,0:0:0:0:
320,192,240378,1,0,0:0:0:0:
192,192,240378,1,0,0:0:0:0:
320,192,241845,1,0,0:0:0:0:
448,192,241845,1,0,0:0:0:0:
192,192,241845,1,0,0:0:0:0:
64,192,241845,1,0,0:0:0:0:
