osu file format v14

[General]
AudioFilename: ifuudoudou.mp3
AudioLeadIn: 0
PreviewTime: 47567
Countdown: 1
SampleSet: Normal
StackLeniency: 0.7
Mode: 3
LetterboxInBreaks: 0
SpecialStyle: 0
WidescreenStoryboard: 0

[Editor]
DistanceSpacing: 1
BeatDivisor: 4
GridSize: 8
TimelineZoom: 2.2

[Metadata]
Title:Sizuka's 4k Practice Pack
TitleUnicode:Sizuka's 4k Practice Pack
Artist:Various Artists
ArtistUnicode:Various Artists
Creator:_Sizuka_
Version:Ifuudoudou
Source:
Tags:
BeatmapID:969800
BeatmapSetID:452109

[Difficulty]
HPDrainRate:8
CircleSize:4
OverallDifficulty:8
ApproachRate:5
SliderMultiplier:1.4
SliderTickRate:1

[Events]
//Background and Video events
0,0,"tokisaki-kurumi-anime-date-a-live-1920x1080.jpg",0,0
//Break Periods
//Storyboard Layer 0 (Background)
//Storyboard Layer 1 (Fail)
//Storyboard Layer 2 (Pass)
//Storyboard Layer 3 (Foreground)
//Storyboard Sound Samples

[TimingPoints]
4298,461.538461538462,4,1,0,24,1,0

[HitObjects]
192,192,4298,5,0,0:0:0:0:
320,192,4413,1,0,0:0:0:0:
192,192,4759,1,0,0:0:0:0:
64,192,4874,1,0,0:0:0:0:
320,192,5221,1,0,0:0:0:0:
448,192,5336,1,0,0:0:0:0:
192,192,5682,1,0,0:0:0:0:
320,192,5798,1,0,0:0:0:0:
192,192,6144,1,0,0:0:0:0:
448,192,6259,1,0,0:0:0:0:
320,192,6605,1,0,0:0:0:0:
192,192,6721,1,0,0:0:0:0:
64,192,7067,1,0,0:0:0:0:
320,192,7182,1,0,0:0:0:0:
192,192,7528,1,0,0:0:0:0:
64,192,7644,1,0,0:0:0:0:
320,192,7990,1,0,0:0:0:0:
192,192,8105,1,0,0:0:0:0:
448,192,8451,1,0,0:0:0:0:
192,192,8567,1,0,0:0:0:0:
64,192,8913,1,0,0:0:0:0:
320,192,9028,1,0,0:0:0:0:
192,192,9374,1,0,0:0:0:0:
320,192,9490,1,0,0:0:0:0:
192,192,9836,1,0,0:0:0:0:
320,192,9951,1,0,0:0:0:0:
448,192,10298,1,0,0:0:0:0:
320,192,10413,1,0,0:0:0:0:
192,192,10759,1,0,0:0:0:0:
64,192,10874,1,0,0:0:0:0:
320,192,11221,1,0,0:0:0:0:
192,192,11336,1,0,0:0:0:0:
320,192,11451,1,0,0:0:0:0:
448,192,11451,1,0,0:0:0:0:
64,192,11451,1,0,0:0:0:0:
192,192,11682,1,0,0:0:0:0:
64,192,11798,1,0,0:0:0:0:
448,192,11913,128,0,12490:0:0:0:0:
320,192,11913,1,0,0:0:0:0:
192,192,11913,1,0,0:0:0:0:
192,192,12144,1,0,0:0:0:0:
64,192,12259,1,0,0:0:0:0:
320,192,12374,1,0,0:0:0:0:
192,192,12374,1,0,0:0:0:0:
64,192,12605,1,0,0:0:0:0:
192,192,12721,1,0,0:0:0:0:
320,192,12836,1,0,0:0:0:0:
448,192,12836,1,0,0:0:0:0:
64,192,12836,128,0,13413:0:0:0:0:
192,192,13067,1,0,0:0:0:0:
320,192,13182,1,0,0:0:0:0:
192,192,13298,1,0,0:0:0:0:
448,192,13298,1,0,0:0:0:0:
320,192,13528,1,0,0:0:0:0:
448,192,13644,1,0,0:0:0:0:
320,192,13759,128,0,14336:0:0:0:0:
64,192,13759,1,0,0:0:0:0:
192,192,13759,1,0,0:0:0:0:
192,192,13990,1,0,0:0:0:0:
448,192,14105,1,0,0:0:0:0:
64,192,14221,1,0,0:0:0:0:
192,192,14221,1,0,0:0:0:0:
192,192,14451,1,0,0:0:0:0:
320,192,14567,1,0,0:0:0:0:
192,192,14682,1,0,0:0:0:0:
448,192,14682,1,0,0:0:0:0:
64,192,14682,128,0,15259:0:0:0:0:
320,192,14913,1,0,0:0:0:0:
192,192,15028,1,0,0:0:0:0:
448,192,15144,1,0,0:0:0:0:
320,192,15144,1,0,0:0:0:0:
320,192,15374,1,0,0:0:0:0:
192,192,15374,1,0,0:0:0:0:
64,192,15490,1,0,0:0:0:0:
192,192,15490,1,0,0:0:0:0:
448,192,15605,128,0,16067:0:0:0:0:
320,192,15605,1,0,0:0:0:0:
64,192,15605,1,0,0:0:0:0:
192,192,15836,1,0,0:0:0:0:
64,192,15951,1,0,0:0:0:0:
320,192,16067,1,0,0:0:0:0:
192,192,16067,1,0,0:0:0:0:
192,192,16298,1,0,0:0:0:0:
64,192,16413,1,0,0:0:0:0:
448,192,16528,1,0,0:0:0:0:
320,192,16528,1,0,0:0:0:0:
192,192,16528,128,0,16990:0:0:0:0:
320,192,16759,1,0,0:0:0:0:
448,192,16874,1,0,0:0:0:0:
320,192,16990,1,0,0:0:0:0:
64,192,16990,1,0,0:0:0:0:
320,192,17221,1,0,0:0:0:0:
448,192,17336,1,0,0:0:0:0:
64,192,17451,1,0,0:0:0:0:
320,192,17451,1,0,0:0:0:0:
192,192,17451,128,0,17913:0:0:0:0:
64,192,17682,1,0,0:0:0:0:
448,192,17798,1,0,0:0:0:0:
320,192,17913,1,0,0:0:0:0:
64,192,17913,1,0,0:0:0:0:
320,192,18144,1,0,0:0:0:0:
192,192,18259,1,0,0:0:0:0:
448,192,18374,1,0,0:0:0:0:
64,192,18374,1,0,0:0:0:0:
320,192,18374,128,0,18836:0:0:0:0:
192,192,18605,1,0,0:0:0:0:
64,192,18721,1,0,0:0:0:0:
192,192,18836,1,0,0:0:0:0:
448,192,18836,1,0,0:0:0:0:
64,192,18951,1,0,0:0:0:0:
192,192,18951,1,0,0:0:0:0:
64,192,19067,1,0,0:0:0:0:
320,192,19067,1,0,0:0:0:0:
448,192,19067,1,0,0:0:0:0:
192,192,19298,1,0,0:0:0:0:
448,192,19298,1,0,0:0:0:0:
320,192,19298,128,0,19413:0:0:0:0:
64,192,19528,1,0,0:0:0:0:
192,192,19528,1,0,0:0:0:0:
448,192,19528,1,0,0:0:0:0:
192,192,19644,1,0,0:0:0:0:
320,192,19644,1,0,0:0:0:0:
448,192,19644,1,0,0:0:0:0:
64,192,19759,128,0,19874:0:0:0:0:
192,192,19759,1,0,0:0:0:0:
320,192,19759,1,0,0:0:0:0:
192,192,19990,1,0,0:0:0:0:
448,192,19990,1,0,0:0:0:0:
320,192,19990,1,0,0:0:0:0:
448,192,20105,1,0,0:0:0:0:
320,192,20221,1,0,0:0:0:0:
192,192,20221,1,0,0:0:0:0:
64,192,20221,128,0,20336:0:0:0:0:
192,192,20451,1,0,0:0:0:0:
448,192,20451,1,0,0:0:0:0:
64,192,20451,1,0,0:0:0:0:
320,192,20567,1,0,0:0:0:0:
448,192,20567,1,0,0:0:0:0:
192,192,20682,1,0,0:0:0:0:
64,192,20682,1,0,0:0:0:0:
448,192,20682,128,0,20798:0:0:0:0:
320,192,20913,1,0,0:0:0:0:
192,192,20913,1,0,0:0:0:0:
64,192,20913,1,0,0:0:0:0:
192,192,21028,1,0,0:0:0:0:
448,192,21144,1,0,0:0:0:0:
64,192,21144,1,0,0:0:0:0:
320,192,21144,128,0,21259:0:0:0:0:
192,192,21374,1,0,0:0:0:0:
320,192,21374,1,0,0:0:0:0:
448,192,21374,1,0,0:0:0:0:
192,192,21490,1,0,0:0:0:0:
64,192,21605,1,0,0:0:0:0:
448,192,21605,128,0,21721:0:0:0:0:
320,192,21605,1,0,0:0:0:0:
320,192,21836,1,0,0:0:0:0:
192,192,21836,1,0,0:0:0:0:
448,192,21836,1,0,0:0:0:0:
192,192,21951,1,0,0:0:0:0:
448,192,22067,1,0,0:0:0:0:
192,192,22067,1,0,0:0:0:0:
320,192,22067,128,0,22182:0:0:0:0:
64,192,22298,1,0,0:0:0:0:
192,192,22298,1,0,0:0:0:0:
448,192,22298,1,0,0:0:0:0:
192,192,22413,1,0,0:0:0:0:
448,192,22528,1,0,0:0:0:0:
64,192,22528,1,0,0:0:0:0:
320,192,22528,128,0,22644:0:0:0:0:
192,192,22759,1,0,0:0:0:0:
320,192,22759,1,0,0:0:0:0:
448,192,22759,1,0,0:0:0:0:
64,192,22990,1,0,0:0:0:0:
192,192,22990,1,0,0:0:0:0:
320,192,22990,128,0,23105:0:0:0:0:
192,192,23221,1,0,0:0:0:0:
320,192,23221,1,0,0:0:0:0:
64,192,23221,1,0,0:0:0:0:
64,192,23336,1,0,0:0:0:0:
192,192,23451,1,0,0:0:0:0:
320,192,23451,1,0,0:0:0:0:
448,192,23451,128,0,23567:0:0:0:0:
192,192,23682,1,0,0:0:0:0:
320,192,23682,1,0,0:0:0:0:
448,192,23682,1,0,0:0:0:0:
192,192,23798,1,0,0:0:0:0:
192,192,23913,1,0,0:0:0:0:
64,192,23913,1,0,0:0:0:0:
320,192,23913,128,0,24028:0:0:0:0:
64,192,24144,1,0,0:0:0:0:
192,192,24144,1,0,0:0:0:0:
448,192,24144,1,0,0:0:0:0:
448,192,24259,1,0,0:0:0:0:
192,192,24259,1,0,0:0:0:0:
320,192,24374,1,0,0:0:0:0:
64,192,24374,1,0,0:0:0:0:
448,192,24374,128,0,24490:0:0:0:0:
192,192,24605,1,0,0:0:0:0:
320,192,24605,1,0,0:0:0:0:
64,192,24605,1,0,0:0:0:0:
192,192,24721,1,0,0:0:0:0:
320,192,24836,1,0,0:0:0:0:
448,192,24836,1,0,0:0:0:0:
64,192,24836,128,0,24951:0:0:0:0:
64,192,25067,1,0,0:0:0:0:
192,192,25067,1,0,0:0:0:0:
448,192,25067,1,0,0:0:0:0:
320,192,25182,1,0,0:0:0:0:
448,192,25182,1,0,0:0:0:0:
64,192,25298,1,0,0:0:0:0:
192,192,25298,1,0,0:0:0:0:
320,192,25298,128,0,25413:0:0:0:0:
192,192,25528,1,0,0:0:0:0:
448,192,25528,1,0,0:0:0:0:
320,192,25528,1,0,0:0:0:0:
192,192,25644,1,0,0:0:0:0:
64,192,25759,1,0,0:0:0:0:
192,192,25759,1,0,0:0:0:0:
320,192,25759,128,0,25874:0:0:0:0:
192,192,25990,1,0,0:0:0:0:
320,192,25990,1,0,0:0:0:0:
448,192,25990,1,0,0:0:0:0:
64,192,26105,1,0,0:0:0:0:
64,192,26221,1,0,0:0:0:0:
192,192,26221,1,0,0:0:0:0:
448,192,26221,128,0,26451:0:0:0:0:
320,192,26451,1,0,0:0:0:0:
192,192,26567,1,0,0:0:0:0:
64,192,26682,1,0,0:0:0:0:
320,192,26682,1,0,0:0:0:0:
448,192,26682,1,0,0:0:0:0:
192,192,26798,1,0,0:0:0:0:
448,192,26913,1,0,0:0:0:0:
64,192,26913,1,0,0:0:0:0:
320,192,27028,1,0,0:0:0:0:
64,192,27144,1,0,0:0:0:0:
448,192,27144,1,0,0:0:0:0:
192,192,27144,1,0,0:0:0:0:
320,192,27259,1,0,0:0:0:0:
192,192,27374,1,0,0:0:0:0:
448,192,27374,1,0,0:0:0:0:
64,192,27490,1,0,0:0:0:0:
320,192,27490,1,0,0:0:0:0:
192,192,27605,1,0,0:0:0:0:
448,192,27605,1,0,0:0:0:0:
320,192,27605,1,0,0:0:0:0:
64,192,27721,1,0,0:0:0:0:
192,192,27836,1,0,0:0:0:0:
448,192,27836,1,0,0:0:0:0:
320,192,27951,1,0,0:0:0:0:
192,192,28067,1,0,0:0:0:0:
64,192,28067,1,0,0:0:0:0:
448,192,28067,1,0,0:0:0:0:
320,192,28182,1,0,0:0:0:0:
192,192,28298,1,0,0:0:0:0:
448,192,28298,1,0,0:0:0:0:
64,192,28413,1,0,0:0:0:0:
320,192,28413,1,0,0:0:0:0:
192,192,28528,1,0,0:0:0:0:
64,192,28528,1,0,0:0:0:0:
448,192,28528,1,0,0:0:0:0:
320,192,28644,1,0,0:0:0:0:
192,192,28759,1,0,0:0:0:0:
448,192,28759,1,0,0:0:0:0:
64,192,28874,1,0,0:0:0:0:
320,192,28874,1,0,0:0:0:0:
192,192,28990,1,0,0:0:0:0:
448,192,28990,1,0,0:0:0:0:
64,192,28990,1,0,0:0:0:0:
320,192,29105,1,0,0:0:0:0:
192,192,29221,1,0,0:0:0:0:
448,192,29221,1,0,0:0:0:0:
320,192,29336,1,0,0:0:0:0:
192,192,29451,1,0,0:0:0:0:
64,192,29451,1,0,0:0:0:0:
448,192,29451,1,0,0:0:0:0:
320,192,29567,1,0,0:0:0:0:
192,192,29682,1,0,0:0:0:0:
64,192,29682,1,0,0:0:0:0:
320,192,29798,1,0,0:0:0:0:
64,192,29913,1,0,0:0:0:0:
448,192,29913,1,0,0:0:0:0:
192,192,29913,1,0,0:0:0:0:
320,192,30028,1,0,0:0:0:0:
64,192,30144,1,0,0:0:0:0:
448,192,30144,1,0,0:0:0:0:
192,192,30259,1,0,0:0:0:0:
320,192,30259,1,0,0:0:0:0:
64,192,30374,1,0,0:0:0:0:
320,192,30374,1,0,0:0:0:0:
448,192,30374,1,0,0:0:0:0:
192,192,30490,1,0,0:0:0:0:
448,192,30490,1,0,0:0:0:0:
320,192,30605,1,0,0:0:0:0:
64,192,30605,1,0,0:0:0:0:
192,192,30721,1,0,0:0:0:0:
64,192,30836,1,0,0:0:0:0:
320,192,30836,1,0,0:0:0:0:
448,192,30836,1,0,0:0:0:0:
192,192,30951,1,0,0:0:0:0:
64,192,31067,1,0,0:0:0:0:
448,192,31067,1,0,0:0:0:0:
320,192,31182,1,0,0:0:0:0:
192,192,31298,1,0,0:0:0:0:
64,192,31298,1,0,0:0:0:0:
448,192,31298,1,0,0:0:0:0:
320,192,31413,1,0,0:0:0:0:
192,192,31528,1,0,0:0:0:0:
64,192,31528,1,0,0:0:0:0:
320,192,31644,1,0,0:0:0:0:
448,192,31759,1,0,0:0:0:0:
192,192,31759,1,0,0:0:0:0:
320,192,31990,1,0,0:0:0:0:
192,192,31990,1,0,0:0:0:0:
64,192,31990,1,0,0:0:0:0:
192,192,32221,1,0,0:0:0:0:
320,192,32221,1,0,0:0:0:0:
448,192,32451,1,0,0:0:0:0:
320,192,32451,1,0,0:0:0:0:
192,192,32682,128,0,33086:0:0:0:0:
320,192,32682,128,0,33086:0:0:0:0:
64,192,33144,1,0,0:0:0:0:
192,192,33144,1,0,0:0:0:0:
320,192,33144,1,0,0:0:0:0:
64,192,33605,128,0,33836:0:0:0:0:
192,192,33605,1,0,0:0:0:0:
448,192,33605,1,0,0:0:0:0:
192,192,33836,1,0,0:0:0:0:
448,192,33836,1,0,0:0:0:0:
320,192,33951,1,0,0:0:0:0:
64,192,33951,1,0,0:0:0:0:
448,192,34067,1,0,0:0:0:0:
192,192,34067,1,0,0:0:0:0:
320,192,34067,1,0,0:0:0:0:
64,192,34182,1,0,0:0:0:0:
448,192,34182,1,0,0:0:0:0:
192,192,34298,1,0,0:0:0:0:
320,192,34298,1,0,0:0:0:0:
64,192,34413,1,0,0:0:0:0:
320,192,34413,1,0,0:0:0:0:
192,192,34528,1,0,0:0:0:0:
448,192,34528,1,0,0:0:0:0:
320,192,34528,1,0,0:0:0:0:
64,192,34644,1,0,0:0:0:0:
192,192,34759,1,0,0:0:0:0:
320,192,34759,1,0,0:0:0:0:
448,192,34874,1,0,0:0:0:0:
64,192,34990,1,0,0:0:0:0:
192,192,34990,1,0,0:0:0:0:
320,192,34990,1,0,0:0:0:0:
448,192,35105,1,0,0:0:0:0:
192,192,35105,1,0,0:0:0:0:
64,192,35221,1,0,0:0:0:0:
320,192,35221,1,0,0:0:0:0:
448,192,35336,1,0,0:0:0:0:
320,192,35451,1,0,0:0:0:0:
192,192,35451,1,0,0:0:0:0:
64,192,35451,1,0,0:0:0:0:
64,192,35567,1,0,0:0:0:0:
320,192,35682,1,0,0:0:0:0:
448,192,35682,1,0,0:0:0:0:
192,192,35682,1,0,0:0:0:0:
320,192,35798,1,0,0:0:0:0:
448,192,35798,1,0,0:0:0:0:
64,192,35798,1,0,0:0:0:0:
320,192,35913,1,0,0:0:0:0:
448,192,35913,1,0,0:0:0:0:
192,192,35913,1,0,0:0:0:0:
320,192,36028,1,0,0:0:0:0:
448,192,36028,1,0,0:0:0:0:
64,192,36028,1,0,0:0:0:0:
64,192,36144,1,0,0:0:0:0:
192,192,36144,1,0,0:0:0:0:
64,192,36259,1,0,0:0:0:0:
192,192,36259,1,0,0:0:0:0:
192,192,36374,1,0,0:0:0:0:
320,192,36374,1,0,0:0:0:0:
448,192,36374,1,0,0:0:0:0:
320,192,36490,1,0,0:0:0:0:
64,192,36605,1,0,0:0:0:0:
448,192,36605,1,0,0:0:0:0:
192,192,36721,1,0,0:0:0:0:
320,192,36721,1,0,0:0:0:0:
320,192,36836,1,0,0:0:0:0:
448,192,36836,1,0,0:0:0:0:
64,192,36836,1,0,0:0:0:0:
192,192,36951,1,0,0:0:0:0:
320,192,37067,1,0,0:0:0:0:
448,192,37067,1,0,0:0:0:0:
192,192,37182,1,0,0:0:0:0:
64,192,37298,1,0,0:0:0:0:
320,192,37298,1,0,0:0:0:0:
448,192,37298,1,0,0:0:0:0:
192,192,37413,1,0,0:0:0:0:
64,192,37528,1,0,0:0:0:0:
448,192,37528,1,0,0:0:0:0:
320,192,37644,1,0,0:0:0:0:
192,192,37644,1,0,0:0:0:0:
64,192,37759,1,0,0:0:0:0:
320,192,37759,1,0,0:0:0:0:
448,192,37759,1,0,0:0:0:0:
192,192,37874,1,0,0:0:0:0:
448,192,37874,1,0,0:0:0:0:
64,192,37990,1,0,0:0:0:0:
320,192,37990,1,0,0:0:0:0:
192,192,38105,1,0,0:0:0:0:
320,192,38105,1,0,0:0:0:0:
64,192,38221,1,0,0:0:0:0:
192,192,38221,1,0,0:0:0:0:
448,192,38221,1,0,0:0:0:0:
320,192,38336,1,0,0:0:0:0:
192,192,38451,1,0,0:0:0:0:
64,192,38451,1,0,0:0:0:0:
320,192,38567,1,0,0:0:0:0:
448,192,38567,1,0,0:0:0:0:
64,192,38682,1,0,0:0:0:0:
192,192,38682,1,0,0:0:0:0:
448,192,38682,1,0,0:0:0:0:
320,192,38798,1,0,0:0:0:0:
192,192,38913,1,0,0:0:0:0:
448,192,38913,1,0,0:0:0:0:
320,192,39028,1,0,0:0:0:0:
64,192,39028,1,0,0:0:0:0:
192,192,39144,1,0,0:0:0:0:
320,192,39144,1,0,0:0:0:0:
448,192,39144,1,0,0:0:0:0:
64,192,39374,1,0,0:0:0:0:
192,192,39374,1,0,0:0:0:0:
192,192,39605,1,0,0:0:0:0:
320,192,39605,1,0,0:0:0:0:
448,192,39605,1,0,0:0:0:0:
192,192,39836,1,0,0:0:0:0:
64,192,39836,1,0,0:0:0:0:
320,192,40067,1,0,0:0:0:0:
448,192,40067,1,0,0:0:0:0:
64,192,40067,1,0,0:0:0:0:
320,192,40182,1,0,0:0:0:0:
448,192,40182,1,0,0:0:0:0:
320,192,40298,1,0,0:0:0:0:
448,192,40298,1,0,0:0:0:0:
192,192,40298,1,0,0:0:0:0:
320,192,40413,1,0,0:0:0:0:
448,192,40413,1,0,0:0:0:0:
320,192,40528,1,0,0:0:0:0:
448,192,40528,1,0,0:0:0:0:
64,192,40528,1,0,0:0:0:0:
320,192,40644,1,0,0:0:0:0:
448,192,40644,1,0,0:0:0:0:
192,192,40759,1,0,0:0:0:0:
320,192,40759,1,0,0:0:0:0:
448,192,40759,1,0,0:0:0:0:
192,192,40874,1,0,0:0:0:0:
320,192,40874,1,0,0:0:0:0:
192,192,40990,1,0,0:0:0:0:
320,192,40990,1,0,0:0:0:0:
64,192,40990,1,0,0:0:0:0:
448,192,40990,128,0,41048:0:0:0:0:
64,192,41105,1,0,0:0:0:0:
448,192,41221,1,0,0:0:0:0:
320,192,41221,128,0,41278:0:0:0:0:
448,192,41336,1,0,0:0:0:0:
64,192,41336,1,0,0:0:0:0:
192,192,41451,1,0,0:0:0:0:
320,192,41451,1,0,0:0:0:0:
64,192,41451,1,0,0:0:0:0:
320,192,41567,1,0,0:0:0:0:
448,192,41567,1,0,0:0:0:0:
192,192,41682,1,0,0:0:0:0:
64,192,41682,128,0,41740:0:0:0:0:
192,192,41798,1,0,0:0:0:0:
448,192,41913,1,0,0:0:0:0:
64,192,41913,1,0,0:0:0:0:
320,192,41913,128,0,41971:0:0:0:0:
64,192,42028,1,0,0:0:0:0:
192,192,42028,1,0,0:0:0:0:
192,192,42144,1,0,0:0:0:0:
448,192,42144,1,0,0:0:0:0:
320,192,42259,1,0,0:0:0:0:
64,192,42259,1,0,0:0:0:0:
192,192,42374,1,0,0:0:0:0:
64,192,42374,1,0,0:0:0:0:
448,192,42374,1,0,0:0:0:0:
320,192,42490,1,0,0:0:0:0:
448,192,42490,1,0,0:0:0:0:
64,192,42605,1,0,0:0:0:0:
320,192,42605,1,0,0:0:0:0:
192,192,42721,1,0,0:0:0:0:
448,192,42721,1,0,0:0:0:0:
320,192,42836,1,0,0:0:0:0:
192,192,42836,1,0,0:0:0:0:
64,192,42836,1,0,0:0:0:0:
448,192,42894,1,0,0:0:0:0:
320,192,42951,1,0,0:0:0:0:
192,192,43009,1,0,0:0:0:0:
64,192,43067,1,0,0:0:0:0:
320,192,43067,1,0,0:0:0:0:
448,192,43067,1,0,0:0:0:0:
192,192,43182,1,0,0:0:0:0:
448,192,43182,1,0,0:0:0:0:
320,192,43298,1,0,0:0:0:0:
192,192,43298,1,0,0:0:0:0:
64,192,43298,1,0,0:0:0:0:
320,192,43413,1,0,0:0:0:0:
448,192,43413,1,0,0:0:0:0:
64,192,43528,1,0,0:0:0:0:
192,192,43528,1,0,0:0:0:0:
64,192,43644,1,0,0:0:0:0:
320,192,43644,1,0,0:0:0:0:
192,192,43759,1,0,0:0:0:0:
320,192,43759,1,0,0:0:0:0:
448,192,43759,1,0,0:0:0:0:
192,192,43874,1,0,0:0:0:0:
448,192,43874,1,0,0:0:0:0:
320,192,43990,1,0,0:0:0:0:
64,192,43990,1,0,0:0:0:0:
320,192,44105,1,0,0:0:0:0:
192,192,44105,1,0,0:0:0:0:
64,192,44221,1,0,0:0:0:0:
192,192,44221,1,0,0:0:0:0:
448,192,44221,1,0,0:0:0:0:
320,192,44336,1,0,0:0:0:0:
448,192,44336,1,0,0:0:0:0:
448,192,44451,1,0,0:0:0:0:
64,192,44451,1,0,0:0:0:0:
448,192,44567,1,0,0:0:0:0:
320,192,44567,1,0,0:0:0:0:
448,192,44682,1,0,0:0:0:0:
192,192,44682,1,0,0:0:0:0:
64,192,44682,128,0,44740:0:0:0:0:
320,192,44913,128,0,44971:0:0:0:0:
448,192,44913,1,0,0:0:0:0:
192,192,44913,1,0,0:0:0:0:
64,192,45144,1,0,0:0:0:0:
192,192,45144,1,0,0:0:0:0:
192,192,45374,128,0,45432:0:0:0:0:
320,192,45374,1,0,0:0:0:0:
448,192,45374,1,0,0:0:0:0:
64,192,45605,1,0,0:0:0:0:
192,192,45605,1,0,0:0:0:0:
448,192,45605,128,0,45663:0:0:0:0:
320,192,45836,1,0,0:0:0:0:
192,192,45836,1,0,0:0:0:0:
320,192,45951,1,0,0:0:0:0:
64,192,46067,1,0,0:0:0:0:
192,192,46067,1,0,0:0:0:0:
320,192,46298,1,0,0:0:0:0:
448,192,46298,1,0,0:0:0:0:
320,192,46528,128,0,46730:0:0:0:0:
192,192,46528,128,0,47249:0:0:0:0:
448,192,46528,128,0,47682:0:0:0:0:
64,192,46528,128,0,46961:0:0:0:0:
320,192,46759,128,0,47682:0:0:0:0:
64,192,46990,128,0,47682:0:0:0:0:
192,192,47278,128,0,47682:0:0:0:0:
448,192,47798,1,0,0:0:0:0:
64,192,47798,1,0,0:0:0:0:
320,192,47913,1,0,0:0:0:0:
192,192,47913,1,0,0:0:0:0:
192,192,48028,1,0,0:0:0:0:
64,192,48144,1,0,0:0:0:0:
320,192,48144,1,0,0:0:0:0:
320,192,48259,1,0,0:0:0:0:
448,192,48259,1,0,0:0:0:0:
192,192,48374,1,0,0:0:0:0:
320,192,48374,1,0,0:0:0:0:
64,192,48374,1,0,0:0:0:0:
448,192,48374,1,0,0:0:0:0:
64,192,48490,1,0,0:0:0:0:
192,192,48490,1,0,0:0:0:0:
64,192,48605,1,0,0:0:0:0:
192,192,48605,1,0,0:0:0:0:
448,192,48605,1,0,0:0:0:0:
320,192,48721,1,0,0:0:0:0:
448,192,48721,1,0,0:0:0:0:
320,192,48836,1,0,0:0:0:0:
192,192,48836,1,0,0:0:0:0:
64,192,48836,1,0,0:0:0:0:
448,192,48836,1,0,0:0:0:0:
64,192,48951,1,0,0:0:0:0:
320,192,48951,1,0,0:0:0:0:
192,192,49067,1,0,0:0:0:0:
320,192,49067,1,0,0:0:0:0:
448,192,49067,1,0,0:0:0:0:
192,192,49182,1,0,0:0:0:0:
448,192,49182,1,0,0:0:0:0:
320,192,49298,1,0,0:0:0:0:
448,192,49298,1,0,0:0:0:0:
64,192,49298,1,0,0:0:0:0:
320,192,49413,1,0,0:0:0:0:
448,192,49413,1,0,0:0:0:0:
320,192,49528,1,0,0:0:0:0:
448,192,49528,1,0,0:0:0:0:
64,192,49528,1,0,0:0:0:0:
192,192,49528,1,0,0:0:0:0:
64,192,49644,1,0,0:0:0:0:
192,192,49644,1,0,0:0:0:0:
64,192,49759,1,0,0:0:0:0:
320,192,49759,1,0,0:0:0:0:
448,192,49759,1,0,0:0:0:0:
64,192,49874,1,0,0:0:0:0:
192,192,49874,1,0,0:0:0:0:
320,192,49990,1,0,0:0:0:0:
448,192,49990,1,0,0:0:0:0:
64,192,49990,1,0,0:0:0:0:
64,192,50105,1,0,0:0:0:0:
192,192,50105,1,0,0:0:0:0:
448,192,50105,1,0,0:0:0:0:
320,192,50221,1,0,0:0:0:0:
448,192,50221,1,0,0:0:0:0:
192,192,50221,1,0,0:0:0:0:
64,192,50221,1,0,0:0:0:0:
448,192,50278,1,0,0:0:0:0:
320,192,50336,1,0,0:0:0:0:
192,192,50394,1,0,0:0:0:0:
64,192,50451,1,0,0:0:0:0:
448,192,50451,1,0,0:0:0:0:
192,192,50509,1,0,0:0:0:0:
320,192,50567,1,0,0:0:0:0:
448,192,50624,1,0,0:0:0:0:
320,192,50682,1,0,0:0:0:0:
192,192,50682,1,0,0:0:0:0:
64,192,50682,1,0,0:0:0:0:
448,192,50740,1,0,0:0:0:0:
320,192,50798,1,0,0:0:0:0:
192,192,50855,1,0,0:0:0:0:
64,192,50913,1,0,0:0:0:0:
448,192,50913,1,0,0:0:0:0:
192,192,50971,1,0,0:0:0:0:
320,192,51028,1,0,0:0:0:0:
448,192,51086,1,0,0:0:0:0:
320,192,51144,1,0,0:0:0:0:
192,192,51144,1,0,0:0:0:0:
64,192,51144,1,0,0:0:0:0:
64,192,51259,1,0,0:0:0:0:
320,192,51374,1,0,0:0:0:0:
448,192,51374,1,0,0:0:0:0:
320,192,51490,1,0,0:0:0:0:
448,192,51490,1,0,0:0:0:0:
192,192,51605,1,0,0:0:0:0:
64,192,51605,1,0,0:0:0:0:
448,192,51605,1,0,0:0:0:0:
320,192,51721,1,0,0:0:0:0:
448,192,51721,1,0,0:0:0:0:
320,192,51836,1,0,0:0:0:0:
192,192,51836,1,0,0:0:0:0:
64,192,51836,1,0,0:0:0:0:
320,192,51951,1,0,0:0:0:0:
448,192,51951,1,0,0:0:0:0:
192,192,52067,1,0,0:0:0:0:
64,192,52067,1,0,0:0:0:0:
448,192,52067,1,0,0:0:0:0:
320,192,52067,1,0,0:0:0:0:
64,192,52124,1,0,0:0:0:0:
192,192,52182,1,0,0:0:0:0:
320,192,52240,1,0,0:0:0:0:
448,192,52298,1,0,0:0:0:0:
64,192,52298,1,0,0:0:0:0:
320,192,52355,1,0,0:0:0:0:
192,192,52413,1,0,0:0:0:0:
64,192,52471,1,0,0:0:0:0:
192,192,52528,1,0,0:0:0:0:
320,192,52528,1,0,0:0:0:0:
448,192,52528,1,0,0:0:0:0:
64,192,52586,1,0,0:0:0:0:
192,192,52644,1,0,0:0:0:0:
320,192,52701,1,0,0:0:0:0:
448,192,52759,1,0,0:0:0:0:
64,192,52759,1,0,0:0:0:0:
320,192,52817,1,0,0:0:0:0:
192,192,52874,1,0,0:0:0:0:
64,192,52932,1,0,0:0:0:0:
192,192,52990,1,0,0:0:0:0:
320,192,52990,1,0,0:0:0:0:
448,192,52990,1,0,0:0:0:0:
448,192,53105,1,0,0:0:0:0:
64,192,53105,1,0,0:0:0:0:
192,192,53221,1,0,0:0:0:0:
320,192,53221,1,0,0:0:0:0:
64,192,53336,1,0,0:0:0:0:
320,192,53336,1,0,0:0:0:0:
192,192,53451,1,0,0:0:0:0:
320,192,53451,1,0,0:0:0:0:
64,192,53451,1,0,0:0:0:0:
448,192,53451,1,0,0:0:0:0:
192,192,53567,1,0,0:0:0:0:
320,192,53567,1,0,0:0:0:0:
320,192,53682,1,0,0:0:0:0:
448,192,53682,1,0,0:0:0:0:
64,192,53682,1,0,0:0:0:0:
64,192,53798,1,0,0:0:0:0:
192,192,53798,1,0,0:0:0:0:
192,192,53913,1,0,0:0:0:0:
448,192,53913,1,0,0:0:0:0:
320,192,54028,1,0,0:0:0:0:
448,192,54028,1,0,0:0:0:0:
192,192,54144,1,0,0:0:0:0:
320,192,54144,1,0,0:0:0:0:
192,192,54259,1,0,0:0:0:0:
64,192,54259,1,0,0:0:0:0:
448,192,54374,1,0,0:0:0:0:
320,192,54374,1,0,0:0:0:0:
64,192,54490,1,0,0:0:0:0:
320,192,54490,1,0,0:0:0:0:
192,192,54605,1,0,0:0:0:0:
64,192,54605,1,0,0:0:0:0:
192,192,54721,1,0,0:0:0:0:
448,192,54721,1,0,0:0:0:0:
320,192,54836,1,0,0:0:0:0:
448,192,54836,1,0,0:0:0:0:
64,192,54836,1,0,0:0:0:0:
192,192,54836,1,0,0:0:0:0:
192,192,54951,1,0,0:0:0:0:
448,192,54951,1,0,0:0:0:0:
64,192,55067,1,0,0:0:0:0:
320,192,55067,1,0,0:0:0:0:
192,192,55067,1,0,0:0:0:0:
64,192,55182,1,0,0:0:0:0:
448,192,55182,1,0,0:0:0:0:
64,192,55298,1,0,0:0:0:0:
320,192,55298,1,0,0:0:0:0:
192,192,55298,1,0,0:0:0:0:
64,192,55413,1,0,0:0:0:0:
192,192,55413,1,0,0:0:0:0:
64,192,55528,1,0,0:0:0:0:
320,192,55528,1,0,0:0:0:0:
64,192,55644,1,0,0:0:0:0:
192,192,55644,1,0,0:0:0:0:
192,192,55759,1,0,0:0:0:0:
320,192,55759,1,0,0:0:0:0:
448,192,55759,1,0,0:0:0:0:
64,192,55759,1,0,0:0:0:0:
320,192,55990,1,0,0:0:0:0:
448,192,55990,1,0,0:0:0:0:
64,192,56221,1,0,0:0:0:0:
192,192,56221,1,0,0:0:0:0:
320,192,56221,1,0,0:0:0:0:
448,192,56221,1,0,0:0:0:0:
64,192,56451,1,0,0:0:0:0:
192,192,56451,1,0,0:0:0:0:
64,192,56596,1,0,0:0:0:0:
192,192,56596,1,0,0:0:0:0:
192,192,56682,1,0,0:0:0:0:
64,192,56682,1,0,0:0:0:0:
448,192,56682,1,0,0:0:0:0:
320,192,56682,1,0,0:0:0:0:
320,192,56913,1,0,0:0:0:0:
448,192,56913,1,0,0:0:0:0:
320,192,57028,1,0,0:0:0:0:
448,192,57028,1,0,0:0:0:0:
320,192,57144,1,0,0:0:0:0:
448,192,57144,1,0,0:0:0:0:
192,192,57144,1,0,0:0:0:0:
64,192,57144,1,0,0:0:0:0:
320,192,57259,1,0,0:0:0:0:
448,192,57259,1,0,0:0:0:0:
320,192,57374,1,0,0:0:0:0:
448,192,57374,1,0,0:0:0:0:
64,192,57374,1,0,0:0:0:0:
320,192,57490,1,0,0:0:0:0:
448,192,57490,1,0,0:0:0:0:
192,192,57605,1,0,0:0:0:0:
64,192,57605,1,0,0:0:0:0:
320,192,57605,1,0,0:0:0:0:
448,192,57605,1,0,0:0:0:0:
192,192,57836,1,0,0:0:0:0:
320,192,57836,1,0,0:0:0:0:
64,192,58067,1,0,0:0:0:0:
192,192,58067,1,0,0:0:0:0:
448,192,58067,1,0,0:0:0:0:
320,192,58067,1,0,0:0:0:0:
192,192,58298,1,0,0:0:0:0:
448,192,58298,1,0,0:0:0:0:
192,192,58528,1,0,0:0:0:0:
448,192,58528,1,0,0:0:0:0:
320,192,58528,1,0,0:0:0:0:
64,192,58528,1,0,0:0:0:0:
64,192,58759,1,0,0:0:0:0:
320,192,58759,1,0,0:0:0:0:
192,192,58759,1,0,0:0:0:0:
64,192,58874,1,0,0:0:0:0:
448,192,58874,1,0,0:0:0:0:
64,192,58990,1,0,0:0:0:0:
192,192,58990,1,0,0:0:0:0:
320,192,58990,1,0,0:0:0:0:
448,192,58990,1,0,0:0:0:0:
64,192,59105,1,0,0:0:0:0:
192,192,59105,1,0,0:0:0:0:
64,192,59221,1,0,0:0:0:0:
320,192,59221,1,0,0:0:0:0:
192,192,59221,1,0,0:0:0:0:
64,192,59336,1,0,0:0:0:0:
320,192,59336,1,0,0:0:0:0:
64,192,59451,1,0,0:0:0:0:
192,192,59451,1,0,0:0:0:0:
320,192,59451,1,0,0:0:0:0:
448,192,59451,1,0,0:0:0:0:
320,192,59682,1,0,0:0:0:0:
448,192,59682,1,0,0:0:0:0:
192,192,59913,1,0,0:0:0:0:
320,192,59913,1,0,0:0:0:0:
448,192,59913,1,0,0:0:0:0:
64,192,59913,1,0,0:0:0:0:
64,192,60144,1,0,0:0:0:0:
320,192,60144,1,0,0:0:0:0:
64,192,60374,1,0,0:0:0:0:
192,192,60374,1,0,0:0:0:0:
320,192,60374,1,0,0:0:0:0:
448,192,60374,1,0,0:0:0:0:
448,192,60605,1,0,0:0:0:0:
192,192,60605,1,0,0:0:0:0:
64,192,60605,1,0,0:0:0:0:
448,192,60721,1,0,0:0:0:0:
192,192,60721,1,0,0:0:0:0:
448,192,60836,1,0,0:0:0:0:
320,192,60836,1,0,0:0:0:0:
192,192,60836,1,0,0:0:0:0:
64,192,60836,1,0,0:0:0:0:
448,192,60951,1,0,0:0:0:0:
320,192,60951,1,0,0:0:0:0:
448,192,61067,1,0,0:0:0:0:
320,192,61067,1,0,0:0:0:0:
64,192,61067,1,0,0:0:0:0:
192,192,61182,1,0,0:0:0:0:
448,192,61182,1,0,0:0:0:0:
448,192,61298,1,0,0:0:0:0:
320,192,61298,1,0,0:0:0:0:
192,192,61298,1,0,0:0:0:0:
64,192,61298,1,0,0:0:0:0:
64,192,61528,1,0,0:0:0:0:
192,192,61528,1,0,0:0:0:0:
320,192,61759,1,0,0:0:0:0:
448,192,61759,1,0,0:0:0:0:
192,192,61759,1,0,0:0:0:0:
64,192,61759,1,0,0:0:0:0:
192,192,61990,1,0,0:0:0:0:
448,192,61990,1,0,0:0:0:0:
320,192,62221,1,0,0:0:0:0:
448,192,62221,1,0,0:0:0:0:
192,192,62221,1,0,0:0:0:0:
64,192,62221,1,0,0:0:0:0:
64,192,62451,1,0,0:0:0:0:
192,192,62451,1,0,0:0:0:0:
64,192,62682,1,0,0:0:0:0:
192,192,62682,1,0,0:0:0:0:
320,192,62682,1,0,0:0:0:0:
448,192,62682,1,0,0:0:0:0:
448,192,62913,1,0,0:0:0:0:
320,192,62913,1,0,0:0:0:0:
448,192,63144,1,0,0:0:0:0:
320,192,63144,1,0,0:0:0:0:
192,192,63144,1,0,0:0:0:0:
64,192,63144,1,0,0:0:0:0:
192,192,63374,1,0,0:0:0:0:
448,192,63374,1,0,0:0:0:0:
320,192,63490,1,0,0:0:0:0:
192,192,63605,1,0,0:0:0:0:
64,192,63605,1,0,0:0:0:0:
448,192,63605,128,0,64067:0:0:0:0:
64,192,63836,1,0,0:0:0:0:
320,192,63951,1,0,0:0:0:0:
192,192,64067,1,0,0:0:0:0:
64,192,64067,1,0,0:0:0:0:
192,192,64298,1,0,0:0:0:0:
448,192,64413,1,0,0:0:0:0:
64,192,64528,1,0,0:0:0:0:
320,192,64528,1,0,0:0:0:0:
192,192,64528,128,0,64990:0:0:0:0:
320,192,64759,1,0,0:0:0:0:
448,192,64874,1,0,0:0:0:0:
320,192,64990,1,0,0:0:0:0:
64,192,64990,1,0,0:0:0:0:
320,192,65221,1,0,0:0:0:0:
64,192,65336,1,0,0:0:0:0:
448,192,65451,128,0,65913:0:0:0:0:
192,192,65451,1,0,0:0:0:0:
320,192,65451,1,0,0:0:0:0:
64,192,65682,1,0,0:0:0:0:
320,192,65798,1,0,0:0:0:0:
192,192,65913,1,0,0:0:0:0:
64,192,65913,1,0,0:0:0:0:
64,192,66144,1,0,0:0:0:0:
192,192,66259,1,0,0:0:0:0:
448,192,66374,1,0,0:0:0:0:
64,192,66374,1,0,0:0:0:0:
320,192,66374,128,0,66836:0:0:0:0:
192,192,66605,1,0,0:0:0:0:
64,192,66721,1,0,0:0:0:0:
192,192,66836,1,0,0:0:0:0:
448,192,66836,1,0,0:0:0:0:
192,192,67067,1,0,0:0:0:0:
320,192,67182,1,0,0:0:0:0:
320,192,67528,1,0,0:0:0:0:
192,192,67644,1,0,0:0:0:0:
320,192,67990,1,0,0:0:0:0:
448,192,68105,1,0,0:0:0:0:
448,192,68451,1,0,0:0:0:0:
320,192,68567,1,0,0:0:0:0:
64,192,68567,128,0,69028:0:0:0:0:
192,192,68913,1,0,0:0:0:0:
320,192,69028,1,0,0:0:0:0:
448,192,69259,128,0,69490:0:0:0:0:
64,192,69605,128,0,69721:0:0:0:0:
192,192,69721,128,0,69836:0:0:0:0:
64,192,69836,128,0,69913:0:0:0:0:
192,192,69913,128,0,69990:0:0:0:0:
320,192,69990,128,0,70067:0:0:0:0:
448,192,70067,128,0,70144:0:0:0:0:
64,192,70144,128,0,70221:0:0:0:0:
192,192,70221,128,0,70298:0:0:0:0:
320,192,70298,128,0,70374:0:0:0:0:
448,192,70374,128,0,70451:0:0:0:0:
64,192,70451,128,0,70528:0:0:0:0:
192,192,70528,1,0,0:0:0:0:
320,192,70528,1,0,0:0:0:0:
320,192,70759,1,0,0:0:0:0:
448,192,70759,1,0,0:0:0:0:
192,192,70759,1,0,0:0:0:0:
448,192,70874,1,0,0:0:0:0:
64,192,70874,1,0,0:0:0:0:
320,192,70990,1,0,0:0:0:0:
64,192,70990,1,0,0:0:0:0:
192,192,70990,1,0,0:0:0:0:
192,192,71105,1,0,0:0:0:0:
320,192,71221,1,0,0:0:0:0:
448,192,71221,1,0,0:0:0:0:
64,192,71336,1,0,0:0:0:0:
320,192,71336,1,0,0:0:0:0:
192,192,71451,1,0,0:0:0:0:
448,192,71451,1,0,0:0:0:0:
64,192,71451,1,0,0:0:0:0:
320,192,71567,1,0,0:0:0:0:
64,192,71682,1,0,0:0:0:0:
448,192,71682,1,0,0:0:0:0:
320,192,71798,1,0,0:0:0:0:
192,192,71913,1,0,0:0:0:0:
64,192,71913,1,0,0:0:0:0:
448,192,71913,1,0,0:0:0:0:
64,192,72028,1,0,0:0:0:0:
320,192,72028,1,0,0:0:0:0:
192,192,72144,1,0,0:0:0:0:
448,192,72144,1,0,0:0:0:0:
320,192,72259,1,0,0:0:0:0:
192,192,72374,1,0,0:0:0:0:
64,192,72374,1,0,0:0:0:0:
448,192,72374,1,0,0:0:0:0:
320,192,72490,1,0,0:0:0:0:
448,192,72490,1,0,0:0:0:0:
192,192,72605,1,0,0:0:0:0:
64,192,72605,1,0,0:0:0:0:
192,192,72721,1,0,0:0:0:0:
320,192,72836,1,0,0:0:0:0:
448,192,72836,1,0,0:0:0:0:
64,192,72836,1,0,0:0:0:0:
192,192,72951,1,0,0:0:0:0:
448,192,72951,1,0,0:0:0:0:
320,192,73067,1,0,0:0:0:0:
64,192,73182,1,0,0:0:0:0:
192,192,73182,1,0,0:0:0:0:
320,192,73298,1,0,0:0:0:0:
448,192,73298,1,0,0:0:0:0:
64,192,73298,1,0,0:0:0:0:
192,192,73413,1,0,0:0:0:0:
320,192,73528,1,0,0:0:0:0:
448,192,73528,1,0,0:0:0:0:
64,192,73644,1,0,0:0:0:0:
448,192,73644,1,0,0:0:0:0:
192,192,73759,1,0,0:0:0:0:
320,192,73759,1,0,0:0:0:0:
64,192,73759,1,0,0:0:0:0:
448,192,73874,1,0,0:0:0:0:
320,192,73990,1,0,0:0:0:0:
64,192,73990,1,0,0:0:0:0:
192,192,74105,1,0,0:0:0:0:
448,192,74105,1,0,0:0:0:0:
320,192,74221,1,0,0:0:0:0:
192,192,74221,1,0,0:0:0:0:
64,192,74221,1,0,0:0:0:0:
448,192,74336,1,0,0:0:0:0:
64,192,74451,1,0,0:0:0:0:
320,192,74451,1,0,0:0:0:0:
192,192,74567,1,0,0:0:0:0:
448,192,74567,1,0,0:0:0:0:
320,192,74682,1,0,0:0:0:0:
192,192,74682,1,0,0:0:0:0:
448,192,74682,1,0,0:0:0:0:
64,192,74798,1,0,0:0:0:0:
192,192,74913,1,0,0:0:0:0:
320,192,74913,1,0,0:0:0:0:
64,192,75028,1,0,0:0:0:0:
192,192,75144,1,0,0:0:0:0:
320,192,75144,1,0,0:0:0:0:
448,192,75144,1,0,0:0:0:0:
64,192,75259,1,0,0:0:0:0:
448,192,75259,1,0,0:0:0:0:
192,192,75374,1,0,0:0:0:0:
320,192,75374,1,0,0:0:0:0:
448,192,75490,1,0,0:0:0:0:
64,192,75490,1,0,0:0:0:0:
320,192,75605,1,0,0:0:0:0:
192,192,75605,1,0,0:0:0:0:
64,192,75605,1,0,0:0:0:0:
448,192,75721,1,0,0:0:0:0:
64,192,75836,1,0,0:0:0:0:
320,192,75836,1,0,0:0:0:0:
192,192,75951,1,0,0:0:0:0:
320,192,76067,1,0,0:0:0:0:
448,192,76067,1,0,0:0:0:0:
64,192,76067,1,0,0:0:0:0:
64,192,76298,1,0,0:0:0:0:
192,192,76298,1,0,0:0:0:0:
192,192,76528,1,0,0:0:0:0:
320,192,76528,1,0,0:0:0:0:
320,192,76759,1,0,0:0:0:0:
448,192,76759,1,0,0:0:0:0:
192,192,76990,1,0,0:0:0:0:
64,192,76990,1,0,0:0:0:0:
192,192,77221,1,0,0:0:0:0:
192,192,77451,1,0,0:0:0:0:
64,192,77451,1,0,0:0:0:0:
320,192,77682,1,0,0:0:0:0:
320,192,77798,1,0,0:0:0:0:
320,192,77913,1,0,0:0:0:0:
192,192,77913,1,0,0:0:0:0:
64,192,77913,1,0,0:0:0:0:
192,192,78144,1,0,0:0:0:0:
320,192,78144,1,0,0:0:0:0:
448,192,78144,1,0,0:0:0:0:
64,192,78374,1,0,0:0:0:0:
192,192,78374,1,0,0:0:0:0:
448,192,78374,1,0,0:0:0:0:
192,192,78605,1,0,0:0:0:0:
320,192,78605,1,0,0:0:0:0:
448,192,78605,1,0,0:0:0:0:
64,192,78836,1,0,0:0:0:0:
192,192,78836,1,0,0:0:0:0:
320,192,78836,1,0,0:0:0:0:
192,192,79067,1,0,0:0:0:0:
448,192,79067,1,0,0:0:0:0:
448,192,79182,1,0,0:0:0:0:
192,192,79182,1,0,0:0:0:0:
448,192,79298,1,0,0:0:0:0:
320,192,79298,1,0,0:0:0:0:
448,192,79413,1,0,0:0:0:0:
320,192,79413,1,0,0:0:0:0:
192,192,79528,1,0,0:0:0:0:
320,192,79528,1,0,0:0:0:0:
320,192,79644,1,0,0:0:0:0:
448,192,79644,1,0,0:0:0:0:
320,192,79759,1,0,0:0:0:0:
192,192,79759,1,0,0:0:0:0:
64,192,79759,1,0,0:0:0:0:
320,192,79990,1,0,0:0:0:0:
192,192,79990,1,0,0:0:0:0:
448,192,79990,1,0,0:0:0:0:
448,192,80221,1,0,0:0:0:0:
320,192,80221,1,0,0:0:0:0:
64,192,80221,1,0,0:0:0:0:
64,192,80336,1,0,0:0:0:0:
320,192,80336,1,0,0:0:0:0:
64,192,80451,1,0,0:0:0:0:
192,192,80451,1,0,0:0:0:0:
448,192,80451,1,0,0:0:0:0:
320,192,80567,1,0,0:0:0:0:
320,192,80682,1,0,0:0:0:0:
448,192,80682,1,0,0:0:0:0:
192,192,80682,1,0,0:0:0:0:
192,192,80798,1,0,0:0:0:0:
64,192,80798,1,0,0:0:0:0:
64,192,80913,1,0,0:0:0:0:
448,192,80913,1,0,0:0:0:0:
320,192,80913,1,0,0:0:0:0:
64,192,81028,1,0,0:0:0:0:
64,192,81144,1,0,0:0:0:0:
192,192,81144,1,0,0:0:0:0:
320,192,81144,1,0,0:0:0:0:
192,192,81374,1,0,0:0:0:0:
320,192,81374,1,0,0:0:0:0:
448,192,81374,1,0,0:0:0:0:
448,192,81605,1,0,0:0:0:0:
320,192,81605,1,0,0:0:0:0:
64,192,81605,1,0,0:0:0:0:
64,192,81836,1,0,0:0:0:0:
192,192,81836,1,0,0:0:0:0:
320,192,81836,1,0,0:0:0:0:
64,192,82067,1,0,0:0:0:0:
192,192,82067,1,0,0:0:0:0:
448,192,82067,1,0,0:0:0:0:
448,192,82298,1,0,0:0:0:0:
320,192,82298,1,0,0:0:0:0:
192,192,82298,1,0,0:0:0:0:
192,192,82413,1,0,0:0:0:0:
448,192,82413,1,0,0:0:0:0:
320,192,82528,1,0,0:0:0:0:
448,192,82528,1,0,0:0:0:0:
192,192,82528,1,0,0:0:0:0:
64,192,82759,1,0,0:0:0:0:
192,192,82759,1,0,0:0:0:0:
320,192,82759,1,0,0:0:0:0:
192,192,82990,1,0,0:0:0:0:
320,192,82990,1,0,0:0:0:0:
448,192,82990,1,0,0:0:0:0:
448,192,83221,1,0,0:0:0:0:
320,192,83221,1,0,0:0:0:0:
64,192,83221,1,0,0:0:0:0:
64,192,83451,1,0,0:0:0:0:
192,192,83451,1,0,0:0:0:0:
448,192,83451,1,0,0:0:0:0:
192,192,83682,1,0,0:0:0:0:
320,192,83682,1,0,0:0:0:0:
448,192,83682,1,0,0:0:0:0:
448,192,83913,1,0,0:0:0:0:
320,192,83913,1,0,0:0:0:0:
64,192,83913,1,0,0:0:0:0:
64,192,84028,1,0,0:0:0:0:
320,192,84028,1,0,0:0:0:0:
448,192,84028,1,0,0:0:0:0:
64,192,84144,1,0,0:0:0:0:
192,192,84144,1,0,0:0:0:0:
448,192,84144,1,0,0:0:0:0:
320,192,84259,1,0,0:0:0:0:
64,192,84374,1,0,0:0:0:0:
192,192,84374,1,0,0:0:0:0:
320,192,84374,1,0,0:0:0:0:
64,192,84490,1,0,0:0:0:0:
448,192,84490,1,0,0:0:0:0:
64,192,84605,1,0,0:0:0:0:
320,192,84605,1,0,0:0:0:0:
64,192,84721,1,0,0:0:0:0:
192,192,84721,1,0,0:0:0:0:
64,192,84836,1,0,0:0:0:0:
192,192,84836,1,0,0:0:0:0:
320,192,84836,1,0,0:0:0:0:
448,192,84836,1,0,0:0:0:0:
448,192,84951,1,0,0:0:0:0:
320,192,84951,1,0,0:0:0:0:
448,192,85067,1,0,0:0:0:0:
192,192,85067,1,0,0:0:0:0:
448,192,85182,1,0,0:0:0:0:
64,192,85182,1,0,0:0:0:0:
448,192,85298,1,0,0:0:0:0:
192,192,85298,1,0,0:0:0:0:
64,192,85298,1,0,0:0:0:0:
320,192,85298,128,0,85355:0:0:0:0:
64,192,85528,128,0,85586:0:0:0:0:
192,192,85528,1,0,0:0:0:0:
448,192,85528,1,0,0:0:0:0:
320,192,85644,1,0,0:0:0:0:
320,192,85759,1,0,0:0:0:0:
448,192,85759,1,0,0:0:0:0:
192,192,85759,1,0,0:0:0:0:
64,192,85874,1,0,0:0:0:0:
192,192,85874,1,0,0:0:0:0:
64,192,85990,128,0,86048:0:0:0:0:
320,192,85990,1,0,0:0:0:0:
320,192,86105,1,0,0:0:0:0:
448,192,86105,1,0,0:0:0:0:
192,192,86221,128,0,86278:0:0:0:0:
64,192,86221,1,0,0:0:0:0:
448,192,86221,1,0,0:0:0:0:
320,192,86336,1,0,0:0:0:0:
320,192,86451,1,0,0:0:0:0:
448,192,86451,1,0,0:0:0:0:
64,192,86567,1,0,0:0:0:0:
448,192,86567,1,0,0:0:0:0:
64,192,86682,1,0,0:0:0:0:
192,192,86682,1,0,0:0:0:0:
320,192,86682,1,0,0:0:0:0:
192,192,86798,1,0,0:0:0:0:
448,192,86798,1,0,0:0:0:0:
320,192,86913,1,0,0:0:0:0:
448,192,86913,1,0,0:0:0:0:
64,192,87028,1,0,0:0:0:0:
320,192,87028,1,0,0:0:0:0:
192,192,87144,1,0,0:0:0:0:
64,192,87144,1,0,0:0:0:0:
448,192,87144,1,0,0:0:0:0:
192,192,87259,1,0,0:0:0:0:
320,192,87259,1,0,0:0:0:0:
448,192,87374,1,0,0:0:0:0:
192,192,87374,1,0,0:0:0:0:
320,192,87490,1,0,0:0:0:0:
64,192,87490,1,0,0:0:0:0:
64,192,87605,1,0,0:0:0:0:
320,192,87605,1,0,0:0:0:0:
448,192,87605,1,0,0:0:0:0:
192,192,87721,1,0,0:0:0:0:
448,192,87721,1,0,0:0:0:0:
320,192,87836,1,0,0:0:0:0:
64,192,87836,1,0,0:0:0:0:
192,192,87951,1,0,0:0:0:0:
320,192,87951,1,0,0:0:0:0:
192,192,88067,1,0,0:0:0:0:
64,192,88067,1,0,0:0:0:0:
448,192,88067,1,0,0:0:0:0:
320,192,88182,1,0,0:0:0:0:
448,192,88182,1,0,0:0:0:0:
64,192,88298,1,0,0:0:0:0:
448,192,88298,1,0,0:0:0:0:
192,192,88413,1,0,0:0:0:0:
320,192,88413,1,0,0:0:0:0:
320,192,88528,1,0,0:0:0:0:
448,192,88528,1,0,0:0:0:0:
64,192,88528,1,0,0:0:0:0:
192,192,88644,1,0,0:0:0:0:
64,192,88644,1,0,0:0:0:0:
192,192,88759,1,0,0:0:0:0:
448,192,88759,1,0,0:0:0:0:
320,192,88874,1,0,0:0:0:0:
64,192,88874,1,0,0:0:0:0:
192,192,88990,1,0,0:0:0:0:
448,192,88990,1,0,0:0:0:0:
320,192,88990,128,0,89048:0:0:0:0:
64,192,89105,1,0,0:0:0:0:
448,192,89105,1,0,0:0:0:0:
192,192,89221,1,0,0:0:0:0:
64,192,89221,128,0,89278:0:0:0:0:
320,192,89336,1,0,0:0:0:0:
448,192,89336,1,0,0:0:0:0:
192,192,89451,1,0,0:0:0:0:
448,192,89451,1,0,0:0:0:0:
64,192,89451,1,0,0:0:0:0:
320,192,89567,1,0,0:0:0:0:
64,192,89567,1,0,0:0:0:0:
192,192,89682,128,0,89740:0:0:0:0:
320,192,89682,1,0,0:0:0:0:
448,192,89682,1,0,0:0:0:0:
64,192,89798,1,0,0:0:0:0:
448,192,89798,1,0,0:0:0:0:
64,192,89913,128,0,89971:0:0:0:0:
192,192,89913,1,0,0:0:0:0:
320,192,89913,1,0,0:0:0:0:
320,192,90028,1,0,0:0:0:0:
448,192,90028,1,0,0:0:0:0:
64,192,90144,1,0,0:0:0:0:
320,192,90144,1,0,0:0:0:0:
192,192,90259,1,0,0:0:0:0:
448,192,90259,1,0,0:0:0:0:
320,192,90374,1,0,0:0:0:0:
448,192,90374,1,0,0:0:0:0:
64,192,90374,1,0,0:0:0:0:
64,192,90490,1,0,0:0:0:0:
192,192,90490,1,0,0:0:0:0:
192,192,90605,1,0,0:0:0:0:
448,192,90605,1,0,0:0:0:0:
320,192,90721,1,0,0:0:0:0:
448,192,90721,1,0,0:0:0:0:
448,192,90836,1,0,0:0:0:0:
320,192,90836,1,0,0:0:0:0:
64,192,90836,1,0,0:0:0:0:
64,192,91067,1,0,0:0:0:0:
192,192,91067,1,0,0:0:0:0:
320,192,91067,1,0,0:0:0:0:
320,192,91298,1,0,0:0:0:0:
448,192,91298,1,0,0:0:0:0:
64,192,91298,1,0,0:0:0:0:
192,192,91528,1,0,0:0:0:0:
320,192,91528,1,0,0:0:0:0:
448,192,91528,1,0,0:0:0:0:
192,192,91759,1,0,0:0:0:0:
320,192,91759,1,0,0:0:0:0:
64,192,91759,1,0,0:0:0:0:
192,192,91990,1,0,0:0:0:0:
320,192,91990,1,0,0:0:0:0:
448,192,91990,1,0,0:0:0:0:
192,192,92221,1,0,0:0:0:0:
64,192,92221,1,0,0:0:0:0:
320,192,92221,1,0,0:0:0:0:
192,192,92451,1,0,0:0:0:0:
320,192,92451,1,0,0:0:0:0:
448,192,92451,1,0,0:0:0:0:
64,192,92682,1,0,0:0:0:0:
320,192,92682,1,0,0:0:0:0:
448,192,92682,1,0,0:0:0:0:
320,192,92913,1,0,0:0:0:0:
448,192,92913,1,0,0:0:0:0:
320,192,93144,1,0,0:0:0:0:
448,192,93144,1,0,0:0:0:0:
320,192,93374,1,0,0:0:0:0:
448,192,93374,1,0,0:0:0:0:
320,192,93605,1,0,0:0:0:0:
448,192,93605,1,0,0:0:0:0:
192,192,93836,1,0,0:0:0:0:
320,192,93951,1,0,0:0:0:0:
192,192,94067,1,0,0:0:0:0:
320,192,94182,1,0,0:0:0:0:
64,192,94298,1,0,0:0:0:0:
192,192,94413,1,0,0:0:0:0:
320,192,94528,1,0,0:0:0:0:
448,192,94528,1,0,0:0:0:0:
64,192,94528,1,0,0:0:0:0:
192,192,94528,1,0,0:0:0:0:
320,192,94644,1,0,0:0:0:0:
448,192,94644,1,0,0:0:0:0:
64,192,94759,1,0,0:0:0:0:
320,192,94759,1,0,0:0:0:0:
64,192,94874,1,0,0:0:0:0:
192,192,94874,1,0,0:0:0:0:
192,192,94990,1,0,0:0:0:0:
320,192,94990,1,0,0:0:0:0:
448,192,94990,1,0,0:0:0:0:
64,192,94990,1,0,0:0:0:0:
192,192,95105,1,0,0:0:0:0:
448,192,95105,1,0,0:0:0:0:
320,192,95221,1,0,0:0:0:0:
448,192,95221,1,0,0:0:0:0:
64,192,95336,1,0,0:0:0:0:
320,192,95336,1,0,0:0:0:0:
448,192,95451,1,0,0:0:0:0:
320,192,95451,1,0,0:0:0:0:
192,192,95451,1,0,0:0:0:0:
64,192,95451,1,0,0:0:0:0:
448,192,95567,1,0,0:0:0:0:
192,192,95567,1,0,0:0:0:0:
320,192,95682,1,0,0:0:0:0:
448,192,95682,1,0,0:0:0:0:
64,192,95682,1,0,0:0:0:0:
448,192,95798,1,0,0:0:0:0:
192,192,95798,1,0,0:0:0:0:
192,192,95913,1,0,0:0:0:0:
320,192,95913,1,0,0:0:0:0:
448,192,95913,1,0,0:0:0:0:
64,192,95913,1,0,0:0:0:0:
64,192,96028,1,0,0:0:0:0:
448,192,96028,1,0,0:0:0:0:
320,192,96028,1,0,0:0:0:0:
64,192,96144,1,0,0:0:0:0:
448,192,96144,1,0,0:0:0:0:
192,192,96144,1,0,0:0:0:0:
64,192,96259,1,0,0:0:0:0:
320,192,96259,1,0,0:0:0:0:
192,192,96374,1,0,0:0:0:0:
320,192,96374,1,0,0:0:0:0:
448,192,96374,1,0,0:0:0:0:
64,192,96374,1,0,0:0:0:0:
448,192,96432,1,0,0:0:0:0:
320,192,96490,1,0,0:0:0:0:
192,192,96548,1,0,0:0:0:0:
64,192,96605,1,0,0:0:0:0:
448,192,96605,1,0,0:0:0:0:
192,192,96663,1,0,0:0:0:0:
320,192,96721,1,0,0:0:0:0:
448,192,96778,1,0,0:0:0:0:
320,192,96836,1,0,0:0:0:0:
192,192,96836,1,0,0:0:0:0:
64,192,96836,1,0,0:0:0:0:
448,192,96894,1,0,0:0:0:0:
320,192,96951,1,0,0:0:0:0:
192,192,97009,1,0,0:0:0:0:
64,192,97067,1,0,0:0:0:0:
448,192,97067,1,0,0:0:0:0:
192,192,97124,1,0,0:0:0:0:
320,192,97182,1,0,0:0:0:0:
448,192,97240,1,0,0:0:0:0:
320,192,97298,1,0,0:0:0:0:
192,192,97298,1,0,0:0:0:0:
64,192,97298,1,0,0:0:0:0:
64,192,97413,1,0,0:0:0:0:
320,192,97413,1,0,0:0:0:0:
448,192,97528,1,0,0:0:0:0:
192,192,97528,1,0,0:0:0:0:
192,192,97644,1,0,0:0:0:0:
64,192,97644,1,0,0:0:0:0:
64,192,97759,1,0,0:0:0:0:
192,192,97759,1,0,0:0:0:0:
320,192,97759,1,0,0:0:0:0:
448,192,97759,1,0,0:0:0:0:
320,192,97874,1,0,0:0:0:0:
448,192,97874,1,0,0:0:0:0:
320,192,97990,1,0,0:0:0:0:
448,192,97990,1,0,0:0:0:0:
64,192,97990,1,0,0:0:0:0:
320,192,98105,1,0,0:0:0:0:
448,192,98105,1,0,0:0:0:0:
192,192,98105,1,0,0:0:0:0:
448,192,98221,1,0,0:0:0:0:
320,192,98221,1,0,0:0:0:0:
192,192,98221,1,0,0:0:0:0:
64,192,98221,1,0,0:0:0:0:
64,192,98278,1,0,0:0:0:0:
192,192,98336,1,0,0:0:0:0:
320,192,98394,1,0,0:0:0:0:
448,192,98451,1,0,0:0:0:0:
64,192,98451,1,0,0:0:0:0:
320,192,98509,1,0,0:0:0:0:
192,192,98567,1,0,0:0:0:0:
64,192,98624,1,0,0:0:0:0:
192,192,98682,1,0,0:0:0:0:
320,192,98682,1,0,0:0:0:0:
448,192,98682,1,0,0:0:0:0:
64,192,98740,1,0,0:0:0:0:
192,192,98798,1,0,0:0:0:0:
320,192,98855,1,0,0:0:0:0:
448,192,98913,1,0,0:0:0:0:
64,192,98913,1,0,0:0:0:0:
320,192,98971,1,0,0:0:0:0:
192,192,99028,1,0,0:0:0:0:
64,192,99086,1,0,0:0:0:0:
192,192,99144,1,0,0:0:0:0:
320,192,99144,1,0,0:0:0:0:
448,192,99144,1,0,0:0:0:0:
64,192,99259,1,0,0:0:0:0:
448,192,99259,1,0,0:0:0:0:
320,192,99374,1,0,0:0:0:0:
192,192,99374,1,0,0:0:0:0:
64,192,99490,1,0,0:0:0:0:
320,192,99490,1,0,0:0:0:0:
448,192,99490,1,0,0:0:0:0:
192,192,99605,1,0,0:0:0:0:
64,192,99605,1,0,0:0:0:0:
320,192,99605,1,0,0:0:0:0:
448,192,99605,1,0,0:0:0:0:
64,192,99721,1,0,0:0:0:0:
320,192,99721,1,0,0:0:0:0:
192,192,99836,1,0,0:0:0:0:
64,192,99836,1,0,0:0:0:0:
320,192,99951,1,0,0:0:0:0:
64,192,99951,1,0,0:0:0:0:
192,192,100067,1,0,0:0:0:0:
320,192,100067,1,0,0:0:0:0:
448,192,100067,1,0,0:0:0:0:
64,192,100067,1,0,0:0:0:0:
448,192,100124,1,0,0:0:0:0:
320,192,100182,1,0,0:0:0:0:
64,192,100240,1,0,0:0:0:0:
192,192,100298,1,0,0:0:0:0:
448,192,100298,1,0,0:0:0:0:
320,192,100355,1,0,0:0:0:0:
448,192,100413,1,0,0:0:0:0:
192,192,100471,1,0,0:0:0:0:
64,192,100528,1,0,0:0:0:0:
320,192,100528,1,0,0:0:0:0:
448,192,100528,1,0,0:0:0:0:
192,192,100586,1,0,0:0:0:0:
64,192,100644,1,0,0:0:0:0:
448,192,100701,1,0,0:0:0:0:
320,192,100759,1,0,0:0:0:0:
192,192,100759,1,0,0:0:0:0:
64,192,100817,1,0,0:0:0:0:
448,192,100874,1,0,0:0:0:0:
320,192,100932,1,0,0:0:0:0:
192,192,100990,1,0,0:0:0:0:
64,192,100990,1,0,0:0:0:0:
448,192,100990,1,0,0:0:0:0:
64,192,101105,1,0,0:0:0:0:
320,192,101105,1,0,0:0:0:0:
448,192,101221,1,0,0:0:0:0:
192,192,101221,1,0,0:0:0:0:
64,192,101336,1,0,0:0:0:0:
320,192,101336,1,0,0:0:0:0:
448,192,101451,1,0,0:0:0:0:
320,192,101451,1,0,0:0:0:0:
64,192,101451,1,0,0:0:0:0:
192,192,101451,1,0,0:0:0:0:
320,192,101567,1,0,0:0:0:0:
448,192,101567,1,0,0:0:0:0:
192,192,101682,1,0,0:0:0:0:
448,192,101682,1,0,0:0:0:0:
64,192,101682,1,0,0:0:0:0:
320,192,101798,1,0,0:0:0:0:
448,192,101798,1,0,0:0:0:0:
192,192,101913,1,0,0:0:0:0:
320,192,101913,1,0,0:0:0:0:
448,192,101913,1,0,0:0:0:0:
64,192,101913,1,0,0:0:0:0:
448,192,102144,1,0,0:0:0:0:
320,192,102144,1,0,0:0:0:0:
320,192,102374,1,0,0:0:0:0:
448,192,102374,1,0,0:0:0:0:
64,192,102374,1,0,0:0:0:0:
192,192,102374,1,0,0:0:0:0:
64,192,102605,1,0,0:0:0:0:
320,192,102605,1,0,0:0:0:0:
192,192,102836,1,0,0:0:0:0:
64,192,102836,1,0,0:0:0:0:
320,192,102836,1,0,0:0:0:0:
448,192,102836,1,0,0:0:0:0:
448,192,102951,1,0,0:0:0:0:
448,192,103067,1,0,0:0:0:0:
192,192,103067,1,0,0:0:0:0:
448,192,103182,1,0,0:0:0:0:
64,192,103182,1,0,0:0:0:0:
192,192,103298,1,0,0:0:0:0:
448,192,103298,1,0,0:0:0:0:
64,192,103298,1,0,0:0:0:0:
320,192,103298,1,0,0:0:0:0:
64,192,103413,1,0,0:0:0:0:
320,192,103413,1,0,0:0:0:0:
64,192,103528,1,0,0:0:0:0:
448,192,103528,1,0,0:0:0:0:
192,192,103586,1,0,0:0:0:0:
64,192,103644,1,0,0:0:0:0:
320,192,103644,1,0,0:0:0:0:
64,192,103759,1,0,0:0:0:0:
192,192,103759,1,0,0:0:0:0:
320,192,103759,1,0,0:0:0:0:
448,192,103759,1,0,0:0:0:0:
320,192,103990,1,0,0:0:0:0:
448,192,103990,1,0,0:0:0:0:
192,192,104221,1,0,0:0:0:0:
64,192,104221,1,0,0:0:0:0:
320,192,104221,1,0,0:0:0:0:
448,192,104221,1,0,0:0:0:0:
64,192,104451,1,0,0:0:0:0:
320,192,104451,1,0,0:0:0:0:
192,192,104567,1,0,0:0:0:0:
448,192,104567,1,0,0:0:0:0:
320,192,104682,1,0,0:0:0:0:
448,192,104682,1,0,0:0:0:0:
192,192,104682,1,0,0:0:0:0:
64,192,104682,1,0,0:0:0:0:
64,192,104913,1,0,0:0:0:0:
320,192,104913,1,0,0:0:0:0:
64,192,105028,1,0,0:0:0:0:
320,192,105028,1,0,0:0:0:0:
64,192,105144,1,0,0:0:0:0:
192,192,105144,1,0,0:0:0:0:
320,192,105144,1,0,0:0:0:0:
448,192,105144,1,0,0:0:0:0:
448,192,105259,1,0,0:0:0:0:
192,192,105259,1,0,0:0:0:0:
448,192,105374,1,0,0:0:0:0:
64,192,105374,1,0,0:0:0:0:
320,192,105490,1,0,0:0:0:0:
448,192,105490,1,0,0:0:0:0:
320,192,105605,1,0,0:0:0:0:
448,192,105605,1,0,0:0:0:0:
192,192,105605,1,0,0:0:0:0:
64,192,105605,1,0,0:0:0:0:
64,192,105836,1,0,0:0:0:0:
448,192,105836,1,0,0:0:0:0:
64,192,106067,1,0,0:0:0:0:
192,192,106067,1,0,0:0:0:0:
320,192,106067,1,0,0:0:0:0:
448,192,106067,1,0,0:0:0:0:
320,192,106298,1,0,0:0:0:0:
448,192,106298,1,0,0:0:0:0:
448,192,106528,1,0,0:0:0:0:
320,192,106528,1,0,0:0:0:0:
192,192,106528,1,0,0:0:0:0:
64,192,106528,1,0,0:0:0:0:
192,192,106759,1,0,0:0:0:0:
320,192,106759,1,0,0:0:0:0:
64,192,106874,1,0,0:0:0:0:
320,192,106874,1,0,0:0:0:0:
64,192,106990,1,0,0:0:0:0:
320,192,106990,1,0,0:0:0:0:
192,192,106990,1,0,0:0:0:0:
448,192,106990,1,0,0:0:0:0:
64,192,107105,1,0,0:0:0:0:
320,192,107221,1,0,0:0:0:0:
448,192,107221,1,0,0:0:0:0:
64,192,107221,1,0,0:0:0:0:
64,192,107336,1,0,0:0:0:0:
320,192,107336,1,0,0:0:0:0:
192,192,107451,1,0,0:0:0:0:
320,192,107451,1,0,0:0:0:0:
448,192,107451,1,0,0:0:0:0:
64,192,107451,1,0,0:0:0:0:
192,192,107682,1,0,0:0:0:0:
448,192,107682,1,0,0:0:0:0:
64,192,107913,1,0,0:0:0:0:
192,192,107913,1,0,0:0:0:0:
320,192,107913,1,0,0:0:0:0:
448,192,107913,1,0,0:0:0:0:
192,192,108144,1,0,0:0:0:0:
448,192,108144,1,0,0:0:0:0:
320,192,108374,1,0,0:0:0:0:
448,192,108374,1,0,0:0:0:0:
192,192,108374,1,0,0:0:0:0:
64,192,108374,1,0,0:0:0:0:
64,192,108605,1,0,0:0:0:0:
320,192,108605,1,0,0:0:0:0:
64,192,108836,1,0,0:0:0:0:
192,192,108836,1,0,0:0:0:0:
320,192,108836,1,0,0:0:0:0:
448,192,108836,1,0,0:0:0:0:
320,192,109067,1,0,0:0:0:0:
448,192,109067,1,0,0:0:0:0:
448,192,109298,1,0,0:0:0:0:
320,192,109298,1,0,0:0:0:0:
192,192,109298,1,0,0:0:0:0:
64,192,109298,1,0,0:0:0:0:
64,192,109528,1,0,0:0:0:0:
320,192,109528,1,0,0:0:0:0:
192,192,109644,1,0,0:0:0:0:
448,192,109644,1,0,0:0:0:0:
320,192,109759,1,0,0:0:0:0:
448,192,109759,1,0,0:0:0:0:
64,192,109759,1,0,0:0:0:0:
64,192,109874,1,0,0:0:0:0:
192,192,109874,1,0,0:0:0:0:
192,192,109990,1,0,0:0:0:0:
448,192,109990,1,0,0:0:0:0:
320,192,110105,1,0,0:0:0:0:
448,192,110105,1,0,0:0:0:0:
64,192,110221,1,0,0:0:0:0:
192,192,110221,1,0,0:0:0:0:
320,192,110221,1,0,0:0:0:0:
64,192,110336,1,0,0:0:0:0:
448,192,110336,1,0,0:0:0:0:
320,192,110451,1,0,0:0:0:0:
448,192,110451,1,0,0:0:0:0:
64,192,110567,1,0,0:0:0:0:
320,192,110567,1,0,0:0:0:0:
320,192,110682,1,0,0:0:0:0:
192,192,110682,1,0,0:0:0:0:
448,192,110682,1,0,0:0:0:0:
64,192,110798,1,0,0:0:0:0:
192,192,110798,1,0,0:0:0:0:
64,192,110913,1,0,0:0:0:0:
448,192,110913,1,0,0:0:0:0:
192,192,111028,1,0,0:0:0:0:
448,192,111028,1,0,0:0:0:0:
320,192,111144,1,0,0:0:0:0:
192,192,111144,1,0,0:0:0:0:
64,192,111144,1,0,0:0:0:0:
320,192,111259,1,0,0:0:0:0:
448,192,111259,1,0,0:0:0:0:
448,192,111374,1,0,0:0:0:0:
192,192,111374,1,0,0:0:0:0:
448,192,111490,1,0,0:0:0:0:
64,192,111490,1,0,0:0:0:0:
320,192,111605,1,0,0:0:0:0:
192,192,111605,1,0,0:0:0:0:
64,192,111605,1,0,0:0:0:0:
192,192,111721,1,0,0:0:0:0:
448,192,111721,1,0,0:0:0:0:
320,192,111836,1,0,0:0:0:0:
64,192,111836,1,0,0:0:0:0:
192,192,111951,1,0,0:0:0:0:
320,192,111951,1,0,0:0:0:0:
192,192,112067,1,0,0:0:0:0:
64,192,112067,1,0,0:0:0:0:
448,192,112067,1,0,0:0:0:0:
320,192,112182,1,0,0:0:0:0:
448,192,112182,1,0,0:0:0:0:
192,192,112298,1,0,0:0:0:0:
448,192,112298,1,0,0:0:0:0:
64,192,112413,1,0,0:0:0:0:
448,192,112413,1,0,0:0:0:0:
192,192,112528,1,0,0:0:0:0:
320,192,112528,1,0,0:0:0:0:
64,192,112528,1,0,0:0:0:0:
448,192,112644,1,0,0:0:0:0:
64,192,112644,1,0,0:0:0:0:
64,192,112759,1,0,0:0:0:0:
320,192,112759,1,0,0:0:0:0:
64,192,112874,1,0,0:0:0:0:
192,192,112874,1,0,0:0:0:0:
64,192,112990,1,0,0:0:0:0:
320,192,112990,1,0,0:0:0:0:
448,192,112990,1,0,0:0:0:0:
192,192,113105,1,0,0:0:0:0:
448,192,113105,1,0,0:0:0:0:
192,192,113221,1,0,0:0:0:0:
320,192,113221,1,0,0:0:0:0:
320,192,113336,1,0,0:0:0:0:
448,192,113336,1,0,0:0:0:0:
192,192,113451,1,0,0:0:0:0:
64,192,113451,1,0,0:0:0:0:
448,192,113451,1,0,0:0:0:0:
64,192,113567,1,0,0:0:0:0:
320,192,113567,1,0,0:0:0:0:
192,192,113682,1,0,0:0:0:0:
320,192,113682,1,0,0:0:0:0:
64,192,113798,1,0,0:0:0:0:
448,192,113798,1,0,0:0:0:0:
320,192,113913,1,0,0:0:0:0:
448,192,113913,1,0,0:0:0:0:
192,192,113913,1,0,0:0:0:0:
64,192,114028,1,0,0:0:0:0:
320,192,114028,1,0,0:0:0:0:
64,192,114144,1,0,0:0:0:0:
192,192,114144,1,0,0:0:0:0:
192,192,114259,1,0,0:0:0:0:
448,192,114259,1,0,0:0:0:0:
192,192,114374,1,0,0:0:0:0:
320,192,114374,1,0,0:0:0:0:
448,192,114374,1,0,0:0:0:0:
64,192,114490,1,0,0:0:0:0:
320,192,114490,1,0,0:0:0:0:
64,192,114605,1,0,0:0:0:0:
192,192,114605,1,0,0:0:0:0:
64,192,114721,1,0,0:0:0:0:
448,192,114721,1,0,0:0:0:0:
320,192,114836,1,0,0:0:0:0:
192,192,114836,1,0,0:0:0:0:
448,192,114836,1,0,0:0:0:0:
64,192,114951,1,0,0:0:0:0:
320,192,114951,1,0,0:0:0:0:
64,192,115067,1,0,0:0:0:0:
192,192,115067,1,0,0:0:0:0:
192,192,115182,1,0,0:0:0:0:
320,192,115182,1,0,0:0:0:0:
320,192,115298,1,0,0:0:0:0:
64,192,115298,1,0,0:0:0:0:
192,192,115298,1,0,0:0:0:0:
192,192,115413,1,0,0:0:0:0:
448,192,115413,1,0,0:0:0:0:
320,192,115528,5,0,0:0:0:0:
448,192,115528,1,0,0:0:0:0:
192,192,115644,1,0,0:0:0:0:
320,192,115644,1,0,0:0:0:0:
64,192,115759,1,0,0:0:0:0:
192,192,115759,1,0,0:0:0:0:
448,192,115759,1,0,0:0:0:0:
320,192,115874,1,0,0:0:0:0:
320,192,115990,1,0,0:0:0:0:
448,192,115990,1,0,0:0:0:0:
64,192,116105,1,0,0:0:0:0:
192,192,116105,1,0,0:0:0:0:
64,192,116221,1,0,0:0:0:0:
192,192,116336,1,0,0:0:0:0:
320,192,116336,1,0,0:0:0:0:
448,192,116451,1,0,0:0:0:0:
64,192,116451,1,0,0:0:0:0:
320,192,116567,1,0,0:0:0:0:
448,192,116567,1,0,0:0:0:0:
192,192,116682,5,0,0:0:0:0:
320,192,116682,1,0,0:0:0:0:
64,192,116682,1,0,0:0:0:0:
448,192,116798,1,0,0:0:0:0:
320,192,116913,1,0,0:0:0:0:
192,192,117028,1,0,0:0:0:0:
64,192,117144,1,0,0:0:0:0:
448,192,117259,1,0,0:0:0:0:
320,192,117374,1,0,0:0:0:0:
192,192,117490,1,0,0:0:0:0:
64,192,117605,1,0,0:0:0:0:
448,192,117682,1,0,0:0:0:0:
320,192,117759,1,0,0:0:0:0:
192,192,117836,1,0,0:0:0:0:
64,192,117913,1,0,0:0:0:0:
448,192,117990,1,0,0:0:0:0:
320,192,118067,1,0,0:0:0:0:
192,192,118067,1,0,0:0:0:0:
64,192,118067,1,0,0:0:0:0:
192,192,118528,1,0,0:0:0:0:
64,192,118874,1,0,0:0:0:0:
64,192,119221,1,0,0:0:0:0:
192,192,119682,1,0,0:0:0:0:
192,192,119913,1,0,0:0:0:0:
192,192,120144,1,0,0:0:0:0:
320,192,120374,1,0,0:0:0:0:
448,192,120721,1,0,0:0:0:0:
320,192,121067,1,0,0:0:0:0:
64,192,121413,1,0,0:0:0:0:
192,192,121644,1,0,0:0:0:0:
448,192,121759,1,0,0:0:0:0:
320,192,121874,1,0,0:0:0:0:
192,192,121990,1,0,0:0:0:0:
192,192,122221,1,0,0:0:0:0:
320,192,122567,1,0,0:0:0:0:
192,192,122913,1,0,0:0:0:0:
320,192,123374,1,0,0:0:0:0:
320,192,123605,1,0,0:0:0:0:
320,192,123836,1,0,0:0:0:0:
64,192,124067,1,0,0:0:0:0:
192,192,124413,1,0,0:0:0:0:
320,192,124759,1,0,0:0:0:0:
192,192,125105,1,0,0:0:0:0:
320,192,125336,1,0,0:0:0:0:
192,192,125451,1,0,0:0:0:0:
64,192,125451,1,0,0:0:0:0:
320,192,125451,1,0,0:0:0:0:
192,192,125682,1,0,0:0:0:0:
448,192,125913,1,0,0:0:0:0:
64,192,125913,1,0,0:0:0:0:
192,192,126259,1,0,0:0:0:0:
320,192,126374,1,0,0:0:0:0:
448,192,126374,1,0,0:0:0:0:
192,192,126605,1,0,0:0:0:0:
64,192,126836,1,0,0:0:0:0:
320,192,126836,1,0,0:0:0:0:
192,192,127067,1,0,0:0:0:0:
320,192,127298,1,0,0:0:0:0:
448,192,127298,1,0,0:0:0:0:
192,192,127528,1,0,0:0:0:0:
64,192,127759,1,0,0:0:0:0:
320,192,127759,1,0,0:0:0:0:
192,192,128105,1,0,0:0:0:0:
320,192,128221,1,0,0:0:0:0:
64,192,128221,1,0,0:0:0:0:
192,192,128451,1,0,0:0:0:0:
192,192,128682,1,0,0:0:0:0:
448,192,128682,1,0,0:0:0:0:
64,192,128913,1,0,0:0:0:0:
192,192,129144,1,0,0:0:0:0:
320,192,129144,1,0,0:0:0:0:
64,192,129374,1,0,0:0:0:0:
192,192,129605,1,0,0:0:0:0:
448,192,129605,1,0,0:0:0:0:
320,192,129951,1,0,0:0:0:0:
192,192,130067,1,0,0:0:0:0:
64,192,130067,1,0,0:0:0:0:
320,192,130298,1,0,0:0:0:0:
192,192,130528,1,0,0:0:0:0:
448,192,130528,1,0,0:0:0:0:
320,192,130759,1,0,0:0:0:0:
64,192,130990,1,0,0:0:0:0:
192,192,130990,1,0,0:0:0:0:
320,192,131221,1,0,0:0:0:0:
64,192,131451,1,0,0:0:0:0:
192,192,131451,1,0,0:0:0:0:
192,192,131798,1,0,0:0:0:0:
320,192,131913,1,0,0:0:0:0:
448,192,131913,1,0,0:0:0:0:
448,192,132144,1,0,0:0:0:0:
192,192,132374,1,0,0:0:0:0:
320,192,132374,1,0,0:0:0:0:
64,192,132605,1,0,0:0:0:0:
192,192,132836,1,0,0:0:0:0:
320,192,132836,1,0,0:0:0:0:
192,192,132951,1,0,0:0:0:0:
320,192,132951,1,0,0:0:0:0:
64,192,133067,1,0,0:0:0:0:
448,192,133067,1,0,0:0:0:0:
64,192,133182,1,0,0:0:0:0:
448,192,133182,1,0,0:0:0:0:
192,192,133298,1,0,0:0:0:0:
320,192,133298,1,0,0:0:0:0:
64,192,133298,1,0,0:0:0:0:
192,192,133644,1,0,0:0:0:0:
320,192,133759,1,0,0:0:0:0:
448,192,133759,1,0,0:0:0:0:
192,192,133990,1,0,0:0:0:0:
64,192,133990,1,0,0:0:0:0:
192,192,134221,1,0,0:0:0:0:
448,192,134221,1,0,0:0:0:0:
320,192,134451,1,0,0:0:0:0:
192,192,134682,1,0,0:0:0:0:
320,192,134682,1,0,0:0:0:0:
64,192,134913,1,0,0:0:0:0:
192,192,135144,1,0,0:0:0:0:
448,192,135144,1,0,0:0:0:0:
192,192,135490,1,0,0:0:0:0:
320,192,135605,1,0,0:0:0:0:
448,192,135605,1,0,0:0:0:0:
64,192,135836,1,0,0:0:0:0:
64,192,136067,1,0,0:0:0:0:
320,192,136067,1,0,0:0:0:0:
192,192,136298,1,0,0:0:0:0:
448,192,136528,1,0,0:0:0:0:
64,192,136528,1,0,0:0:0:0:
320,192,136759,1,0,0:0:0:0:
192,192,136990,1,0,0:0:0:0:
320,192,136990,1,0,0:0:0:0:
192,192,137336,1,0,0:0:0:0:
320,192,137451,1,0,0:0:0:0:
448,192,137451,1,0,0:0:0:0:
64,192,137682,1,0,0:0:0:0:
192,192,137913,1,0,0:0:0:0:
320,192,137913,1,0,0:0:0:0:
448,192,138144,1,0,0:0:0:0:
192,192,138374,1,0,0:0:0:0:
448,192,138374,1,0,0:0:0:0:
64,192,138605,1,0,0:0:0:0:
192,192,138836,1,0,0:0:0:0:
320,192,138836,1,0,0:0:0:0:
64,192,139182,1,0,0:0:0:0:
192,192,139298,1,0,0:0:0:0:
320,192,139298,1,0,0:0:0:0:
320,192,139528,1,0,0:0:0:0:
448,192,139528,1,0,0:0:0:0:
64,192,139759,1,0,0:0:0:0:
192,192,139759,1,0,0:0:0:0:
192,192,139990,1,0,0:0:0:0:
448,192,139990,1,0,0:0:0:0:
320,192,140221,1,0,0:0:0:0:
64,192,140336,1,0,0:0:0:0:
192,192,140451,1,0,0:0:0:0:
320,192,140567,1,0,0:0:0:0:
64,192,140682,1,0,0:0:0:0:
192,192,140682,1,0,0:0:0:0:
320,192,140682,1,0,0:0:0:0:
320,192,140913,1,0,0:0:0:0:
448,192,140913,1,0,0:0:0:0:
192,192,141144,1,0,0:0:0:0:
320,192,141144,1,0,0:0:0:0:
448,192,141144,1,0,0:0:0:0:
64,192,141374,1,0,0:0:0:0:
192,192,141374,1,0,0:0:0:0:
64,192,141605,1,0,0:0:0:0:
192,192,141605,1,0,0:0:0:0:
448,192,141605,1,0,0:0:0:0:
320,192,141836,1,0,0:0:0:0:
448,192,141836,1,0,0:0:0:0:
64,192,142067,1,0,0:0:0:0:
192,192,142067,1,0,0:0:0:0:
320,192,142067,1,0,0:0:0:0:
64,192,142298,1,0,0:0:0:0:
448,192,142298,1,0,0:0:0:0:
320,192,142413,1,0,0:0:0:0:
448,192,142413,1,0,0:0:0:0:
320,192,142528,1,0,0:0:0:0:
448,192,142528,1,0,0:0:0:0:
192,192,142528,1,0,0:0:0:0:
64,192,142759,1,0,0:0:0:0:
320,192,142759,1,0,0:0:0:0:
192,192,142990,1,0,0:0:0:0:
320,192,142990,1,0,0:0:0:0:
448,192,142990,1,0,0:0:0:0:
192,192,143221,1,0,0:0:0:0:
320,192,143221,1,0,0:0:0:0:
448,192,143451,1,0,0:0:0:0:
320,192,143451,1,0,0:0:0:0:
192,192,143451,1,0,0:0:0:0:
64,192,143682,1,0,0:0:0:0:
320,192,143682,1,0,0:0:0:0:
64,192,143913,1,0,0:0:0:0:
192,192,143913,1,0,0:0:0:0:
448,192,143913,1,0,0:0:0:0:
320,192,144144,1,0,0:0:0:0:
448,192,144144,1,0,0:0:0:0:
192,192,144374,1,0,0:0:0:0:
320,192,144374,1,0,0:0:0:0:
448,192,144374,1,0,0:0:0:0:
64,192,144605,1,0,0:0:0:0:
192,192,144605,1,0,0:0:0:0:
64,192,144836,1,0,0:0:0:0:
192,192,144836,1,0,0:0:0:0:
320,192,144836,1,0,0:0:0:0:
64,192,145067,1,0,0:0:0:0:
192,192,145067,1,0,0:0:0:0:
64,192,145298,1,0,0:0:0:0:
192,192,145298,1,0,0:0:0:0:
448,192,145298,1,0,0:0:0:0:
320,192,145528,1,0,0:0:0:0:
448,192,145528,1,0,0:0:0:0:
448,192,145759,1,0,0:0:0:0:
320,192,145759,1,0,0:0:0:0:
64,192,145759,1,0,0:0:0:0:
192,192,145990,1,0,0:0:0:0:
448,192,145990,1,0,0:0:0:0:
448,192,146221,1,0,0:0:0:0:
320,192,146221,1,0,0:0:0:0:
192,192,146221,1,0,0:0:0:0:
64,192,146336,1,0,0:0:0:0:
192,192,146336,1,0,0:0:0:0:
64,192,146451,1,0,0:0:0:0:
192,192,146451,1,0,0:0:0:0:
320,192,146682,1,0,0:0:0:0:
448,192,146682,1,0,0:0:0:0:
192,192,146682,1,0,0:0:0:0:
64,192,146913,1,0,0:0:0:0:
320,192,146913,1,0,0:0:0:0:
64,192,147144,1,0,0:0:0:0:
192,192,147144,1,0,0:0:0:0:
320,192,147144,1,0,0:0:0:0:
448,192,147144,1,0,0:0:0:0:
448,192,147490,1,0,0:0:0:0:
320,192,147490,1,0,0:0:0:0:
192,192,147490,1,0,0:0:0:0:
64,192,147490,1,0,0:0:0:0:
448,192,147836,1,0,0:0:0:0:
320,192,147836,1,0,0:0:0:0:
192,192,147836,1,0,0:0:0:0:
64,192,147836,1,0,0:0:0:0:
64,192,148067,1,0,0:0:0:0:
192,192,148067,1,0,0:0:0:0:
320,192,148067,1,0,0:0:0:0:
448,192,148144,1,0,0:0:0:0:
192,192,148221,1,0,0:0:0:0:
320,192,148298,1,0,0:0:0:0:
448,192,148374,1,0,0:0:0:0:
192,192,148451,1,0,0:0:0:0:
64,192,148528,1,0,0:0:0:0:
448,192,148528,1,0,0:0:0:0:
320,192,148605,1,0,0:0:0:0:
192,192,148682,1,0,0:0:0:0:
64,192,148759,1,0,0:0:0:0:
448,192,148759,1,0,0:0:0:0:
192,192,148836,1,0,0:0:0:0:
64,192,148913,1,0,0:0:0:0:
448,192,148913,1,0,0:0:0:0:
320,192,148990,1,0,0:0:0:0:
192,192,148990,1,0,0:0:0:0:
64,192,149067,1,0,0:0:0:0:
320,192,149144,1,0,0:0:0:0:
448,192,149221,1,0,0:0:0:0:
64,192,149298,1,0,0:0:0:0:
320,192,149374,1,0,0:0:0:0:
448,192,149451,1,0,0:0:0:0:
64,192,149451,1,0,0:0:0:0:
192,192,149451,1,0,0:0:0:0:
320,192,149528,1,0,0:0:0:0:
448,192,149605,1,0,0:0:0:0:
192,192,149682,1,0,0:0:0:0:
64,192,149759,1,0,0:0:0:0:
448,192,149836,1,0,0:0:0:0:
320,192,149913,1,0,0:0:0:0:
64,192,149913,1,0,0:0:0:0:
192,192,149990,1,0,0:0:0:0:
64,192,150067,1,0,0:0:0:0:
448,192,150144,1,0,0:0:0:0:
320,192,150144,1,0,0:0:0:0:
192,192,150221,1,0,0:0:0:0:
64,192,150298,1,0,0:0:0:0:
320,192,150298,1,0,0:0:0:0:
448,192,150374,1,0,0:0:0:0:
192,192,150374,1,0,0:0:0:0:
64,192,150451,1,0,0:0:0:0:
192,192,150528,1,0,0:0:0:0:
320,192,150605,1,0,0:0:0:0:
448,192,150682,1,0,0:0:0:0:
192,192,150759,1,0,0:0:0:0:
64,192,150836,1,0,0:0:0:0:
448,192,150836,1,0,0:0:0:0:
320,192,150913,1,0,0:0:0:0:
192,192,150990,1,0,0:0:0:0:
64,192,151067,1,0,0:0:0:0:
448,192,151067,1,0,0:0:0:0:
320,192,151144,1,0,0:0:0:0:
192,192,151221,1,0,0:0:0:0:
64,192,151298,1,0,0:0:0:0:
448,192,151298,1,0,0:0:0:0:
320,192,151413,1,0,0:0:0:0:
448,192,151413,1,0,0:0:0:0:
192,192,151528,1,0,0:0:0:0:
320,192,151528,1,0,0:0:0:0:
64,192,151644,1,0,0:0:0:0:
320,192,151644,1,0,0:0:0:0:
64,192,151759,1,0,0:0:0:0:
192,192,151759,1,0,0:0:0:0:
448,192,151759,1,0,0:0:0:0:
320,192,151990,1,0,0:0:0:0:
448,192,151990,1,0,0:0:0:0:
192,192,151990,1,0,0:0:0:0:
64,192,152221,1,0,0:0:0:0:
64,192,152451,1,0,0:0:0:0:
192,192,152451,1,0,0:0:0:0:
448,192,152451,1,0,0:0:0:0:
320,192,152682,1,0,0:0:0:0:
448,192,152913,1,0,0:0:0:0:
320,192,152913,1,0,0:0:0:0:
192,192,152913,1,0,0:0:0:0:
192,192,153144,1,0,0:0:0:0:
64,192,153374,1,0,0:0:0:0:
192,192,153374,1,0,0:0:0:0:
448,192,153374,1,0,0:0:0:0:
320,192,153605,1,0,0:0:0:0:
448,192,153836,1,0,0:0:0:0:
320,192,153836,1,0,0:0:0:0:
64,192,153836,1,0,0:0:0:0:
448,192,154067,1,0,0:0:0:0:
448,192,154298,1,0,0:0:0:0:
320,192,154298,1,0,0:0:0:0:
64,192,154298,1,0,0:0:0:0:
320,192,154528,1,0,0:0:0:0:
192,192,154759,1,0,0:0:0:0:
320,192,154759,1,0,0:0:0:0:
448,192,154759,1,0,0:0:0:0:
192,192,154874,1,0,0:0:0:0:
448,192,154874,1,0,0:0:0:0:
320,192,154990,1,0,0:0:0:0:
448,192,154990,1,0,0:0:0:0:
64,192,155105,1,0,0:0:0:0:
320,192,155105,1,0,0:0:0:0:
64,192,155221,1,0,0:0:0:0:
192,192,155221,1,0,0:0:0:0:
64,192,155336,1,0,0:0:0:0:
64,192,155451,1,0,0:0:0:0:
320,192,155451,1,0,0:0:0:0:
448,192,155451,1,0,0:0:0:0:
192,192,155451,1,0,0:0:0:0:
448,192,155509,1,0,0:0:0:0:
320,192,155567,1,0,0:0:0:0:
192,192,155624,1,0,0:0:0:0:
64,192,155682,1,0,0:0:0:0:
448,192,155682,1,0,0:0:0:0:
192,192,155740,1,0,0:0:0:0:
320,192,155798,1,0,0:0:0:0:
448,192,155855,1,0,0:0:0:0:
320,192,155913,1,0,0:0:0:0:
192,192,155913,1,0,0:0:0:0:
64,192,155913,1,0,0:0:0:0:
448,192,155971,1,0,0:0:0:0:
320,192,156028,1,0,0:0:0:0:
192,192,156086,1,0,0:0:0:0:
64,192,156144,1,0,0:0:0:0:
448,192,156144,1,0,0:0:0:0:
192,192,156201,1,0,0:0:0:0:
320,192,156259,1,0,0:0:0:0:
448,192,156317,1,0,0:0:0:0:
320,192,156374,1,0,0:0:0:0:
192,192,156374,1,0,0:0:0:0:
64,192,156374,1,0,0:0:0:0:
192,192,156490,1,0,0:0:0:0:
448,192,156490,1,0,0:0:0:0:
320,192,156605,1,0,0:0:0:0:
448,192,156605,1,0,0:0:0:0:
64,192,156605,1,0,0:0:0:0:
320,192,156721,1,0,0:0:0:0:
448,192,156721,1,0,0:0:0:0:
320,192,156836,1,0,0:0:0:0:
192,192,156836,1,0,0:0:0:0:
64,192,156836,1,0,0:0:0:0:
448,192,156836,1,0,0:0:0:0:
64,192,156951,1,0,0:0:0:0:
320,192,156951,1,0,0:0:0:0:
192,192,157067,1,0,0:0:0:0:
320,192,157067,1,0,0:0:0:0:
64,192,157182,1,0,0:0:0:0:
448,192,157182,1,0,0:0:0:0:
320,192,157182,1,0,0:0:0:0:
320,192,157298,1,0,0:0:0:0:
192,192,157298,1,0,0:0:0:0:
64,192,157298,1,0,0:0:0:0:
448,192,157298,1,0,0:0:0:0:
64,192,157355,1,0,0:0:0:0:
192,192,157413,1,0,0:0:0:0:
320,192,157471,1,0,0:0:0:0:
448,192,157528,1,0,0:0:0:0:
64,192,157528,1,0,0:0:0:0:
192,192,157586,1,0,0:0:0:0:
320,192,157644,1,0,0:0:0:0:
448,192,157701,1,0,0:0:0:0:
320,192,157759,1,0,0:0:0:0:
192,192,157759,1,0,0:0:0:0:
64,192,157759,1,0,0:0:0:0:
448,192,157817,1,0,0:0:0:0:
320,192,157874,1,0,0:0:0:0:
192,192,157932,1,0,0:0:0:0:
64,192,157990,1,0,0:0:0:0:
448,192,157990,1,0,0:0:0:0:
320,192,158048,1,0,0:0:0:0:
192,192,158105,1,0,0:0:0:0:
64,192,158163,1,0,0:0:0:0:
192,192,158221,1,0,0:0:0:0:
320,192,158221,1,0,0:0:0:0:
448,192,158221,1,0,0:0:0:0:
64,192,158336,1,0,0:0:0:0:
448,192,158336,1,0,0:0:0:0:
192,192,158451,1,0,0:0:0:0:
320,192,158451,1,0,0:0:0:0:
64,192,158567,1,0,0:0:0:0:
320,192,158567,1,0,0:0:0:0:
448,192,158567,1,0,0:0:0:0:
192,192,158682,1,0,0:0:0:0:
64,192,158682,1,0,0:0:0:0:
448,192,158682,1,0,0:0:0:0:
320,192,158682,1,0,0:0:0:0:
192,192,158798,1,0,0:0:0:0:
448,192,158798,1,0,0:0:0:0:
320,192,158913,1,0,0:0:0:0:
448,192,158913,1,0,0:0:0:0:
64,192,158913,1,0,0:0:0:0:
192,192,159028,1,0,0:0:0:0:
320,192,159028,1,0,0:0:0:0:
320,192,159144,1,0,0:0:0:0:
448,192,159144,1,0,0:0:0:0:
192,192,159144,1,0,0:0:0:0:
64,192,159144,1,0,0:0:0:0:
448,192,159201,1,0,0:0:0:0:
320,192,159259,1,0,0:0:0:0:
192,192,159317,1,0,0:0:0:0:
64,192,159374,1,0,0:0:0:0:
448,192,159374,1,0,0:0:0:0:
192,192,159432,1,0,0:0:0:0:
320,192,159490,1,0,0:0:0:0:
448,192,159548,1,0,0:0:0:0:
320,192,159605,1,0,0:0:0:0:
192,192,159605,1,0,0:0:0:0:
64,192,159605,1,0,0:0:0:0:
448,192,159663,1,0,0:0:0:0:
320,192,159721,1,0,0:0:0:0:
192,192,159778,1,0,0:0:0:0:
64,192,159836,1,0,0:0:0:0:
448,192,159836,1,0,0:0:0:0:
320,192,159894,1,0,0:0:0:0:
192,192,159951,1,0,0:0:0:0:
64,192,160009,1,0,0:0:0:0:
192,192,160067,1,0,0:0:0:0:
320,192,160067,1,0,0:0:0:0:
448,192,160067,1,0,0:0:0:0:
64,192,160182,1,0,0:0:0:0:
448,192,160182,1,0,0:0:0:0:
64,192,160298,1,0,0:0:0:0:
320,192,160298,1,0,0:0:0:0:
192,192,160413,1,0,0:0:0:0:
320,192,160413,1,0,0:0:0:0:
192,192,160528,1,0,0:0:0:0:
64,192,160528,1,0,0:0:0:0:
320,192,160528,1,0,0:0:0:0:
448,192,160528,1,0,0:0:0:0:
192,192,160644,1,0,0:0:0:0:
448,192,160644,1,0,0:0:0:0:
320,192,160759,1,0,0:0:0:0:
448,192,160759,1,0,0:0:0:0:
64,192,160759,1,0,0:0:0:0:
64,192,160874,1,0,0:0:0:0:
320,192,160874,1,0,0:0:0:0:
192,192,160874,1,0,0:0:0:0:
64,192,160990,1,0,0:0:0:0:
192,192,160990,1,0,0:0:0:0:
320,192,160990,1,0,0:0:0:0:
448,192,161048,1,0,0:0:0:0:
192,192,161105,1,0,0:0:0:0:
64,192,161163,1,0,0:0:0:0:
320,192,161221,1,0,0:0:0:0:
448,192,161278,1,0,0:0:0:0:
64,192,161336,1,0,0:0:0:0:
192,192,161394,1,0,0:0:0:0:
320,192,161451,1,0,0:0:0:0:
448,192,161451,1,0,0:0:0:0:
64,192,161451,1,0,0:0:0:0:
192,192,161509,1,0,0:0:0:0:
320,192,161567,1,0,0:0:0:0:
448,192,161624,1,0,0:0:0:0:
64,192,161682,1,0,0:0:0:0:
192,192,161682,1,0,0:0:0:0:
320,192,161740,1,0,0:0:0:0:
448,192,161798,1,0,0:0:0:0:
192,192,161855,1,0,0:0:0:0:
64,192,161913,1,0,0:0:0:0:
320,192,161913,1,0,0:0:0:0:
448,192,161971,1,0,0:0:0:0:
192,192,162028,1,0,0:0:0:0:
64,192,162086,1,0,0:0:0:0:
320,192,162144,1,0,0:0:0:0:
448,192,162144,1,0,0:0:0:0:
192,192,162259,1,0,0:0:0:0:
448,192,162259,1,0,0:0:0:0:
320,192,162374,1,0,0:0:0:0:
448,192,162374,1,0,0:0:0:0:
192,192,162374,1,0,0:0:0:0:
64,192,162374,1,0,0:0:0:0:
64,192,162490,1,0,0:0:0:0:
320,192,162490,1,0,0:0:0:0:
192,192,162605,1,0,0:0:0:0:
448,192,162605,1,0,0:0:0:0:
320,192,162721,1,0,0:0:0:0:
448,192,162721,1,0,0:0:0:0:
64,192,162836,1,0,0:0:0:0:
320,192,162836,1,0,0:0:0:0:
192,192,162836,1,0,0:0:0:0:
448,192,162836,1,0,0:0:0:0:
64,192,163067,1,0,0:0:0:0:
192,192,163067,1,0,0:0:0:0:
192,192,163298,1,0,0:0:0:0:
320,192,163298,1,0,0:0:0:0:
448,192,163298,1,0,0:0:0:0:
64,192,163298,1,0,0:0:0:0:
320,192,163528,1,0,0:0:0:0:
448,192,163528,1,0,0:0:0:0:
64,192,163644,1,0,0:0:0:0:
448,192,163759,1,0,0:0:0:0:
320,192,163759,1,0,0:0:0:0:
192,192,163759,1,0,0:0:0:0:
64,192,163759,1,0,0:0:0:0:
448,192,163990,1,0,0:0:0:0:
192,192,163990,1,0,0:0:0:0:
192,192,164105,1,0,0:0:0:0:
320,192,164105,1,0,0:0:0:0:
64,192,164221,1,0,0:0:0:0:
192,192,164221,1,0,0:0:0:0:
320,192,164221,1,0,0:0:0:0:
448,192,164221,1,0,0:0:0:0:
64,192,164336,1,0,0:0:0:0:
448,192,164336,1,0,0:0:0:0:
64,192,164451,1,0,0:0:0:0:
320,192,164451,1,0,0:0:0:0:
64,192,164567,1,0,0:0:0:0:
192,192,164567,1,0,0:0:0:0:
64,192,164682,1,0,0:0:0:0:
192,192,164682,1,0,0:0:0:0:
320,192,164682,1,0,0:0:0:0:
448,192,164682,1,0,0:0:0:0:
320,192,164798,1,0,0:0:0:0:
192,192,164913,1,0,0:0:0:0:
448,192,164913,1,0,0:0:0:0:
320,192,165144,1,0,0:0:0:0:
448,192,165144,1,0,0:0:0:0:
192,192,165144,1,0,0:0:0:0:
64,192,165374,1,0,0:0:0:0:
320,192,165374,1,0,0:0:0:0:
64,192,165605,1,0,0:0:0:0:
192,192,165605,1,0,0:0:0:0:
448,192,165605,1,0,0:0:0:0:
320,192,165836,1,0,0:0:0:0:
448,192,165836,1,0,0:0:0:0:
192,192,165951,1,0,0:0:0:0:
448,192,165951,1,0,0:0:0:0:
320,192,166067,1,0,0:0:0:0:
448,192,166067,1,0,0:0:0:0:
64,192,166067,1,0,0:0:0:0:
192,192,166067,1,0,0:0:0:0:
448,192,166182,1,0,0:0:0:0:
64,192,166298,1,0,0:0:0:0:
192,192,166298,1,0,0:0:0:0:
320,192,166298,1,0,0:0:0:0:
64,192,166413,1,0,0:0:0:0:
320,192,166413,1,0,0:0:0:0:
64,192,166528,1,0,0:0:0:0:
448,192,166528,1,0,0:0:0:0:
192,192,166528,1,0,0:0:0:0:
320,192,166528,1,0,0:0:0:0:
64,192,166759,1,0,0:0:0:0:
320,192,166759,1,0,0:0:0:0:
192,192,166990,1,0,0:0:0:0:
448,192,166990,1,0,0:0:0:0:
320,192,166990,1,0,0:0:0:0:
64,192,166990,1,0,0:0:0:0:
192,192,167221,1,0,0:0:0:0:
320,192,167221,1,0,0:0:0:0:
448,192,167451,1,0,0:0:0:0:
320,192,167451,1,0,0:0:0:0:
192,192,167451,1,0,0:0:0:0:
64,192,167451,1,0,0:0:0:0:
320,192,167567,1,0,0:0:0:0:
448,192,167567,1,0,0:0:0:0:
448,192,167682,1,0,0:0:0:0:
320,192,167682,1,0,0:0:0:0:
64,192,167682,1,0,0:0:0:0:
192,192,167682,1,0,0:0:0:0:
64,192,167798,1,0,0:0:0:0:
64,192,167913,1,0,0:0:0:0:
192,192,167913,1,0,0:0:0:0:
448,192,167913,1,0,0:0:0:0:
320,192,167913,1,0,0:0:0:0:
64,192,168028,1,0,0:0:0:0:
320,192,168028,1,0,0:0:0:0:
64,192,168144,1,0,0:0:0:0:
192,192,168144,1,0,0:0:0:0:
192,192,168259,1,0,0:0:0:0:
64,192,168259,1,0,0:0:0:0:
64,192,168374,1,0,0:0:0:0:
192,192,168374,1,0,0:0:0:0:
320,192,168374,1,0,0:0:0:0:
448,192,168374,1,0,0:0:0:0:
320,192,168605,1,0,0:0:0:0:
448,192,168605,1,0,0:0:0:0:
64,192,168836,1,0,0:0:0:0:
192,192,168836,1,0,0:0:0:0:
320,192,168836,1,0,0:0:0:0:
448,192,168836,1,0,0:0:0:0:
192,192,169067,1,0,0:0:0:0:
64,192,169067,1,0,0:0:0:0:
64,192,169298,1,0,0:0:0:0:
192,192,169298,1,0,0:0:0:0:
320,192,169298,1,0,0:0:0:0:
448,192,169298,1,0,0:0:0:0:
192,192,169528,1,0,0:0:0:0:
448,192,169528,1,0,0:0:0:0:
448,192,169759,1,0,0:0:0:0:
320,192,169759,1,0,0:0:0:0:
192,192,169759,1,0,0:0:0:0:
64,192,169759,1,0,0:0:0:0:
64,192,169990,1,0,0:0:0:0:
192,192,169990,1,0,0:0:0:0:
64,192,170221,1,0,0:0:0:0:
192,192,170221,1,0,0:0:0:0:
320,192,170221,1,0,0:0:0:0:
448,192,170221,1,0,0:0:0:0:
320,192,170336,1,0,0:0:0:0:
448,192,170451,1,0,0:0:0:0:
64,192,170451,1,0,0:0:0:0:
64,192,170567,1,0,0:0:0:0:
320,192,170567,1,0,0:0:0:0:
192,192,170682,1,0,0:0:0:0:
320,192,170682,1,0,0:0:0:0:
448,192,170682,1,0,0:0:0:0:
64,192,170798,1,0,0:0:0:0:
448,192,170798,1,0,0:0:0:0:
192,192,170913,1,0,0:0:0:0:
448,192,170913,1,0,0:0:0:0:
64,192,171028,1,0,0:0:0:0:
192,192,171028,1,0,0:0:0:0:
64,192,171144,1,0,0:0:0:0:
320,192,171144,1,0,0:0:0:0:
448,192,171144,1,0,0:0:0:0:
192,192,171259,1,0,0:0:0:0:
320,192,171259,1,0,0:0:0:0:
64,192,171374,1,0,0:0:0:0:
320,192,171374,1,0,0:0:0:0:
192,192,171490,1,0,0:0:0:0:
448,192,171490,1,0,0:0:0:0:
320,192,171605,1,0,0:0:0:0:
448,192,171605,1,0,0:0:0:0:
64,192,171605,1,0,0:0:0:0:
64,192,171721,1,0,0:0:0:0:
192,192,171721,1,0,0:0:0:0:
64,192,171836,1,0,0:0:0:0:
448,192,171836,1,0,0:0:0:0:
192,192,171951,1,0,0:0:0:0:
320,192,171951,1,0,0:0:0:0:
320,192,172067,1,0,0:0:0:0:
448,192,172067,1,0,0:0:0:0:
64,192,172067,1,0,0:0:0:0:
192,192,172182,1,0,0:0:0:0:
448,192,172182,1,0,0:0:0:0:
320,192,172298,1,0,0:0:0:0:
192,192,172298,1,0,0:0:0:0:
64,192,172413,1,0,0:0:0:0:
320,192,172413,1,0,0:0:0:0:
192,192,172528,1,0,0:0:0:0:
64,192,172528,1,0,0:0:0:0:
320,192,172528,1,0,0:0:0:0:
192,192,172644,1,0,0:0:0:0:
448,192,172644,1,0,0:0:0:0:
320,192,172759,1,0,0:0:0:0:
448,192,172759,1,0,0:0:0:0:
64,192,172874,1,0,0:0:0:0:
192,192,172874,1,0,0:0:0:0:
64,192,172990,1,0,0:0:0:0:
320,192,172990,1,0,0:0:0:0:
448,192,172990,1,0,0:0:0:0:
192,192,173105,1,0,0:0:0:0:
320,192,173105,1,0,0:0:0:0:
448,192,173221,1,0,0:0:0:0:
64,192,173221,1,0,0:0:0:0:
192,192,173336,1,0,0:0:0:0:
448,192,173336,1,0,0:0:0:0:
320,192,173451,1,0,0:0:0:0:
448,192,173451,1,0,0:0:0:0:
64,192,173451,1,0,0:0:0:0:
192,192,173567,1,0,0:0:0:0:
64,192,173567,1,0,0:0:0:0:
192,192,173682,1,0,0:0:0:0:
448,192,173682,1,0,0:0:0:0:
64,192,173798,1,0,0:0:0:0:
320,192,173798,1,0,0:0:0:0:
192,192,173913,1,0,0:0:0:0:
320,192,173913,1,0,0:0:0:0:
448,192,173913,1,0,0:0:0:0:
192,192,174028,1,0,0:0:0:0:
64,192,174028,1,0,0:0:0:0:
64,192,174144,1,0,0:0:0:0:
448,192,174144,1,0,0:0:0:0:
320,192,174259,1,0,0:0:0:0:
448,192,174259,1,0,0:0:0:0:
192,192,174374,1,0,0:0:0:0:
320,192,174374,1,0,0:0:0:0:
64,192,174374,1,0,0:0:0:0:
64,192,174490,1,0,0:0:0:0:
320,192,174490,1,0,0:0:0:0:
64,192,174605,1,0,0:0:0:0:
448,192,174605,1,0,0:0:0:0:
192,192,174721,1,0,0:0:0:0:
448,192,174721,1,0,0:0:0:0:
64,192,174836,1,0,0:0:0:0:
320,192,174836,1,0,0:0:0:0:
192,192,174836,1,0,0:0:0:0:
64,192,174951,1,0,0:0:0:0:
320,192,174951,1,0,0:0:0:0:
192,192,175067,1,0,0:0:0:0:
448,192,175067,1,0,0:0:0:0:
320,192,175182,1,0,0:0:0:0:
448,192,175182,1,0,0:0:0:0:
448,192,175298,1,0,0:0:0:0:
192,192,175298,1,0,0:0:0:0:
64,192,175298,1,0,0:0:0:0:
64,192,175413,1,0,0:0:0:0:
320,192,175413,1,0,0:0:0:0:
192,192,175528,1,0,0:0:0:0:
448,192,175528,1,0,0:0:0:0:
320,192,175644,1,0,0:0:0:0:
448,192,175644,1,0,0:0:0:0:
64,192,175759,1,0,0:0:0:0:
192,192,175759,1,0,0:0:0:0:
320,192,175759,1,0,0:0:0:0:
64,192,175874,1,0,0:0:0:0:
448,192,175874,1,0,0:0:0:0:
192,192,175990,1,0,0:0:0:0:
320,192,175990,1,0,0:0:0:0:
64,192,176105,1,0,0:0:0:0:
320,192,176105,1,0,0:0:0:0:
64,192,176221,1,0,0:0:0:0:
192,192,176221,1,0,0:0:0:0:
448,192,176221,1,0,0:0:0:0:
192,192,176336,1,0,0:0:0:0:
448,192,176336,1,0,0:0:0:0:
320,192,176451,1,0,0:0:0:0:
64,192,176451,1,0,0:0:0:0:
192,192,176567,1,0,0:0:0:0:
320,192,176567,1,0,0:0:0:0:
448,192,176682,1,0,0:0:0:0:
192,192,176682,1,0,0:0:0:0:
64,192,176682,1,0,0:0:0:0:
320,192,176798,1,0,0:0:0:0:
448,192,176798,1,0,0:0:0:0:
64,192,176913,1,0,0:0:0:0:
320,192,176913,1,0,0:0:0:0:
192,192,177028,1,0,0:0:0:0:
448,192,177028,1,0,0:0:0:0:
320,192,177144,1,0,0:0:0:0:
448,192,177144,1,0,0:0:0:0:
64,192,177144,1,0,0:0:0:0:
64,192,177259,1,0,0:0:0:0:
192,192,177259,1,0,0:0:0:0:
192,192,177374,1,0,0:0:0:0:
448,192,177374,1,0,0:0:0:0:
64,192,177490,1,0,0:0:0:0:
320,192,177490,1,0,0:0:0:0:
192,192,177605,1,0,0:0:0:0:
64,192,177605,1,0,0:0:0:0:
320,192,177605,1,0,0:0:0:0:
192,192,177721,1,0,0:0:0:0:
448,192,177721,1,0,0:0:0:0:
320,192,177836,1,0,0:0:0:0:
448,192,177836,1,0,0:0:0:0:
64,192,177951,1,0,0:0:0:0:
320,192,177951,1,0,0:0:0:0:
64,192,178067,1,0,0:0:0:0:
320,192,178067,1,0,0:0:0:0:
448,192,178067,1,0,0:0:0:0:
192,192,178182,1,0,0:0:0:0:
448,192,178182,1,0,0:0:0:0:
64,192,178298,1,0,0:0:0:0:
320,192,178298,1,0,0:0:0:0:
192,192,178413,1,0,0:0:0:0:
320,192,178413,1,0,0:0:0:0:
320,192,178528,1,0,0:0:0:0:
448,192,178528,1,0,0:0:0:0:
192,192,178528,1,0,0:0:0:0:
64,192,178644,1,0,0:0:0:0:
448,192,178644,1,0,0:0:0:0:
64,192,178759,1,0,0:0:0:0:
320,192,178759,1,0,0:0:0:0:
64,192,178874,1,0,0:0:0:0:
192,192,178874,1,0,0:0:0:0:
192,192,178990,1,0,0:0:0:0:
320,192,178990,1,0,0:0:0:0:
448,192,178990,1,0,0:0:0:0:
64,192,179105,1,0,0:0:0:0:
320,192,179105,1,0,0:0:0:0:
192,192,179221,1,0,0:0:0:0:
448,192,179221,1,0,0:0:0:0:
320,192,179336,1,0,0:0:0:0:
448,192,179336,1,0,0:0:0:0:
320,192,179451,1,0,0:0:0:0:
448,192,179451,1,0,0:0:0:0:
64,192,179451,1,0,0:0:0:0:
64,192,179567,1,0,0:0:0:0:
192,192,179567,1,0,0:0:0:0:
192,192,179682,1,0,0:0:0:0:
448,192,179682,1,0,0:0:0:0:
320,192,179798,1,0,0:0:0:0:
448,192,179798,1,0,0:0:0:0:
64,192,179913,1,0,0:0:0:0:
192,192,179913,1,0,0:0:0:0:
320,192,179913,1,0,0:0:0:0:
64,192,180028,1,0,0:0:0:0:
192,192,180028,1,0,0:0:0:0:
192,192,180144,1,0,0:0:0:0:
448,192,180144,1,0,0:0:0:0:
448,192,180259,1,0,0:0:0:0:
64,192,180259,1,0,0:0:0:0:
64,192,180374,1,0,0:0:0:0:
192,192,180374,1,0,0:0:0:0:
320,192,180374,1,0,0:0:0:0:
192,192,180490,1,0,0:0:0:0:
320,192,180490,1,0,0:0:0:0:
64,192,180605,1,0,0:0:0:0:
448,192,180605,1,0,0:0:0:0:
320,192,180721,1,0,0:0:0:0:
192,192,180721,1,0,0:0:0:0:
320,192,180836,1,0,0:0:0:0:
448,192,180836,1,0,0:0:0:0:
64,192,180836,1,0,0:0:0:0:
64,192,180951,1,0,0:0:0:0:
320,192,180951,1,0,0:0:0:0:
192,192,181067,1,0,0:0:0:0:
448,192,181067,1,0,0:0:0:0:
64,192,181182,1,0,0:0:0:0:
192,192,181182,1,0,0:0:0:0:
192,192,181298,1,0,0:0:0:0:
320,192,181298,1,0,0:0:0:0:
448,192,181298,1,0,0:0:0:0:
64,192,181413,1,0,0:0:0:0:
320,192,181413,1,0,0:0:0:0:
64,192,181528,1,0,0:0:0:0:
192,192,181528,1,0,0:0:0:0:
320,192,181644,1,0,0:0:0:0:
448,192,181644,1,0,0:0:0:0:
192,192,181759,1,0,0:0:0:0:
448,192,181759,1,0,0:0:0:0:
64,192,181759,128,0,182221:0:0:0:0:
320,192,181990,1,0,0:0:0:0:
192,192,182105,1,0,0:0:0:0:
320,192,182221,1,0,0:0:0:0:
448,192,182221,1,0,0:0:0:0:
192,192,182451,1,0,0:0:0:0:
64,192,182567,1,0,0:0:0:0:
192,192,182682,1,0,0:0:0:0:
448,192,182682,1,0,0:0:0:0:
320,192,182682,128,0,183144:0:0:0:0:
64,192,182913,1,0,0:0:0:0:
192,192,183028,1,0,0:0:0:0:
64,192,183144,1,0,0:0:0:0:
192,192,183144,1,0,0:0:0:0:
320,192,183374,1,0,0:0:0:0:
448,192,183490,1,0,0:0:0:0:
192,192,183605,128,0,184067:0:0:0:0:
64,192,183605,1,0,0:0:0:0:
320,192,183605,1,0,0:0:0:0:
320,192,183836,1,0,0:0:0:0:
448,192,183951,1,0,0:0:0:0:
320,192,184067,1,0,0:0:0:0:
448,192,184067,1,0,0:0:0:0:
64,192,184298,1,0,0:0:0:0:
320,192,184413,1,0,0:0:0:0:
64,192,184528,128,0,184990:0:0:0:0:
192,192,184528,1,0,0:0:0:0:
320,192,184528,1,0,0:0:0:0:
192,192,184759,1,0,0:0:0:0:
448,192,184874,1,0,0:0:0:0:
320,192,184990,1,0,0:0:0:0:
448,192,184990,1,0,0:0:0:0:
192,192,185221,1,0,0:0:0:0:
320,192,185221,1,0,0:0:0:0:
448,192,185221,1,0,0:0:0:0:
64,192,185336,1,0,0:0:0:0:
448,192,185336,1,0,0:0:0:0:
192,192,185451,1,0,0:0:0:0:
320,192,185451,1,0,0:0:0:0:
64,192,185451,128,0,185913:0:0:0:0:
320,192,185682,1,0,0:0:0:0:
192,192,185682,1,0,0:0:0:0:
192,192,185798,1,0,0:0:0:0:
320,192,185913,1,0,0:0:0:0:
448,192,185913,1,0,0:0:0:0:
192,192,186144,1,0,0:0:0:0:
448,192,186144,1,0,0:0:0:0:
64,192,186259,1,0,0:0:0:0:
192,192,186259,1,0,0:0:0:0:
448,192,186374,1,0,0:0:0:0:
64,192,186374,1,0,0:0:0:0:
320,192,186374,128,0,186836:0:0:0:0:
192,192,186605,1,0,0:0:0:0:
448,192,186605,1,0,0:0:0:0:
64,192,186721,1,0,0:0:0:0:
448,192,186721,1,0,0:0:0:0:
192,192,186836,1,0,0:0:0:0:
64,192,186836,1,0,0:0:0:0:
192,192,187067,1,0,0:0:0:0:
448,192,187067,1,0,0:0:0:0:
320,192,187182,1,0,0:0:0:0:
448,192,187182,1,0,0:0:0:0:
64,192,187298,1,0,0:0:0:0:
320,192,187298,1,0,0:0:0:0:
192,192,187298,128,0,187759:0:0:0:0:
320,192,187528,1,0,0:0:0:0:
448,192,187528,1,0,0:0:0:0:
320,192,187644,1,0,0:0:0:0:
448,192,187644,1,0,0:0:0:0:
64,192,187759,1,0,0:0:0:0:
448,192,187759,1,0,0:0:0:0:
320,192,187990,1,0,0:0:0:0:
192,192,187990,1,0,0:0:0:0:
64,192,188105,1,0,0:0:0:0:
320,192,188105,1,0,0:0:0:0:
64,192,188221,1,0,0:0:0:0:
192,192,188221,1,0,0:0:0:0:
448,192,188221,128,0,188682:0:0:0:0:
64,192,188451,1,0,0:0:0:0:
320,192,188451,1,0,0:0:0:0:
192,192,188567,1,0,0:0:0:0:
320,192,188567,1,0,0:0:0:0:
64,192,188682,1,0,0:0:0:0:
192,192,188682,1,0,0:0:0:0:
192,192,188913,1,0,0:0:0:0:
320,192,188913,1,0,0:0:0:0:
448,192,188913,1,0,0:0:0:0:
64,192,189144,128,0,189374:0:0:0:0:
192,192,189144,1,0,0:0:0:0:
320,192,189144,1,0,0:0:0:0:
192,192,189374,1,0,0:0:0:0:
448,192,189374,1,0,0:0:0:0:
320,192,189490,1,0,0:0:0:0:
64,192,189490,1,0,0:0:0:0:
448,192,189605,128,0,189836:0:0:0:0:
192,192,189605,1,0,0:0:0:0:
64,192,189605,1,0,0:0:0:0:
192,192,189836,1,0,0:0:0:0:
320,192,189836,1,0,0:0:0:0:
320,192,190067,128,0,190298:0:0:0:0:
64,192,190067,1,0,0:0:0:0:
448,192,190067,1,0,0:0:0:0:
192,192,190182,1,0,0:0:0:0:
448,192,190182,1,0,0:0:0:0:
64,192,190298,1,0,0:0:0:0:
192,192,190298,1,0,0:0:0:0:
192,192,190528,128,0,190759:0:0:0:0:
320,192,190528,1,0,0:0:0:0:
448,192,190528,1,0,0:0:0:0:
320,192,190759,1,0,0:0:0:0:
64,192,190759,1,0,0:0:0:0:
320,192,190990,128,0,191221:0:0:0:0:
64,192,190990,1,0,0:0:0:0:
448,192,190990,1,0,0:0:0:0:
192,192,191221,1,0,0:0:0:0:
448,192,191221,1,0,0:0:0:0:
192,192,191451,128,0,191682:0:0:0:0:
320,192,191451,1,0,0:0:0:0:
448,192,191451,1,0,0:0:0:0:
64,192,191682,1,0,0:0:0:0:
448,192,191682,1,0,0:0:0:0:
320,192,191913,128,0,192144:0:0:0:0:
64,192,191913,1,0,0:0:0:0:
192,192,191913,1,0,0:0:0:0:
448,192,192028,1,0,0:0:0:0:
64,192,192028,1,0,0:0:0:0:
64,192,192144,1,0,0:0:0:0:
192,192,192144,1,0,0:0:0:0:
64,192,192374,128,0,192605:0:0:0:0:
192,192,192374,1,0,0:0:0:0:
320,192,192374,1,0,0:0:0:0:
192,192,192605,1,0,0:0:0:0:
448,192,192605,1,0,0:0:0:0:
320,192,192721,1,0,0:0:0:0:
448,192,192721,1,0,0:0:0:0:
320,192,192836,128,0,193067:0:0:0:0:
64,192,192836,1,0,0:0:0:0:
192,192,192836,1,0,0:0:0:0:
64,192,193067,1,0,0:0:0:0:
448,192,193067,1,0,0:0:0:0:
64,192,193182,1,0,0:0:0:0:
192,192,193182,1,0,0:0:0:0:
192,192,193298,128,0,193528:0:0:0:0:
320,192,193298,1,0,0:0:0:0:
448,192,193298,1,0,0:0:0:0:
320,192,193528,1,0,0:0:0:0:
64,192,193528,1,0,0:0:0:0:
64,192,193644,1,0,0:0:0:0:
448,192,193644,1,0,0:0:0:0:
448,192,193759,128,0,193990:0:0:0:0:
192,192,193759,1,0,0:0:0:0:
320,192,193759,1,0,0:0:0:0:
64,192,193990,1,0,0:0:0:0:
320,192,193990,1,0,0:0:0:0:
192,192,194105,1,0,0:0:0:0:
64,192,194105,1,0,0:0:0:0:
320,192,194221,128,0,194451:0:0:0:0:
192,192,194221,1,0,0:0:0:0:
448,192,194221,1,0,0:0:0:0:
64,192,194451,1,0,0:0:0:0:
448,192,194451,1,0,0:0:0:0:
192,192,194567,1,0,0:0:0:0:
320,192,194567,1,0,0:0:0:0:
448,192,194682,128,0,194913:0:0:0:0:
64,192,194682,1,0,0:0:0:0:
192,192,194682,1,0,0:0:0:0:
64,192,194913,1,0,0:0:0:0:
320,192,194913,1,0,0:0:0:0:
320,192,195028,1,0,0:0:0:0:
448,192,195028,1,0,0:0:0:0:
192,192,195144,128,0,195374:0:0:0:0:
64,192,195144,1,0,0:0:0:0:
448,192,195144,1,0,0:0:0:0:
320,192,195374,1,0,0:0:0:0:
448,192,195374,1,0,0:0:0:0:
64,192,195605,128,0,195836:0:0:0:0:
320,192,195605,1,0,0:0:0:0:
448,192,195605,1,0,0:0:0:0:
192,192,195836,1,0,0:0:0:0:
320,192,195836,1,0,0:0:0:0:
320,192,195951,1,0,0:0:0:0:
448,192,195951,1,0,0:0:0:0:
64,192,196298,1,0,0:0:0:0:
320,192,196413,1,0,0:0:0:0:
192,192,196759,1,0,0:0:0:0:
64,192,196874,1,0,0:0:0:0:
320,192,197221,1,0,0:0:0:0:
448,192,197336,1,0,0:0:0:0:
192,192,197682,1,0,0:0:0:0:
448,192,197798,1,0,0:0:0:0:
