osu file format v14

[General]
AudioFilename: Pure My Voices.mp3
AudioLeadIn: 0
PreviewTime: 74939
Countdown: 0
SampleSet: Soft
StackLeniency: 0.7
Mode: 3
LetterboxInBreaks: 0
SpecialStyle: 0
WidescreenStoryboard: 0

[Editor]
DistanceSpacing: 1
BeatDivisor: 4
GridSize: 8
TimelineZoom: 3.199999

[Metadata]
Title:Simple PACK
TitleUnicode:Simple PACK
Artist:Various Artists
ArtistUnicode:Various Artists
Creator:frolica
Version:ave;new feat. Sakura Saori - Pure My Voices [9]
Source:
Tags:
BeatmapID:1010012
BeatmapSetID:472712

[Difficulty]
HPDrainRate:8
CircleSize:4
OverallDifficulty:8
ApproachRate:5
SliderMultiplier:1.4
SliderTickRate:1

[Events]
//Background and Video events
0,0,"BG2.jpg",0,0
//Break Periods
//Storyboard Layer 0 (Background)
//Storyboard Layer 1 (Fail)
//Storyboard Layer 2 (Pass)
//Storyboard Layer 3 (Foreground)
//Storyboard Sound Samples

[TimingPoints]
955,451.127819548872,4,2,0,0,1,0

[HitObjects]
64,192,2759,5,0,0:0:0:0:
448,192,2759,1,0,0:0:0:0:
192,192,2985,1,0,0:0:0:0:
320,192,3210,1,0,0:0:0:0:
448,192,3436,1,0,0:0:0:0:
64,192,3661,1,0,0:0:0:0:
320,192,3661,1,0,0:0:0:0:
192,192,3887,1,0,0:0:0:0:
448,192,4112,1,0,0:0:0:0:
320,192,4338,1,0,0:0:0:0:
64,192,4564,1,0,0:0:0:0:
448,192,4564,1,0,0:0:0:0:
192,192,4789,1,0,0:0:0:0:
320,192,5015,1,0,0:0:0:0:
64,192,5240,1,0,0:0:0:0:
448,192,5466,1,0,0:0:0:0:
320,192,5691,1,0,0:0:0:0:
192,192,5917,1,0,0:0:0:0:
64,192,6142,1,0,0:0:0:0:
192,192,6368,1,0,0:0:0:0:
448,192,6368,1,0,0:0:0:0:
64,192,6594,1,0,0:0:0:0:
320,192,6819,1,0,0:0:0:0:
448,192,7045,1,0,0:0:0:0:
64,192,7270,1,0,0:0:0:0:
320,192,7270,1,0,0:0:0:0:
448,192,7496,1,0,0:0:0:0:
320,192,7721,1,0,0:0:0:0:
192,192,7947,1,0,0:0:0:0:
64,192,8173,1,0,0:0:0:0:
448,192,8173,1,0,0:0:0:0:
320,192,8398,1,0,0:0:0:0:
448,192,8624,1,0,0:0:0:0:
192,192,8849,1,0,0:0:0:0:
64,192,9075,1,0,0:0:0:0:
448,192,9075,1,0,0:0:0:0:
192,192,9300,1,0,0:0:0:0:
320,192,9526,1,0,0:0:0:0:
448,192,9751,1,0,0:0:0:0:
64,192,9977,1,0,0:0:0:0:
320,192,9977,1,0,0:0:0:0:
192,192,9977,1,0,0:0:0:0:
448,192,9977,1,0,0:0:0:0:
64,192,10090,1,0,0:0:0:0:
192,192,10203,1,0,0:0:0:0:
320,192,10315,1,0,0:0:0:0:
448,192,10428,1,0,0:0:0:0:
192,192,10541,1,0,0:0:0:0:
320,192,10654,1,0,0:0:0:0:
64,192,10767,1,0,0:0:0:0:
192,192,10879,1,0,0:0:0:0:
448,192,10879,1,0,0:0:0:0:
448,192,10992,1,0,0:0:0:0:
320,192,11105,1,0,0:0:0:0:
192,192,11218,1,0,0:0:0:0:
64,192,11330,1,0,0:0:0:0:
320,192,11443,1,0,0:0:0:0:
192,192,11556,1,0,0:0:0:0:
448,192,11669,1,0,0:0:0:0:
64,192,11782,1,0,0:0:0:0:
320,192,11782,1,0,0:0:0:0:
320,192,11894,1,0,0:0:0:0:
192,192,12007,1,0,0:0:0:0:
448,192,12120,1,0,0:0:0:0:
64,192,12233,1,0,0:0:0:0:
320,192,12345,1,0,0:0:0:0:
192,192,12458,1,0,0:0:0:0:
64,192,12571,1,0,0:0:0:0:
192,192,12684,1,0,0:0:0:0:
448,192,12684,1,0,0:0:0:0:
192,192,12797,1,0,0:0:0:0:
320,192,12909,1,0,0:0:0:0:
64,192,13022,1,0,0:0:0:0:
448,192,13135,1,0,0:0:0:0:
320,192,13248,1,0,0:0:0:0:
192,192,13361,1,0,0:0:0:0:
448,192,13473,1,0,0:0:0:0:
64,192,13586,1,0,0:0:0:0:
320,192,13586,1,0,0:0:0:0:
320,192,13699,1,0,0:0:0:0:
192,192,13812,1,0,0:0:0:0:
448,192,13924,1,0,0:0:0:0:
64,192,14037,1,0,0:0:0:0:
320,192,14150,1,0,0:0:0:0:
192,192,14263,1,0,0:0:0:0:
448,192,14376,1,0,0:0:0:0:
64,192,14488,1,0,0:0:0:0:
320,192,14488,1,0,0:0:0:0:
64,192,14601,1,0,0:0:0:0:
192,192,14714,1,0,0:0:0:0:
448,192,14827,1,0,0:0:0:0:
64,192,14939,1,0,0:0:0:0:
320,192,15052,1,0,0:0:0:0:
192,192,15165,1,0,0:0:0:0:
448,192,15278,1,0,0:0:0:0:
64,192,15391,1,0,0:0:0:0:
320,192,15391,1,0,0:0:0:0:
192,192,15391,1,0,0:0:0:0:
64,192,15616,1,0,0:0:0:0:
192,192,15616,1,0,0:0:0:0:
320,192,15616,1,0,0:0:0:0:
320,192,15842,1,0,0:0:0:0:
448,192,15842,1,0,0:0:0:0:
64,192,15842,1,0,0:0:0:0:
192,192,15954,1,0,0:0:0:0:
448,192,15954,1,0,0:0:0:0:
192,192,16067,1,0,0:0:0:0:
320,192,16067,1,0,0:0:0:0:
64,192,16067,1,0,0:0:0:0:
64,192,16293,5,0,0:0:0:0:
320,192,16293,1,0,0:0:0:0:
64,192,16406,1,0,0:0:0:0:
192,192,16406,1,0,0:0:0:0:
320,192,16518,1,0,0:0:0:0:
448,192,16518,1,0,0:0:0:0:
192,192,16518,1,0,0:0:0:0:
64,192,16631,1,0,0:0:0:0:
320,192,16631,1,0,0:0:0:0:
448,192,16744,1,0,0:0:0:0:
192,192,16744,1,0,0:0:0:0:
448,192,16857,1,0,0:0:0:0:
320,192,16857,1,0,0:0:0:0:
320,192,16970,1,0,0:0:0:0:
64,192,16970,1,0,0:0:0:0:
192,192,16970,1,0,0:0:0:0:
448,192,17082,1,0,0:0:0:0:
192,192,17082,1,0,0:0:0:0:
64,192,17195,5,0,0:0:0:0:
192,192,17195,1,0,0:0:0:0:
320,192,17195,1,0,0:0:0:0:
448,192,17195,1,0,0:0:0:0:
64,192,17308,1,0,0:0:0:0:
320,192,17308,1,0,0:0:0:0:
320,192,17421,1,0,0:0:0:0:
448,192,17421,1,0,0:0:0:0:
64,192,17533,1,0,0:0:0:0:
192,192,17533,1,0,0:0:0:0:
192,192,17646,1,0,0:0:0:0:
448,192,17646,1,0,0:0:0:0:
320,192,17646,1,0,0:0:0:0:
64,192,17759,1,0,0:0:0:0:
448,192,17759,1,0,0:0:0:0:
192,192,17872,1,0,0:0:0:0:
320,192,17872,1,0,0:0:0:0:
192,192,17985,1,0,0:0:0:0:
448,192,17985,1,0,0:0:0:0:
64,192,18097,1,0,0:0:0:0:
320,192,18097,1,0,0:0:0:0:
448,192,18097,1,0,0:0:0:0:
320,192,18210,1,0,0:0:0:0:
64,192,18210,1,0,0:0:0:0:
64,192,18323,1,0,0:0:0:0:
192,192,18323,1,0,0:0:0:0:
448,192,18323,128,0,18436:0:0:0:0:
192,192,18436,1,0,0:0:0:0:
320,192,18548,1,0,0:0:0:0:
448,192,18548,1,0,0:0:0:0:
64,192,18548,128,0,18661:0:0:0:0:
320,192,18661,1,0,0:0:0:0:
64,192,18774,1,0,0:0:0:0:
192,192,18774,1,0,0:0:0:0:
448,192,18774,1,0,0:0:0:0:
192,192,18887,1,0,0:0:0:0:
320,192,18887,1,0,0:0:0:0:
448,192,19000,5,0,0:0:0:0:
192,192,19000,1,0,0:0:0:0:
64,192,19000,1,0,0:0:0:0:
64,192,19112,1,0,0:0:0:0:
320,192,19112,1,0,0:0:0:0:
64,192,19225,1,0,0:0:0:0:
192,192,19225,1,0,0:0:0:0:
320,192,19338,1,0,0:0:0:0:
448,192,19338,1,0,0:0:0:0:
192,192,19451,1,0,0:0:0:0:
64,192,19451,1,0,0:0:0:0:
320,192,19451,1,0,0:0:0:0:
64,192,19564,1,0,0:0:0:0:
448,192,19564,1,0,0:0:0:0:
192,192,19676,1,0,0:0:0:0:
320,192,19676,1,0,0:0:0:0:
64,192,19789,1,0,0:0:0:0:
320,192,19789,1,0,0:0:0:0:
64,192,19902,1,0,0:0:0:0:
192,192,19902,1,0,0:0:0:0:
448,192,19902,1,0,0:0:0:0:
448,192,20015,1,0,0:0:0:0:
192,192,20015,1,0,0:0:0:0:
320,192,20127,1,0,0:0:0:0:
448,192,20127,1,0,0:0:0:0:
64,192,20127,1,0,0:0:0:0:
192,192,20240,1,0,0:0:0:0:
448,192,20353,5,0,0:0:0:0:
320,192,20353,1,0,0:0:0:0:
64,192,20353,1,0,0:0:0:0:
448,192,20466,1,0,0:0:0:0:
192,192,20466,1,0,0:0:0:0:
64,192,20579,1,0,0:0:0:0:
320,192,20579,1,0,0:0:0:0:
448,192,20691,1,0,0:0:0:0:
320,192,20691,1,0,0:0:0:0:
192,192,20691,1,0,0:0:0:0:
64,192,20691,1,0,0:0:0:0:
192,192,20804,1,0,0:0:0:0:
64,192,20804,1,0,0:0:0:0:
448,192,20917,1,0,0:0:0:0:
320,192,20917,1,0,0:0:0:0:
448,192,21030,1,0,0:0:0:0:
192,192,21030,1,0,0:0:0:0:
192,192,21142,1,0,0:0:0:0:
64,192,21142,1,0,0:0:0:0:
448,192,21255,1,0,0:0:0:0:
64,192,21255,1,0,0:0:0:0:
320,192,21255,1,0,0:0:0:0:
192,192,21368,1,0,0:0:0:0:
448,192,21368,1,0,0:0:0:0:
64,192,21481,1,0,0:0:0:0:
320,192,21481,1,0,0:0:0:0:
64,192,21594,1,0,0:0:0:0:
192,192,21594,1,0,0:0:0:0:
448,192,21594,1,0,0:0:0:0:
320,192,21594,1,0,0:0:0:0:
320,192,21706,1,0,0:0:0:0:
448,192,21706,1,0,0:0:0:0:
64,192,21819,1,0,0:0:0:0:
192,192,21819,1,0,0:0:0:0:
448,192,21932,1,0,0:0:0:0:
192,192,21932,1,0,0:0:0:0:
320,192,22045,1,0,0:0:0:0:
64,192,22045,1,0,0:0:0:0:
64,192,22158,1,0,0:0:0:0:
192,192,22158,1,0,0:0:0:0:
448,192,22158,1,0,0:0:0:0:
320,192,22270,1,0,0:0:0:0:
448,192,22270,1,0,0:0:0:0:
64,192,22383,1,0,0:0:0:0:
320,192,22383,1,0,0:0:0:0:
192,192,22496,1,0,0:0:0:0:
448,192,22496,1,0,0:0:0:0:
64,192,22609,1,0,0:0:0:0:
192,192,22609,1,0,0:0:0:0:
320,192,22609,1,0,0:0:0:0:
448,192,22609,1,0,0:0:0:0:
448,192,22721,1,0,0:0:0:0:
320,192,22721,1,0,0:0:0:0:
192,192,22834,1,0,0:0:0:0:
64,192,22834,1,0,0:0:0:0:
320,192,22947,1,0,0:0:0:0:
64,192,23060,1,0,0:0:0:0:
192,192,23060,1,0,0:0:0:0:
320,192,23060,1,0,0:0:0:0:
448,192,23060,1,0,0:0:0:0:
64,192,23173,1,0,0:0:0:0:
192,192,23173,1,0,0:0:0:0:
320,192,23285,1,0,0:0:0:0:
448,192,23285,1,0,0:0:0:0:
192,192,23398,1,0,0:0:0:0:
64,192,23511,1,0,0:0:0:0:
192,192,23511,1,0,0:0:0:0:
320,192,23511,1,0,0:0:0:0:
448,192,23511,1,0,0:0:0:0:
64,192,23624,1,0,0:0:0:0:
192,192,23624,1,0,0:0:0:0:
448,192,23736,1,0,0:0:0:0:
64,192,23849,1,0,0:0:0:0:
192,192,23849,1,0,0:0:0:0:
192,192,23962,1,0,0:0:0:0:
64,192,23962,1,0,0:0:0:0:
320,192,23962,1,0,0:0:0:0:
448,192,23962,1,0,0:0:0:0:
320,192,24075,1,0,0:0:0:0:
448,192,24075,1,0,0:0:0:0:
320,192,24188,1,0,0:0:0:0:
448,192,24188,1,0,0:0:0:0:
64,192,24188,1,0,0:0:0:0:
320,192,24300,1,0,0:0:0:0:
448,192,24300,1,0,0:0:0:0:
64,192,24413,1,0,0:0:0:0:
192,192,24413,1,0,0:0:0:0:
320,192,24413,1,0,0:0:0:0:
448,192,24413,1,0,0:0:0:0:
64,192,24526,1,0,0:0:0:0:
192,192,24526,1,0,0:0:0:0:
320,192,24639,1,0,0:0:0:0:
448,192,24639,1,0,0:0:0:0:
192,192,24751,1,0,0:0:0:0:
448,192,24751,1,0,0:0:0:0:
64,192,24864,1,0,0:0:0:0:
320,192,24864,1,0,0:0:0:0:
192,192,24864,1,0,0:0:0:0:
320,192,24977,1,0,0:0:0:0:
448,192,24977,1,0,0:0:0:0:
64,192,25090,1,0,0:0:0:0:
192,192,25090,1,0,0:0:0:0:
64,192,25203,1,0,0:0:0:0:
320,192,25203,1,0,0:0:0:0:
192,192,25315,1,0,0:0:0:0:
320,192,25315,1,0,0:0:0:0:
448,192,25315,1,0,0:0:0:0:
192,192,25428,1,0,0:0:0:0:
64,192,25428,1,0,0:0:0:0:
64,192,25541,128,0,25654:0:0:0:0:
320,192,25541,1,0,0:0:0:0:
448,192,25541,1,0,0:0:0:0:
320,192,25654,1,0,0:0:0:0:
448,192,25767,128,0,25879:0:0:0:0:
192,192,25767,1,0,0:0:0:0:
64,192,25767,1,0,0:0:0:0:
192,192,25879,1,0,0:0:0:0:
64,192,25992,1,0,0:0:0:0:
448,192,25992,1,0,0:0:0:0:
320,192,25992,1,0,0:0:0:0:
192,192,26105,1,0,0:0:0:0:
320,192,26105,1,0,0:0:0:0:
64,192,26218,1,0,0:0:0:0:
448,192,26218,1,0,0:0:0:0:
192,192,26218,1,0,0:0:0:0:
320,192,26330,1,0,0:0:0:0:
64,192,26330,1,0,0:0:0:0:
192,192,26443,1,0,0:0:0:0:
448,192,26443,1,0,0:0:0:0:
64,192,26556,1,0,0:0:0:0:
320,192,26556,1,0,0:0:0:0:
448,192,26556,1,0,0:0:0:0:
64,192,26669,1,0,0:0:0:0:
192,192,26669,1,0,0:0:0:0:
448,192,26782,1,0,0:0:0:0:
320,192,26782,1,0,0:0:0:0:
64,192,26894,1,0,0:0:0:0:
192,192,26894,1,0,0:0:0:0:
448,192,26894,1,0,0:0:0:0:
320,192,27007,1,0,0:0:0:0:
192,192,27007,1,0,0:0:0:0:
64,192,27120,1,0,0:0:0:0:
320,192,27120,1,0,0:0:0:0:
448,192,27120,1,0,0:0:0:0:
192,192,27233,1,0,0:0:0:0:
448,192,27233,1,0,0:0:0:0:
64,192,27345,1,0,0:0:0:0:
192,192,27345,1,0,0:0:0:0:
320,192,27458,1,0,0:0:0:0:
448,192,27458,1,0,0:0:0:0:
192,192,27571,1,0,0:0:0:0:
64,192,27571,1,0,0:0:0:0:
320,192,27571,1,0,0:0:0:0:
192,192,27684,1,0,0:0:0:0:
448,192,27684,1,0,0:0:0:0:
320,192,27797,1,0,0:0:0:0:
64,192,27797,1,0,0:0:0:0:
448,192,27909,1,0,0:0:0:0:
320,192,27909,1,0,0:0:0:0:
192,192,27909,1,0,0:0:0:0:
64,192,27909,1,0,0:0:0:0:
192,192,28022,1,0,0:0:0:0:
64,192,28022,1,0,0:0:0:0:
448,192,28135,1,0,0:0:0:0:
320,192,28135,1,0,0:0:0:0:
448,192,28248,1,0,0:0:0:0:
192,192,28248,1,0,0:0:0:0:
192,192,28361,1,0,0:0:0:0:
64,192,28361,1,0,0:0:0:0:
448,192,28473,1,0,0:0:0:0:
64,192,28473,1,0,0:0:0:0:
320,192,28473,1,0,0:0:0:0:
192,192,28586,1,0,0:0:0:0:
448,192,28586,1,0,0:0:0:0:
64,192,28699,1,0,0:0:0:0:
320,192,28699,1,0,0:0:0:0:
64,192,28812,1,0,0:0:0:0:
192,192,28812,1,0,0:0:0:0:
448,192,28812,1,0,0:0:0:0:
320,192,28812,1,0,0:0:0:0:
320,192,28924,1,0,0:0:0:0:
448,192,28924,1,0,0:0:0:0:
64,192,29037,1,0,0:0:0:0:
192,192,29037,1,0,0:0:0:0:
448,192,29150,1,0,0:0:0:0:
192,192,29150,1,0,0:0:0:0:
320,192,29150,1,0,0:0:0:0:
320,192,29263,1,0,0:0:0:0:
64,192,29263,1,0,0:0:0:0:
64,192,29376,1,0,0:0:0:0:
192,192,29376,1,0,0:0:0:0:
448,192,29376,1,0,0:0:0:0:
320,192,29488,1,0,0:0:0:0:
448,192,29488,1,0,0:0:0:0:
64,192,29601,1,0,0:0:0:0:
320,192,29601,1,0,0:0:0:0:
192,192,29714,1,0,0:0:0:0:
448,192,29714,1,0,0:0:0:0:
192,192,29827,1,0,0:0:0:0:
64,192,29827,1,0,0:0:0:0:
448,192,29827,1,0,0:0:0:0:
320,192,29827,1,0,0:0:0:0:
320,192,29939,1,0,0:0:0:0:
64,192,30052,1,0,0:0:0:0:
448,192,30052,1,0,0:0:0:0:
192,192,30052,1,0,0:0:0:0:
64,192,30165,1,0,0:0:0:0:
192,192,30278,1,0,0:0:0:0:
64,192,30278,1,0,0:0:0:0:
448,192,30278,1,0,0:0:0:0:
320,192,30278,1,0,0:0:0:0:
448,192,30391,1,0,0:0:0:0:
64,192,30503,1,0,0:0:0:0:
192,192,30503,1,0,0:0:0:0:
320,192,30503,1,0,0:0:0:0:
192,192,30616,1,0,0:0:0:0:
192,192,30729,1,0,0:0:0:0:
64,192,30729,1,0,0:0:0:0:
448,192,30729,1,0,0:0:0:0:
320,192,30729,1,0,0:0:0:0:
320,192,30842,1,0,0:0:0:0:
448,192,30842,1,0,0:0:0:0:
64,192,30954,1,0,0:0:0:0:
320,192,31067,1,0,0:0:0:0:
192,192,31180,1,0,0:0:0:0:
64,192,31180,1,0,0:0:0:0:
320,192,31180,1,0,0:0:0:0:
448,192,31180,1,0,0:0:0:0:
64,192,31293,1,0,0:0:0:0:
192,192,31293,1,0,0:0:0:0:
448,192,31406,1,0,0:0:0:0:
64,192,31406,1,0,0:0:0:0:
192,192,31406,1,0,0:0:0:0:
64,192,31518,1,0,0:0:0:0:
192,192,31518,1,0,0:0:0:0:
192,192,31631,1,0,0:0:0:0:
64,192,31631,1,0,0:0:0:0:
448,192,31631,1,0,0:0:0:0:
320,192,31631,1,0,0:0:0:0:
192,192,31857,1,0,0:0:0:0:
448,192,31857,1,0,0:0:0:0:
64,192,32082,1,0,0:0:0:0:
192,192,32082,1,0,0:0:0:0:
320,192,32082,1,0,0:0:0:0:
192,192,32195,1,0,0:0:0:0:
448,192,32195,1,0,0:0:0:0:
64,192,32308,1,0,0:0:0:0:
320,192,32308,1,0,0:0:0:0:
320,192,32421,1,0,0:0:0:0:
448,192,32421,1,0,0:0:0:0:
64,192,32533,1,0,0:0:0:0:
192,192,32533,1,0,0:0:0:0:
448,192,32533,1,0,0:0:0:0:
192,192,32646,1,0,0:0:0:0:
320,192,32646,1,0,0:0:0:0:
64,192,32759,1,0,0:0:0:0:
320,192,32759,1,0,0:0:0:0:
192,192,32985,1,0,0:0:0:0:
320,192,32985,1,0,0:0:0:0:
448,192,32985,1,0,0:0:0:0:
64,192,33210,1,0,0:0:0:0:
320,192,33210,1,0,0:0:0:0:
192,192,33323,1,0,0:0:0:0:
320,192,33323,1,0,0:0:0:0:
64,192,33436,1,0,0:0:0:0:
320,192,33436,1,0,0:0:0:0:
448,192,33436,1,0,0:0:0:0:
192,192,33661,1,0,0:0:0:0:
448,192,33661,1,0,0:0:0:0:
320,192,33887,1,0,0:0:0:0:
64,192,33887,1,0,0:0:0:0:
192,192,33887,1,0,0:0:0:0:
192,192,34000,1,0,0:0:0:0:
448,192,34000,1,0,0:0:0:0:
64,192,34112,1,0,0:0:0:0:
448,192,34112,1,0,0:0:0:0:
192,192,34225,1,0,0:0:0:0:
320,192,34225,1,0,0:0:0:0:
64,192,34338,1,0,0:0:0:0:
320,192,34338,1,0,0:0:0:0:
448,192,34338,1,0,0:0:0:0:
64,192,34451,1,0,0:0:0:0:
192,192,34451,1,0,0:0:0:0:
192,192,34564,1,0,0:0:0:0:
448,192,34564,1,0,0:0:0:0:
64,192,34789,1,0,0:0:0:0:
192,192,34789,1,0,0:0:0:0:
320,192,34789,1,0,0:0:0:0:
64,192,35015,1,0,0:0:0:0:
192,192,35015,1,0,0:0:0:0:
320,192,35015,1,0,0:0:0:0:
64,192,35240,1,0,0:0:0:0:
192,192,35240,1,0,0:0:0:0:
320,192,35240,1,0,0:0:0:0:
448,192,35240,1,0,0:0:0:0:
64,192,35466,1,0,0:0:0:0:
320,192,35466,1,0,0:0:0:0:
192,192,35691,1,0,0:0:0:0:
320,192,35691,1,0,0:0:0:0:
448,192,35691,1,0,0:0:0:0:
64,192,35804,1,0,0:0:0:0:
320,192,35804,1,0,0:0:0:0:
64,192,35917,1,0,0:0:0:0:
192,192,35917,1,0,0:0:0:0:
192,192,36030,1,0,0:0:0:0:
448,192,36030,1,0,0:0:0:0:
64,192,36142,1,0,0:0:0:0:
320,192,36142,1,0,0:0:0:0:
448,192,36142,1,0,0:0:0:0:
192,192,36255,1,0,0:0:0:0:
320,192,36255,1,0,0:0:0:0:
192,192,36368,1,0,0:0:0:0:
448,192,36368,1,0,0:0:0:0:
64,192,36594,1,0,0:0:0:0:
192,192,36594,1,0,0:0:0:0:
320,192,36594,1,0,0:0:0:0:
448,192,36594,1,0,0:0:0:0:
192,192,36819,1,0,0:0:0:0:
192,192,36932,1,0,0:0:0:0:
64,192,37045,1,0,0:0:0:0:
192,192,37045,1,0,0:0:0:0:
448,192,37045,1,0,0:0:0:0:
320,192,37270,1,0,0:0:0:0:
320,192,37383,1,0,0:0:0:0:
64,192,37496,1,0,0:0:0:0:
320,192,37496,1,0,0:0:0:0:
448,192,37496,1,0,0:0:0:0:
192,192,37721,1,0,0:0:0:0:
64,192,37721,1,0,0:0:0:0:
192,192,37834,1,0,0:0:0:0:
64,192,37834,1,0,0:0:0:0:
64,192,37947,1,0,0:0:0:0:
448,192,37947,1,0,0:0:0:0:
320,192,37947,1,0,0:0:0:0:
320,192,38060,1,0,0:0:0:0:
448,192,38060,1,0,0:0:0:0:
64,192,38060,1,0,0:0:0:0:
192,192,38173,1,0,0:0:0:0:
320,192,38173,1,0,0:0:0:0:
64,192,38398,1,0,0:0:0:0:
192,192,38398,1,0,0:0:0:0:
320,192,38398,1,0,0:0:0:0:
448,192,38398,1,0,0:0:0:0:
64,192,38624,1,0,0:0:0:0:
192,192,38624,1,0,0:0:0:0:
320,192,38736,1,0,0:0:0:0:
448,192,38736,1,0,0:0:0:0:
64,192,38849,1,0,0:0:0:0:
192,192,38849,1,0,0:0:0:0:
320,192,38849,1,0,0:0:0:0:
448,192,38849,1,0,0:0:0:0:
64,192,39075,1,0,0:0:0:0:
320,192,39075,1,0,0:0:0:0:
192,192,39300,1,0,0:0:0:0:
320,192,39300,1,0,0:0:0:0:
448,192,39300,1,0,0:0:0:0:
64,192,39413,1,0,0:0:0:0:
320,192,39413,1,0,0:0:0:0:
192,192,39526,1,0,0:0:0:0:
448,192,39526,1,0,0:0:0:0:
64,192,39639,1,0,0:0:0:0:
192,192,39639,1,0,0:0:0:0:
64,192,39751,1,0,0:0:0:0:
320,192,39751,1,0,0:0:0:0:
448,192,39751,1,0,0:0:0:0:
192,192,39864,1,0,0:0:0:0:
320,192,39864,1,0,0:0:0:0:
192,192,39977,1,0,0:0:0:0:
448,192,39977,1,0,0:0:0:0:
64,192,40203,1,0,0:0:0:0:
192,192,40203,1,0,0:0:0:0:
320,192,40203,1,0,0:0:0:0:
192,192,40428,1,0,0:0:0:0:
64,192,40428,1,0,0:0:0:0:
320,192,40428,1,0,0:0:0:0:
192,192,40541,1,0,0:0:0:0:
448,192,40541,1,0,0:0:0:0:
64,192,40654,1,0,0:0:0:0:
448,192,40654,1,0,0:0:0:0:
320,192,40654,1,0,0:0:0:0:
64,192,40879,1,0,0:0:0:0:
320,192,40879,1,0,0:0:0:0:
320,192,41105,1,0,0:0:0:0:
448,192,41105,1,0,0:0:0:0:
192,192,41105,1,0,0:0:0:0:
64,192,41218,1,0,0:0:0:0:
320,192,41218,1,0,0:0:0:0:
64,192,41330,1,0,0:0:0:0:
448,192,41330,1,0,0:0:0:0:
192,192,41443,1,0,0:0:0:0:
320,192,41443,1,0,0:0:0:0:
64,192,41556,1,0,0:0:0:0:
192,192,41556,1,0,0:0:0:0:
448,192,41556,1,0,0:0:0:0:
320,192,41669,1,0,0:0:0:0:
448,192,41669,1,0,0:0:0:0:
64,192,41782,1,0,0:0:0:0:
320,192,41782,1,0,0:0:0:0:
320,192,42007,1,0,0:0:0:0:
448,192,42007,1,0,0:0:0:0:
64,192,42007,1,0,0:0:0:0:
320,192,42120,1,0,0:0:0:0:
448,192,42120,1,0,0:0:0:0:
320,192,42233,1,0,0:0:0:0:
448,192,42233,1,0,0:0:0:0:
320,192,42345,1,0,0:0:0:0:
448,192,42345,1,0,0:0:0:0:
192,192,42458,1,0,0:0:0:0:
64,192,42458,1,0,0:0:0:0:
448,192,42458,1,0,0:0:0:0:
320,192,42458,1,0,0:0:0:0:
192,192,42684,1,0,0:0:0:0:
448,192,42684,1,0,0:0:0:0:
64,192,42909,1,0,0:0:0:0:
192,192,42909,1,0,0:0:0:0:
320,192,42909,1,0,0:0:0:0:
192,192,43022,1,0,0:0:0:0:
448,192,43022,1,0,0:0:0:0:
320,192,43135,1,0,0:0:0:0:
448,192,43135,1,0,0:0:0:0:
64,192,43248,1,0,0:0:0:0:
320,192,43248,1,0,0:0:0:0:
64,192,43361,1,0,0:0:0:0:
192,192,43361,1,0,0:0:0:0:
448,192,43361,1,0,0:0:0:0:
192,192,43473,1,0,0:0:0:0:
320,192,43473,1,0,0:0:0:0:
64,192,43586,1,0,0:0:0:0:
320,192,43586,1,0,0:0:0:0:
192,192,43812,1,0,0:0:0:0:
64,192,43812,1,0,0:0:0:0:
448,192,43812,1,0,0:0:0:0:
320,192,43812,1,0,0:0:0:0:
320,192,44037,1,0,0:0:0:0:
320,192,44150,1,0,0:0:0:0:
64,192,44263,1,0,0:0:0:0:
320,192,44263,1,0,0:0:0:0:
448,192,44263,1,0,0:0:0:0:
192,192,44488,1,0,0:0:0:0:
64,192,44488,1,0,0:0:0:0:
448,192,44488,1,0,0:0:0:0:
320,192,44601,1,0,0:0:0:0:
64,192,44601,1,0,0:0:0:0:
192,192,44714,1,0,0:0:0:0:
448,192,44714,1,0,0:0:0:0:
320,192,44714,1,0,0:0:0:0:
320,192,44939,1,0,0:0:0:0:
192,192,44939,1,0,0:0:0:0:
192,192,45052,1,0,0:0:0:0:
64,192,45165,1,0,0:0:0:0:
320,192,45165,1,0,0:0:0:0:
448,192,45165,1,0,0:0:0:0:
192,192,45278,1,0,0:0:0:0:
448,192,45278,1,0,0:0:0:0:
320,192,45391,1,0,0:0:0:0:
64,192,45391,1,0,0:0:0:0:
192,192,45391,1,0,0:0:0:0:
192,192,45616,1,0,0:0:0:0:
64,192,45616,1,0,0:0:0:0:
448,192,45616,1,0,0:0:0:0:
320,192,45616,1,0,0:0:0:0:
64,192,45729,1,0,0:0:0:0:
192,192,45729,1,0,0:0:0:0:
448,192,45842,1,0,0:0:0:0:
64,192,45842,1,0,0:0:0:0:
192,192,45842,1,0,0:0:0:0:
64,192,45954,1,0,0:0:0:0:
192,192,45954,1,0,0:0:0:0:
64,192,46067,1,0,0:0:0:0:
192,192,46067,1,0,0:0:0:0:
320,192,46067,1,0,0:0:0:0:
448,192,46067,1,0,0:0:0:0:
192,192,46293,1,0,0:0:0:0:
448,192,46518,1,0,0:0:0:0:
64,192,46518,1,0,0:0:0:0:
320,192,46518,1,0,0:0:0:0:
192,192,46744,1,0,0:0:0:0:
192,192,46857,1,0,0:0:0:0:
64,192,46970,1,0,0:0:0:0:
320,192,46970,1,0,0:0:0:0:
448,192,46970,1,0,0:0:0:0:
192,192,47082,1,0,0:0:0:0:
192,192,47195,1,0,0:0:0:0:
64,192,47195,1,0,0:0:0:0:
448,192,47195,1,0,0:0:0:0:
64,192,47421,1,0,0:0:0:0:
448,192,47421,1,0,0:0:0:0:
192,192,47421,1,0,0:0:0:0:
320,192,47646,1,0,0:0:0:0:
320,192,47759,1,0,0:0:0:0:
64,192,47872,1,0,0:0:0:0:
192,192,47872,1,0,0:0:0:0:
448,192,47872,1,0,0:0:0:0:
320,192,48097,1,0,0:0:0:0:
192,192,48323,1,0,0:0:0:0:
448,192,48323,1,0,0:0:0:0:
64,192,48323,1,0,0:0:0:0:
320,192,48548,1,0,0:0:0:0:
320,192,48661,1,0,0:0:0:0:
64,192,48774,1,0,0:0:0:0:
192,192,48774,1,0,0:0:0:0:
448,192,48774,1,0,0:0:0:0:
192,192,48887,1,0,0:0:0:0:
448,192,49000,1,0,0:0:0:0:
320,192,49000,1,0,0:0:0:0:
320,192,49225,1,0,0:0:0:0:
64,192,49225,1,0,0:0:0:0:
448,192,49225,1,0,0:0:0:0:
64,192,49451,1,0,0:0:0:0:
320,192,49451,1,0,0:0:0:0:
64,192,49564,1,0,0:0:0:0:
320,192,49676,1,0,0:0:0:0:
448,192,49676,1,0,0:0:0:0:
192,192,49676,1,0,0:0:0:0:
64,192,49676,1,0,0:0:0:0:
320,192,49902,1,0,0:0:0:0:
192,192,50127,1,0,0:0:0:0:
448,192,50127,1,0,0:0:0:0:
64,192,50127,1,0,0:0:0:0:
320,192,50353,1,0,0:0:0:0:
320,192,50466,1,0,0:0:0:0:
64,192,50579,1,0,0:0:0:0:
192,192,50579,1,0,0:0:0:0:
448,192,50579,1,0,0:0:0:0:
320,192,50691,1,0,0:0:0:0:
64,192,50804,1,0,0:0:0:0:
448,192,50804,1,0,0:0:0:0:
320,192,50804,1,0,0:0:0:0:
320,192,51030,1,0,0:0:0:0:
64,192,51030,1,0,0:0:0:0:
448,192,51030,1,0,0:0:0:0:
192,192,51255,1,0,0:0:0:0:
192,192,51368,1,0,0:0:0:0:
64,192,51481,1,0,0:0:0:0:
320,192,51481,1,0,0:0:0:0:
448,192,51481,1,0,0:0:0:0:
192,192,51706,1,0,0:0:0:0:
448,192,51932,1,0,0:0:0:0:
64,192,51932,1,0,0:0:0:0:
320,192,51932,1,0,0:0:0:0:
192,192,52158,1,0,0:0:0:0:
192,192,52270,1,0,0:0:0:0:
64,192,52383,1,0,0:0:0:0:
320,192,52383,1,0,0:0:0:0:
448,192,52383,1,0,0:0:0:0:
320,192,52496,1,0,0:0:0:0:
192,192,52496,1,0,0:0:0:0:
448,192,52609,1,0,0:0:0:0:
64,192,52609,1,0,0:0:0:0:
320,192,52721,1,0,0:0:0:0:
192,192,52721,1,0,0:0:0:0:
64,192,52834,1,0,0:0:0:0:
448,192,52834,1,0,0:0:0:0:
320,192,52834,1,0,0:0:0:0:
192,192,52947,1,0,0:0:0:0:
448,192,52947,1,0,0:0:0:0:
192,192,53060,1,0,0:0:0:0:
64,192,53060,1,0,0:0:0:0:
320,192,53060,1,0,0:0:0:0:
320,192,53285,1,0,0:0:0:0:
448,192,53285,1,0,0:0:0:0:
192,192,53285,1,0,0:0:0:0:
64,192,53285,1,0,0:0:0:0:
192,192,53511,1,0,0:0:0:0:
320,192,53736,1,0,0:0:0:0:
64,192,53736,1,0,0:0:0:0:
448,192,53736,1,0,0:0:0:0:
192,192,53962,1,0,0:0:0:0:
192,192,54075,1,0,0:0:0:0:
448,192,54188,1,0,0:0:0:0:
320,192,54188,1,0,0:0:0:0:
64,192,54188,1,0,0:0:0:0:
192,192,54300,1,0,0:0:0:0:
448,192,54413,1,0,0:0:0:0:
64,192,54413,1,0,0:0:0:0:
192,192,54413,1,0,0:0:0:0:
192,192,54639,1,0,0:0:0:0:
448,192,54639,1,0,0:0:0:0:
64,192,54639,1,0,0:0:0:0:
320,192,54864,1,0,0:0:0:0:
320,192,54977,1,0,0:0:0:0:
448,192,55090,1,0,0:0:0:0:
192,192,55090,1,0,0:0:0:0:
64,192,55090,1,0,0:0:0:0:
320,192,55315,1,0,0:0:0:0:
64,192,55541,1,0,0:0:0:0:
448,192,55541,1,0,0:0:0:0:
192,192,55541,1,0,0:0:0:0:
320,192,55767,1,0,0:0:0:0:
320,192,55879,1,0,0:0:0:0:
448,192,55992,1,0,0:0:0:0:
192,192,55992,1,0,0:0:0:0:
64,192,55992,1,0,0:0:0:0:
192,192,56105,1,0,0:0:0:0:
320,192,56218,1,0,0:0:0:0:
448,192,56218,1,0,0:0:0:0:
64,192,56218,1,0,0:0:0:0:
192,192,56330,1,0,0:0:0:0:
448,192,56443,1,0,0:0:0:0:
64,192,56443,1,0,0:0:0:0:
320,192,56443,1,0,0:0:0:0:
320,192,56556,1,0,0:0:0:0:
64,192,56669,1,0,0:0:0:0:
192,192,56669,1,0,0:0:0:0:
448,192,56669,1,0,0:0:0:0:
320,192,56782,1,0,0:0:0:0:
192,192,56894,1,0,0:0:0:0:
64,192,56894,1,0,0:0:0:0:
320,192,56894,1,0,0:0:0:0:
448,192,56894,1,0,0:0:0:0:
192,192,57120,1,0,0:0:0:0:
448,192,57345,1,0,0:0:0:0:
64,192,57345,1,0,0:0:0:0:
320,192,57345,1,0,0:0:0:0:
192,192,57571,1,0,0:0:0:0:
192,192,57684,1,0,0:0:0:0:
64,192,57797,1,0,0:0:0:0:
320,192,57797,1,0,0:0:0:0:
448,192,57797,1,0,0:0:0:0:
192,192,57909,1,0,0:0:0:0:
192,192,58022,1,0,0:0:0:0:
64,192,58022,1,0,0:0:0:0:
448,192,58022,1,0,0:0:0:0:
64,192,58248,1,0,0:0:0:0:
448,192,58248,1,0,0:0:0:0:
192,192,58248,1,0,0:0:0:0:
320,192,58473,1,0,0:0:0:0:
320,192,58586,1,0,0:0:0:0:
64,192,58699,1,0,0:0:0:0:
192,192,58699,1,0,0:0:0:0:
448,192,58699,1,0,0:0:0:0:
320,192,58924,1,0,0:0:0:0:
192,192,59150,1,0,0:0:0:0:
448,192,59150,1,0,0:0:0:0:
64,192,59150,1,0,0:0:0:0:
320,192,59376,1,0,0:0:0:0:
320,192,59488,1,0,0:0:0:0:
64,192,59601,1,0,0:0:0:0:
192,192,59601,1,0,0:0:0:0:
448,192,59601,1,0,0:0:0:0:
320,192,59714,1,0,0:0:0:0:
192,192,59714,1,0,0:0:0:0:
448,192,59827,1,0,0:0:0:0:
64,192,59827,1,0,0:0:0:0:
320,192,59939,1,0,0:0:0:0:
192,192,59939,1,0,0:0:0:0:
192,192,60052,1,0,0:0:0:0:
64,192,60052,1,0,0:0:0:0:
448,192,60052,1,0,0:0:0:0:
64,192,60165,1,0,0:0:0:0:
320,192,60165,1,0,0:0:0:0:
192,192,60278,1,0,0:0:0:0:
448,192,60278,1,0,0:0:0:0:
320,192,60278,1,0,0:0:0:0:
320,192,60503,1,0,0:0:0:0:
448,192,60503,1,0,0:0:0:0:
192,192,60503,1,0,0:0:0:0:
64,192,60503,1,0,0:0:0:0:
192,192,60954,1,0,0:0:0:0:
448,192,60954,1,0,0:0:0:0:
64,192,61180,1,0,0:0:0:0:
192,192,61180,1,0,0:0:0:0:
64,192,61406,1,0,0:0:0:0:
192,192,61406,1,0,0:0:0:0:
448,192,61631,1,0,0:0:0:0:
192,192,61631,1,0,0:0:0:0:
192,192,61857,1,0,0:0:0:0:
448,192,61857,1,0,0:0:0:0:
192,192,62308,1,0,0:0:0:0:
320,192,62308,1,0,0:0:0:0:
64,192,62759,1,0,0:0:0:0:
448,192,62759,1,0,0:0:0:0:
64,192,62985,1,0,0:0:0:0:
448,192,62985,1,0,0:0:0:0:
192,192,63210,1,0,0:0:0:0:
320,192,63210,1,0,0:0:0:0:
64,192,63661,1,0,0:0:0:0:
448,192,63661,1,0,0:0:0:0:
192,192,64112,1,0,0:0:0:0:
64,192,64112,1,0,0:0:0:0:
320,192,64112,1,0,0:0:0:0:
448,192,64112,1,0,0:0:0:0:
320,192,64564,1,0,0:0:0:0:
64,192,64564,1,0,0:0:0:0:
448,192,64789,1,0,0:0:0:0:
320,192,64789,1,0,0:0:0:0:
448,192,65015,1,0,0:0:0:0:
320,192,65015,1,0,0:0:0:0:
64,192,65240,1,0,0:0:0:0:
320,192,65240,1,0,0:0:0:0:
320,192,65466,1,0,0:0:0:0:
64,192,65466,1,0,0:0:0:0:
320,192,65917,1,0,0:0:0:0:
192,192,65917,1,0,0:0:0:0:
448,192,66368,1,0,0:0:0:0:
64,192,66368,1,0,0:0:0:0:
448,192,66594,1,0,0:0:0:0:
64,192,66594,1,0,0:0:0:0:
320,192,66819,1,0,0:0:0:0:
192,192,66819,1,0,0:0:0:0:
64,192,66819,1,0,0:0:0:0:
320,192,66932,1,0,0:0:0:0:
448,192,66932,1,0,0:0:0:0:
64,192,67045,1,0,0:0:0:0:
192,192,67045,1,0,0:0:0:0:
320,192,67158,1,0,0:0:0:0:
448,192,67158,1,0,0:0:0:0:
192,192,67270,1,0,0:0:0:0:
320,192,67270,1,0,0:0:0:0:
448,192,67270,1,0,0:0:0:0:
64,192,67383,1,0,0:0:0:0:
192,192,67383,1,0,0:0:0:0:
320,192,67496,1,0,0:0:0:0:
448,192,67496,1,0,0:0:0:0:
64,192,67609,1,0,0:0:0:0:
192,192,67609,1,0,0:0:0:0:
192,192,67721,1,0,0:0:0:0:
320,192,67721,1,0,0:0:0:0:
64,192,67721,1,0,0:0:0:0:
448,192,67834,1,0,0:0:0:0:
320,192,67947,1,0,0:0:0:0:
64,192,67947,1,0,0:0:0:0:
192,192,68060,1,0,0:0:0:0:
64,192,68173,1,0,0:0:0:0:
192,192,68173,1,0,0:0:0:0:
448,192,68173,1,0,0:0:0:0:
448,192,68285,1,0,0:0:0:0:
192,192,68398,1,0,0:0:0:0:
320,192,68398,1,0,0:0:0:0:
192,192,68511,1,0,0:0:0:0:
64,192,68624,1,0,0:0:0:0:
320,192,68624,1,0,0:0:0:0:
448,192,68624,1,0,0:0:0:0:
192,192,68736,1,0,0:0:0:0:
64,192,68849,1,0,0:0:0:0:
448,192,68849,1,0,0:0:0:0:
320,192,68962,1,0,0:0:0:0:
64,192,69075,1,0,0:0:0:0:
448,192,69075,1,0,0:0:0:0:
320,192,69075,1,0,0:0:0:0:
64,192,69188,1,0,0:0:0:0:
192,192,69300,1,0,0:0:0:0:
320,192,69300,1,0,0:0:0:0:
320,192,69413,1,0,0:0:0:0:
64,192,69526,1,0,0:0:0:0:
448,192,69526,1,0,0:0:0:0:
192,192,69526,1,0,0:0:0:0:
320,192,69639,1,0,0:0:0:0:
448,192,69751,1,0,0:0:0:0:
64,192,69751,1,0,0:0:0:0:
192,192,69864,1,0,0:0:0:0:
64,192,69977,1,0,0:0:0:0:
192,192,69977,1,0,0:0:0:0:
320,192,69977,1,0,0:0:0:0:
320,192,70090,1,0,0:0:0:0:
64,192,70203,1,0,0:0:0:0:
448,192,70203,1,0,0:0:0:0:
64,192,70315,1,0,0:0:0:0:
192,192,70428,1,0,0:0:0:0:
320,192,70428,1,0,0:0:0:0:
448,192,70428,1,0,0:0:0:0:
64,192,70541,1,0,0:0:0:0:
192,192,70654,1,0,0:0:0:0:
448,192,70654,1,0,0:0:0:0:
320,192,70767,1,0,0:0:0:0:
320,192,70879,1,0,0:0:0:0:
448,192,70879,1,0,0:0:0:0:
192,192,70879,1,0,0:0:0:0:
192,192,70992,1,0,0:0:0:0:
64,192,71105,1,0,0:0:0:0:
448,192,71105,1,0,0:0:0:0:
64,192,71218,1,0,0:0:0:0:
192,192,71330,1,0,0:0:0:0:
320,192,71330,1,0,0:0:0:0:
448,192,71330,1,0,0:0:0:0:
64,192,71443,1,0,0:0:0:0:
192,192,71556,1,0,0:0:0:0:
448,192,71556,1,0,0:0:0:0:
320,192,71669,1,0,0:0:0:0:
64,192,71782,1,0,0:0:0:0:
320,192,71782,1,0,0:0:0:0:
448,192,71782,1,0,0:0:0:0:
192,192,71894,1,0,0:0:0:0:
64,192,72007,1,0,0:0:0:0:
192,192,72007,1,0,0:0:0:0:
448,192,72007,1,0,0:0:0:0:
320,192,72120,1,0,0:0:0:0:
64,192,72233,5,0,0:0:0:0:
192,192,72233,1,0,0:0:0:0:
320,192,72345,1,0,0:0:0:0:
192,192,72345,1,0,0:0:0:0:
320,192,72458,1,0,0:0:0:0:
448,192,72458,1,0,0:0:0:0:
64,192,72458,1,0,0:0:0:0:
192,192,72571,1,0,0:0:0:0:
448,192,72571,1,0,0:0:0:0:
64,192,72684,1,0,0:0:0:0:
192,192,72684,1,0,0:0:0:0:
320,192,72684,1,0,0:0:0:0:
448,192,72684,1,0,0:0:0:0:
64,192,72797,1,0,0:0:0:0:
320,192,72797,1,0,0:0:0:0:
448,192,72909,1,0,0:0:0:0:
320,192,72909,1,0,0:0:0:0:
64,192,72909,1,0,0:0:0:0:
192,192,72909,1,0,0:0:0:0:
448,192,73022,1,0,0:0:0:0:
192,192,73022,1,0,0:0:0:0:
192,192,73135,1,0,0:0:0:0:
320,192,73135,1,0,0:0:0:0:
192,192,73248,1,0,0:0:0:0:
320,192,73248,1,0,0:0:0:0:
64,192,73361,128,0,73530:0:0:0:0:
320,192,73361,128,0,73530:0:0:0:0:
448,192,73361,128,0,73530:0:0:0:0:
320,192,73586,128,0,73755:0:0:0:0:
448,192,73586,128,0,73755:0:0:0:0:
64,192,73586,128,0,73755:0:0:0:0:
192,192,73812,1,0,0:0:0:0:
320,192,73812,1,0,0:0:0:0:
64,192,74037,128,0,74206:0:0:0:0:
192,192,74037,128,0,74206:0:0:0:0:
448,192,74037,128,0,74206:0:0:0:0:
64,192,74263,128,0,74432:0:0:0:0:
192,192,74263,128,0,74432:0:0:0:0:
448,192,74263,128,0,74432:0:0:0:0:
64,192,74488,5,0,0:0:0:0:
192,192,74488,1,0,0:0:0:0:
320,192,74488,1,0,0:0:0:0:
448,192,74488,1,0,0:0:0:0:
320,192,74601,1,0,0:0:0:0:
192,192,74714,1,0,0:0:0:0:
448,192,74714,1,0,0:0:0:0:
192,192,74827,1,0,0:0:0:0:
64,192,74939,5,0,0:0:0:0:
320,192,74939,1,0,0:0:0:0:
192,192,74939,1,0,0:0:0:0:
448,192,74939,1,0,0:0:0:0:
64,192,75052,1,0,0:0:0:0:
320,192,75052,1,0,0:0:0:0:
320,192,75165,1,0,0:0:0:0:
448,192,75165,1,0,0:0:0:0:
64,192,75278,1,0,0:0:0:0:
192,192,75278,1,0,0:0:0:0:
192,192,75391,1,0,0:0:0:0:
448,192,75391,1,0,0:0:0:0:
320,192,75391,1,0,0:0:0:0:
64,192,75503,1,0,0:0:0:0:
448,192,75503,1,0,0:0:0:0:
192,192,75616,1,0,0:0:0:0:
320,192,75616,1,0,0:0:0:0:
192,192,75729,1,0,0:0:0:0:
448,192,75729,1,0,0:0:0:0:
64,192,75842,1,0,0:0:0:0:
320,192,75842,1,0,0:0:0:0:
448,192,75842,1,0,0:0:0:0:
320,192,75954,1,0,0:0:0:0:
64,192,75954,1,0,0:0:0:0:
64,192,76067,1,0,0:0:0:0:
192,192,76067,1,0,0:0:0:0:
448,192,76067,128,0,76180:0:0:0:0:
192,192,76180,1,0,0:0:0:0:
320,192,76293,1,0,0:0:0:0:
448,192,76293,1,0,0:0:0:0:
64,192,76293,128,0,76406:0:0:0:0:
320,192,76406,1,0,0:0:0:0:
64,192,76518,1,0,0:0:0:0:
192,192,76518,1,0,0:0:0:0:
448,192,76518,1,0,0:0:0:0:
192,192,76631,1,0,0:0:0:0:
320,192,76631,1,0,0:0:0:0:
448,192,76744,5,0,0:0:0:0:
192,192,76744,1,0,0:0:0:0:
64,192,76744,1,0,0:0:0:0:
64,192,76857,1,0,0:0:0:0:
320,192,76857,1,0,0:0:0:0:
64,192,76970,1,0,0:0:0:0:
192,192,76970,1,0,0:0:0:0:
320,192,77082,1,0,0:0:0:0:
448,192,77082,1,0,0:0:0:0:
192,192,77195,1,0,0:0:0:0:
64,192,77195,1,0,0:0:0:0:
320,192,77195,1,0,0:0:0:0:
64,192,77308,1,0,0:0:0:0:
448,192,77308,1,0,0:0:0:0:
192,192,77421,1,0,0:0:0:0:
320,192,77421,1,0,0:0:0:0:
64,192,77533,1,0,0:0:0:0:
320,192,77533,1,0,0:0:0:0:
64,192,77646,1,0,0:0:0:0:
192,192,77646,1,0,0:0:0:0:
448,192,77646,1,0,0:0:0:0:
448,192,77759,1,0,0:0:0:0:
192,192,77759,1,0,0:0:0:0:
320,192,77872,1,0,0:0:0:0:
448,192,77872,1,0,0:0:0:0:
64,192,77872,1,0,0:0:0:0:
192,192,77985,1,0,0:0:0:0:
448,192,78097,5,0,0:0:0:0:
320,192,78097,1,0,0:0:0:0:
64,192,78097,1,0,0:0:0:0:
448,192,78210,1,0,0:0:0:0:
192,192,78210,1,0,0:0:0:0:
64,192,78323,1,0,0:0:0:0:
320,192,78323,1,0,0:0:0:0:
448,192,78436,1,0,0:0:0:0:
320,192,78436,1,0,0:0:0:0:
192,192,78436,1,0,0:0:0:0:
64,192,78436,1,0,0:0:0:0:
192,192,78548,1,0,0:0:0:0:
64,192,78548,1,0,0:0:0:0:
448,192,78661,1,0,0:0:0:0:
320,192,78661,1,0,0:0:0:0:
448,192,78774,1,0,0:0:0:0:
192,192,78774,1,0,0:0:0:0:
192,192,78887,1,0,0:0:0:0:
64,192,78887,1,0,0:0:0:0:
448,192,79000,1,0,0:0:0:0:
64,192,79000,1,0,0:0:0:0:
320,192,79000,1,0,0:0:0:0:
192,192,79112,1,0,0:0:0:0:
448,192,79112,1,0,0:0:0:0:
64,192,79225,1,0,0:0:0:0:
320,192,79225,1,0,0:0:0:0:
64,192,79338,1,0,0:0:0:0:
192,192,79338,1,0,0:0:0:0:
448,192,79338,1,0,0:0:0:0:
320,192,79338,1,0,0:0:0:0:
320,192,79451,1,0,0:0:0:0:
448,192,79451,1,0,0:0:0:0:
64,192,79564,1,0,0:0:0:0:
192,192,79564,1,0,0:0:0:0:
448,192,79676,1,0,0:0:0:0:
192,192,79676,1,0,0:0:0:0:
320,192,79789,1,0,0:0:0:0:
64,192,79789,1,0,0:0:0:0:
64,192,79902,1,0,0:0:0:0:
192,192,79902,1,0,0:0:0:0:
448,192,79902,1,0,0:0:0:0:
320,192,80015,1,0,0:0:0:0:
448,192,80015,1,0,0:0:0:0:
64,192,80127,1,0,0:0:0:0:
320,192,80127,1,0,0:0:0:0:
192,192,80240,1,0,0:0:0:0:
448,192,80240,1,0,0:0:0:0:
64,192,80353,1,0,0:0:0:0:
192,192,80353,1,0,0:0:0:0:
320,192,80353,1,0,0:0:0:0:
448,192,80353,1,0,0:0:0:0:
448,192,80466,1,0,0:0:0:0:
320,192,80466,1,0,0:0:0:0:
192,192,80579,1,0,0:0:0:0:
64,192,80579,1,0,0:0:0:0:
320,192,80691,1,0,0:0:0:0:
64,192,80804,1,0,0:0:0:0:
192,192,80804,1,0,0:0:0:0:
320,192,80804,1,0,0:0:0:0:
448,192,80804,1,0,0:0:0:0:
64,192,80917,1,0,0:0:0:0:
192,192,80917,1,0,0:0:0:0:
320,192,81030,1,0,0:0:0:0:
448,192,81030,1,0,0:0:0:0:
192,192,81142,1,0,0:0:0:0:
64,192,81255,1,0,0:0:0:0:
192,192,81255,1,0,0:0:0:0:
320,192,81255,1,0,0:0:0:0:
448,192,81255,1,0,0:0:0:0:
64,192,81368,1,0,0:0:0:0:
192,192,81368,1,0,0:0:0:0:
448,192,81481,1,0,0:0:0:0:
64,192,81594,1,0,0:0:0:0:
192,192,81594,1,0,0:0:0:0:
192,192,81706,1,0,0:0:0:0:
64,192,81706,1,0,0:0:0:0:
320,192,81706,1,0,0:0:0:0:
448,192,81706,1,0,0:0:0:0:
320,192,81819,1,0,0:0:0:0:
448,192,81819,1,0,0:0:0:0:
320,192,81932,1,0,0:0:0:0:
448,192,81932,1,0,0:0:0:0:
64,192,81932,1,0,0:0:0:0:
320,192,82045,1,0,0:0:0:0:
448,192,82045,1,0,0:0:0:0:
64,192,82158,1,0,0:0:0:0:
192,192,82158,1,0,0:0:0:0:
320,192,82158,1,0,0:0:0:0:
448,192,82158,1,0,0:0:0:0:
64,192,82270,1,0,0:0:0:0:
192,192,82270,1,0,0:0:0:0:
320,192,82383,1,0,0:0:0:0:
448,192,82383,1,0,0:0:0:0:
192,192,82496,1,0,0:0:0:0:
448,192,82496,1,0,0:0:0:0:
64,192,82609,1,0,0:0:0:0:
320,192,82609,1,0,0:0:0:0:
192,192,82609,1,0,0:0:0:0:
320,192,82721,1,0,0:0:0:0:
448,192,82721,1,0,0:0:0:0:
64,192,82834,1,0,0:0:0:0:
192,192,82834,1,0,0:0:0:0:
64,192,82947,1,0,0:0:0:0:
320,192,82947,1,0,0:0:0:0:
192,192,83060,1,0,0:0:0:0:
320,192,83060,1,0,0:0:0:0:
448,192,83060,1,0,0:0:0:0:
192,192,83173,1,0,0:0:0:0:
64,192,83173,1,0,0:0:0:0:
64,192,83285,128,0,83398:0:0:0:0:
320,192,83285,1,0,0:0:0:0:
448,192,83285,1,0,0:0:0:0:
320,192,83398,1,0,0:0:0:0:
448,192,83511,128,0,83624:0:0:0:0:
192,192,83511,1,0,0:0:0:0:
64,192,83511,1,0,0:0:0:0:
192,192,83624,1,0,0:0:0:0:
64,192,83736,1,0,0:0:0:0:
448,192,83736,1,0,0:0:0:0:
320,192,83736,1,0,0:0:0:0:
192,192,83849,1,0,0:0:0:0:
320,192,83849,1,0,0:0:0:0:
64,192,83962,1,0,0:0:0:0:
448,192,83962,1,0,0:0:0:0:
192,192,83962,1,0,0:0:0:0:
320,192,84075,1,0,0:0:0:0:
64,192,84075,1,0,0:0:0:0:
192,192,84188,1,0,0:0:0:0:
448,192,84188,1,0,0:0:0:0:
64,192,84300,1,0,0:0:0:0:
320,192,84300,1,0,0:0:0:0:
448,192,84300,1,0,0:0:0:0:
64,192,84413,1,0,0:0:0:0:
192,192,84413,1,0,0:0:0:0:
448,192,84526,1,0,0:0:0:0:
320,192,84526,1,0,0:0:0:0:
64,192,84639,1,0,0:0:0:0:
192,192,84639,1,0,0:0:0:0:
448,192,84639,1,0,0:0:0:0:
320,192,84751,1,0,0:0:0:0:
192,192,84751,1,0,0:0:0:0:
64,192,84864,1,0,0:0:0:0:
320,192,84864,1,0,0:0:0:0:
448,192,84864,1,0,0:0:0:0:
192,192,84977,1,0,0:0:0:0:
448,192,84977,1,0,0:0:0:0:
64,192,85090,1,0,0:0:0:0:
192,192,85090,1,0,0:0:0:0:
320,192,85203,1,0,0:0:0:0:
448,192,85203,1,0,0:0:0:0:
192,192,85315,1,0,0:0:0:0:
64,192,85315,1,0,0:0:0:0:
320,192,85315,1,0,0:0:0:0:
192,192,85428,1,0,0:0:0:0:
448,192,85428,1,0,0:0:0:0:
320,192,85541,1,0,0:0:0:0:
64,192,85541,1,0,0:0:0:0:
448,192,85654,1,0,0:0:0:0:
320,192,85654,1,0,0:0:0:0:
192,192,85654,1,0,0:0:0:0:
64,192,85654,1,0,0:0:0:0:
192,192,85767,1,0,0:0:0:0:
64,192,85767,1,0,0:0:0:0:
448,192,85879,1,0,0:0:0:0:
320,192,85879,1,0,0:0:0:0:
448,192,85992,1,0,0:0:0:0:
192,192,85992,1,0,0:0:0:0:
192,192,86105,1,0,0:0:0:0:
64,192,86105,1,0,0:0:0:0:
448,192,86218,1,0,0:0:0:0:
64,192,86218,1,0,0:0:0:0:
320,192,86218,1,0,0:0:0:0:
192,192,86330,1,0,0:0:0:0:
448,192,86330,1,0,0:0:0:0:
64,192,86443,1,0,0:0:0:0:
320,192,86443,1,0,0:0:0:0:
64,192,86556,1,0,0:0:0:0:
192,192,86556,1,0,0:0:0:0:
448,192,86556,1,0,0:0:0:0:
320,192,86556,1,0,0:0:0:0:
320,192,86669,1,0,0:0:0:0:
448,192,86669,1,0,0:0:0:0:
64,192,86782,1,0,0:0:0:0:
192,192,86782,1,0,0:0:0:0:
448,192,86894,1,0,0:0:0:0:
192,192,86894,1,0,0:0:0:0:
320,192,86894,1,0,0:0:0:0:
320,192,87007,1,0,0:0:0:0:
64,192,87007,1,0,0:0:0:0:
64,192,87120,1,0,0:0:0:0:
192,192,87120,1,0,0:0:0:0:
448,192,87120,1,0,0:0:0:0:
320,192,87233,1,0,0:0:0:0:
448,192,87233,1,0,0:0:0:0:
64,192,87345,1,0,0:0:0:0:
320,192,87345,1,0,0:0:0:0:
192,192,87458,1,0,0:0:0:0:
448,192,87458,1,0,0:0:0:0:
192,192,87571,1,0,0:0:0:0:
64,192,87571,1,0,0:0:0:0:
448,192,87571,1,0,0:0:0:0:
320,192,87571,1,0,0:0:0:0:
320,192,87684,1,0,0:0:0:0:
64,192,87797,1,0,0:0:0:0:
448,192,87797,1,0,0:0:0:0:
192,192,87797,1,0,0:0:0:0:
64,192,87909,1,0,0:0:0:0:
192,192,88022,1,0,0:0:0:0:
64,192,88022,1,0,0:0:0:0:
448,192,88022,1,0,0:0:0:0:
320,192,88022,1,0,0:0:0:0:
448,192,88135,1,0,0:0:0:0:
64,192,88248,1,0,0:0:0:0:
192,192,88248,1,0,0:0:0:0:
320,192,88248,1,0,0:0:0:0:
192,192,88361,1,0,0:0:0:0:
192,192,88473,1,0,0:0:0:0:
64,192,88473,1,0,0:0:0:0:
448,192,88473,1,0,0:0:0:0:
320,192,88473,1,0,0:0:0:0:
320,192,88586,1,0,0:0:0:0:
448,192,88586,1,0,0:0:0:0:
64,192,88699,1,0,0:0:0:0:
320,192,88812,1,0,0:0:0:0:
192,192,88924,1,0,0:0:0:0:
64,192,88924,1,0,0:0:0:0:
320,192,88924,1,0,0:0:0:0:
448,192,88924,1,0,0:0:0:0:
64,192,89037,1,0,0:0:0:0:
192,192,89037,1,0,0:0:0:0:
448,192,89150,1,0,0:0:0:0:
64,192,89150,1,0,0:0:0:0:
192,192,89150,1,0,0:0:0:0:
64,192,89263,1,0,0:0:0:0:
192,192,89263,1,0,0:0:0:0:
64,192,89376,5,0,0:0:0:0:
448,192,89376,1,0,0:0:0:0:
192,192,89376,1,0,0:0:0:0:
320,192,89376,1,0,0:0:0:0:
320,192,89488,1,0,0:0:0:0:
448,192,89488,1,0,0:0:0:0:
64,192,89601,1,0,0:0:0:0:
320,192,89601,1,0,0:0:0:0:
448,192,89714,1,0,0:0:0:0:
192,192,89714,1,0,0:0:0:0:
192,192,89827,1,0,0:0:0:0:
320,192,89827,1,0,0:0:0:0:
64,192,89827,1,0,0:0:0:0:
448,192,89939,1,0,0:0:0:0:
64,192,89939,1,0,0:0:0:0:
192,192,90052,1,0,0:0:0:0:
320,192,90052,1,0,0:0:0:0:
448,192,90165,1,0,0:0:0:0:
320,192,90165,1,0,0:0:0:0:
448,192,90278,1,0,0:0:0:0:
192,192,90278,1,0,0:0:0:0:
64,192,90278,1,0,0:0:0:0:
64,192,90391,1,0,0:0:0:0:
320,192,90391,1,0,0:0:0:0:
448,192,90503,128,0,90616:0:0:0:0:
64,192,90503,1,0,0:0:0:0:
192,192,90503,1,0,0:0:0:0:
192,192,90616,1,0,0:0:0:0:
64,192,90729,128,0,90842:0:0:0:0:
448,192,90729,1,0,0:0:0:0:
320,192,90729,1,0,0:0:0:0:
320,192,90842,1,0,0:0:0:0:
448,192,90954,1,0,0:0:0:0:
64,192,90954,1,0,0:0:0:0:
192,192,90954,1,0,0:0:0:0:
192,192,91067,1,0,0:0:0:0:
320,192,91067,1,0,0:0:0:0:
448,192,91180,5,0,0:0:0:0:
64,192,91180,1,0,0:0:0:0:
320,192,91180,1,0,0:0:0:0:
192,192,91293,1,0,0:0:0:0:
64,192,91293,1,0,0:0:0:0:
320,192,91406,1,0,0:0:0:0:
64,192,91406,1,0,0:0:0:0:
448,192,91518,1,0,0:0:0:0:
192,192,91518,1,0,0:0:0:0:
192,192,91631,1,0,0:0:0:0:
64,192,91631,1,0,0:0:0:0:
320,192,91631,1,0,0:0:0:0:
448,192,91744,1,0,0:0:0:0:
64,192,91744,1,0,0:0:0:0:
192,192,91857,1,0,0:0:0:0:
320,192,91857,1,0,0:0:0:0:
192,192,91970,1,0,0:0:0:0:
64,192,91970,1,0,0:0:0:0:
448,192,92082,1,0,0:0:0:0:
320,192,92082,1,0,0:0:0:0:
64,192,92082,1,0,0:0:0:0:
320,192,92195,1,0,0:0:0:0:
448,192,92195,1,0,0:0:0:0:
64,192,92308,1,0,0:0:0:0:
448,192,92308,1,0,0:0:0:0:
192,192,92308,1,0,0:0:0:0:
320,192,92421,1,0,0:0:0:0:
448,192,92533,5,0,0:0:0:0:
64,192,92533,1,0,0:0:0:0:
192,192,92533,1,0,0:0:0:0:
320,192,92646,1,0,0:0:0:0:
448,192,92646,1,0,0:0:0:0:
192,192,92759,1,0,0:0:0:0:
64,192,92759,1,0,0:0:0:0:
320,192,92872,1,0,0:0:0:0:
64,192,92872,1,0,0:0:0:0:
448,192,92872,1,0,0:0:0:0:
192,192,92872,1,0,0:0:0:0:
64,192,92985,1,0,0:0:0:0:
320,192,92985,1,0,0:0:0:0:
192,192,93097,1,0,0:0:0:0:
448,192,93097,1,0,0:0:0:0:
320,192,93210,1,0,0:0:0:0:
448,192,93210,1,0,0:0:0:0:
64,192,93323,1,0,0:0:0:0:
320,192,93323,1,0,0:0:0:0:
192,192,93436,1,0,0:0:0:0:
64,192,93436,1,0,0:0:0:0:
448,192,93436,1,0,0:0:0:0:
448,192,93548,1,0,0:0:0:0:
320,192,93548,1,0,0:0:0:0:
192,192,93661,1,0,0:0:0:0:
64,192,93661,1,0,0:0:0:0:
448,192,93774,1,0,0:0:0:0:
192,192,93774,1,0,0:0:0:0:
64,192,93774,1,0,0:0:0:0:
320,192,93774,1,0,0:0:0:0:
448,192,93887,1,0,0:0:0:0:
192,192,93887,1,0,0:0:0:0:
320,192,94000,1,0,0:0:0:0:
64,192,94000,1,0,0:0:0:0:
320,192,94112,1,0,0:0:0:0:
448,192,94112,1,0,0:0:0:0:
64,192,94225,1,0,0:0:0:0:
192,192,94225,1,0,0:0:0:0:
448,192,94338,1,0,0:0:0:0:
320,192,94338,1,0,0:0:0:0:
64,192,94338,1,0,0:0:0:0:
448,192,94451,1,0,0:0:0:0:
192,192,94451,1,0,0:0:0:0:
192,192,94564,1,0,0:0:0:0:
64,192,94564,1,0,0:0:0:0:
448,192,94676,1,0,0:0:0:0:
320,192,94676,1,0,0:0:0:0:
192,192,94789,1,0,0:0:0:0:
448,192,94789,1,0,0:0:0:0:
64,192,94789,1,0,0:0:0:0:
320,192,94789,1,0,0:0:0:0:
192,192,94902,1,0,0:0:0:0:
448,192,94902,1,0,0:0:0:0:
64,192,95015,1,0,0:0:0:0:
320,192,95015,1,0,0:0:0:0:
192,192,95127,1,0,0:0:0:0:
192,192,95240,1,0,0:0:0:0:
448,192,95240,1,0,0:0:0:0:
64,192,95240,1,0,0:0:0:0:
320,192,95240,1,0,0:0:0:0:
320,192,95353,1,0,0:0:0:0:
64,192,95353,1,0,0:0:0:0:
448,192,95466,1,0,0:0:0:0:
192,192,95466,1,0,0:0:0:0:
320,192,95579,1,0,0:0:0:0:
192,192,95691,1,0,0:0:0:0:
448,192,95691,1,0,0:0:0:0:
64,192,95691,1,0,0:0:0:0:
320,192,95691,1,0,0:0:0:0:
320,192,95804,1,0,0:0:0:0:
64,192,95804,1,0,0:0:0:0:
448,192,95917,1,0,0:0:0:0:
320,192,96030,1,0,0:0:0:0:
64,192,96030,1,0,0:0:0:0:
192,192,96142,1,0,0:0:0:0:
448,192,96142,1,0,0:0:0:0:
320,192,96142,1,0,0:0:0:0:
64,192,96142,1,0,0:0:0:0:
448,192,96255,1,0,0:0:0:0:
320,192,96255,1,0,0:0:0:0:
64,192,96368,1,0,0:0:0:0:
448,192,96368,1,0,0:0:0:0:
320,192,96368,1,0,0:0:0:0:
448,192,96481,1,0,0:0:0:0:
320,192,96481,1,0,0:0:0:0:
192,192,96594,1,0,0:0:0:0:
448,192,96594,1,0,0:0:0:0:
64,192,96594,1,0,0:0:0:0:
320,192,96594,1,0,0:0:0:0:
64,192,96706,1,0,0:0:0:0:
192,192,96706,1,0,0:0:0:0:
448,192,96819,1,0,0:0:0:0:
192,192,96819,1,0,0:0:0:0:
448,192,96932,1,0,0:0:0:0:
320,192,96932,1,0,0:0:0:0:
320,192,97045,1,0,0:0:0:0:
192,192,97045,1,0,0:0:0:0:
64,192,97045,1,0,0:0:0:0:
448,192,97158,1,0,0:0:0:0:
192,192,97158,1,0,0:0:0:0:
320,192,97270,1,0,0:0:0:0:
64,192,97270,1,0,0:0:0:0:
192,192,97383,1,0,0:0:0:0:
64,192,97383,1,0,0:0:0:0:
448,192,97496,1,0,0:0:0:0:
192,192,97496,1,0,0:0:0:0:
320,192,97496,1,0,0:0:0:0:
64,192,97609,1,0,0:0:0:0:
448,192,97609,1,0,0:0:0:0:
192,192,97721,1,0,0:0:0:0:
64,192,97721,128,0,97834:0:0:0:0:
320,192,97721,1,0,0:0:0:0:
320,192,97834,1,0,0:0:0:0:
64,192,97947,1,0,0:0:0:0:
448,192,97947,128,0,98060:0:0:0:0:
192,192,97947,1,0,0:0:0:0:
192,192,98060,1,0,0:0:0:0:
448,192,98173,1,0,0:0:0:0:
64,192,98173,1,0,0:0:0:0:
320,192,98173,1,0,0:0:0:0:
192,192,98285,1,0,0:0:0:0:
64,192,98285,1,0,0:0:0:0:
320,192,98398,1,0,0:0:0:0:
448,192,98398,1,0,0:0:0:0:
192,192,98398,1,0,0:0:0:0:
64,192,98511,1,0,0:0:0:0:
320,192,98511,1,0,0:0:0:0:
448,192,98624,1,0,0:0:0:0:
192,192,98624,1,0,0:0:0:0:
448,192,98736,1,0,0:0:0:0:
192,192,98736,1,0,0:0:0:0:
64,192,98736,1,0,0:0:0:0:
320,192,98849,1,0,0:0:0:0:
64,192,98849,1,0,0:0:0:0:
192,192,98962,1,0,0:0:0:0:
448,192,98962,1,0,0:0:0:0:
448,192,99075,1,0,0:0:0:0:
320,192,99075,1,0,0:0:0:0:
64,192,99075,1,0,0:0:0:0:
320,192,99188,1,0,0:0:0:0:
192,192,99188,1,0,0:0:0:0:
448,192,99300,1,0,0:0:0:0:
192,192,99300,1,0,0:0:0:0:
64,192,99300,1,0,0:0:0:0:
448,192,99413,1,0,0:0:0:0:
320,192,99413,1,0,0:0:0:0:
320,192,99526,1,0,0:0:0:0:
64,192,99526,1,0,0:0:0:0:
448,192,99639,1,0,0:0:0:0:
192,192,99639,1,0,0:0:0:0:
192,192,99751,1,0,0:0:0:0:
64,192,99751,1,0,0:0:0:0:
320,192,99751,1,0,0:0:0:0:
448,192,99864,1,0,0:0:0:0:
320,192,99864,1,0,0:0:0:0:
64,192,99977,1,0,0:0:0:0:
192,192,99977,1,0,0:0:0:0:
320,192,100090,1,0,0:0:0:0:
64,192,100090,1,0,0:0:0:0:
448,192,100090,1,0,0:0:0:0:
192,192,100090,1,0,0:0:0:0:
64,192,100203,1,0,0:0:0:0:
320,192,100203,1,0,0:0:0:0:
192,192,100315,1,0,0:0:0:0:
448,192,100315,1,0,0:0:0:0:
320,192,100428,1,0,0:0:0:0:
448,192,100428,1,0,0:0:0:0:
64,192,100541,1,0,0:0:0:0:
320,192,100541,1,0,0:0:0:0:
192,192,100654,1,0,0:0:0:0:
64,192,100654,1,0,0:0:0:0:
448,192,100654,1,0,0:0:0:0:
448,192,100767,1,0,0:0:0:0:
320,192,100767,1,0,0:0:0:0:
192,192,100879,1,0,0:0:0:0:
64,192,100879,1,0,0:0:0:0:
448,192,100992,1,0,0:0:0:0:
192,192,100992,1,0,0:0:0:0:
64,192,100992,1,0,0:0:0:0:
320,192,100992,1,0,0:0:0:0:
448,192,101105,1,0,0:0:0:0:
192,192,101105,1,0,0:0:0:0:
320,192,101218,1,0,0:0:0:0:
64,192,101218,1,0,0:0:0:0:
192,192,101330,1,0,0:0:0:0:
320,192,101330,1,0,0:0:0:0:
448,192,101330,1,0,0:0:0:0:
64,192,101443,1,0,0:0:0:0:
192,192,101443,1,0,0:0:0:0:
448,192,101556,1,0,0:0:0:0:
320,192,101556,1,0,0:0:0:0:
64,192,101556,1,0,0:0:0:0:
448,192,101669,1,0,0:0:0:0:
192,192,101669,1,0,0:0:0:0:
192,192,101782,1,0,0:0:0:0:
64,192,101782,1,0,0:0:0:0:
448,192,101894,1,0,0:0:0:0:
320,192,101894,1,0,0:0:0:0:
64,192,102007,1,0,0:0:0:0:
320,192,102007,1,0,0:0:0:0:
192,192,102007,1,0,0:0:0:0:
448,192,102007,1,0,0:0:0:0:
64,192,102233,1,0,0:0:0:0:
320,192,102233,1,0,0:0:0:0:
192,192,102458,1,0,0:0:0:0:
320,192,102458,1,0,0:0:0:0:
448,192,102458,1,0,0:0:0:0:
64,192,102571,1,0,0:0:0:0:
320,192,102571,1,0,0:0:0:0:
192,192,102684,1,0,0:0:0:0:
448,192,102684,1,0,0:0:0:0:
64,192,102797,1,0,0:0:0:0:
192,192,102797,1,0,0:0:0:0:
64,192,102909,1,0,0:0:0:0:
320,192,102909,1,0,0:0:0:0:
448,192,102909,1,0,0:0:0:0:
192,192,103022,1,0,0:0:0:0:
320,192,103022,1,0,0:0:0:0:
192,192,103135,1,0,0:0:0:0:
448,192,103135,1,0,0:0:0:0:
64,192,103361,1,0,0:0:0:0:
192,192,103361,1,0,0:0:0:0:
320,192,103361,1,0,0:0:0:0:
192,192,103586,1,0,0:0:0:0:
448,192,103586,1,0,0:0:0:0:
192,192,103699,1,0,0:0:0:0:
320,192,103699,1,0,0:0:0:0:
64,192,103812,1,0,0:0:0:0:
192,192,103812,1,0,0:0:0:0:
448,192,103812,1,0,0:0:0:0:
64,192,104037,1,0,0:0:0:0:
320,192,104037,1,0,0:0:0:0:
320,192,104263,1,0,0:0:0:0:
448,192,104263,1,0,0:0:0:0:
192,192,104263,1,0,0:0:0:0:
64,192,104376,1,0,0:0:0:0:
320,192,104376,1,0,0:0:0:0:
64,192,104488,1,0,0:0:0:0:
448,192,104488,1,0,0:0:0:0:
192,192,104601,1,0,0:0:0:0:
320,192,104601,1,0,0:0:0:0:
64,192,104714,1,0,0:0:0:0:
192,192,104714,1,0,0:0:0:0:
448,192,104714,1,0,0:0:0:0:
320,192,104827,1,0,0:0:0:0:
448,192,104827,1,0,0:0:0:0:
64,192,104939,1,0,0:0:0:0:
320,192,104939,1,0,0:0:0:0:
192,192,105165,1,0,0:0:0:0:
320,192,105165,1,0,0:0:0:0:
448,192,105165,1,0,0:0:0:0:
192,192,105391,1,0,0:0:0:0:
320,192,105391,1,0,0:0:0:0:
448,192,105391,1,0,0:0:0:0:
192,192,105616,1,0,0:0:0:0:
64,192,105616,1,0,0:0:0:0:
448,192,105616,1,0,0:0:0:0:
320,192,105616,1,0,0:0:0:0:
192,192,105842,1,0,0:0:0:0:
448,192,105842,1,0,0:0:0:0:
64,192,106067,1,0,0:0:0:0:
192,192,106067,1,0,0:0:0:0:
320,192,106067,1,0,0:0:0:0:
192,192,106180,1,0,0:0:0:0:
448,192,106180,1,0,0:0:0:0:
320,192,106293,1,0,0:0:0:0:
448,192,106293,1,0,0:0:0:0:
64,192,106406,1,0,0:0:0:0:
320,192,106406,1,0,0:0:0:0:
64,192,106518,1,0,0:0:0:0:
192,192,106518,1,0,0:0:0:0:
448,192,106518,1,0,0:0:0:0:
192,192,106631,1,0,0:0:0:0:
320,192,106631,1,0,0:0:0:0:
64,192,106744,1,0,0:0:0:0:
320,192,106744,1,0,0:0:0:0:
192,192,106970,1,0,0:0:0:0:
64,192,106970,1,0,0:0:0:0:
448,192,106970,1,0,0:0:0:0:
320,192,106970,1,0,0:0:0:0:
320,192,107195,1,0,0:0:0:0:
320,192,107308,1,0,0:0:0:0:
64,192,107421,1,0,0:0:0:0:
320,192,107421,1,0,0:0:0:0:
448,192,107421,1,0,0:0:0:0:
192,192,107646,1,0,0:0:0:0:
192,192,107759,1,0,0:0:0:0:
64,192,107872,1,0,0:0:0:0:
192,192,107872,1,0,0:0:0:0:
448,192,107872,1,0,0:0:0:0:
448,192,108097,1,0,0:0:0:0:
320,192,108097,1,0,0:0:0:0:
448,192,108210,1,0,0:0:0:0:
320,192,108210,1,0,0:0:0:0:
192,192,108323,1,0,0:0:0:0:
64,192,108323,1,0,0:0:0:0:
448,192,108323,1,0,0:0:0:0:
448,192,108436,1,0,0:0:0:0:
64,192,108436,1,0,0:0:0:0:
192,192,108436,1,0,0:0:0:0:
192,192,108548,1,0,0:0:0:0:
320,192,108548,1,0,0:0:0:0:
192,192,108774,1,0,0:0:0:0:
64,192,108774,1,0,0:0:0:0:
448,192,108774,1,0,0:0:0:0:
320,192,108774,1,0,0:0:0:0:
192,192,108887,1,0,0:0:0:0:
64,192,108887,1,0,0:0:0:0:
448,192,109000,1,0,0:0:0:0:
192,192,109000,1,0,0:0:0:0:
64,192,109000,1,0,0:0:0:0:
192,192,109112,1,0,0:0:0:0:
64,192,109112,1,0,0:0:0:0:
192,192,109225,1,0,0:0:0:0:
64,192,109225,1,0,0:0:0:0:
448,192,109225,1,0,0:0:0:0:
320,192,109225,1,0,0:0:0:0:
192,192,109451,1,0,0:0:0:0:
448,192,109451,1,0,0:0:0:0:
64,192,109676,1,0,0:0:0:0:
192,192,109676,1,0,0:0:0:0:
320,192,109676,1,0,0:0:0:0:
192,192,109789,1,0,0:0:0:0:
448,192,109789,1,0,0:0:0:0:
64,192,109902,1,0,0:0:0:0:
320,192,109902,1,0,0:0:0:0:
320,192,110015,1,0,0:0:0:0:
448,192,110015,1,0,0:0:0:0:
64,192,110127,1,0,0:0:0:0:
192,192,110127,1,0,0:0:0:0:
448,192,110127,1,0,0:0:0:0:
192,192,110240,1,0,0:0:0:0:
320,192,110240,1,0,0:0:0:0:
64,192,110353,1,0,0:0:0:0:
320,192,110353,1,0,0:0:0:0:
192,192,110579,1,0,0:0:0:0:
320,192,110579,1,0,0:0:0:0:
448,192,110579,1,0,0:0:0:0:
192,192,110804,1,0,0:0:0:0:
448,192,110804,1,0,0:0:0:0:
320,192,110804,1,0,0:0:0:0:
64,192,110917,1,0,0:0:0:0:
320,192,110917,1,0,0:0:0:0:
192,192,111030,1,0,0:0:0:0:
64,192,111030,1,0,0:0:0:0:
448,192,111030,1,0,0:0:0:0:
192,192,111255,1,0,0:0:0:0:
448,192,111255,1,0,0:0:0:0:
320,192,111481,1,0,0:0:0:0:
64,192,111481,1,0,0:0:0:0:
192,192,111481,1,0,0:0:0:0:
192,192,111594,1,0,0:0:0:0:
448,192,111594,1,0,0:0:0:0:
64,192,111706,1,0,0:0:0:0:
448,192,111706,1,0,0:0:0:0:
192,192,111819,1,0,0:0:0:0:
320,192,111819,1,0,0:0:0:0:
64,192,111932,1,0,0:0:0:0:
320,192,111932,1,0,0:0:0:0:
448,192,111932,1,0,0:0:0:0:
64,192,112045,1,0,0:0:0:0:
192,192,112045,1,0,0:0:0:0:
192,192,112158,1,0,0:0:0:0:
448,192,112158,1,0,0:0:0:0:
448,192,112383,1,0,0:0:0:0:
64,192,112383,1,0,0:0:0:0:
192,192,112383,1,0,0:0:0:0:
192,192,112496,1,0,0:0:0:0:
320,192,112496,1,0,0:0:0:0:
192,192,112609,1,0,0:0:0:0:
448,192,112609,1,0,0:0:0:0:
448,192,112721,1,0,0:0:0:0:
320,192,112721,1,0,0:0:0:0:
64,192,112834,1,0,0:0:0:0:
192,192,112834,1,0,0:0:0:0:
320,192,112834,1,0,0:0:0:0:
448,192,112834,1,0,0:0:0:0:
64,192,113060,1,0,0:0:0:0:
320,192,113060,1,0,0:0:0:0:
192,192,113285,1,0,0:0:0:0:
320,192,113285,1,0,0:0:0:0:
448,192,113285,1,0,0:0:0:0:
64,192,113398,1,0,0:0:0:0:
320,192,113398,1,0,0:0:0:0:
64,192,113511,1,0,0:0:0:0:
192,192,113511,1,0,0:0:0:0:
192,192,113624,1,0,0:0:0:0:
448,192,113624,1,0,0:0:0:0:
64,192,113736,1,0,0:0:0:0:
320,192,113736,1,0,0:0:0:0:
448,192,113736,1,0,0:0:0:0:
192,192,113849,1,0,0:0:0:0:
320,192,113849,1,0,0:0:0:0:
192,192,113962,1,0,0:0:0:0:
448,192,113962,1,0,0:0:0:0:
64,192,114188,1,0,0:0:0:0:
192,192,114188,1,0,0:0:0:0:
320,192,114188,1,0,0:0:0:0:
448,192,114188,1,0,0:0:0:0:
192,192,114413,1,0,0:0:0:0:
192,192,114526,1,0,0:0:0:0:
64,192,114639,1,0,0:0:0:0:
192,192,114639,1,0,0:0:0:0:
448,192,114639,1,0,0:0:0:0:
64,192,114864,1,0,0:0:0:0:
448,192,114864,1,0,0:0:0:0:
320,192,114864,1,0,0:0:0:0:
448,192,114977,1,0,0:0:0:0:
192,192,114977,1,0,0:0:0:0:
192,192,115090,1,0,0:0:0:0:
64,192,115090,1,0,0:0:0:0:
320,192,115090,1,0,0:0:0:0:
320,192,115315,1,0,0:0:0:0:
192,192,115315,1,0,0:0:0:0:
320,192,115428,1,0,0:0:0:0:
64,192,115541,1,0,0:0:0:0:
192,192,115541,1,0,0:0:0:0:
448,192,115541,1,0,0:0:0:0:
64,192,115654,1,0,0:0:0:0:
320,192,115654,1,0,0:0:0:0:
320,192,115767,1,0,0:0:0:0:
448,192,115767,1,0,0:0:0:0:
192,192,115767,1,0,0:0:0:0:
64,192,115879,1,0,0:0:0:0:
192,192,115879,1,0,0:0:0:0:
64,192,115992,1,0,0:0:0:0:
192,192,115992,1,0,0:0:0:0:
320,192,115992,1,0,0:0:0:0:
448,192,115992,1,0,0:0:0:0:
320,192,116105,1,0,0:0:0:0:
448,192,116105,1,0,0:0:0:0:
320,192,116218,1,0,0:0:0:0:
448,192,116218,1,0,0:0:0:0:
64,192,116218,1,0,0:0:0:0:
320,192,116330,1,0,0:0:0:0:
448,192,116330,1,0,0:0:0:0:
192,192,116443,128,0,120052:0:0:0:0:
320,192,116443,128,0,120052:0:0:0:0:
448,192,116443,128,0,120052:0:0:0:0:
64,192,116443,128,0,120052:0:0:0:0:
