osu file format v14

[General]
AudioFilename: Lost Woods.mp3
AudioLeadIn: 0
PreviewTime: 299
Countdown: 0
SampleSet: None
StackLeniency: 0.7
Mode: 3
LetterboxInBreaks: 0
SpecialStyle: 0
WidescreenStoryboard: 0

[Editor]
DistanceSpacing: 1
BeatDivisor: 4
GridSize: 8
TimelineZoom: 4.199998

[Metadata]
Title:Simple PACK
TitleUnicode:Simple PACK
Artist:Various Artists
ArtistUnicode:Various Artists
Creator:frolica
Version:Koji Kondo - Lost Woods [7]
Source:
Tags:
BeatmapID:1010021
BeatmapSetID:472712

[Difficulty]
HPDrainRate:8
CircleSize:4
OverallDifficulty:8
ApproachRate:5
SliderMultiplier:1.4
SliderTickRate:1

[Events]
//Background and Video events
0,0,"BG1.jpg",0,0
//Break Periods
//Storyboard Layer 0 (Background)
//Storyboard Layer 1 (Fail)
//Storyboard Layer 2 (Pass)
//Storyboard Layer 3 (Foreground)
//Storyboard Sound Samples

[TimingPoints]
299,428.571428571429,4,2,0,0,1,0

[HitObjects]
64,192,299,5,0,0:0:0:0:
320,192,299,1,0,0:0:0:0:
448,192,299,1,0,0:0:0:0:
64,192,513,1,0,0:0:0:0:
64,192,620,1,0,0:0:0:0:
64,192,727,1,0,0:0:0:0:
64,192,941,1,0,0:0:0:0:
64,192,1049,1,0,0:0:0:0:
64,192,1156,1,0,0:0:0:0:
64,192,1370,1,0,0:0:0:0:
192,192,1799,1,0,0:0:0:0:
320,192,1799,1,0,0:0:0:0:
64,192,2013,1,0,0:0:0:0:
192,192,2013,1,0,0:0:0:0:
448,192,2013,1,0,0:0:0:0:
64,192,2227,1,0,0:0:0:0:
320,192,2227,1,0,0:0:0:0:
320,192,2334,1,0,0:0:0:0:
320,192,2441,1,0,0:0:0:0:
192,192,2441,1,0,0:0:0:0:
192,192,2656,1,0,0:0:0:0:
448,192,2656,1,0,0:0:0:0:
64,192,2870,1,0,0:0:0:0:
448,192,2870,1,0,0:0:0:0:
320,192,2870,1,0,0:0:0:0:
64,192,3084,1,0,0:0:0:0:
320,192,3084,1,0,0:0:0:0:
64,192,3191,1,0,0:0:0:0:
64,192,3299,1,0,0:0:0:0:
448,192,3299,1,0,0:0:0:0:
192,192,3299,1,0,0:0:0:0:
320,192,3513,1,0,0:0:0:0:
192,192,3513,1,0,0:0:0:0:
448,192,3727,1,0,0:0:0:0:
320,192,3727,1,0,0:0:0:0:
64,192,3727,1,0,0:0:0:0:
448,192,3941,1,0,0:0:0:0:
192,192,3941,1,0,0:0:0:0:
192,192,4049,1,0,0:0:0:0:
192,192,4156,1,0,0:0:0:0:
320,192,4156,1,0,0:0:0:0:
320,192,4370,1,0,0:0:0:0:
64,192,4370,1,0,0:0:0:0:
448,192,4584,1,0,0:0:0:0:
64,192,4584,1,0,0:0:0:0:
192,192,4584,1,0,0:0:0:0:
448,192,4799,1,0,0:0:0:0:
192,192,4799,1,0,0:0:0:0:
448,192,4906,1,0,0:0:0:0:
448,192,5013,1,0,0:0:0:0:
64,192,5013,1,0,0:0:0:0:
320,192,5013,1,0,0:0:0:0:
192,192,5227,1,0,0:0:0:0:
320,192,5227,1,0,0:0:0:0:
192,192,5441,1,0,0:0:0:0:
64,192,5441,1,0,0:0:0:0:
448,192,5441,1,0,0:0:0:0:
320,192,5656,1,0,0:0:0:0:
64,192,5656,1,0,0:0:0:0:
320,192,5763,1,0,0:0:0:0:
320,192,5870,1,0,0:0:0:0:
192,192,5870,128,0,6941:0:0:0:0:
448,192,6084,1,0,0:0:0:0:
64,192,6084,1,0,0:0:0:0:
320,192,6299,1,0,0:0:0:0:
448,192,6299,1,0,0:0:0:0:
64,192,6299,1,0,0:0:0:0:
320,192,6513,1,0,0:0:0:0:
64,192,6513,1,0,0:0:0:0:
64,192,6620,1,0,0:0:0:0:
448,192,6727,1,0,0:0:0:0:
64,192,6727,1,0,0:0:0:0:
320,192,6727,1,0,0:0:0:0:
320,192,6941,1,0,0:0:0:0:
64,192,6941,1,0,0:0:0:0:
64,192,7156,1,0,0:0:0:0:
320,192,7156,1,0,0:0:0:0:
448,192,7156,1,0,0:0:0:0:
192,192,7370,1,0,0:0:0:0:
448,192,7370,1,0,0:0:0:0:
192,192,7477,1,0,0:0:0:0:
192,192,7584,1,0,0:0:0:0:
448,192,7584,1,0,0:0:0:0:
320,192,7584,128,0,8656:0:0:0:0:
64,192,7799,1,0,0:0:0:0:
448,192,7799,1,0,0:0:0:0:
192,192,8013,1,0,0:0:0:0:
64,192,8013,1,0,0:0:0:0:
448,192,8013,1,0,0:0:0:0:
192,192,8227,1,0,0:0:0:0:
448,192,8227,1,0,0:0:0:0:
448,192,8334,1,0,0:0:0:0:
64,192,8441,1,0,0:0:0:0:
448,192,8441,1,0,0:0:0:0:
192,192,8441,1,0,0:0:0:0:
192,192,8656,1,0,0:0:0:0:
448,192,8656,1,0,0:0:0:0:
448,192,8870,1,0,0:0:0:0:
320,192,8870,1,0,0:0:0:0:
64,192,8870,1,0,0:0:0:0:
192,192,9084,1,0,0:0:0:0:
448,192,9084,1,0,0:0:0:0:
192,192,9191,1,0,0:0:0:0:
320,192,9299,1,0,0:0:0:0:
192,192,9299,1,0,0:0:0:0:
448,192,9513,1,0,0:0:0:0:
320,192,9513,1,0,0:0:0:0:
192,192,9727,1,0,0:0:0:0:
448,192,9727,1,0,0:0:0:0:
64,192,9727,1,0,0:0:0:0:
320,192,9941,1,0,0:0:0:0:
448,192,9941,1,0,0:0:0:0:
448,192,10049,1,0,0:0:0:0:
192,192,10156,1,0,0:0:0:0:
64,192,10156,1,0,0:0:0:0:
448,192,10156,1,0,0:0:0:0:
320,192,10370,1,0,0:0:0:0:
192,192,10370,1,0,0:0:0:0:
64,192,10584,1,0,0:0:0:0:
192,192,10584,1,0,0:0:0:0:
448,192,10584,1,0,0:0:0:0:
320,192,10799,1,0,0:0:0:0:
64,192,10799,1,0,0:0:0:0:
320,192,10906,1,0,0:0:0:0:
192,192,11013,1,0,0:0:0:0:
320,192,11013,1,0,0:0:0:0:
64,192,11227,1,0,0:0:0:0:
192,192,11227,1,0,0:0:0:0:
320,192,11441,1,0,0:0:0:0:
64,192,11441,1,0,0:0:0:0:
448,192,11441,1,0,0:0:0:0:
192,192,11656,1,0,0:0:0:0:
64,192,11656,1,0,0:0:0:0:
64,192,11763,1,0,0:0:0:0:
320,192,11870,1,0,0:0:0:0:
448,192,11870,1,0,0:0:0:0:
64,192,11870,1,0,0:0:0:0:
192,192,12084,1,0,0:0:0:0:
320,192,12084,1,0,0:0:0:0:
448,192,12299,1,0,0:0:0:0:
64,192,12299,1,0,0:0:0:0:
320,192,12299,1,0,0:0:0:0:
64,192,12513,1,0,0:0:0:0:
192,192,12513,1,0,0:0:0:0:
192,192,12620,1,0,0:0:0:0:
320,192,12727,128,0,13799:0:0:0:0:
192,192,12727,1,0,0:0:0:0:
448,192,12727,1,0,0:0:0:0:
64,192,12941,1,0,0:0:0:0:
192,192,12941,1,0,0:0:0:0:
64,192,13156,1,0,0:0:0:0:
448,192,13156,1,0,0:0:0:0:
192,192,13156,1,0,0:0:0:0:
64,192,13370,1,0,0:0:0:0:
448,192,13370,1,0,0:0:0:0:
64,192,13477,1,0,0:0:0:0:
192,192,13584,1,0,0:0:0:0:
64,192,13584,1,0,0:0:0:0:
448,192,13584,1,0,0:0:0:0:
192,192,13799,1,0,0:0:0:0:
448,192,13799,1,0,0:0:0:0:
448,192,14013,1,0,0:0:0:0:
192,192,14013,1,0,0:0:0:0:
64,192,14013,1,0,0:0:0:0:
448,192,14227,1,0,0:0:0:0:
320,192,14227,1,0,0:0:0:0:
320,192,14334,1,0,0:0:0:0:
192,192,14441,128,0,15513:0:0:0:0:
320,192,14441,1,0,0:0:0:0:
64,192,14441,1,0,0:0:0:0:
448,192,14656,1,0,0:0:0:0:
320,192,14656,1,0,0:0:0:0:
448,192,14870,1,0,0:0:0:0:
64,192,14870,1,0,0:0:0:0:
320,192,14870,1,0,0:0:0:0:
448,192,15084,1,0,0:0:0:0:
64,192,15084,1,0,0:0:0:0:
448,192,15191,1,0,0:0:0:0:
320,192,15299,1,0,0:0:0:0:
448,192,15299,1,0,0:0:0:0:
64,192,15299,1,0,0:0:0:0:
320,192,15513,1,0,0:0:0:0:
64,192,15513,1,0,0:0:0:0:
192,192,15727,1,0,0:0:0:0:
448,192,15727,1,0,0:0:0:0:
64,192,15727,1,0,0:0:0:0:
192,192,15941,1,0,0:0:0:0:
448,192,15941,1,0,0:0:0:0:
192,192,16049,1,0,0:0:0:0:
192,192,16156,1,0,0:0:0:0:
320,192,16156,1,0,0:0:0:0:
448,192,16370,1,0,0:0:0:0:
192,192,16370,1,0,0:0:0:0:
448,192,16477,1,0,0:0:0:0:
448,192,16584,1,0,0:0:0:0:
64,192,16584,1,0,0:0:0:0:
320,192,16584,1,0,0:0:0:0:
64,192,16799,1,0,0:0:0:0:
448,192,16799,1,0,0:0:0:0:
64,192,16906,1,0,0:0:0:0:
64,192,17013,1,0,0:0:0:0:
320,192,17013,1,0,0:0:0:0:
320,192,17227,1,0,0:0:0:0:
192,192,17227,1,0,0:0:0:0:
320,192,17334,1,0,0:0:0:0:
320,192,17441,1,0,0:0:0:0:
64,192,17441,1,0,0:0:0:0:
448,192,17441,1,0,0:0:0:0:
448,192,17656,1,0,0:0:0:0:
192,192,17656,1,0,0:0:0:0:
448,192,17763,1,0,0:0:0:0:
448,192,17870,1,0,0:0:0:0:
64,192,17870,1,0,0:0:0:0:
192,192,18084,1,0,0:0:0:0:
448,192,18084,1,0,0:0:0:0:
192,192,18191,1,0,0:0:0:0:
192,192,18299,1,0,0:0:0:0:
64,192,18299,1,0,0:0:0:0:
320,192,18299,1,0,0:0:0:0:
64,192,18513,1,0,0:0:0:0:
320,192,18513,1,0,0:0:0:0:
64,192,18620,1,0,0:0:0:0:
64,192,18727,1,0,0:0:0:0:
448,192,18727,1,0,0:0:0:0:
320,192,18941,1,0,0:0:0:0:
64,192,18941,1,0,0:0:0:0:
320,192,19049,1,0,0:0:0:0:
320,192,19156,1,0,0:0:0:0:
64,192,19156,1,0,0:0:0:0:
448,192,19156,1,0,0:0:0:0:
320,192,19370,1,0,0:0:0:0:
64,192,19370,1,0,0:0:0:0:
320,192,19477,1,0,0:0:0:0:
320,192,19584,1,0,0:0:0:0:
192,192,19584,1,0,0:0:0:0:
64,192,19799,1,0,0:0:0:0:
320,192,19799,1,0,0:0:0:0:
64,192,19906,1,0,0:0:0:0:
64,192,20013,1,0,0:0:0:0:
448,192,20013,1,0,0:0:0:0:
192,192,20013,1,0,0:0:0:0:
448,192,20227,1,0,0:0:0:0:
64,192,20227,1,0,0:0:0:0:
448,192,20334,1,0,0:0:0:0:
448,192,20441,1,0,0:0:0:0:
192,192,20441,1,0,0:0:0:0:
192,192,20656,1,0,0:0:0:0:
320,192,20656,1,0,0:0:0:0:
192,192,20763,1,0,0:0:0:0:
192,192,20870,1,0,0:0:0:0:
448,192,20870,1,0,0:0:0:0:
64,192,20870,1,0,0:0:0:0:
64,192,21084,1,0,0:0:0:0:
320,192,21084,1,0,0:0:0:0:
64,192,21191,1,0,0:0:0:0:
64,192,21299,1,0,0:0:0:0:
448,192,21299,1,0,0:0:0:0:
320,192,21513,1,0,0:0:0:0:
64,192,21513,1,0,0:0:0:0:
320,192,21620,1,0,0:0:0:0:
320,192,21727,1,0,0:0:0:0:
448,192,21727,1,0,0:0:0:0:
192,192,21727,1,0,0:0:0:0:
448,192,21941,1,0,0:0:0:0:
192,192,21941,1,0,0:0:0:0:
448,192,22049,1,0,0:0:0:0:
448,192,22156,1,0,0:0:0:0:
64,192,22156,1,0,0:0:0:0:
192,192,22370,1,0,0:0:0:0:
448,192,22370,1,0,0:0:0:0:
192,192,22477,1,0,0:0:0:0:
64,192,22584,1,0,0:0:0:0:
192,192,22584,1,0,0:0:0:0:
320,192,22584,1,0,0:0:0:0:
448,192,22799,1,0,0:0:0:0:
192,192,22799,1,0,0:0:0:0:
192,192,22906,1,0,0:0:0:0:
320,192,23013,1,0,0:0:0:0:
192,192,23013,1,0,0:0:0:0:
64,192,23013,1,0,0:0:0:0:
448,192,23013,1,0,0:0:0:0:
192,192,23227,1,0,0:0:0:0:
448,192,23227,1,0,0:0:0:0:
448,192,23334,1,0,0:0:0:0:
320,192,23441,1,0,0:0:0:0:
64,192,23441,1,0,0:0:0:0:
448,192,23441,1,0,0:0:0:0:
448,192,23656,1,0,0:0:0:0:
64,192,23656,1,0,0:0:0:0:
64,192,23763,1,0,0:0:0:0:
320,192,23870,1,0,0:0:0:0:
64,192,23870,1,0,0:0:0:0:
192,192,23870,1,0,0:0:0:0:
448,192,23870,1,0,0:0:0:0:
192,192,24084,1,0,0:0:0:0:
320,192,24084,1,0,0:0:0:0:
320,192,24191,1,0,0:0:0:0:
448,192,24299,1,0,0:0:0:0:
64,192,24299,1,0,0:0:0:0:
320,192,24299,1,0,0:0:0:0:
192,192,24513,1,0,0:0:0:0:
448,192,24513,1,0,0:0:0:0:
448,192,24620,1,0,0:0:0:0:
64,192,24727,1,0,0:0:0:0:
448,192,24727,1,0,0:0:0:0:
192,192,24727,1,0,0:0:0:0:
320,192,24727,1,0,0:0:0:0:
448,192,24941,1,0,0:0:0:0:
192,192,24941,1,0,0:0:0:0:
192,192,25049,1,0,0:0:0:0:
320,192,25156,1,0,0:0:0:0:
64,192,25156,1,0,0:0:0:0:
192,192,25156,1,0,0:0:0:0:
320,192,25370,1,0,0:0:0:0:
64,192,25370,1,0,0:0:0:0:
64,192,25477,1,0,0:0:0:0:
448,192,25584,1,0,0:0:0:0:
64,192,25584,1,0,0:0:0:0:
192,192,25584,1,0,0:0:0:0:
320,192,25584,1,0,0:0:0:0:
64,192,25799,1,0,0:0:0:0:
320,192,25799,1,0,0:0:0:0:
320,192,25906,1,0,0:0:0:0:
448,192,26013,128,0,26334:0:0:0:0:
192,192,26013,1,0,0:0:0:0:
64,192,26013,1,0,0:0:0:0:
64,192,26227,1,0,0:0:0:0:
320,192,26227,128,0,26334:0:0:0:0:
64,192,26334,1,0,0:0:0:0:
320,192,26441,1,0,0:0:0:0:
448,192,26441,1,0,0:0:0:0:
64,192,26441,128,0,26763:0:0:0:0:
192,192,26441,1,0,0:0:0:0:
320,192,26656,128,0,26763:0:0:0:0:
448,192,26870,128,0,27191:0:0:0:0:
64,192,26870,1,0,0:0:0:0:
320,192,26870,1,0,0:0:0:0:
64,192,27084,128,0,27191:0:0:0:0:
320,192,27084,1,0,0:0:0:0:
320,192,27191,1,0,0:0:0:0:
448,192,27299,1,0,0:0:0:0:
320,192,27299,128,0,27620:0:0:0:0:
64,192,27299,1,0,0:0:0:0:
192,192,27299,1,0,0:0:0:0:
192,192,27513,128,0,27620:0:0:0:0:
64,192,27727,1,0,0:0:0:0:
192,192,27727,1,0,0:0:0:0:
448,192,27727,128,0,28049:0:0:0:0:
320,192,27941,128,0,28049:0:0:0:0:
64,192,27941,1,0,0:0:0:0:
64,192,28049,1,0,0:0:0:0:
64,192,28156,128,0,28477:0:0:0:0:
448,192,28156,1,0,0:0:0:0:
320,192,28156,1,0,0:0:0:0:
192,192,28156,1,0,0:0:0:0:
320,192,28370,128,0,28477:0:0:0:0:
320,192,28584,1,0,0:0:0:0:
64,192,28584,1,0,0:0:0:0:
448,192,28584,128,0,28906:0:0:0:0:
320,192,28799,1,0,0:0:0:0:
64,192,28799,128,0,28906:0:0:0:0:
320,192,28906,1,0,0:0:0:0:
64,192,29013,1,0,0:0:0:0:
448,192,29013,1,0,0:0:0:0:
320,192,29013,1,0,0:0:0:0:
192,192,29013,128,0,29441:0:0:0:0:
448,192,29120,128,0,29441:0:0:0:0:
64,192,29334,128,0,29441:0:0:0:0:
320,192,29441,1,0,0:0:0:0:
320,192,29656,1,0,0:0:0:0:
64,192,29656,1,0,0:0:0:0:
448,192,29656,1,0,0:0:0:0:
320,192,29763,1,0,0:0:0:0:
320,192,29870,1,0,0:0:0:0:
320,192,30084,1,0,0:0:0:0:
64,192,30084,1,0,0:0:0:0:
448,192,30084,1,0,0:0:0:0:
320,192,30191,1,0,0:0:0:0:
320,192,30299,1,0,0:0:0:0:
192,192,30299,1,0,0:0:0:0:
192,192,30513,1,0,0:0:0:0:
448,192,30513,1,0,0:0:0:0:
64,192,30513,1,0,0:0:0:0:
192,192,30620,1,0,0:0:0:0:
192,192,30727,1,0,0:0:0:0:
192,192,30941,1,0,0:0:0:0:
448,192,30941,1,0,0:0:0:0:
64,192,30941,1,0,0:0:0:0:
192,192,31049,1,0,0:0:0:0:
320,192,31156,1,0,0:0:0:0:
320,192,31370,1,0,0:0:0:0:
448,192,31370,1,0,0:0:0:0:
192,192,31584,1,0,0:0:0:0:
64,192,31584,1,0,0:0:0:0:
192,192,31799,1,0,0:0:0:0:
320,192,31799,1,0,0:0:0:0:
448,192,31799,1,0,0:0:0:0:
64,192,32013,1,0,0:0:0:0:
192,192,32013,1,0,0:0:0:0:
320,192,32013,1,0,0:0:0:0:
192,192,32441,1,0,0:0:0:0:
448,192,32441,1,0,0:0:0:0:
192,192,32870,1,0,0:0:0:0:
64,192,32870,1,0,0:0:0:0:
320,192,32870,1,0,0:0:0:0:
448,192,32870,1,0,0:0:0:0:
